<?xml version="1.0" standalone="no"?>
<!DOCTYPE svg PUBLIC "-//W3C//DTD SVG 1.1//EN" "http://www.w3.org/Graphics/SVG/1.1/DTD/svg11.dtd" >
<svg>
<metadata>
Created by FontForge 20090914 at Fri Feb 10 09:32:31 2012
 By www-data
Typeface &#194;&#169; The Monotype Corporation plc. Data &#194;&#169; The Monotype Corporation plc / Type Solutions Inc. 1990-91 All Rights Reserved
</metadata>
<defs>
<font id="CenturyGothic-Bold" horiz-adv-x="1229" >
  <font-face 
    font-family="Century Gothic"
    font-weight="700"
    font-stretch="normal"
    units-per-em="2048"
    panose-1="2 11 7 2 2 2 2 2 2 4"
    ascent="1638"
    descent="-410"
    x-height="1088"
    cap-height="1471"
    bbox="-235 -628 2580 2297"
    underline-thickness="184"
    underline-position="-96"
    unicode-range="U+0020-U+F108"
  />
<missing-glyph horiz-adv-x="1536" 
d="M256 0v1280h1024v-1280h-1024zM288 32h960v1216h-960v-1216z" />
    <glyph glyph-name=".notdef" horiz-adv-x="1536" 
d="M256 0v1280h1024v-1280h-1024zM288 32h960v1216h-960v-1216z" />
    <glyph glyph-name="space" unicode=" " horiz-adv-x="573" 
 />
    <glyph glyph-name="exclam" unicode="!" horiz-adv-x="573" 
d="M148 1508h276v-1075h-276v1075zM286 314c47.333 0 87.833 -16.665 121.5 -49.998s50.5 -73.666 50.5 -120.999c0 -46.667 -16.833 -86.834 -50.5 -120.501s-74.167 -50.5 -121.5 -50.5s-87.666 16.667 -120.999 50s-50 73.666 -50 120.999s16.667 87.666 50 120.999
s73.666 50 120.999 50z" />
    <glyph glyph-name="quotedbl" unicode="&#x22;" horiz-adv-x="737" 
d="M653 1004h-156l-55 504h267zM242 1004h-156l-55 504h267z" />
    <glyph glyph-name="numbersign" unicode="#" 
d="M1110 678v-199h-231l-71 -479h-201l70 479h-191l-70 -479h-200l70 479h-225v199h256l30 188h-223v199h251l65 443h195l-62 -443h191l65 443h201l-65 -443h202v-199h-231l-26 -188h200zM736 866h-194l-26 -188h189z" />
    <glyph glyph-name="dollar" unicode="$" horiz-adv-x="1147" 
d="M1039 1301l-193 -188.004c-88 90.667 -175 136 -261 136c-50.667 0 -91.834 -13.5 -123.501 -40.5s-47.5 -58.167 -47.5 -93.5c0 -30 14 -59.667 42 -89c27.333 -30 82.666 -62 165.999 -96c148 -61.333 249.333 -113.666 304 -156.999s96.667 -95.333 126 -156
s44 -128.667 44 -204s-15.667 -145 -47 -209s-71.666 -114.667 -120.999 -152s-120.333 -65.666 -213 -84.999v-267h-188v261c-87.333 10 -161.666 32 -222.999 66c-84 46.667 -162 108.667 -234 186l190 195c122 -130 240 -195 354 -195c58 0 107.833 20.167 149.5 60.5
s62.5 87.833 62.5 142.5c0 46 -13.333 86.333 -40 121c-27.333 34.667 -80 70 -158 106c-158.667 73.333 -266 131.5 -322 174.5s-97.833 91.333 -125.5 145s-41.5 110.834 -41.5 171.501c0 100.667 36.667 186.834 110 258.501s166 110.167 278 115.5v100h188v-113
c64.667 -15.333 119.5 -36 164.5 -62s98.167 -70 159.5 -132z" />
    <glyph glyph-name="percent" unicode="%" horiz-adv-x="1761" 
d="M1352 1536l201.999 -0.000976562l-1166 -1636h-202l997 1405c-60 -10 -116.333 -17.5 -169 -22.5s-101.334 -7.5 -146.001 -7.5c-46 0 -94.667 2.33301 -146 7c14.667 -46.667 22 -89 22 -127c0 -97.333 -33.833 -180 -101.5 -248s-150.167 -102 -247.5 -102
c-98 0 -181.333 34 -250 102s-103 150.333 -103 247c0 62.667 15.333 120.834 46 174.501s73.834 97 129.501 130s110.834 49.5 165.501 49.5c41.333 0 98.333 -8 171 -24c128.667 -28 242 -42 340 -42c88.667 0 171.167 7.83301 247.5 23.5s146.5 39.167 210.5 70.5z
M392.999 1325c-46.667 0 -86.5 -16.501 -119.5 -49.501s-49.5 -72.5 -49.5 -118.5c0 -46.667 16.5 -86.5 49.5 -119.5s72.833 -49.5 119.5 -49.5s86.5 16.5 119.5 49.5s49.5 72.833 49.5 119.5s-16.5 86.334 -49.5 119.001s-72.833 49 -119.5 49zM1368 662.998
c96.667 0 179.334 -34.333 248.001 -103s103 -151.667 103 -249c0 -96.667 -34.333 -179.334 -103 -248.001s-151.334 -103 -248.001 -103c-97.333 0 -180.166 34.333 -248.499 103s-102.5 151.334 -102.5 248.001c0 97.333 34.167 180.333 102.5 249
s151.166 103 248.499 103zM1367 481.998c-47.333 0 -87.5 -16.667 -120.5 -50s-49.5 -73.333 -49.5 -120s16.5 -86.667 49.5 -120s73.167 -50 120.5 -50c46.667 0 86.5 16.667 119.5 50s49.5 73.333 49.5 120s-16.5 86.667 -49.5 120s-72.833 50 -119.5 50z" />
    <glyph glyph-name="ampersand" unicode="&#x26;" horiz-adv-x="1393" 
d="M1090 578l167.004 -191l-76 -69l-75 -68l236 -250h-339l-97 100c-154.667 -91.333 -298.334 -137 -431.001 -137c-112.667 0 -203.834 33 -273.501 99s-104.5 150.667 -104.5 254c0 78 19.667 151.667 59 221s106.666 141 201.999 215c-94 127.333 -141 240 -141 338
c0 72.667 31.333 144.334 94 215.001s151 106 265 106c115.333 0 203.833 -35 265.5 -105s92.5 -140.667 92.5 -212c0 -56 -14.167 -109.667 -42.5 -161s-93.5 -127.333 -195.5 -228c119.333 -140.667 196.333 -228.334 231 -263.001c21.333 16 75.666 61.333 162.999 136z
M558.004 902c74 63.333 111 119.333 111 168c0 25.333 -8.33301 46 -25 62s-38.667 24 -66 24c-25.333 0 -46.833 -9 -64.5 -27s-26.5 -39 -26.5 -63c0 -48 23.667 -102.667 71 -164zM724.004 294c-51.333 50.667 -123.666 134.667 -216.999 252
c-99.333 -82 -149 -153.667 -149 -215c0 -28.667 13.5 -55 40.5 -79s61.167 -36 102.5 -36c59.333 0 133.666 26 222.999 78z" />
    <glyph glyph-name="quotesingle" unicode="'" horiz-adv-x="451" 
d="M303 1004h-156l-55 504h266z" />
    <glyph glyph-name="parenleft" unicode="(" horiz-adv-x="778" 
d="M380 1536h346c-118.667 -134 -207.167 -279.333 -265.5 -436s-87.5 -335.667 -87.5 -537c0 -218 32.333 -409.667 97 -575c50.667 -127.333 136 -265.333 256 -414h-346c-106.667 169.333 -181.167 327.833 -223.5 475.5s-63.5 321.5 -63.5 521.5
c0 196 22.333 367.667 67 515s118 297.333 220 450z" />
    <glyph glyph-name="parenright" unicode=")" horiz-adv-x="778" 
d="M399 -426l-346 0.000976562c118.667 134 207.167 279.167 265.5 435.5s87.5 335.5 87.5 537.5c0 218 -32.333 409.333 -97 574c-50.667 127.333 -136 265.666 -256 414.999h346c106.667 -169.333 181.167 -327.833 223.5 -475.5s63.5 -321.5 63.5 -521.5
c0 -196 -22.333 -367.667 -67 -515s-118 -297.333 -220 -450z" />
    <glyph glyph-name="asterisk" unicode="*" horiz-adv-x="901" 
d="M331 1508h254l-79 -301l226 213l117 -220l-305 -78l305 -87l-132 -217l-218 217l77 -300h-245l77 300l-223 -217l-133 217l306 87l-306 85l133 223l223 -223z" />
    <glyph glyph-name="plus" unicode="+" 
d="M490 860v375h250v-375h374v-250h-374v-374h-250v374h-375v250h375z" />
    <glyph glyph-name="comma" unicode="," horiz-adv-x="573" 
d="M269 277l195 -98l-247 -422l-136 65z" />
    <glyph glyph-name="hyphen" unicode="-" horiz-adv-x="860" 
d="M176 669h508v-254h-508v254z" />
    <glyph glyph-name="hyphen" unicode="&#xad;" horiz-adv-x="860" 
d="M176 669h508v-254h-508v254z" />
    <glyph glyph-name="period" unicode="." horiz-adv-x="573" 
d="M287 285c43.333 0 80.333 -15.167 111 -45.5s46 -67.166 46 -110.499s-15.333 -80.333 -46 -111s-67.667 -46 -111 -46s-80.333 15.333 -111 46s-46 67.667 -46 111s15.333 80.166 46 110.499s67.667 45.5 111 45.5z" />
    <glyph glyph-name="slash" unicode="/" horiz-adv-x="942" 
d="M44 -262l661 1775h194l-662 -1775h-193z" />
    <glyph glyph-name="zero" unicode="0" horiz-adv-x="1147" 
d="M569 1508c107.333 0 199.834 -26.334 277.501 -79.001s137.667 -133.167 180 -241.5s63.5 -259.166 63.5 -452.499c0 -195.333 -21.5 -347.333 -64.5 -456s-100.833 -188.5 -173.5 -239.5s-164.334 -76.5 -275.001 -76.5s-203.667 25.667 -279 77
s-134.333 129.333 -177 234s-64 253.667 -64 447c0 270 41.667 465.667 125 587c92.667 133.333 221.667 200 387 200zM576.001 1242c-47.333 0 -89.333 -15.166 -126 -45.499s-64.667 -82.5 -84 -156.5s-29 -182.333 -29 -325c0 -186 22.167 -314.5 66.5 -385.5
s101.833 -106.5 172.5 -106.5c68 0 122 33.667 162 101c48.667 81.333 73 217.333 73 408c0 193.333 -21.833 326.666 -65.5 399.999s-100.167 110 -169.5 110z" />
    <glyph glyph-name="one" unicode="1" horiz-adv-x="1147" 
d="M337 1471h419v-1471h-278v1208h-303z" />
    <glyph glyph-name="two" unicode="2" horiz-adv-x="1147" 
d="M357 997h-272.998c7.33301 158.667 57.166 283.5 149.499 374.5s210.833 136.5 355.5 136.5c89.333 0 168.166 -18.833 236.499 -56.5s123 -92 164 -163s61.5 -143.167 61.5 -216.5c0 -87.333 -24.833 -181.333 -74.5 -282s-140.5 -219.667 -272.5 -357l-165 -174h524
v-259h-1019v134l455 464c110 111.333 183.167 200.833 219.5 268.5s54.5 128.834 54.5 183.501c0 56.667 -18.833 103.5 -56.5 140.5s-86.167 55.5 -145.5 55.5c-60 0 -110 -22.333 -150 -67s-61.333 -105.334 -64 -182.001z" />
    <glyph glyph-name="three" unicode="3" horiz-adv-x="1147" 
d="M389 1108h-268.999c14 108.667 53 196 117 262c89.333 92 201.666 138 336.999 138c120.667 0 221.834 -38.333 303.501 -115s122.5 -167.667 122.5 -273c0 -65.333 -17.833 -125 -53.5 -179s-87.5 -97.667 -155.5 -131c89.333 -26.667 159.166 -73.167 209.499 -139.5
s75.5 -144.5 75.5 -234.5c0 -132 -48.667 -243.833 -146 -335.5s-221.333 -137.5 -372 -137.5c-142.667 0 -259 43.167 -349 129.5s-139.333 203.833 -148 352.5h277c12 -76 38.5 -132.5 79.5 -169.5s92.833 -55.5 155.5 -55.5c65.333 0 119.5 21 162.5 63
s64.5 93.333 64.5 154c0 66.667 -29 123 -87 169s-141.667 69.667 -251 71v240c67.333 5.33301 117.5 15.833 150.5 31.5s58.667 37.167 77 64.5s27.5 56.333 27.5 87c0 40 -14 73.167 -42 99.5s-64.667 39.5 -110 39.5c-40 0 -76.333 -12.167 -109 -36.5
s-55 -55.833 -67 -94.5z" />
    <glyph glyph-name="four" unicode="4" horiz-adv-x="1147" 
d="M678 1508h280v-947h131v-259h-131v-302h-274v302h-642v259zM684 561v493l-336 -493h336z" />
    <glyph glyph-name="five" unicode="5" horiz-adv-x="1147" 
d="M342 1471l689.002 -0.000976562v-258h-480l-60 -268c16.667 4.66699 33 8.16699 49 10.5s31.333 3.5 46 3.5c133.333 0 244.166 -45.5 332.499 -136.5s132.5 -207.5 132.5 -349.5c0 -143.333 -48.833 -264.166 -146.5 -362.499s-216.5 -147.5 -356.5 -147.5
c-125.333 0 -233 35.667 -323 107s-149 169 -177 293h294c22.667 -46 52.5 -80.833 89.5 -104.5s77.833 -35.5 122.5 -35.5c62 0 114.667 22.333 158 67s65 102 65 172c0 68 -20.167 123.833 -60.5 167.5s-89.166 65.5 -146.499 65.5
c-30.667 0 -60.834 -7.66699 -90.501 -23s-58.834 -38.333 -87.501 -69l-228 51z" />
    <glyph glyph-name="six" unicode="6" horiz-adv-x="1147" 
d="M594 1508l238.001 -118.999l-257 -500c124.667 0 230.667 -44.667 318 -134s131 -200.333 131 -333c0 -128 -44.833 -236.5 -134.5 -325.5s-197.834 -133.5 -324.501 -133.5c-132.667 0 -243.167 46.167 -331.5 138.5s-132.5 198.166 -132.5 317.499
c0 45.333 6.83301 91 20.5 137s45.167 116.667 94.5 212zM559.001 624.001c-52 0 -95.667 -18.832 -131 -56.499s-53 -84.834 -53 -141.501s18.5 -104.334 55.5 -143.001s80.167 -58 129.5 -58c52 0 96.667 19 134 57s56 86 56 144c0 56.667 -18.167 103.834 -54.5 141.501
s-81.833 56.5 -136.5 56.5z" />
    <glyph glyph-name="seven" unicode="7" horiz-adv-x="1147" 
d="M123 1471h965v-147l-664 -1361l-237 115l552 1130h-616v263z" />
    <glyph glyph-name="eight" unicode="8" horiz-adv-x="1147" 
d="M875 797c66.667 -42.667 118.166 -97.5 154.499 -164.5s54.5 -139.5 54.5 -217.5c0 -84.667 -21.167 -163 -63.5 -235s-99.166 -126.167 -170.499 -162.5s-162.333 -54.5 -273 -54.5c-118.667 0 -213 17.5 -283 52.5s-126 88 -168 159s-63 151.167 -63 240.5
c0 77.333 16.833 147.833 50.5 211.5s84.167 120.5 151.5 170.5c-44 44.667 -77.167 92.167 -99.5 142.5s-33.5 103.5 -33.5 159.5c0 76.667 18.5 146.5 55.5 209.5s88.833 112 155.5 147s143.667 52.5 231 52.5c86 0 161.667 -17.667 227 -53s116.833 -85.5 154.5 -150.5
s56.5 -134.833 56.5 -209.5c0 -52.667 -9.83301 -101.5 -29.5 -146.5s-55.5 -95.5 -107.5 -151.5zM564.999 1238c-46 0 -83.832 -15.168 -113.499 -45.501s-44.5 -69.166 -44.5 -116.499s15.667 -87 47 -119s70 -48 116 -48c47.333 0 86.166 15.667 116.499 47
s45.5 72 45.5 122c0 47.333 -15.333 85.833 -46 115.5s-71 44.5 -121 44.5zM576 647.999c-67.333 0 -123.999 -20.5 -169.999 -61.5s-69 -89.833 -69 -146.5c0 -59.333 21.667 -109.5 65 -150.5s100.333 -61.5 171 -61.5c71.333 0 128.166 19.167 170.499 57.5
s63.5 87.833 63.5 148.5s-22 111.5 -66 152.5s-99 61.5 -165 61.5z" />
    <glyph glyph-name="nine" unicode="9" horiz-adv-x="1147" 
d="M553 -37l-238.001 118l257 500c-124.667 0 -230.667 44.667 -318 134s-131 200.333 -131 333c0 128.667 44.833 237.5 134.5 326.5s197.834 133.5 324.501 133.5c132.667 0 243.167 -46.167 331.5 -138.5s132.5 -198.5 132.5 -318.5
c0 -45.333 -6.83301 -90.833 -20.5 -136.5s-45.167 -116.167 -94.5 -211.5zM587.999 846c52 0 95.667 18.999 131 56.999s53 85 53 141c0 57.333 -18.5 105.333 -55.5 144s-80.167 58 -129.5 58c-52 0 -96.667 -19.167 -134 -57.5s-56 -86.166 -56 -143.499
c0 -56.667 18.167 -104 54.5 -142s81.833 -57 136.5 -57z" />
    <glyph glyph-name="colon" unicode=":" horiz-adv-x="573" 
d="M287 1116c43.333 0 80.333 -15.3311 111 -45.998s46 -67.667 46 -111c0 -42.667 -15.333 -79.334 -46 -110.001s-67.667 -46 -111 -46s-80.333 15.167 -111 45.5s-46 67.166 -46 110.499s15.333 80.333 46 111s67.667 46 111 46zM287 285.002
c43.333 0 80.333 -15.167 111 -45.5s46 -67.166 46 -110.499s-15.333 -80.333 -46 -111s-67.667 -46 -111 -46s-80.333 15.333 -111 46s-46 67.667 -46 111s15.333 80.166 46 110.499s67.667 45.5 111 45.5z" />
    <glyph glyph-name="semicolon" unicode=";" horiz-adv-x="573" 
d="M287 1116c43.333 0 80.333 -15.333 111 -46s46 -67.667 46 -111s-15.333 -80.166 -46 -110.499s-67.667 -45.5 -111 -45.5s-80.333 15.167 -111 45.5s-46 67.166 -46 110.499s15.333 80.333 46 111s67.667 46 111 46zM271 278l191 -100l-245 -421l-137 66z" />
    <glyph glyph-name="semicolon" unicode="&#x37e;" horiz-adv-x="573" 
d="M287 1116c43.333 0 80.333 -15.333 111 -46s46 -67.667 46 -111s-15.333 -80.166 -46 -110.499s-67.667 -45.5 -111 -45.5s-80.333 15.167 -111 45.5s-46 67.166 -46 110.499s15.333 80.333 46 111s67.667 46 111 46zM271 278l191 -100l-245 -421l-137 66z" />
    <glyph glyph-name="less" unicode="&#x3c;" 
d="M1114 366v-250l-999 508v222l999 508v-249l-712 -370z" />
    <glyph glyph-name="equal" unicode="=" 
d="M115 1074h999v-250h-999v250zM115 646h999v-250h-999v250z" />
    <glyph glyph-name="greater" unicode="&#x3e;" 
d="M115 1105v249l999 -508v-222l-999 -508v250l713 369z" />
    <glyph glyph-name="question" unicode="?" horiz-adv-x="1147" 
d="M362 1091l-262.002 -0.000976562c-1.33301 128.667 42.667 235 132 319s207 126 353 126c94 0 174 -17.333 240 -52s118.833 -84.667 158.5 -150s59.5 -134 59.5 -206c0 -39.333 -6.33301 -78 -19 -116s-32.667 -77 -60 -117c-16 -23.333 -54.333 -62.666 -115 -117.999
c-58 -52.667 -94.333 -89.834 -109 -111.501s-27 -50.5 -37 -86.5s-16.333 -86 -19 -150h-271l-1 45c0 89.333 16.333 170.5 49 243.5s85.667 141.5 159 205.5c70.667 62 113.334 104.667 128.001 128s22 50.666 22 81.999c0 42.667 -17.833 78.834 -53.5 108.501
s-83.5 44.5 -143.5 44.5c-61.333 0 -111.666 -18.167 -150.999 -54.5s-59.333 -83.166 -60 -140.499zM552.998 314.999c48.667 0 90.168 -16.667 124.501 -50s51.5 -73.666 51.5 -120.999s-17 -87.833 -51 -121.5s-75 -50.5 -123 -50.5s-88.833 16.833 -122.5 50.5
s-50.5 74.167 -50.5 121.5s16.667 87.666 50 120.999s73.666 50 120.999 50z" />
    <glyph glyph-name="at" unicode="@" horiz-adv-x="1515" 
d="M1228 301l191.004 -0.00195312c-72.667 -90 -137.167 -155.5 -193.5 -196.5s-121.833 -73.167 -196.5 -96.5s-152.334 -35 -233.001 -35c-142.667 0 -275 34.833 -397 104.5s-217.667 164.5 -287 284.5s-104 250.667 -104 392c0 142.667 34.833 275.334 104.5 398.001
s164.667 218 285 286s252.5 102 396.5 102c200 0 368.833 -64.333 506.5 -193s206.5 -278.334 206.5 -449.001c0 -125.333 -28.833 -233.166 -86.5 -323.499s-136.167 -160.833 -235.5 -211.5c-76 -38.667 -139.667 -58 -191 -58c-38.667 0 -69.667 10.333 -93 31
c-18 14.667 -27.667 40 -29 76c-58.667 -64.667 -130 -97 -214 -97c-94.667 0 -173.5 33.667 -236.5 101s-94.5 157 -94.5 269c0 123.333 38.667 233.5 116 330.5s180 145.5 308 145.5c52.667 0 99.667 -10.833 141 -32.5s76.666 -54.5 105.999 -98.5l21 105h196l-99 -583
c-6.66699 -41.333 -10 -64.666 -10 -69.999c0 -7.33301 3.5 -14.166 10.5 -20.499s15.167 -9.5 24.5 -9.5c23.333 0 54.833 16.167 94.5 48.5s72 79 97 140s37.5 127.833 37.5 200.5c0 108 -23.667 203.333 -71 286s-115.333 147.667 -204 195s-190.334 71 -305.001 71
c-120.667 0 -229 -26.833 -325 -80.5s-171.667 -129.667 -227 -228s-83 -206.5 -83 -324.5c0 -120.667 28 -230 84 -328s134.333 -174.333 235 -229s213.334 -82 338.001 -82c73.333 0 142.666 13.667 207.999 41s134.666 73.666 207.999 138.999zM739.004 525.998
c58 0 106.001 23.833 144.001 71.5s57 101.5 57 161.5c0 52 -15.5 94.5 -46.5 127.5s-69.833 49.5 -116.5 49.5c-54.667 0 -102.334 -22.5 -143.001 -67.5s-61 -99.5 -61 -163.5c0 -54 15.333 -97.333 46 -130s70.667 -49 120 -49z" />
    <glyph glyph-name="A" unicode="A" horiz-adv-x="1515" 
d="M616 1471h284l566 -1471h-291l-115 303h-600l-120 -303h-291zM760 1081l-196 -505h391z" />
    <glyph glyph-name="B" unicode="B" horiz-adv-x="1188" 
d="M168 0l0.000976562 1471h231c134 0 232 -8.66699 294 -26c88 -23.333 158 -66.666 210 -129.999s78 -138 78 -224c0 -56 -11.833 -106.833 -35.5 -152.5s-62.167 -88.5 -115.5 -128.5c89.333 -42 154.666 -94.5 195.999 -157.5s62 -137.5 62 -223.5
c0 -82.667 -21.333 -158 -64 -226s-97.667 -118.833 -165 -152.5s-160.333 -50.5 -279 -50.5h-412zM448.001 1204v-310h61c68 0 118.5 14.333 151.5 43s49.5 67.667 49.5 117c0 46 -15.667 82.5 -47 109.5s-79 40.5 -143 40.5h-72zM448.001 643.999v-377h70
c116 0 194.167 14.667 234.5 44s60.5 72 60.5 128c0 63.333 -23.667 113.333 -71 150s-126 55 -236 55h-58z" />
    <glyph glyph-name="C" unicode="C" horiz-adv-x="1597" 
d="M1520 1212l-195.996 -187c-133.333 140.667 -283.333 211 -450 211c-140.667 0 -259.167 -48 -355.5 -144s-144.5 -214.333 -144.5 -355c0 -98 21.333 -185 64 -261s103 -135.667 181 -179s164.667 -65 260 -65c81.333 0 155.666 15.167 222.999 45.5
s141.333 85.5 222 165.5l190 -198c-108.667 -106 -211.334 -179.5 -308.001 -220.5s-207 -61.5 -331 -61.5c-228.667 0 -415.834 72.5 -561.501 217.5s-218.5 330.833 -218.5 557.5c0 146.667 33.167 277 99.5 391s161.333 205.667 285 275s256.834 104 399.501 104
c121.333 0 238.166 -25.667 350.499 -77s209.166 -124.333 290.499 -219z" />
    <glyph glyph-name="D" unicode="D" horiz-adv-x="1434" 
d="M169 1471l331.999 -0.000976562c214 0 373 -26.5 477 -79.5s189.667 -139.167 257 -258.5s101 -258.666 101 -417.999c0 -113.333 -18.833 -217.5 -56.5 -312.5s-89.667 -173.833 -156 -236.5s-138.166 -106 -215.499 -130s-211.333 -36 -402 -36h-337v1471z
M447.999 1201l-0.000976562 -926.998h130c128 0 220.833 14.667 278.5 44s104.834 78.666 141.501 147.999s55 154.666 55 255.999c0 156 -43.667 277 -131 363c-78.667 77.333 -205 116 -379 116h-95z" />
    <glyph glyph-name="E" unicode="E" horiz-adv-x="1065" 
d="M169 1471h803v-274h-525v-266h525v-269h-525v-387h525v-275h-803v1471z" />
    <glyph glyph-name="F" unicode="F" horiz-adv-x="983" 
d="M172 1471h730v-273h-453v-267h453v-269h-453v-662h-277v1471z" />
    <glyph glyph-name="G" unicode="G" horiz-adv-x="1720" 
d="M1526 1231l-196.998 -195.001c-124.667 132 -270 198 -436 198c-144.667 0 -265.834 -48 -363.501 -144s-146.5 -212.667 -146.5 -350c0 -142 50.667 -262.333 152 -361s226.333 -148 375 -148c96.667 0 178.167 20.333 244.5 61s119.833 104.334 160.5 191.001h-426v263
h740l2 -62c0 -128.667 -33.333 -250.667 -100 -366s-153 -203.333 -259 -264s-230.333 -91 -373 -91c-152.667 0 -288.834 33.167 -408.501 99.5s-214.334 160.833 -284.001 283.5s-104.5 255 -104.5 397c0 194.667 64.333 364 193 508
c152.667 171.333 351.334 257 596.001 257c128 0 247.667 -23.667 359 -71c94 -40 186 -108.667 276 -206z" />
    <glyph glyph-name="H" unicode="H" horiz-adv-x="1393" 
d="M167 1471h284v-555h492v555h283v-1471h-283v645h-492v-645h-284v1471z" />
    <glyph glyph-name="I" unicode="I" horiz-adv-x="573" 
d="M148 1471h278v-1471h-278v1471z" />
    <glyph glyph-name="J" unicode="J" horiz-adv-x="983" 
d="M534 1471h281.002v-976c0 -155.333 -12.333 -264.333 -37 -327s-65.334 -112.5 -122.001 -149.5s-124.667 -55.5 -204 -55.5c-162 0 -300 71 -414 213l202 189c44.667 -50.667 82.667 -84.667 114 -102s61.666 -26 90.999 -26c30 0 52.333 12.667 67 38s22 81 22 167
v1029z" />
    <glyph glyph-name="K" unicode="K" horiz-adv-x="1270" 
d="M170 1471h283v-506l399 506h337l-514 -656l564 -815h-332l-454 653v-653h-283v1471z" />
    <glyph glyph-name="L" unicode="L" horiz-adv-x="901" 
d="M168 1471h280v-1204h408v-267h-688v1471z" />
    <glyph glyph-name="M" unicode="M" horiz-adv-x="1843" 
d="M310 1471h274l340 -1026l345 1026h270l248 -1471h-270l-158 929l-313 -929h-247l-309 929l-161 -929h-273z" />
    <glyph glyph-name="N" unicode="N" horiz-adv-x="1515" 
d="M169 1471h268l631 -968v968h280v-1471h-269l-630 965v-965h-280v1471z" />
    <glyph glyph-name="O" unicode="O" horiz-adv-x="1720" 
d="M863 1508c208 0 386.834 -75.3311 536.501 -225.998s224.5 -334.334 224.5 -551.001c0 -214.667 -73.833 -396.334 -221.5 -545.001s-326.834 -223 -537.501 -223c-220.667 0 -404 76.333 -550 229s-219 334 -219 544c0 140.667 34 270 102 388s161.5 211.5 280.5 280.5
s247.167 103.5 384.5 103.5zM860.001 1234c-136 0 -250.333 -47.332 -343 -141.999s-139 -215 -139 -361c0 -162.667 58.333 -291.334 175 -386.001c90.667 -74 194.667 -111 312 -111c132.667 0 245.667 48 339 144s140 214.333 140 355c0 140 -47 258.5 -141 355.5
s-208.333 145.5 -343 145.5z" />
    <glyph glyph-name="P" unicode="P" horiz-adv-x="1147" 
d="M167 1471h297c160.667 0 276.5 -14.833 347.5 -44.5s127 -77.667 168 -144s61.5 -145.833 61.5 -238.5c0 -102.667 -26.833 -188 -80.5 -256s-126.5 -115.333 -218.5 -142c-54 -15.333 -152.333 -23 -295 -23v-623h-280v1471zM447 896h89c70 0 118.667 5 146 15
s48.833 26.5 64.5 49.5s23.5 50.833 23.5 83.5c0 56.667 -22 98 -66 124c-32 19.333 -91.333 29 -178 29h-79v-301z" />
    <glyph glyph-name="Q" unicode="Q" horiz-adv-x="1720" 
d="M1430 215l255.999 -331h-332l-130 167c-107.333 -58.667 -227 -88 -359 -88c-220.667 0 -404 76.167 -550 228.5s-219 333.833 -219 544.5c0 140.667 34 269.834 102 387.501s161.5 211.167 280.5 280.5s246.833 104 383.5 104c208.667 0 387.834 -75.333 537.501 -226
s224.5 -334.334 224.5 -551.001c0 -199.333 -64.667 -371.333 -194 -516zM1255 441c59.333 88 88.999 185.335 88.999 292.002c0 139.333 -47 257.666 -141 354.999s-207.667 146 -341 146c-137.333 0 -252.333 -47.333 -345 -142s-139 -215 -139 -361
c0 -162.667 58.333 -291.334 175 -386.001c91.333 -74 195 -111 311 -111c66.667 0 129.334 13 188.001 39l-263 339h334z" />
    <glyph glyph-name="R" unicode="R" horiz-adv-x="1188" 
d="M187 1471h296.999c162.667 0 278.5 -14.5 347.5 -43.5s124.5 -77.167 166.5 -144.5s63 -147 63 -239c0 -96.667 -23.167 -177.5 -69.5 -242.5s-116.166 -114.167 -209.499 -147.5l348 -654h-306l-331 623h-26v-623h-280v1471zM466.999 896h88
c89.333 0 150.833 11.667 184.5 35s50.5 62 50.5 116c0 32 -8.33301 59.833 -25 83.5s-39 40.667 -67 51s-79.333 15.5 -154 15.5h-77v-301z" />
    <glyph glyph-name="S" unicode="S" horiz-adv-x="1065" 
d="M939 1271l-206.999 -182.999c-72.667 101.333 -146.667 152 -222 152c-36.667 0 -66.667 -9.83301 -90 -29.5s-35 -41.834 -35 -66.501s8.33301 -48 25 -70c22.667 -29.333 91 -92.333 205 -189c106.667 -89.333 171.334 -145.666 194.001 -168.999
c56.667 -57.333 96.834 -112.166 120.501 -164.499s35.5 -109.5 35.5 -171.5c0 -120.667 -41.667 -220.334 -125 -299.001s-192 -118 -326 -118c-104.667 0 -195.834 25.667 -273.501 77s-144.167 132 -199.5 242l235 142c70.667 -130 152 -195 244 -195
c48 0 88.333 14 121 42s49 60.333 49 97c0 33.333 -12.333 66.666 -37 99.999s-79 84.333 -163 153c-160 130.667 -263.333 231.5 -310 302.5s-70 141.833 -70 212.5c0 102 38.833 189.5 116.5 262.5s173.5 109.5 287.5 109.5c73.333 0 143.166 -17 209.499 -51
s138.166 -96 215.499 -186z" />
    <glyph glyph-name="T" unicode="T" horiz-adv-x="860" 
d="M23 1471h813v-276h-268v-1195h-284v1195h-261v276z" />
    <glyph glyph-name="U" unicode="U" horiz-adv-x="1311" 
d="M158 1471l280.998 -0.000976562v-952c0 -82 7.16699 -140 21.5 -174s38 -61.167 71 -81.5s72.833 -30.5 119.5 -30.5c49.333 0 91.833 11.333 127.5 34s60.334 51.5 74.001 86.5s20.5 101.833 20.5 200.5v917h281v-877c0 -148 -8.33301 -250.667 -25 -308
s-48.5 -112.666 -95.5 -165.999s-101.167 -92.833 -162.5 -118.5s-132.666 -38.5 -213.999 -38.5c-106.667 0 -199.5 24.5 -278.5 73.5s-135.5 110.333 -169.5 184s-51 198.167 -51 373.5v877z" />
    <glyph glyph-name="V" unicode="V" horiz-adv-x="1434" 
d="M56 1471h288l370 -1045l375 1045h288l-530 -1471h-270z" />
    <glyph glyph-name="W" unicode="W" horiz-adv-x="1843" 
d="M56 1471h276l212 -939l263 939h233l266 -939l210 939h276l-331 -1471h-269l-271 951l-266 -951h-266z" />
    <glyph glyph-name="X" unicode="X" horiz-adv-x="1393" 
d="M72 1471h315l308 -471l311 471h315l-468 -712l497 -759h-315l-340 517l-337 -517h-317l497 759z" />
    <glyph glyph-name="Y" unicode="Y" horiz-adv-x="1270" 
d="M63 1471h301l274 -528l272 528h297l-430 -834v-637h-282v637z" />
    <glyph glyph-name="Z" unicode="Z" horiz-adv-x="1024" 
d="M90 1471h890l-525 -1202h491v-269h-899l523 1194h-480v277z" />
    <glyph glyph-name="bracketleft" unicode="[" horiz-adv-x="655" 
d="M169 1508h438v-255h-162v-1397h162v-254h-438v1906z" />
    <glyph glyph-name="backslash" unicode="\" horiz-adv-x="1311" 
d="M1082 -262h-193l-661 1775h193z" />
    <glyph glyph-name="bracketright" unicode="]" horiz-adv-x="655" 
d="M486 -398h-438v255h162v1397h-162v254h438v-1906z" />
    <glyph glyph-name="asciicircum" unicode="^" 
d="M497 1471h232l390 -1105h-242l-262 748l-263 -748h-243z" />
    <glyph glyph-name="underscore" unicode="_" horiz-adv-x="1024" 
d="M-12 -154h1048v-102h-1048v102z" />
    <glyph glyph-name="grave" unicode="`" horiz-adv-x="860" 
d="M382 1679l239 -392h-196l-366 392h323z" />
    <glyph glyph-name="a" unicode="a" horiz-adv-x="1352" 
d="M942 1088h272.003v-1088h-272v115c-53.333 -50.667 -106.833 -87.167 -160.5 -109.5s-111.834 -33.5 -174.501 -33.5c-140.667 0 -262.334 54.5 -365.001 163.5s-154 244.5 -154 406.5c0 168 49.667 305.667 149 413s220 161 362 161
c65.333 0 126.666 -12.333 183.999 -37s110.333 -61.667 159 -111v120zM655.003 864c-84.667 0 -154.999 -29.835 -210.999 -89.502s-84 -136.167 -84 -229.5c0 -94 28.5 -171.333 85.5 -232s127.167 -91 210.5 -91c86 0 157.333 29.833 214 89.5s85 137.834 85 234.501
c0 94.667 -28.333 171.334 -85 230.001s-128.334 88 -215.001 88z" />
    <glyph glyph-name="b" unicode="b" horiz-adv-x="1352" 
d="M409 1508l0.00292969 -540c49.333 49.333 102.666 86.333 159.999 111s118.666 37 183.999 37c142 0 262.667 -53.667 362 -161s149 -245 149 -413c0 -162 -51.333 -297.5 -154 -406.5s-224.334 -163.5 -365.001 -163.5c-62.667 0 -121 11.167 -175 33.5
s-107.667 58.833 -161 109.5v-115h-271v1508h271zM696.003 864c-86 0 -157.333 -29.3311 -214 -87.998s-85 -135.334 -85 -230.001c0 -96.667 28.333 -174.834 85 -234.501s128 -89.5 214 -89.5c83.333 0 153.5 30.333 210.5 91s85.5 138 85.5 232
c0 93.333 -28 169.833 -84 229.5s-126.667 89.5 -212 89.5z" />
    <glyph glyph-name="c" unicode="c" horiz-adv-x="1311" 
d="M1203 868l-227 -125c-42.667 44.667 -84.834 75.667 -126.501 93s-90.5 26 -146.5 26c-102 0 -184.5 -30.5 -247.5 -91.5s-94.5 -139.167 -94.5 -234.5c0 -92.667 30.333 -168.334 91 -227.001s140.334 -88 239.001 -88c122 0 217 41.667 285 125l215 -147
c-116.667 -151.333 -281.334 -227 -494.001 -227c-191.333 0 -341.166 56.667 -449.499 170s-162.5 246 -162.5 398c0 105.333 26.333 202.333 79 291s126.167 158.334 220.5 209.001s199.833 76 316.5 76c108 0 205 -21.5 291 -64.5s156.333 -104.167 211 -183.5z" />
    <glyph glyph-name="d" unicode="d" horiz-adv-x="1352" 
d="M942 1508h272.003v-1508h-272v115c-53.333 -50.667 -106.833 -87.167 -160.5 -109.5s-111.834 -33.5 -174.501 -33.5c-140.667 0 -262.334 54.5 -365.001 163.5s-154 244.5 -154 406.5c0 168 49.667 305.667 149 413s220 161 362 161
c65.333 0 126.666 -12.333 183.999 -37s110.333 -61.667 159 -111v540zM655.003 864c-84.667 0 -154.999 -29.835 -210.999 -89.502s-84 -136.167 -84 -229.5c0 -94 28.5 -171.333 85.5 -232s127.167 -91 210.5 -91c86 0 157.333 29.833 214 89.5s85 137.834 85 234.501
c0 94.667 -28.333 171.334 -85 230.001s-128.334 88 -215.001 88z" />
    <glyph glyph-name="e" unicode="e" horiz-adv-x="1311" 
d="M1228 465h-876.999c12.667 -77.333 46.5 -138.833 101.5 -184.5s125.167 -68.5 210.5 -68.5c102 0 189.667 35.667 263 107l230 -108c-57.333 -81.333 -126 -141.5 -206 -180.5s-175 -58.5 -285 -58.5c-170.667 0 -309.667 53.833 -417 161.5s-161 242.5 -161 404.5
c0 166 53.5 303.833 160.5 413.5s241.167 164.5 402.5 164.5c171.333 0 310.666 -54.833 417.999 -164.5s161 -254.5 161 -434.5zM954.001 680c-18 60.667 -53.5 110 -106.5 148s-114.5 57 -184.5 57c-76 0 -142.667 -21.333 -200 -64
c-36 -26.667 -69.333 -73.667 -100 -141h591z" />
    <glyph glyph-name="f" unicode="f" horiz-adv-x="573" 
d="M8 1088h96.999c0.666992 142.667 3 227 7 253c7.33301 60 32.5 107.5 75.5 142.5s103.833 52.5 182.5 52.5c56.667 0 120.667 -13 192 -39v-208c-39.333 11.333 -71.666 17 -96.999 17c-32 0 -55.333 -6.66699 -70 -20c-10.667 -10 -16 -30.667 -16 -62l-1 -136h173v-232
h-173v-856h-273v856h-97v232z" />
    <glyph glyph-name="g" unicode="g" horiz-adv-x="1352" 
d="M942 1088h272.001v-932c0 -184 -37 -319.333 -111 -406c-99.333 -117.333 -249 -176 -449 -176c-106.667 0 -196.334 13.333 -269.001 40s-134 65.834 -184 117.501s-87 114.5 -111 188.5h301c26.667 -30.667 61 -53.834 103 -69.501s91.667 -23.5 149 -23.5
c73.333 0 132.333 11.333 177 34s76.167 52 94.5 88s27.5 98 27.5 186c-48 -48 -98.333 -82.5 -151 -103.5s-112.334 -31.5 -179.001 -31.5c-146 0 -269.333 52.667 -370 158s-151 238.666 -151 399.999c0 172.667 53.333 311.334 160 416.001
c96.667 94.667 212 142 346 142c62.667 0 121.834 -11.5 177.501 -34.5s111.5 -60.833 167.5 -113.5v120zM659.001 861c-86 0 -157.001 -28.834 -213.001 -86.501s-84 -130.167 -84 -217.5c0 -90.667 28.667 -165 86 -223s129.333 -87 216 -87
c84.667 0 154.5 28.333 209.5 85s82.5 131 82.5 223c0 90.667 -27.667 164.334 -83 221.001s-126.666 85 -213.999 85z" />
    <glyph glyph-name="h" unicode="h" 
d="M139 1508l271 0.000976562v-530c53.333 46 107 80.5 161 103.5s108.667 34.5 164 34.5c108 0 199 -37.333 273 -112c63.333 -64.667 95 -159.667 95 -285v-719h-269v477c0 126 -6 211.333 -18 256s-32.5 78 -61.5 100s-64.833 33 -107.5 33
c-55.333 0 -102.833 -18.333 -142.5 -55s-67.167 -86.667 -82.5 -150c-8 -32.667 -12 -107.334 -12 -224.001v-437h-271v1508z" />
    <glyph glyph-name="i" unicode="i" horiz-adv-x="491" 
d="M245 1536c48 0 89.167 -17.333 123.5 -52s51.5 -76.667 51.5 -126c0 -48.667 -17 -90.167 -51 -124.5s-74.667 -51.5 -122 -51.5c-48.667 0 -90.167 17.5 -124.5 52.5s-51.5 77.5 -51.5 127.5c0 48 17 89 51 123s75 51 123 51zM108 1088h274v-1088h-274v1088z" />
    <glyph glyph-name="j" unicode="j" horiz-adv-x="532" 
d="M266 1536c48.667 0 90.167 -17.332 124.5 -51.999s51.5 -76.667 51.5 -126c0 -48.667 -17 -90.334 -51 -125.001s-74.667 -52 -122 -52c-48.667 0 -90.167 17.667 -124.5 53s-51.5 78 -51.5 128c0 48 16.833 89 50.5 123s74.5 51 122.5 51zM130 1088h272.999v-1124
c0 -103.333 -10.167 -180.5 -30.5 -231.5s-52.5 -90.167 -96.5 -117.5s-97 -41 -159 -41c-54.667 0 -122.667 13.667 -204 41v215c42.667 -20.667 80.334 -31 113.001 -31c34.667 0 60.667 10.333 78 31s26 58.667 26 114v1144z" />
    <glyph glyph-name="k" unicode="k" horiz-adv-x="1188" 
d="M140 1508h273v-869l402 449h342l-468 -522l525 -566h-339l-462 501v-501h-273v1508z" />
    <glyph glyph-name="l" unicode="l" horiz-adv-x="491" 
d="M109 1508h273v-1508h-273v1508z" />
    <glyph glyph-name="m" unicode="m" horiz-adv-x="1925" 
d="M136 1088l274 0.00195312v-125c46.667 51.333 98.5 89.666 155.5 114.999s119.167 38 186.5 38c68 0 129.333 -16.667 184 -50s98.667 -82 132 -146c43.333 64 96.5 112.667 159.5 146s131.833 50 206.5 50c77.333 0 145.333 -18 204 -54s100.834 -83 126.501 -141
s38.5 -152.333 38.5 -283v-638h-275v552c0 123.333 -15.333 206.833 -46 250.5s-76.667 65.5 -138 65.5c-46.667 0 -88.5 -13.333 -125.5 -40s-64.5 -63.5 -82.5 -110.5s-27 -122.5 -27 -226.5v-491h-275v527c0 97.333 -7.16699 167.833 -21.5 211.5
s-35.833 76.167 -64.5 97.5s-63.334 32 -104.001 32c-45.333 0 -86.5 -13.5 -123.5 -40.5s-64.667 -64.833 -83 -113.5s-27.5 -125.334 -27.5 -230.001v-484h-274v1088z" />
    <glyph glyph-name="n" unicode="n" 
d="M138 1088h272v-111c62 52 118.167 88.167 168.5 108.5s101.833 30.5 154.5 30.5c108 0 199.667 -37.667 275 -113c63.333 -64 95 -158.667 95 -284v-719h-270v477c0 130 -5.83301 216.333 -17.5 259s-32 75.167 -61 97.5s-64.833 33.5 -107.5 33.5
c-55.333 0 -102.833 -18.5 -142.5 -55.5s-67.167 -88.167 -82.5 -153.5c-8 -34 -12 -107.667 -12 -221v-437h-272v1088z" />
    <glyph glyph-name="o" unicode="o" horiz-adv-x="1311" 
d="M649 1116c102.667 0 199.167 -25.668 289.5 -77.001s160.833 -121 211.5 -209s76 -183 76 -285c0 -102.667 -25.5 -198.667 -76.5 -288s-120.5 -159.166 -208.5 -209.499s-185 -75.5 -291 -75.5c-156 0 -289.167 55.5 -399.5 166.5s-165.5 245.833 -165.5 404.5
c0 170 62.333 311.667 187 425c109.333 98.667 235 148 377 148zM653 858.999c-84.667 0 -155.166 -29.4971 -211.499 -88.4971s-84.5 -134.5 -84.5 -226.5c0 -94.667 27.833 -171.334 83.5 -230.001s126.167 -88 211.5 -88s156.333 29.667 213 89s85 135.666 85 228.999
s-27.833 169.166 -83.5 227.499s-126.834 87.5 -213.501 87.5z" />
    <glyph glyph-name="p" unicode="p" horiz-adv-x="1352" 
d="M409 1088l0.00292969 -120c49.333 49.333 102.666 86.333 159.999 111s118.666 37 183.999 37c142 0 262.667 -53.667 362 -161s149 -245 149 -413c0 -162 -51.333 -297.5 -154 -406.5s-224.334 -163.5 -365.001 -163.5c-62.667 0 -121 11.167 -175 33.5
s-107.667 58.833 -161 109.5v-513h-271v1486h271zM696.003 864c-86 0 -157.333 -29.3311 -214 -87.998s-85 -135.334 -85 -230.001c0 -96.667 28.333 -174.834 85 -234.501s128 -89.5 214 -89.5c83.333 0 153.5 30.333 210.5 91s85.5 138 85.5 232
c0 93.333 -28 169.833 -84 229.5s-126.667 89.5 -212 89.5z" />
    <glyph glyph-name="q" unicode="q" horiz-adv-x="1352" 
d="M942 1088h272.003v-1486h-272v513c-53.333 -50.667 -106.833 -87.167 -160.5 -109.5s-111.834 -33.5 -174.501 -33.5c-140.667 0 -262.334 54.5 -365.001 163.5s-154 244.5 -154 406.5c0 168 49.667 305.667 149 413s220 161 362 161
c65.333 0 126.666 -12.333 183.999 -37s110.333 -61.667 159 -111v120zM655.003 864c-84.667 0 -154.999 -29.835 -210.999 -89.502s-84 -136.167 -84 -229.5c0 -94 28.5 -171.333 85.5 -232s127.167 -91 210.5 -91c86 0 157.333 29.833 214 89.5s85 137.834 85 234.501
c0 94.667 -28.333 171.334 -85 230.001s-128.334 88 -215.001 88z" />
    <glyph glyph-name="r" unicode="r" horiz-adv-x="655" 
d="M74 1088h234v-137c25.333 54 59 95 101 123s88 42 138 42c35.333 0 72.333 -9.33301 111 -28l-85 -235c-32 16 -58.333 24 -79 24c-42 0 -77.5 -26 -106.5 -78s-43.5 -154 -43.5 -306l1 -53v-440h-271v1088z" />
    <glyph glyph-name="s" unicode="s" horiz-adv-x="901" 
d="M804 936l-168.996 -169c-68.667 68 -131 102 -187 102c-30.667 0 -54.667 -6.5 -72 -19.5s-26 -29.167 -26 -48.5c0 -14.667 5.5 -28.167 16.5 -40.5s38.167 -29.166 81.5 -50.499l100 -50c105.333 -52 177.666 -105 216.999 -159s59 -117.333 59 -190
c0 -96.667 -35.5 -177.334 -106.5 -242.001s-166.167 -97 -285.5 -97c-158.667 0 -285.334 62 -380.001 186l168 183c32 -37.333 69.5 -67.5 112.5 -90.5s81.167 -34.5 114.5 -34.5c36 0 65 8.66699 87 26s33 37.333 33 60c0 42 -39.667 83 -119 123l-92 46
c-176 88.667 -264 199.667 -264 333c0 86 33.167 159.5 99.5 220.5s151.166 91.5 254.499 91.5c70.667 0 137.167 -15.5 199.5 -46.5s115.166 -75.5 158.499 -133.5z" />
    <glyph glyph-name="t" unicode="t" horiz-adv-x="614" 
d="M171 1489h272v-401h162v-235h-162v-853h-272v853h-140v235h140v401z" />
    <glyph glyph-name="u" unicode="u" 
d="M137 1088l276 0.000976562v-524c0 -102 7 -172.833 21 -212.5s36.5 -70.5 67.5 -92.5s69.167 -33 114.5 -33s83.833 10.833 115.5 32.5s55.167 53.5 70.5 95.5c11.333 31.333 17 98.333 17 201v533h274v-461c0 -190 -15 -320 -45 -390
c-36.667 -85.333 -90.667 -150.833 -162 -196.5s-162 -68.5 -272 -68.5c-119.333 0 -215.833 26.667 -289.5 80s-125.5 127.666 -155.5 222.999c-21.333 66 -32 186 -32 360v453z" />
    <glyph glyph-name="v" unicode="v" horiz-adv-x="1147" 
d="M21 1088h278l275 -642l274 642h277l-463 -1088h-177z" />
    <glyph glyph-name="w" unicode="w" horiz-adv-x="1638" 
d="M17 1088h267l219 -619l236 619h163l231 -612l219 612h269l-397 -1088h-173l-232 620l-239 -620h-171z" />
    <glyph glyph-name="x" unicode="x" horiz-adv-x="1147" 
d="M40 1088h317l213 -297l216 297h314l-372 -515l418 -573h-317l-259 357l-256 -357h-313l412 573z" />
    <glyph glyph-name="y" unicode="y" horiz-adv-x="1188" 
d="M17 1088h279l283 -683l312 683h280l-682 -1486h-282l224 479z" />
    <glyph glyph-name="z" unicode="z" horiz-adv-x="942" 
d="M91 1088h835l-490 -857h462v-231h-882l492 857h-417v231z" />
    <glyph glyph-name="braceleft" unicode="{" horiz-adv-x="696" 
d="M13 390l-0.00195312 240c59.333 2.66699 103.166 14.334 131.499 35.001s50 53 65 97s22.5 118.333 22.5 223c0 132 6 222.167 18 270.5s31.167 87 57.5 116s65 52.833 116 71.5s124.5 28 220.5 28h53v-240c-71.333 0 -118 -3.83301 -140 -11.5
s-38.167 -20.167 -48.5 -37.5s-15.5 -49.333 -15.5 -96c0 -84 -4 -177.667 -12 -281c-5.33301 -67.333 -23.666 -127.666 -54.999 -180.999c-23.333 -39.333 -63.666 -77.666 -120.999 -114.999c48.667 -28 87.334 -63.5 116.001 -106.5s47.667 -97.5 57 -163.5
c4 -28.667 8.66699 -122 14 -280c2 -58 5.66699 -94 11 -108c8.66699 -20.667 24.834 -36.334 48.501 -47.001s72.167 -16 145.5 -16v-239h-53c-96.667 0 -168.334 7.83301 -215.001 23.5s-84.667 38.667 -114 69s-50.5 68.666 -63.5 114.999s-19.5 126.166 -19.5 239.499
c0 126.667 -6.83301 212.167 -20.5 256.5s-35 77.5 -64 99.5s-73.833 34.667 -134.5 38z" />
    <glyph glyph-name="bar" unicode="|" 
d="M536 1508h158v-1906h-158v1906z" />
    <glyph glyph-name="braceright" unicode="}" horiz-adv-x="696" 
d="M683 630l-0.000976562 -240.003c-59.333 -3.33301 -103.166 -15.166 -131.499 -35.499s-50.166 -52.666 -65.499 -96.999s-23 -118.833 -23 -223.5c0 -132 -5.83301 -222 -17.5 -270s-30.667 -86.5 -57 -115.5s-65 -52.833 -116 -71.5s-124.5 -28 -220.5 -28h-53v239
c71.333 0 117.833 3.83301 139.5 11.5s37.834 20.167 48.501 37.5s16 49.333 16 96c0 84.667 4 178.667 12 282c4.66699 67.333 22.667 127.333 54 180c24 40 64.667 78.333 122 115c-48.667 28 -87.334 63.5 -116.001 106.5s-47.667 97.833 -57 164.5
c-4 28 -8.66699 121 -14 279c-2 58.667 -6 94.667 -12 108c-8.66699 21.333 -24.834 37.166 -48.501 47.499s-71.834 15.5 -144.501 15.5v240h53c96.667 0 168.167 -8 214.5 -24s84.333 -39.167 114 -69.5s51 -68.666 64 -114.999s19.5 -126.166 19.5 -239.499
c0 -126.667 6.83301 -212 20.5 -256s34.834 -77 63.501 -99s73.667 -34.667 135 -38z" />
    <glyph glyph-name="asciitilde" unicode="~" 
d="M100 564l0.00292969 319c101.333 49.333 184.666 74 249.999 74c42.667 0 89.5 -7.16699 140.5 -21.5s118.833 -41.833 203.5 -82.5c55.333 -27.333 91.666 -43.333 108.999 -48c23.333 -6.66699 46.333 -10 69 -10c74 0 160 37.667 258 113v-322
c-84 -48 -166.333 -72 -247 -72c-44 0 -88.333 6 -133 18s-117.334 40.333 -218.001 85c-64 28 -106.833 44.833 -128.5 50.5s-43.5 8.5 -65.5 8.5c-33.333 0 -67 -7.33301 -101 -22s-79.667 -44.667 -137 -90z" />
    <glyph glyph-name="nbspace" unicode="&#xa0;" horiz-adv-x="573" 
 />
    <glyph glyph-name="exclamdown" unicode="&#xa1;" horiz-adv-x="573" 
d="M286 1138c47.333 0 87.833 -16.667 121.5 -50s50.5 -73.666 50.5 -120.999s-16.833 -87.666 -50.5 -120.999s-74.167 -50 -121.5 -50s-87.666 16.667 -120.999 50s-50 73.666 -50 120.999s16.667 87.666 50 120.999s73.666 50 120.999 50zM424 -398h-275v1075h275v-1075z
" />
    <glyph glyph-name="cent" unicode="&#xa2;" horiz-adv-x="1147" 
d="M821 1326l154.999 -67.002l-94 -210c73.333 -46 129.666 -100.667 168.999 -164l-223 -132c-15.333 20.667 -32.666 40.334 -51.999 59.001l-255 -577c36.667 -14 72.334 -21 107.001 -21c83.333 0 157 32.667 221 98l175 -170
c-57.333 -58.667 -119.333 -101.667 -186 -129s-143 -41 -229 -41c-63.333 0 -126.666 9.33301 -189.999 28l-111 -243l-153 66l120 264c-127.333 125.333 -191 278 -191 458c0 112 23.333 211.333 70 298s111.667 153.834 195 201.501s176.666 71.5 279.999 71.5
c28.667 0 60.667 -2.66699 96 -8zM618.999 869.998c-82 -4.66699 -146.5 -35.333 -193.5 -92s-70.5 -136 -70.5 -238c0 -65.333 12.667 -126.333 38 -183z" />
    <glyph glyph-name="sterling" unicode="&#xa3;" horiz-adv-x="1147" 
d="M1012 1096l-281 -0.00195312c-20.667 103.333 -69 155 -145 155c-40.667 0 -74.667 -14.5 -102 -43.5s-41 -66.833 -41 -113.5c0 -27.333 9.33301 -65.333 28 -114l31 -81h340v-252h-267c8 -46 12 -82.333 12 -109c0 -76.667 -22.667 -171 -68 -283
c26 -3.33301 72.333 -11 139 -23c22.667 -4 41 -6 55 -6c28.667 0 52.334 8.66699 71.001 26c25.333 22.667 42.666 50.667 51.999 84h259c-2.66699 -66 -21.667 -128.167 -57 -186.5s-82.666 -104 -141.999 -137s-121.333 -49.5 -186 -49.5
c-28.667 0 -76.334 4.66699 -143.001 14c-102.667 15.333 -179.334 23 -230.001 23c-65.333 0 -130 -11.333 -194 -34l-94 238c56.667 22.667 109.667 37.334 159 44.001c36.667 64 61.667 118.333 75 163s20 92 20 142c0 27.333 -3 58.666 -9 93.999h-240v252h154
c-31.333 66.667 -47 133.667 -47 201c0 81.333 16.5 151.5 49.5 210.5s84.167 106.667 153.5 143s144.666 54.5 225.999 54.5c80 0 152.833 -17.667 218.5 -53s115.834 -84.166 150.501 -146.499s52.334 -133.166 53.001 -212.499z" />
    <glyph glyph-name="currency" unicode="&#xa4;" 
d="M96 425l103.004 104c-34.667 52.667 -58.667 101 -72 145s-20 92 -20 144c0 55.333 7 105.833 21 151.5s38.333 92.5 73 140.5l-106 104l121 124l106 -106c46.667 32.667 94.667 57 144 73s100 24 152 24c50 0 98.667 -7.33301 146 -22s95.666 -38.667 144.999 -72
l105 103l119 -124l-104 -101c35.333 -48 60.5 -95.5 75.5 -142.5s22.5 -97.833 22.5 -152.5c0 -54 -7.33301 -103.833 -22 -149.5s-39 -92.167 -73 -139.5l104 -104l-119 -121l-105 103c-48.667 -35.333 -96.834 -60.833 -144.501 -76.5s-98.167 -23.5 -151.5 -23.5
c-52.667 0 -102.834 7.83301 -150.501 23.5s-95.834 41.167 -144.501 76.5l-105 -103zM303.004 816c0 -88 30.833 -162.999 92.5 -224.999s135.5 -93 221.5 -93s159.667 31.167 221 93.5s92 138.166 92 227.499c0 88.667 -30.5 164.167 -91.5 226.5s-134.5 93.5 -220.5 93.5
s-160 -31.333 -222 -94s-93 -139 -93 -229z" />
    <glyph glyph-name="yen" unicode="&#xa5;" horiz-adv-x="1147" 
d="M48 1471h291l235 -523l235 523h291l-311 -692h264v-163h-338v-128h338v-169h-338v-319h-283v319h-339v169h339v128h-339v163h265z" />
    <glyph glyph-name="brokenbar" unicode="&#xa6;" 
d="M537 744v764h158v-709zM537 -398v910l158 55v-965h-158z" />
    <glyph glyph-name="section" unicode="&#xa7;" horiz-adv-x="1147" 
d="M985 1152l-265.001 0.00390625c-20 88.667 -73.667 133 -161 133c-35.333 0 -62.666 -7.83301 -81.999 -23.5s-29 -34.834 -29 -57.501c0 -24 7.66699 -45.667 23 -65c20.667 -25.333 69 -64 145 -116l191 -131c86 -58.667 145.333 -115.667 178 -171
s49 -116.333 49 -183c0 -70 -18.5 -132 -55.5 -186s-89.833 -94.333 -158.5 -121c62 -51.333 105.833 -102.333 131.5 -153s38.5 -106.334 38.5 -167.001c0 -96 -36.167 -176.167 -108.5 -240.5s-171.5 -96.5 -297.5 -96.5c-118.667 0 -213.5 32.167 -284.5 96.5
s-114.833 158.166 -131.5 281.499h259c18 -46.667 39.833 -79.667 65.5 -99s56.5 -29 92.5 -29c40.667 0 72.334 10 95.001 30s34 43.667 34 71c0 16.667 -6.66699 34.667 -20 54c-14 18.667 -43.667 44 -89 76l-276 192c-86 60.667 -144.5 117.667 -175.5 171
s-46.5 115 -46.5 185c0 74.667 18.833 140.167 56.5 196.5s85.167 95.166 142.5 116.499c-46 37.333 -80.5 79 -103.5 125s-34.5 96 -34.5 150c0 96 37 177.5 111 244.5s170 100.5 288 100.5c112.667 0 208.667 -37 288 -111s122.666 -165 129.999 -273zM462.999 796.004
c-41.333 -18 -71.833 -40.667 -91.5 -68s-29.5 -55.666 -29.5 -84.999c0 -31.333 14 -63.333 42 -96c15.333 -18.667 56.333 -51.334 123 -98.001l153 -107c54 25.333 87.667 47 101 65c20.667 27.333 31 56 31 86c0 25.333 -10.167 51.5 -30.5 78.5
s-65.833 64.5 -136.5 112.5z" />
    <glyph glyph-name="dieresis" unicode="&#xa8;" horiz-adv-x="1024" 
d="M290 1573c40 0 74 -14 102 -42s42 -61.667 42 -101c0 -40 -14 -74 -42 -102s-62 -42 -102 -42c-39.333 0 -73 14 -101 42s-42 62 -42 102c0 39.333 14 73 42 101s61.667 42 101 42zM733 1573c40 0 74 -14 102 -42s42 -61.667 42 -101c0 -40 -14 -74 -42 -102
s-62 -42 -102 -42c-39.333 0 -73 14 -101 42s-42 62 -42 102c0 39.333 14 73 42 101s61.667 42 101 42z" />
    <glyph glyph-name="copyright" unicode="&#xa9;" horiz-adv-x="1515" 
d="M1524 757c0 -136.667 -34.1611 -264.167 -102.494 -382.5s-161.833 -211.666 -280.5 -279.999s-246.334 -102.5 -383.001 -102.5s-264.334 34.167 -383.001 102.5s-212.167 161.666 -280.5 279.999s-102.5 245.833 -102.5 382.5c0 136 34.167 263 102.5 381
s161.666 211.167 279.999 279.5s246.166 102.5 383.499 102.5s265.166 -34.167 383.499 -102.5s211.666 -161.5 279.999 -279.5s102.5 -245 102.5 -381zM1366.01 754c0 168.667 -59.1689 312.167 -177.502 430.5s-261.5 177.5 -429.5 177.5
c-109.333 0 -211.166 -27 -305.499 -81s-168.5 -127.833 -222.5 -221.5s-81 -194.167 -81 -301.5s27 -207.5 81 -300.5s128.167 -166.5 222.5 -220.5s195.5 -81 303.5 -81c108.667 0 210.334 27 305.001 81s169 127.167 223 219.5s81 191.5 81 297.5zM980.004 616h175.999
c-11.333 -87.333 -50.666 -159.333 -117.999 -216s-150 -85 -248 -85c-125.333 0 -228.166 42.167 -308.499 126.5s-120.5 193.833 -120.5 328.5c0 130.667 39.667 236.667 119 318s180.666 122 303.999 122c99.333 0 181 -25 245 -75s106.333 -122.667 127 -218h-176
c-11.333 49.333 -34 87.333 -68 114s-76 40 -126 40c-74 0 -135 -26.833 -183 -80.5s-72 -126.5 -72 -218.5c0 -94.667 25.5 -171.167 76.5 -229.5s111.833 -87.5 182.5 -87.5c50 0 92.667 15 128 45s56 68.667 62 116z" />
    <glyph glyph-name="ordfeminine" unicode="&#xaa;" horiz-adv-x="737" 
d="M459 1491l200.002 -0.000976562v-681h-200v56c-22 -24 -45.833 -42 -71.5 -54s-52.834 -18 -81.501 -18c-66.667 0 -126.5 32.833 -179.5 98.5s-79.5 151.5 -79.5 257.5c0 109.333 25.667 196.333 77 261s110.666 97 177.999 97c29.333 0 57 -6.16699 83 -18.5
s50.667 -31.166 74 -56.499v58zM356.002 1329c-28.667 0 -53.833 -15.499 -75.5 -46.499s-32.5 -74.5 -32.5 -130.5c0 -56.667 12.333 -103 37 -139c19.333 -27.333 43.333 -41 72 -41s54 15.5 76 46.5s33 75.5 33 133.5c0 57.333 -11 101.166 -33 131.499
s-47.667 45.5 -77 45.5z" />
    <glyph glyph-name="guillemotleft" unicode="&#xab;" horiz-adv-x="942" 
d="M208 1088h255l-185 -548l185 -540h-255l-183 540zM662 1088h255l-185 -548l185 -540h-255l-184 540z" />
    <glyph glyph-name="logicalnot" unicode="&#xac;" 
d="M115 1074h999v-678l-249 1v428l-750 -1v250z" />
    <glyph glyph-name="registered" unicode="&#xae;" horiz-adv-x="1515" 
d="M1524 755c0 -136.667 -34.1641 -263.833 -102.497 -381.5s-161.666 -210.667 -279.999 -279s-246.166 -102.5 -383.499 -102.5c-136.667 0 -264.334 34.167 -383.001 102.5s-212.167 161.333 -280.5 279s-102.5 245.167 -102.5 382.5c0 136.667 34.167 264 102.5 382
s161.666 211.167 279.999 279.5s246.166 102.5 383.499 102.5s265.166 -34.167 383.499 -102.5s211.666 -161.5 279.999 -279.5s102.5 -245.667 102.5 -383zM1366 753.001c0 169.333 -59.1699 313.167 -177.503 431.5s-261.166 177.5 -428.499 177.5
c-168.667 0 -312.5 -59 -431.5 -177s-178.5 -260.333 -178.5 -427c0 -108 26.833 -208.333 80.5 -301s127.834 -166 222.501 -220s196.334 -81 305.001 -81c108 0 209.333 26.833 304 80.5s169 126.667 223 219s81 191.5 81 297.5zM441 1173h371.002
c78 0 135.333 -8.66699 172 -26s66.167 -44.666 88.5 -81.999s33.5 -82.333 33.5 -135c0 -44.667 -6.83301 -81.167 -20.5 -109.5s-39.5 -56.166 -77.5 -83.499c30.667 -17.333 51.667 -36.833 63 -58.5s18.333 -59.834 21 -114.501
c4.66699 -104 9.16699 -164.5 13.5 -181.5s16.166 -33.167 35.499 -48.5h-210c-9.33301 22.667 -15.333 41.667 -18 57s-4.33398 41.666 -5.00098 78.999c-2 74 -6 119.667 -12 137s-16.5 30.333 -31.5 39s-45.167 13 -90.5 13h-149v-325h-184v839zM625.002 1012
l0.000976562 -199h154c59.333 0 98.666 8 117.999 24s29 41.667 29 77s-9.5 60.5 -28.5 75.5s-58.167 22.5 -117.5 22.5h-155z" />
    <glyph glyph-name="overscore" unicode="&#xaf;" horiz-adv-x="1024" 
d="M-12 1685h1048v-102h-1048v102z" />
    <glyph glyph-name="degree" unicode="&#xb0;" horiz-adv-x="819" 
d="M755 1164c0 -96.667 -33.667 -178.167 -101 -244.5s-149 -99.5 -245 -99.5s-177.333 33.333 -244 100s-100 149 -100 247c0 94 34.167 174.333 102.5 241s149.833 100 244.5 100s175.5 -33.333 242.5 -100s100.5 -148 100.5 -244zM636 1162c0 66 -21.667 121.333 -65 166
s-96 67 -158 67c-63.333 0 -117.333 -22.5 -162 -67.5s-67 -99.5 -67 -163.5c0 -62.667 22.5 -117 67.5 -163s98.5 -69 160.5 -69c61.333 0 114 22.5 158 67.5s66 99.167 66 162.5z" />
    <glyph glyph-name="plusminus" unicode="&#xb1;" horiz-adv-x="1124" 
d="M437 1079v375h250v-375h374v-250h-374v-374h-250v374h-375v250h375zM62 250h999v-250h-999v250z" />
    <glyph glyph-name="twosuperior" unicode="&#xb2;" horiz-adv-x="688" 
d="M227 1227h-184.998c4 88 33.5 156.833 88.5 206.5s129.167 74.5 222.5 74.5c92.667 0 163.167 -24.667 211.5 -74s72.5 -101.333 72.5 -156c0 -44.667 -14.667 -92.667 -44 -144s-84 -112 -164 -182l-70 -62h285v-157h-625v88l272 232
c64.667 55.333 107 98.666 127 129.999s30 59.333 30 84c0 24 -9.5 43.833 -28.5 59.5s-44.833 23.5 -77.5 23.5c-34.667 0 -62.334 -10.667 -83.001 -32s-31.334 -51.666 -32.001 -90.999z" />
    <glyph glyph-name="threesuperior" unicode="&#xb3;" horiz-adv-x="688" 
d="M244 1282l-182.998 -0.000976562c15.333 72 41.666 124.333 78.999 157c52 46 119.333 69 202 69c78 0 141.5 -20.167 190.5 -60.5s73.5 -87.166 73.5 -140.499c0 -64 -31 -113.667 -93 -149c44 -18 78.5 -44.5 103.5 -79.5s37.5 -72.5 37.5 -112.5
c0 -67.333 -29.333 -126 -88 -176s-136.667 -75 -234 -75c-90.667 0 -163.167 24.333 -217.5 73s-82.5 113 -84.5 193h184c12.667 -74 54.667 -111 126 -111c36.667 0 66.667 9.16699 90 27.5s35 39.5 35 63.5c0 66 -65.667 101 -197 105v138c58.667 0 99 7.5 121 22.5
s33 34.833 33 59.5c0 18.667 -6.83301 34.5 -20.5 47.5s-31.834 19.5 -54.501 19.5c-44.667 0 -79 -23.667 -103 -71z" />
    <glyph glyph-name="acute" unicode="&#xb4;" horiz-adv-x="860" 
d="M478 1679h323l-366 -392h-196z" />
    <glyph glyph-name="mu1" unicode="&#xb5;" horiz-adv-x="1180" 
d="M88 -398l-0.000976562 1486h277v-571c0 -84.667 8.16699 -145.834 24.5 -183.501s43.333 -68.834 81 -93.501s78.167 -37 121.5 -37s81.833 11.333 115.5 34s59.334 55.334 77.001 98.001s26.5 106 26.5 190v563h280v-1088h-280v127c-28.667 -56 -61.5 -96 -98.5 -120
s-78.5 -36 -124.5 -36c-45.333 0 -86.5 11.5 -123.5 34.5s-70.167 60.833 -99.5 113.5v-517h-277z" />
    <glyph glyph-name="paragraph" unicode="&#xb6;" 
d="M552 -379v1089c-122.667 0.666992 -218.167 35.667 -286.5 105s-102.5 165.666 -102.5 288.999c0 135.333 37.167 237.333 111.5 306s194.833 103 361.5 103h420v-116h-82v-1776h-139v1776h-144v-1776h-139z" />
    <glyph glyph-name="middot" unicode="&#xb7;" horiz-adv-x="682" 
d="M696 897c40 0 74 -13.833 102 -41.5s42 -61.5 42 -101.5c0 -39.333 -14 -73 -42 -101s-62 -42 -102 -42c-39.333 0 -73 14 -101 42s-42 61.667 -42 101c0 40 14 73.833 42 101.5s61.667 41.5 101 41.5z" />
    <glyph glyph-name="cedilla" unicode="&#xb8;" horiz-adv-x="696" 
d="M262 16h168.999l-12 -46c44.667 -10 79.834 -29.5 105.501 -58.5s38.5 -60.833 38.5 -95.5c0 -54 -22.667 -100.333 -68 -139s-108.333 -58 -189 -58c-65.333 0 -139.333 15.333 -222 46l36 129c48 -15.333 95 -23 141 -23c34 0 59.333 6.5 76 19.5s25 30.167 25 51.5
c0 17.333 -6.33301 31 -19 41s-32.667 15 -60 15l-56 -2z" />
    <glyph glyph-name="onesuperior" unicode="&#xb9;" horiz-adv-x="688" 
d="M199 1489h265v-756h-188v599h-193z" />
    <glyph glyph-name="ordmasculine" unicode="&#xba;" horiz-adv-x="737" 
d="M365 1508c89.333 0 166.333 -33.999 231 -101.999s97 -153 97 -255c0 -102.667 -31.833 -187.834 -95.5 -255.501s-140.834 -101.5 -231.501 -101.5c-87.333 0 -162.666 34.167 -225.999 102.5s-95 152.833 -95 253.5c0 101.333 32 186.333 96 255s138.667 103 224 103z
M368 1326c-32.667 0 -60.999 -15.666 -84.999 -46.999s-36 -74 -36 -128c0 -56 11.833 -99.5 35.5 -130.5s52.167 -46.5 85.5 -46.5s62.166 15.667 86.499 47s36.5 74.666 36.5 129.999c0 54.667 -12 97.5 -36 128.5s-53 46.5 -87 46.5z" />
    <glyph glyph-name="guillemotright" unicode="&#xbb;" horiz-adv-x="942" 
d="M733 0h-255l186 548l-186 540h255l184 -540zM280 0h-255l185 548l-185 540h255l183 -540z" />
    <glyph glyph-name="onequarter" unicode="&#xbc;" horiz-adv-x="1720" 
d="M207 1489h265v-756h-188v599h-193zM462 -37l626 1545h171l-626 -1545h-171zM1424 775h182v-485h78v-140h-78v-150h-169v150h-395v148zM1437 290v269l-217 -269h217z" />
    <glyph glyph-name="onehalf" unicode="&#xbd;" horiz-adv-x="1720" 
d="M207 1489h265v-756h-188v599h-193zM426 -37l626 1545h171l-626 -1545h-171zM1251 494h-184.998c4 88 33.5 156.833 88.5 206.5s129.167 74.5 222.5 74.5c92.667 0 163.167 -24.667 211.5 -74s72.5 -101.333 72.5 -156c0 -44.667 -14.667 -92.667 -44 -144
s-84 -112 -164 -182l-70 -62h285v-157h-625v88l272 232c64.667 55.333 107 98.666 127 129.999s30 59.333 30 84c0 24 -9.5 43.833 -28.5 59.5s-44.833 23.5 -77.5 23.5c-34.667 0 -62.334 -10.667 -83.001 -32s-31.334 -51.666 -32.001 -90.999z" />
    <glyph glyph-name="threequarters" unicode="&#xbe;" horiz-adv-x="1720" 
d="M252 1282l-182.998 -0.000976562c15.333 72 41.666 124.333 78.999 157c52 46 119.333 69 202 69c78 0 141.5 -20.167 190.5 -60.5s73.5 -87.166 73.5 -140.499c0 -64 -31 -113.667 -93 -149c44 -18 78.5 -44.5 103.5 -79.5s37.5 -72.5 37.5 -112.5
c0 -67.333 -29.333 -126 -88 -176s-136.667 -75 -234 -75c-90.667 0 -163.167 24.333 -217.5 73s-82.5 113 -84.5 193h184c12.667 -74 54.667 -111 126 -111c36.667 0 66.667 9.16699 90 27.5s35 39.5 35 63.5c0 66 -65.667 101 -197 105v138c58.667 0 99 7.5 121 22.5
s33 34.833 33 59.5c0 18.667 -6.83301 34.5 -20.5 47.5s-31.834 19.5 -54.501 19.5c-44.667 0 -79 -23.667 -103 -71zM486.002 -37.001l626 1545h171l-626 -1545h-171zM1424 774.999h182v-485h78v-140h-78v-150h-169v150h-395v148zM1437 289.999v269l-217 -269h217z" />
    <glyph glyph-name="questiondown" unicode="&#xbf;" horiz-adv-x="1147" 
d="M588 795c-48.667 0 -90.168 16.667 -124.501 50s-51.5 73.666 -51.5 120.999s17 87.833 51 121.5s75 50.5 123 50.5c47.333 0 88 -16.833 122 -50.5s51 -74.167 51 -121.5s-16.667 -87.666 -50 -120.999s-73.666 -50 -120.999 -50zM778.999 18l262.001 0.00390625
c1.33301 -128 -42.667 -234 -132 -318s-207 -126 -353 -126c-94 0 -174.167 17.167 -240.5 51.5s-119.166 84.333 -158.499 150s-59 134.5 -59 206.5c0 39.333 6.16699 78 18.5 116s32.166 77 59.499 117c16.667 23.333 55.334 62.666 116.001 117.999
c57.333 52.667 93.5 89.667 108.5 111s27.5 50.166 37.5 86.499s16.333 86.5 19 150.5h270l2 -45c0 -89.333 -16.333 -170.5 -49 -243.5s-85.667 -141.5 -159 -205.5c-70.667 -62 -113.334 -104.833 -128.001 -128.5s-22 -50.834 -22 -81.501
c0 -42.667 17.667 -78.834 53 -108.501s83.333 -44.5 144 -44.5c61.333 0 111.666 18.167 150.999 54.5s59.333 82.833 60 139.5z" />
    <glyph glyph-name="Agrave" unicode="&#xc0;" horiz-adv-x="1515" 
d="M616 1471h284l566 -1471h-291l-115 303h-600l-120 -303h-291zM760 1081l-196 -505h391zM709 1977l239 -392h-196l-366 392h323z" />
    <glyph glyph-name="Aacute" unicode="&#xc1;" horiz-adv-x="1515" 
d="M616 1471h284l566 -1471h-291l-115 303h-600l-120 -303h-291zM760 1081l-196 -505h391zM805 1977h323l-366 -392h-196z" />
    <glyph glyph-name="Acircumflex" unicode="&#xc2;" horiz-adv-x="1515" 
d="M616 1471h284l566 -1471h-291l-115 303h-600l-120 -303h-291zM760 1081l-196 -505h391zM349 1585l300 283h219l298 -283h-298l-108 131l-111 -131h-300z" />
    <glyph glyph-name="Atilde" unicode="&#xc3;" horiz-adv-x="1515" 
d="M616 1471h284l566 -1471h-291l-115 303h-600l-120 -303h-291zM760 1081l-196 -505h391zM451 1589l-109.998 165c85.333 66 171.666 99 258.999 99c32.667 0 88.667 -11.333 168 -34c54 -14.667 97 -22 129 -22c56 0 114 17.333 174 52l104 -156
c-84 -72 -165.333 -108 -244 -108c-42 0 -92.333 9 -151 27c-48 14 -78.333 22.333 -91 25c-17.333 2.66699 -38 4 -62 4c-58.667 0 -117.334 -17.333 -176.001 -52z" />
    <glyph glyph-name="Adieresis" unicode="&#xc4;" horiz-adv-x="1515" 
d="M616 1471h284l566 -1471h-291l-115 303h-600l-120 -303h-291zM760 1081l-196 -505h391zM535 1871c40 0 74 -14 102 -42s42 -61.667 42 -101c0 -40 -14 -74 -42 -102s-62 -42 -102 -42c-39.333 0 -73 14 -101 42s-42 62 -42 102c0 39.333 14 73 42 101s61.667 42 101 42z
M978 1871c40 0 74 -14 102 -42s42 -61.667 42 -101c0 -40 -14 -74 -42 -102s-62 -42 -102 -42c-39.333 0 -73 14 -101 42s-42 62 -42 102c0 39.333 14 73 42 101s61.667 42 101 42z" />
    <glyph glyph-name="Aring" unicode="&#xc5;" horiz-adv-x="1515" 
d="M616 1471h284l566 -1471h-291l-115 303h-600l-120 -303h-291zM760 1081l-196 -505h391zM757 2032c60.667 0 112.332 -21.833 154.999 -65.5s64 -96.167 64 -157.5c0 -62 -21.5 -114.833 -64.5 -158.5s-94.5 -65.5 -154.5 -65.5s-111.5 21.833 -154.5 65.5
s-64.5 96.5 -64.5 158.5c0 61.333 21.333 113.833 64 157.5s94.334 65.5 155.001 65.5zM756.998 1903c-22.667 0 -42 -8.66699 -58 -26s-24 -38.333 -24 -63c0 -25.333 8.16699 -46.666 24.5 -63.999s35.5 -26 57.5 -26s41.167 8.66699 57.5 26s24.5 38.666 24.5 63.999
c0 24.667 -8 45.667 -24 63s-35.333 26 -58 26z" />
    <glyph glyph-name="AE" unicode="&#xc6;" horiz-adv-x="1843" 
d="M774 1471h963v-274h-517v-267h517v-269h-517v-387h517v-274h-796v304h-449l-147 -304h-288zM941 579v644l-317 -644h317z" />
    <glyph glyph-name="Ccedilla" unicode="&#xc7;" horiz-adv-x="1597" 
d="M1520 1212l-195.996 -187c-133.333 140.667 -283.333 211 -450 211c-140.667 0 -259.167 -48 -355.5 -144s-144.5 -214.333 -144.5 -355c0 -98 21.333 -185 64 -261s103 -135.667 181 -179s164.667 -65 260 -65c81.333 0 155.666 15.167 222.999 45.5
s141.333 85.5 222 165.5l190 -198c-108.667 -106 -211.334 -179.5 -308.001 -220.5s-207 -61.5 -331 -61.5c-228.667 0 -415.834 72.5 -561.501 217.5s-218.5 330.833 -218.5 557.5c0 146.667 33.167 277 99.5 391s161.333 205.667 285 275s256.834 104 399.501 104
c121.333 0 238.166 -25.667 350.499 -77s209.166 -124.333 290.499 -219zM713.004 16h168.999l-12 -46c44.667 -10 79.834 -29.5 105.501 -58.5s38.5 -60.833 38.5 -95.5c0 -54 -22.667 -100.333 -68 -139s-108.333 -58 -189 -58c-65.333 0 -139.333 15.333 -222 46l36 129
c48 -15.333 95 -23 141 -23c34 0 59.333 6.5 76 19.5s25 30.167 25 51.5c0 17.333 -6.33301 31 -19 41s-32.667 15 -60 15l-56 -2z" />
    <glyph glyph-name="Egrave" unicode="&#xc8;" horiz-adv-x="1065" 
d="M169 1471h803v-274h-525v-266h525v-269h-525v-387h525v-275h-803v1471zM520 1977l239 -392h-196l-366 392h323z" />
    <glyph glyph-name="Eacute" unicode="&#xc9;" horiz-adv-x="1065" 
d="M169 1471h803v-274h-525v-266h525v-269h-525v-387h525v-275h-803v1471zM617 1977h323l-366 -392h-196z" />
    <glyph glyph-name="Ecircumflex" unicode="&#xca;" horiz-adv-x="1065" 
d="M169 1471h803v-274h-525v-266h525v-269h-525v-387h525v-275h-803v1471zM160 1585l300 283h219l298 -283h-298l-108 131l-111 -131h-300z" />
    <glyph glyph-name="Edieresis" unicode="&#xcb;" horiz-adv-x="1065" 
d="M169 1471h803v-274h-525v-266h525v-269h-525v-387h525v-275h-803v1471zM347 1871c40 0 74 -14 102 -42s42 -61.667 42 -101c0 -40 -14 -74 -42 -102s-62 -42 -102 -42c-39.333 0 -73 14 -101 42s-42 62 -42 102c0 39.333 14 73 42 101s61.667 42 101 42zM790 1871
c40 0 74 -14 102 -42s42 -61.667 42 -101c0 -40 -14 -74 -42 -102s-62 -42 -102 -42c-39.333 0 -73 14 -101 42s-42 62 -42 102c0 39.333 14 73 42 101s61.667 42 101 42z" />
    <glyph glyph-name="Igrave" unicode="&#xcc;" horiz-adv-x="573" 
d="M148 1471h278v-1471h-278v1471zM239 1977l239 -392h-196l-366 392h323z" />
    <glyph glyph-name="Iacute" unicode="&#xcd;" horiz-adv-x="573" 
d="M148 1471h278v-1471h-278v1471zM335 1977h323l-366 -392h-196z" />
    <glyph glyph-name="Icircumflex" unicode="&#xce;" horiz-adv-x="573" 
d="M148 1471h278v-1471h-278v1471zM-122 1585l300 283h219l298 -283h-298l-108 131l-111 -131h-300z" />
    <glyph glyph-name="Idieresis" unicode="&#xcf;" horiz-adv-x="573" 
d="M148 1471h278v-1471h-278v1471zM65 1871c40 0 74 -14 102 -42s42 -61.667 42 -101c0 -40 -14 -74 -42 -102s-62 -42 -102 -42c-39.333 0 -73 14 -101 42s-42 62 -42 102c0 39.333 14 73 42 101s61.667 42 101 42zM508 1871c40 0 74 -14 102 -42s42 -61.667 42 -101
c0 -40 -14 -74 -42 -102s-62 -42 -102 -42c-39.333 0 -73 14 -101 42s-42 62 -42 102c0 39.333 14 73 42 101s61.667 42 101 42z" />
    <glyph glyph-name="Eth" unicode="&#xd0;" horiz-adv-x="1520" 
d="M219 1471l356.999 -0.000976562c213.333 0 372 -26.5 476 -79.5s189.667 -139.167 257 -258.5s101 -258.666 101 -417.999c0 -113.333 -18.833 -217.5 -56.5 -312.5s-89.667 -173.833 -156 -236.5s-138.166 -106 -215.499 -130s-211.333 -36 -402 -36h-361v654h-169v163
h169v654zM497.999 1201l-0.000976562 -383.998h302v-163h-302v-380h154c128 0 220.833 14.667 278.5 44s104.834 78.666 141.501 147.999s55 154.666 55 255.999c0 156 -43.667 277 -131 363c-78.667 77.333 -205 116 -379 116h-119z" />
    <glyph glyph-name="Ntilde" unicode="&#xd1;" horiz-adv-x="1515" 
d="M169 1471h268l631 -968v968h280v-1471h-269l-630 965v-965h-280v1471zM452 1589l-109.998 165c85.333 66 171.666 99 258.999 99c32.667 0 88.667 -11.333 168 -34c54 -14.667 97 -22 129 -22c56 0 114 17.333 174 52l104 -156c-84 -72 -165.333 -108 -244 -108
c-42 0 -92.333 9 -151 27c-48 14 -78.333 22.333 -91 25c-17.333 2.66699 -38 4 -62 4c-58.667 0 -117.334 -17.333 -176.001 -52z" />
    <glyph glyph-name="Ograve" unicode="&#xd2;" horiz-adv-x="1720" 
d="M863 1508c208 0 386.834 -75.3311 536.501 -225.998s224.5 -334.334 224.5 -551.001c0 -214.667 -73.833 -396.334 -221.5 -545.001s-326.834 -223 -537.501 -223c-220.667 0 -404 76.333 -550 229s-219 334 -219 544c0 140.667 34 270 102 388s161.5 211.5 280.5 280.5
s247.167 103.5 384.5 103.5zM860.001 1234c-136 0 -250.333 -47.332 -343 -141.999s-139 -215 -139 -361c0 -162.667 58.333 -291.334 175 -386.001c90.667 -74 194.667 -111 312 -111c132.667 0 245.667 48 339 144s140 214.333 140 355c0 140 -47 258.5 -141 355.5
s-208.333 145.5 -343 145.5zM812.001 1977l239 -392h-196l-366 392h323z" />
    <glyph glyph-name="Oacute" unicode="&#xd3;" horiz-adv-x="1720" 
d="M863 1508c208 0 386.834 -75.3311 536.501 -225.998s224.5 -334.334 224.5 -551.001c0 -214.667 -73.833 -396.334 -221.5 -545.001s-326.834 -223 -537.501 -223c-220.667 0 -404 76.333 -550 229s-219 334 -219 544c0 140.667 34 270 102 388s161.5 211.5 280.5 280.5
s247.167 103.5 384.5 103.5zM860.001 1234c-136 0 -250.333 -47.332 -343 -141.999s-139 -215 -139 -361c0 -162.667 58.333 -291.334 175 -386.001c90.667 -74 194.667 -111 312 -111c132.667 0 245.667 48 339 144s140 214.333 140 355c0 140 -47 258.5 -141 355.5
s-208.333 145.5 -343 145.5zM908.001 1977h323l-366 -392h-196z" />
    <glyph glyph-name="Ocircumflex" unicode="&#xd4;" horiz-adv-x="1720" 
d="M863 1508c208 0 386.834 -75.3311 536.501 -225.998s224.5 -334.334 224.5 -551.001c0 -214.667 -73.833 -396.334 -221.5 -545.001s-326.834 -223 -537.501 -223c-220.667 0 -404 76.333 -550 229s-219 334 -219 544c0 140.667 34 270 102 388s161.5 211.5 280.5 280.5
s247.167 103.5 384.5 103.5zM860.001 1234c-136 0 -250.333 -47.332 -343 -141.999s-139 -215 -139 -361c0 -162.667 58.333 -291.334 175 -386.001c90.667 -74 194.667 -111 312 -111c132.667 0 245.667 48 339 144s140 214.333 140 355c0 140 -47 258.5 -141 355.5
s-208.333 145.5 -343 145.5zM451.001 1585l300 283h219l298 -283h-298l-108 131l-111 -131h-300z" />
    <glyph glyph-name="Otilde" unicode="&#xd5;" horiz-adv-x="1720" 
d="M863 1508c208 0 386.834 -75.3311 536.501 -225.998s224.5 -334.334 224.5 -551.001c0 -214.667 -73.833 -396.334 -221.5 -545.001s-326.834 -223 -537.501 -223c-220.667 0 -404 76.333 -550 229s-219 334 -219 544c0 140.667 34 270 102 388s161.5 211.5 280.5 280.5
s247.167 103.5 384.5 103.5zM860.001 1234c-136 0 -250.333 -47.332 -343 -141.999s-139 -215 -139 -361c0 -162.667 58.333 -291.334 175 -386.001c90.667 -74 194.667 -111 312 -111c132.667 0 245.667 48 339 144s140 214.333 140 355c0 140 -47 258.5 -141 355.5
s-208.333 145.5 -343 145.5zM553.001 1589l-109.998 165c85.333 66 171.666 99 258.999 99c32.667 0 88.667 -11.333 168 -34c54 -14.667 97 -22 129 -22c56 0 114 17.333 174 52l104 -156c-84 -72 -165.333 -108 -244 -108c-42 0 -92.333 9 -151 27
c-48 14 -78.333 22.333 -91 25c-17.333 2.66699 -38 4 -62 4c-58.667 0 -117.334 -17.333 -176.001 -52z" />
    <glyph glyph-name="Odieresis" unicode="&#xd6;" horiz-adv-x="1720" 
d="M863 1508c208 0 386.834 -75.3311 536.501 -225.998s224.5 -334.334 224.5 -551.001c0 -214.667 -73.833 -396.334 -221.5 -545.001s-326.834 -223 -537.501 -223c-220.667 0 -404 76.333 -550 229s-219 334 -219 544c0 140.667 34 270 102 388s161.5 211.5 280.5 280.5
s247.167 103.5 384.5 103.5zM860.001 1234c-136 0 -250.333 -47.332 -343 -141.999s-139 -215 -139 -361c0 -162.667 58.333 -291.334 175 -386.001c90.667 -74 194.667 -111 312 -111c132.667 0 245.667 48 339 144s140 214.333 140 355c0 140 -47 258.5 -141 355.5
s-208.333 145.5 -343 145.5zM638.001 1871c40 0 74 -14 102 -42s42 -61.667 42 -101c0 -40 -14 -74 -42 -102s-62 -42 -102 -42c-39.333 0 -73 14 -101 42s-42 62 -42 102c0 39.333 14 73 42 101s61.667 42 101 42zM1081 1871c40 0 74 -14 102 -42s42 -61.667 42 -101
c0 -40 -14 -74 -42 -102s-62 -42 -102 -42c-39.333 0 -73 14 -101 42s-42 62 -42 102c0 39.333 14 73 42 101s61.667 42 101 42z" />
    <glyph glyph-name="multiply" unicode="&#xd7;" 
d="M613 588l-317 -316l-148 147l317 317l-317 317l148 148l317 -317l316 317l148 -148l-317 -317l317 -317l-148 -147z" />
    <glyph glyph-name="Oslash" unicode="&#xd8;" horiz-adv-x="1720" 
d="M1429 1251c130.667 -146 195.999 -319.333 195.999 -520c0 -214.667 -73.833 -396.334 -221.5 -545.001s-326.5 -223 -536.5 -223c-159.333 0 -301.333 41.667 -426 125l-171 -202l-127 106l171 202c-68.667 70 -122 152 -160 246s-57 192.667 -57 296
c0 140.667 34 269.834 102 387.501s161.5 211.167 280.5 280.5s246.833 104 383.5 104c158.667 0 306.334 -48.333 443.001 -145l161 190l126 -104zM492.999 405l636.001 749c-75.333 53.333 -164.333 80 -267 80c-136.667 0 -251.334 -47.333 -344.001 -142
s-139 -215 -139 -361c0 -129.333 38 -238 114 -326zM1245 1038l-625 -738.001c74.667 -44 157 -66 247 -66c132 0 244.667 48 338 144s140 214.333 140 355c0 112.667 -33.333 214.334 -100 305.001z" />
    <glyph glyph-name="Ugrave" unicode="&#xd9;" horiz-adv-x="1311" 
d="M158 1471l280.998 -0.000976562v-952c0 -82 7.16699 -140 21.5 -174s38 -61.167 71 -81.5s72.833 -30.5 119.5 -30.5c49.333 0 91.833 11.333 127.5 34s60.334 51.5 74.001 86.5s20.5 101.833 20.5 200.5v917h281v-877c0 -148 -8.33301 -250.667 -25 -308
s-48.5 -112.666 -95.5 -165.999s-101.167 -92.833 -162.5 -118.5s-132.666 -38.5 -213.999 -38.5c-106.667 0 -199.5 24.5 -278.5 73.5s-135.5 110.333 -169.5 184s-51 198.167 -51 373.5v877zM606.998 1977l239 -392h-196l-366 392h323z" />
    <glyph glyph-name="Uacute" unicode="&#xda;" horiz-adv-x="1311" 
d="M158 1471l280.998 -0.000976562v-952c0 -82 7.16699 -140 21.5 -174s38 -61.167 71 -81.5s72.833 -30.5 119.5 -30.5c49.333 0 91.833 11.333 127.5 34s60.334 51.5 74.001 86.5s20.5 101.833 20.5 200.5v917h281v-877c0 -148 -8.33301 -250.667 -25 -308
s-48.5 -112.666 -95.5 -165.999s-101.167 -92.833 -162.5 -118.5s-132.666 -38.5 -213.999 -38.5c-106.667 0 -199.5 24.5 -278.5 73.5s-135.5 110.333 -169.5 184s-51 198.167 -51 373.5v877zM702.998 1977h323l-366 -392h-196z" />
    <glyph glyph-name="Ucircumflex" unicode="&#xdb;" horiz-adv-x="1311" 
d="M158 1471l280.998 -0.000976562v-952c0 -82 7.16699 -140 21.5 -174s38 -61.167 71 -81.5s72.833 -30.5 119.5 -30.5c49.333 0 91.833 11.333 127.5 34s60.334 51.5 74.001 86.5s20.5 101.833 20.5 200.5v917h281v-877c0 -148 -8.33301 -250.667 -25 -308
s-48.5 -112.666 -95.5 -165.999s-101.167 -92.833 -162.5 -118.5s-132.666 -38.5 -213.999 -38.5c-106.667 0 -199.5 24.5 -278.5 73.5s-135.5 110.333 -169.5 184s-51 198.167 -51 373.5v877zM246.998 1585l300 283h219l298 -283h-298l-108 131l-111 -131h-300z" />
    <glyph glyph-name="Udieresis" unicode="&#xdc;" horiz-adv-x="1311" 
d="M158 1471l280.998 -0.000976562v-952c0 -82 7.16699 -140 21.5 -174s38 -61.167 71 -81.5s72.833 -30.5 119.5 -30.5c49.333 0 91.833 11.333 127.5 34s60.334 51.5 74.001 86.5s20.5 101.833 20.5 200.5v917h281v-877c0 -148 -8.33301 -250.667 -25 -308
s-48.5 -112.666 -95.5 -165.999s-101.167 -92.833 -162.5 -118.5s-132.666 -38.5 -213.999 -38.5c-106.667 0 -199.5 24.5 -278.5 73.5s-135.5 110.333 -169.5 184s-51 198.167 -51 373.5v877zM433.998 1871c40 0 74 -14 102 -42s42 -61.667 42 -101c0 -40 -14 -74 -42 -102
s-62 -42 -102 -42c-39.333 0 -73 14 -101 42s-42 62 -42 102c0 39.333 14 73 42 101s61.667 42 101 42zM876.998 1871c40 0 74 -14 102 -42s42 -61.667 42 -101c0 -40 -14 -74 -42 -102s-62 -42 -102 -42c-39.333 0 -73 14 -101 42s-42 62 -42 102c0 39.333 14 73 42 101
s61.667 42 101 42z" />
    <glyph glyph-name="Yacute" unicode="&#xdd;" horiz-adv-x="1270" 
d="M63 1471h301l274 -528l272 528h297l-430 -834v-637h-282v637zM683 1977h323l-366 -392h-196z" />
    <glyph glyph-name="Thorn" unicode="&#xde;" horiz-adv-x="1147" 
d="M167 1471h280v-312c170.667 0 291.5 -14.5 362.5 -43.5s127.333 -76.667 169 -143s62.5 -146.166 62.5 -239.499c0 -103.333 -26.833 -188.833 -80.5 -256.5s-126.5 -114.834 -218.5 -141.501c-54 -16 -152.333 -24 -295 -24v-311h-280v1471zM447 584h89
c70 0 118.667 5 146 15s48.833 26.667 64.5 50s23.5 51.333 23.5 84c0 56 -22 97.333 -66 124c-32 19.333 -91.333 29 -178 29h-79v-302z" />
    <glyph glyph-name="germandbls" unicode="&#xdf;" 
d="M579 705l0.000976562 243.997c68.667 0 123 16.167 163 48.5s60 74.5 60 126.5c0 44.667 -15.667 82.334 -47 113.001s-70.333 46 -117 46c-44 0 -84.833 -13.667 -122.5 -41s-64.667 -64 -81 -110s-24.5 -125 -24.5 -237v-895h-273v895c0 162.667 19.333 285.667 58 369
s97.5 149.5 176.5 198.5s170.833 73.5 275.5 73.5c128 0 231.833 -36.5 311.5 -109.5s119.5 -161.167 119.5 -264.5c0 -56.667 -12.333 -108.667 -37 -156s-58.167 -85.5 -100.5 -114.5s-99.833 -49.833 -172.5 -62.5c80 -14 147.5 -40.667 202.5 -80
s97.167 -87.5 126.5 -144.5s44 -121.5 44 -193.5c0 -83.333 -18.833 -158.666 -56.5 -225.999s-90.5 -119.666 -158.5 -156.999s-144 -56 -228 -56c-56.667 0 -112.667 11.333 -168 34v255c42 -22 84.333 -33 127 -33c60.667 0 111.5 21.5 152.5 64.5
s61.5 94.833 61.5 155.5c0 48 -11.833 91.167 -35.5 129.5s-55.834 68.5 -96.501 90.5s-94 34.333 -160 37z" />
    <glyph glyph-name="agrave" unicode="&#xe0;" horiz-adv-x="1352" 
d="M942 1088h272.003v-1088h-272v115c-53.333 -50.667 -106.833 -87.167 -160.5 -109.5s-111.834 -33.5 -174.501 -33.5c-140.667 0 -262.334 54.5 -365.001 163.5s-154 244.5 -154 406.5c0 168 49.667 305.667 149 413s220 161 362 161
c65.333 0 126.666 -12.333 183.999 -37s110.333 -61.667 159 -111v120zM655.003 864c-84.667 0 -154.999 -29.835 -210.999 -89.502s-84 -136.167 -84 -229.5c0 -94 28.5 -171.333 85.5 -232s127.167 -91 210.5 -91c86 0 157.333 29.833 214 89.5s85 137.834 85 234.501
c0 94.667 -28.333 171.334 -85 230.001s-128.334 88 -215.001 88zM628.004 1679l239 -392h-196l-366 392h323z" />
    <glyph glyph-name="aacute" unicode="&#xe1;" horiz-adv-x="1352" 
d="M942 1088h272.003v-1088h-272v115c-53.333 -50.667 -106.833 -87.167 -160.5 -109.5s-111.834 -33.5 -174.501 -33.5c-140.667 0 -262.334 54.5 -365.001 163.5s-154 244.5 -154 406.5c0 168 49.667 305.667 149 413s220 161 362 161
c65.333 0 126.666 -12.333 183.999 -37s110.333 -61.667 159 -111v120zM655.003 864c-84.667 0 -154.999 -29.835 -210.999 -89.502s-84 -136.167 -84 -229.5c0 -94 28.5 -171.333 85.5 -232s127.167 -91 210.5 -91c86 0 157.333 29.833 214 89.5s85 137.834 85 234.501
c0 94.667 -28.333 171.334 -85 230.001s-128.334 88 -215.001 88zM724.004 1679h323l-366 -392h-196z" />
    <glyph glyph-name="acircumflex" unicode="&#xe2;" horiz-adv-x="1352" 
d="M942 1088h272.003v-1088h-272v115c-53.333 -50.667 -106.833 -87.167 -160.5 -109.5s-111.834 -33.5 -174.501 -33.5c-140.667 0 -262.334 54.5 -365.001 163.5s-154 244.5 -154 406.5c0 168 49.667 305.667 149 413s220 161 362 161
c65.333 0 126.666 -12.333 183.999 -37s110.333 -61.667 159 -111v120zM655.003 864c-84.667 0 -154.999 -29.835 -210.999 -89.502s-84 -136.167 -84 -229.5c0 -94 28.5 -171.333 85.5 -232s127.167 -91 210.5 -91c86 0 157.333 29.833 214 89.5s85 137.834 85 234.501
c0 94.667 -28.333 171.334 -85 230.001s-128.334 88 -215.001 88zM267.004 1287l300 283h219l298 -283h-298l-108 131l-111 -131h-300z" />
    <glyph glyph-name="atilde" unicode="&#xe3;" horiz-adv-x="1352" 
d="M942 1088h272.003v-1088h-272v115c-53.333 -50.667 -106.833 -87.167 -160.5 -109.5s-111.834 -33.5 -174.501 -33.5c-140.667 0 -262.334 54.5 -365.001 163.5s-154 244.5 -154 406.5c0 168 49.667 305.667 149 413s220 161 362 161
c65.333 0 126.666 -12.333 183.999 -37s110.333 -61.667 159 -111v120zM655.003 864c-84.667 0 -154.999 -29.835 -210.999 -89.502s-84 -136.167 -84 -229.5c0 -94 28.5 -171.333 85.5 -232s127.167 -91 210.5 -91c86 0 157.333 29.833 214 89.5s85 137.834 85 234.501
c0 94.667 -28.333 171.334 -85 230.001s-128.334 88 -215.001 88zM369.004 1291l-109.998 165c85.333 66 171.666 99 258.999 99c32.667 0 88.667 -11.333 168 -34c54 -14.667 97 -22 129 -22c56 0 114 17.333 174 52l104 -156c-84 -72 -165.333 -108 -244 -108
c-42 0 -92.333 9 -151 27c-48 14 -78.333 22.333 -91 25c-17.333 2.66699 -38 4 -62 4c-58.667 0 -117.334 -17.333 -176.001 -52z" />
    <glyph glyph-name="adieresis" unicode="&#xe4;" horiz-adv-x="1352" 
d="M942 1088h272.003v-1088h-272v115c-53.333 -50.667 -106.833 -87.167 -160.5 -109.5s-111.834 -33.5 -174.501 -33.5c-140.667 0 -262.334 54.5 -365.001 163.5s-154 244.5 -154 406.5c0 168 49.667 305.667 149 413s220 161 362 161
c65.333 0 126.666 -12.333 183.999 -37s110.333 -61.667 159 -111v120zM655.003 864c-84.667 0 -154.999 -29.835 -210.999 -89.502s-84 -136.167 -84 -229.5c0 -94 28.5 -171.333 85.5 -232s127.167 -91 210.5 -91c86 0 157.333 29.833 214 89.5s85 137.834 85 234.501
c0 94.667 -28.333 171.334 -85 230.001s-128.334 88 -215.001 88zM454.004 1573c40 0 74 -14 102 -42s42 -61.667 42 -101c0 -40 -14 -74 -42 -102s-62 -42 -102 -42c-39.333 0 -73 14 -101 42s-42 62 -42 102c0 39.333 14 73 42 101s61.667 42 101 42zM897.004 1573
c40 0 74 -14 102 -42s42 -61.667 42 -101c0 -40 -14 -74 -42 -102s-62 -42 -102 -42c-39.333 0 -73 14 -101 42s-42 62 -42 102c0 39.333 14 73 42 101s61.667 42 101 42z" />
    <glyph glyph-name="aring" unicode="&#xe5;" horiz-adv-x="1352" 
d="M942 1088h272.003v-1088h-272v115c-53.333 -50.667 -106.833 -87.167 -160.5 -109.5s-111.834 -33.5 -174.501 -33.5c-140.667 0 -262.334 54.5 -365.001 163.5s-154 244.5 -154 406.5c0 168 49.667 305.667 149 413s220 161 362 161
c65.333 0 126.666 -12.333 183.999 -37s110.333 -61.667 159 -111v120zM655.003 864c-84.667 0 -154.999 -29.835 -210.999 -89.502s-84 -136.167 -84 -229.5c0 -94 28.5 -171.333 85.5 -232s127.167 -91 210.5 -91c86 0 157.333 29.833 214 89.5s85 137.834 85 234.501
c0 94.667 -28.333 171.334 -85 230.001s-128.334 88 -215.001 88zM676.004 1734c60.667 0 112.332 -21.833 154.999 -65.5s64 -96.167 64 -157.5c0 -62 -21.5 -114.833 -64.5 -158.5s-94.5 -65.5 -154.5 -65.5s-111.5 21.833 -154.5 65.5s-64.5 96.5 -64.5 158.5
c0 61.333 21.333 113.833 64 157.5s94.334 65.5 155.001 65.5zM676.002 1605c-22.667 0 -42 -8.66699 -58 -26s-24 -38.333 -24 -63c0 -25.333 8.16699 -46.666 24.5 -63.999s35.5 -26 57.5 -26s41.167 8.66699 57.5 26s24.5 38.666 24.5 63.999c0 24.667 -8 45.667 -24 63
s-35.333 26 -58 26z" />
    <glyph glyph-name="ae" unicode="&#xe6;" horiz-adv-x="2212" 
d="M992 1088h251v-80c90.667 72 198 108 322 108c105.333 0 202.333 -25.5 291 -76.5s157.167 -121.5 205.5 -211.5s72.5 -191 72.5 -303l-2 -62h-876c16 -79.333 51.333 -141.5 106 -186.5s125.334 -67.5 212.001 -67.5c50 0 94.833 8.33301 134.5 25s80.167 45 121.5 85
l230 -108c-36 -52.667 -77.667 -96 -125 -130s-101.666 -60.667 -162.999 -80s-128 -29 -200 -29c-133.333 0 -243 35.333 -329 106v-78h-251v138c-52.667 -59.333 -107.334 -101.833 -164.001 -127.5s-122 -38.5 -196 -38.5c-154 0 -283 54 -387 162s-156 243.667 -156 407
c0 160.667 53.167 296.667 159.5 408s233.166 167 380.499 167c80.667 0 155.334 -17.667 224.001 -53c47.333 -24 93.666 -63 138.999 -117v142zM1860 676c-16.667 62 -50.499 111.999 -101.499 149.999s-112.5 57 -184.5 57c-73.333 0 -136.333 -17.667 -189 -53
s-91.334 -86.666 -116.001 -153.999h591zM683.001 867.999c-90 0 -165.167 -30.832 -225.5 -92.499s-90.5 -139.5 -90.5 -233.5c0 -92.667 29.5 -169.334 88.5 -230.001s133.833 -91 224.5 -91c94 0 169.833 30 227.5 90s86.5 139.667 86.5 239c0 92 -29.5 168 -88.5 228
s-133.167 90 -222.5 90z" />
    <glyph glyph-name="ccedilla" unicode="&#xe7;" horiz-adv-x="1311" 
d="M1203 868l-227 -125c-42.667 44.667 -84.834 75.667 -126.501 93s-90.5 26 -146.5 26c-102 0 -184.5 -30.5 -247.5 -91.5s-94.5 -139.167 -94.5 -234.5c0 -92.667 30.333 -168.334 91 -227.001s140.334 -88 239.001 -88c122 0 217 41.667 285 125l215 -147
c-116.667 -151.333 -281.334 -227 -494.001 -227c-191.333 0 -341.166 56.667 -449.499 170s-162.5 246 -162.5 398c0 105.333 26.333 202.333 79 291s126.167 158.334 220.5 209.001s199.833 76 316.5 76c108 0 205 -21.5 291 -64.5s156.333 -104.167 211 -183.5zM570 16
h168.999l-12 -46c44.667 -10 79.834 -29.5 105.501 -58.5s38.5 -60.833 38.5 -95.5c0 -54 -22.667 -100.333 -68 -139s-108.333 -58 -189 -58c-65.333 0 -139.333 15.333 -222 46l36 129c48 -15.333 95 -23 141 -23c34 0 59.333 6.5 76 19.5s25 30.167 25 51.5
c0 17.333 -6.33301 31 -19 41s-32.667 15 -60 15l-56 -2z" />
    <glyph glyph-name="egrave" unicode="&#xe8;" horiz-adv-x="1311" 
d="M1228 465h-876.999c12.667 -77.333 46.5 -138.833 101.5 -184.5s125.167 -68.5 210.5 -68.5c102 0 189.667 35.667 263 107l230 -108c-57.333 -81.333 -126 -141.5 -206 -180.5s-175 -58.5 -285 -58.5c-170.667 0 -309.667 53.833 -417 161.5s-161 242.5 -161 404.5
c0 166 53.5 303.833 160.5 413.5s241.167 164.5 402.5 164.5c171.333 0 310.666 -54.833 417.999 -164.5s161 -254.5 161 -434.5zM954.001 680c-18 60.667 -53.5 110 -106.5 148s-114.5 57 -184.5 57c-76 0 -142.667 -21.333 -200 -64
c-36 -26.667 -69.333 -73.667 -100 -141h591zM607.001 1679l239 -392h-196l-366 392h323z" />
    <glyph glyph-name="eacute" unicode="&#xe9;" horiz-adv-x="1311" 
d="M1228 465h-876.999c12.667 -77.333 46.5 -138.833 101.5 -184.5s125.167 -68.5 210.5 -68.5c102 0 189.667 35.667 263 107l230 -108c-57.333 -81.333 -126 -141.5 -206 -180.5s-175 -58.5 -285 -58.5c-170.667 0 -309.667 53.833 -417 161.5s-161 242.5 -161 404.5
c0 166 53.5 303.833 160.5 413.5s241.167 164.5 402.5 164.5c171.333 0 310.666 -54.833 417.999 -164.5s161 -254.5 161 -434.5zM954.001 680c-18 60.667 -53.5 110 -106.5 148s-114.5 57 -184.5 57c-76 0 -142.667 -21.333 -200 -64
c-36 -26.667 -69.333 -73.667 -100 -141h591zM703.001 1679h323l-366 -392h-196z" />
    <glyph glyph-name="ecircumflex" unicode="&#xea;" horiz-adv-x="1311" 
d="M1228 465h-876.999c12.667 -77.333 46.5 -138.833 101.5 -184.5s125.167 -68.5 210.5 -68.5c102 0 189.667 35.667 263 107l230 -108c-57.333 -81.333 -126 -141.5 -206 -180.5s-175 -58.5 -285 -58.5c-170.667 0 -309.667 53.833 -417 161.5s-161 242.5 -161 404.5
c0 166 53.5 303.833 160.5 413.5s241.167 164.5 402.5 164.5c171.333 0 310.666 -54.833 417.999 -164.5s161 -254.5 161 -434.5zM954.001 680c-18 60.667 -53.5 110 -106.5 148s-114.5 57 -184.5 57c-76 0 -142.667 -21.333 -200 -64
c-36 -26.667 -69.333 -73.667 -100 -141h591zM247.001 1287l300 283h219l298 -283h-298l-108 131l-111 -131h-300z" />
    <glyph glyph-name="edieresis" unicode="&#xeb;" horiz-adv-x="1311" 
d="M1228 465h-876.999c12.667 -77.333 46.5 -138.833 101.5 -184.5s125.167 -68.5 210.5 -68.5c102 0 189.667 35.667 263 107l230 -108c-57.333 -81.333 -126 -141.5 -206 -180.5s-175 -58.5 -285 -58.5c-170.667 0 -309.667 53.833 -417 161.5s-161 242.5 -161 404.5
c0 166 53.5 303.833 160.5 413.5s241.167 164.5 402.5 164.5c171.333 0 310.666 -54.833 417.999 -164.5s161 -254.5 161 -434.5zM954.001 680c-18 60.667 -53.5 110 -106.5 148s-114.5 57 -184.5 57c-76 0 -142.667 -21.333 -200 -64
c-36 -26.667 -69.333 -73.667 -100 -141h591zM434.001 1573c40 0 74 -14 102 -42s42 -61.667 42 -101c0 -40 -14 -74 -42 -102s-62 -42 -102 -42c-39.333 0 -73 14 -101 42s-42 62 -42 102c0 39.333 14 73 42 101s61.667 42 101 42zM877.001 1573c40 0 74 -14 102 -42
s42 -61.667 42 -101c0 -40 -14 -74 -42 -102s-62 -42 -102 -42c-39.333 0 -73 14 -101 42s-42 62 -42 102c0 39.333 14 73 42 101s61.667 42 101 42z" />
    <glyph glyph-name="igrave" unicode="&#xec;" horiz-adv-x="491" 
d="M108 1088h274v-1088h-274v1088zM198 1679l239 -392h-196l-366 392h323z" />
    <glyph glyph-name="iacute" unicode="&#xed;" horiz-adv-x="491" 
d="M108 1088h274v-1088h-274v1088zM294 1679h323l-366 -392h-196z" />
    <glyph glyph-name="icircumflex" unicode="&#xee;" horiz-adv-x="491" 
d="M108 1088h274v-1088h-274v1088zM-163 1287l300 283h219l298 -283h-298l-108 131l-111 -131h-300z" />
    <glyph glyph-name="idieresis" unicode="&#xef;" horiz-adv-x="491" 
d="M108 1088h274v-1088h-274v1088zM24 1573c40 0 74 -14 102 -42s42 -61.667 42 -101c0 -40 -14 -74 -42 -102s-62 -42 -102 -42c-39.333 0 -73 14 -101 42s-42 62 -42 102c0 39.333 14 73 42 101s61.667 42 101 42zM467 1573c40 0 74 -14 102 -42s42 -61.667 42 -101
c0 -40 -14 -74 -42 -102s-62 -42 -102 -42c-39.333 0 -73 14 -101 42s-42 62 -42 102c0 39.333 14 73 42 101s61.667 42 101 42z" />
    <glyph glyph-name="eth" unicode="&#xf0;" horiz-adv-x="1311" 
d="M384 1508h265.001l82 -60l199 60l50 -157l-104 -34c114.667 -106 202.667 -223 264 -351s92 -256 92 -384c0 -178 -55.5 -324.167 -166.5 -438.5s-248.5 -171.5 -412.5 -171.5c-156.667 0 -290.167 55.667 -400.5 167s-165.5 246.333 -165.5 405
c0 168 62 309.667 186 425c105.333 98 222.666 147 351.999 147c42 0 84.667 -9.33301 128 -28c-18 42.667 -52.667 95.667 -104 159l-265 -82l-51 159l192 61c-64 59.333 -111 100.333 -141 123zM657.001 858c-86 0 -157 -28.999 -213 -86.999s-84 -133.667 -84 -227
c0 -94.667 27.5 -171.334 82.5 -230.001s125.167 -88 210.5 -88c86 0 157.667 29.667 215 89s86 135.333 86 228c0 92 -28 167.5 -84 226.5s-127 88.5 -213 88.5z" />
    <glyph glyph-name="ntilde" unicode="&#xf1;" 
d="M138 1088h272v-111c62 52 118.167 88.167 168.5 108.5s101.833 30.5 154.5 30.5c108 0 199.667 -37.667 275 -113c63.333 -64 95 -158.667 95 -284v-719h-270v477c0 130 -5.83301 216.333 -17.5 259s-32 75.167 -61 97.5s-64.833 33.5 -107.5 33.5
c-55.333 0 -102.833 -18.5 -142.5 -55.5s-67.167 -88.167 -82.5 -153.5c-8 -34 -12 -107.667 -12 -221v-437h-272v1088zM308 1291l-109.998 165c85.333 66 171.666 99 258.999 99c32.667 0 88.667 -11.333 168 -34c54 -14.667 97 -22 129 -22c56 0 114 17.333 174 52
l104 -156c-84 -72 -165.333 -108 -244 -108c-42 0 -92.333 9 -151 27c-48 14 -78.333 22.333 -91 25c-17.333 2.66699 -38 4 -62 4c-58.667 0 -117.334 -17.333 -176.001 -52z" />
    <glyph glyph-name="ograve" unicode="&#xf2;" horiz-adv-x="1311" 
d="M649 1116c102.667 0 199.167 -25.668 289.5 -77.001s160.833 -121 211.5 -209s76 -183 76 -285c0 -102.667 -25.5 -198.667 -76.5 -288s-120.5 -159.166 -208.5 -209.499s-185 -75.5 -291 -75.5c-156 0 -289.167 55.5 -399.5 166.5s-165.5 245.833 -165.5 404.5
c0 170 62.333 311.667 187 425c109.333 98.667 235 148 377 148zM653 858.999c-84.667 0 -155.166 -29.4971 -211.499 -88.4971s-84.5 -134.5 -84.5 -226.5c0 -94.667 27.833 -171.334 83.5 -230.001s126.167 -88 211.5 -88s156.333 29.667 213 89s85 135.666 85 228.999
s-27.833 169.166 -83.5 227.499s-126.834 87.5 -213.501 87.5zM607.001 1679l239 -392h-196l-366 392h323z" />
    <glyph glyph-name="oacute" unicode="&#xf3;" horiz-adv-x="1311" 
d="M649 1116c102.667 0 199.167 -25.668 289.5 -77.001s160.833 -121 211.5 -209s76 -183 76 -285c0 -102.667 -25.5 -198.667 -76.5 -288s-120.5 -159.166 -208.5 -209.499s-185 -75.5 -291 -75.5c-156 0 -289.167 55.5 -399.5 166.5s-165.5 245.833 -165.5 404.5
c0 170 62.333 311.667 187 425c109.333 98.667 235 148 377 148zM653 858.999c-84.667 0 -155.166 -29.4971 -211.499 -88.4971s-84.5 -134.5 -84.5 -226.5c0 -94.667 27.833 -171.334 83.5 -230.001s126.167 -88 211.5 -88s156.333 29.667 213 89s85 135.666 85 228.999
s-27.833 169.166 -83.5 227.499s-126.834 87.5 -213.501 87.5zM703.001 1679h323l-366 -392h-196z" />
    <glyph glyph-name="ocircumflex" unicode="&#xf4;" horiz-adv-x="1311" 
d="M649 1116c102.667 0 199.167 -25.668 289.5 -77.001s160.833 -121 211.5 -209s76 -183 76 -285c0 -102.667 -25.5 -198.667 -76.5 -288s-120.5 -159.166 -208.5 -209.499s-185 -75.5 -291 -75.5c-156 0 -289.167 55.5 -399.5 166.5s-165.5 245.833 -165.5 404.5
c0 170 62.333 311.667 187 425c109.333 98.667 235 148 377 148zM653 858.999c-84.667 0 -155.166 -29.4971 -211.499 -88.4971s-84.5 -134.5 -84.5 -226.5c0 -94.667 27.833 -171.334 83.5 -230.001s126.167 -88 211.5 -88s156.333 29.667 213 89s85 135.666 85 228.999
s-27.833 169.166 -83.5 227.499s-126.834 87.5 -213.501 87.5zM247.001 1287l300 283h219l298 -283h-298l-108 131l-111 -131h-300z" />
    <glyph glyph-name="otilde" unicode="&#xf5;" horiz-adv-x="1311" 
d="M649 1116c102.667 0 199.167 -25.668 289.5 -77.001s160.833 -121 211.5 -209s76 -183 76 -285c0 -102.667 -25.5 -198.667 -76.5 -288s-120.5 -159.166 -208.5 -209.499s-185 -75.5 -291 -75.5c-156 0 -289.167 55.5 -399.5 166.5s-165.5 245.833 -165.5 404.5
c0 170 62.333 311.667 187 425c109.333 98.667 235 148 377 148zM653 858.999c-84.667 0 -155.166 -29.4971 -211.499 -88.4971s-84.5 -134.5 -84.5 -226.5c0 -94.667 27.833 -171.334 83.5 -230.001s126.167 -88 211.5 -88s156.333 29.667 213 89s85 135.666 85 228.999
s-27.833 169.166 -83.5 227.499s-126.834 87.5 -213.501 87.5zM349.001 1291l-109.998 165c85.333 66 171.666 99 258.999 99c32.667 0 88.667 -11.333 168 -34c54 -14.667 97 -22 129 -22c56 0 114 17.333 174 52l104 -156c-84 -72 -165.333 -108 -244 -108
c-42 0 -92.333 9 -151 27c-48 14 -78.333 22.333 -91 25c-17.333 2.66699 -38 4 -62 4c-58.667 0 -117.334 -17.333 -176.001 -52z" />
    <glyph glyph-name="odieresis" unicode="&#xf6;" horiz-adv-x="1311" 
d="M649 1116c102.667 0 199.167 -25.668 289.5 -77.001s160.833 -121 211.5 -209s76 -183 76 -285c0 -102.667 -25.5 -198.667 -76.5 -288s-120.5 -159.166 -208.5 -209.499s-185 -75.5 -291 -75.5c-156 0 -289.167 55.5 -399.5 166.5s-165.5 245.833 -165.5 404.5
c0 170 62.333 311.667 187 425c109.333 98.667 235 148 377 148zM653 858.999c-84.667 0 -155.166 -29.4971 -211.499 -88.4971s-84.5 -134.5 -84.5 -226.5c0 -94.667 27.833 -171.334 83.5 -230.001s126.167 -88 211.5 -88s156.333 29.667 213 89s85 135.666 85 228.999
s-27.833 169.166 -83.5 227.499s-126.834 87.5 -213.501 87.5zM433.001 1573c40 0 74 -14 102 -42s42 -61.667 42 -101c0 -40 -14 -74 -42 -102s-62 -42 -102 -42c-39.333 0 -73 14 -101 42s-42 62 -42 102c0 39.333 14 73 42 101s61.667 42 101 42zM876.001 1573
c40 0 74 -14 102 -42s42 -61.667 42 -101c0 -40 -14 -74 -42 -102s-62 -42 -102 -42c-39.333 0 -73 14 -101 42s-42 62 -42 102c0 39.333 14 73 42 101s61.667 42 101 42z" />
    <glyph glyph-name="divide" unicode="&#xf7;" horiz-adv-x="1124" 
d="M401 1326h322v-321h-322v321zM62 860h999v-250h-999v250zM401 466h322v-321h-322v321z" />
    <glyph glyph-name="oslash" unicode="&#xf8;" horiz-adv-x="1352" 
d="M1123 900c82.667 -106.667 124.001 -225.001 124.001 -355.001c0 -102.667 -25.5 -198.667 -76.5 -288s-120.5 -159.166 -208.5 -209.499s-184.667 -75.5 -290 -75.5c-112 0 -213 29.333 -303 88l-130 -145l-125 107l130 146c-92 106 -138 231 -138 375
c0 169.333 62 310.333 186 423c109.333 100 235.666 150 378.999 150c118.667 0 229 -34.333 331 -103l126 140l123 -110zM423.001 366.999l406 453c-45.333 26 -96.666 39 -153.999 39c-84.667 0 -155.334 -29.5 -212.001 -88.5s-85 -134.5 -85 -226.5
c0 -62.667 15 -121.667 45 -177zM939.001 695.999l-395 -441c42 -19.333 85.667 -29 131 -29c84 0 154.333 29.667 211 89s85 135.666 85 228.999c0 54.667 -10.667 105.334 -32 152.001z" />
    <glyph glyph-name="ugrave" unicode="&#xf9;" 
d="M137 1088l276 0.000976562v-524c0 -102 7 -172.833 21 -212.5s36.5 -70.5 67.5 -92.5s69.167 -33 114.5 -33s83.833 10.833 115.5 32.5s55.167 53.5 70.5 95.5c11.333 31.333 17 98.333 17 201v533h274v-461c0 -190 -15 -320 -45 -390
c-36.667 -85.333 -90.667 -150.833 -162 -196.5s-162 -68.5 -272 -68.5c-119.333 0 -215.833 26.667 -289.5 80s-125.5 127.666 -155.5 222.999c-21.333 66 -32 186 -32 360v453zM567 1679l239 -392h-196l-366 392h323z" />
    <glyph glyph-name="uacute" unicode="&#xfa;" 
d="M137 1088l276 0.000976562v-524c0 -102 7 -172.833 21 -212.5s36.5 -70.5 67.5 -92.5s69.167 -33 114.5 -33s83.833 10.833 115.5 32.5s55.167 53.5 70.5 95.5c11.333 31.333 17 98.333 17 201v533h274v-461c0 -190 -15 -320 -45 -390
c-36.667 -85.333 -90.667 -150.833 -162 -196.5s-162 -68.5 -272 -68.5c-119.333 0 -215.833 26.667 -289.5 80s-125.5 127.666 -155.5 222.999c-21.333 66 -32 186 -32 360v453zM663 1679h323l-366 -392h-196z" />
    <glyph glyph-name="ucircumflex" unicode="&#xfb;" 
d="M137 1088l276 0.000976562v-524c0 -102 7 -172.833 21 -212.5s36.5 -70.5 67.5 -92.5s69.167 -33 114.5 -33s83.833 10.833 115.5 32.5s55.167 53.5 70.5 95.5c11.333 31.333 17 98.333 17 201v533h274v-461c0 -190 -15 -320 -45 -390
c-36.667 -85.333 -90.667 -150.833 -162 -196.5s-162 -68.5 -272 -68.5c-119.333 0 -215.833 26.667 -289.5 80s-125.5 127.666 -155.5 222.999c-21.333 66 -32 186 -32 360v453zM206 1287l300 283h219l298 -283h-298l-108 131l-111 -131h-300z" />
    <glyph glyph-name="udieresis" unicode="&#xfc;" 
d="M137 1088l276 0.000976562v-524c0 -102 7 -172.833 21 -212.5s36.5 -70.5 67.5 -92.5s69.167 -33 114.5 -33s83.833 10.833 115.5 32.5s55.167 53.5 70.5 95.5c11.333 31.333 17 98.333 17 201v533h274v-461c0 -190 -15 -320 -45 -390
c-36.667 -85.333 -90.667 -150.833 -162 -196.5s-162 -68.5 -272 -68.5c-119.333 0 -215.833 26.667 -289.5 80s-125.5 127.666 -155.5 222.999c-21.333 66 -32 186 -32 360v453zM393 1573c40 0 74 -14 102 -42s42 -61.667 42 -101c0 -40 -14 -74 -42 -102s-62 -42 -102 -42
c-39.333 0 -73 14 -101 42s-42 62 -42 102c0 39.333 14 73 42 101s61.667 42 101 42zM836 1573c40 0 74 -14 102 -42s42 -61.667 42 -101c0 -40 -14 -74 -42 -102s-62 -42 -102 -42c-39.333 0 -73 14 -101 42s-42 62 -42 102c0 39.333 14 73 42 101s61.667 42 101 42z" />
    <glyph glyph-name="yacute" unicode="&#xfd;" horiz-adv-x="1188" 
d="M17 1088h279l283 -683l312 683h280l-682 -1486h-282l224 479zM641 1679h323l-366 -392h-196z" />
    <glyph glyph-name="thorn" unicode="&#xfe;" horiz-adv-x="1352" 
d="M409 1508l0.00292969 -540c49.333 49.333 102.666 86.333 159.999 111s118.666 37 183.999 37c142 0 262.667 -53.667 362 -161s149 -245 149 -413c0 -162 -51.333 -297.5 -154 -406.5s-224.334 -163.5 -365.001 -163.5c-62.667 0 -121 11.167 -175 33.5
s-107.667 58.833 -161 109.5v-513h-271v1906h271zM696.003 864c-86 0 -157.333 -29.3311 -214 -87.998s-85 -135.334 -85 -230.001c0 -96.667 28.333 -174.834 85 -234.501s128 -89.5 214 -89.5c83.333 0 153.5 30.333 210.5 91s85.5 138 85.5 232
c0 93.333 -28 169.833 -84 229.5s-126.667 89.5 -212 89.5z" />
    <glyph glyph-name="ydieresis" unicode="&#xff;" horiz-adv-x="1188" 
d="M17 1088h279l283 -683l312 683h280l-682 -1486h-282l224 479zM372 1573c40 0 74 -14 102 -42s42 -61.667 42 -101c0 -40 -14 -74 -42 -102s-62 -42 -102 -42c-39.333 0 -73 14 -101 42s-42 62 -42 102c0 39.333 14 73 42 101s61.667 42 101 42zM815 1573
c40 0 74 -14 102 -42s42 -61.667 42 -101c0 -40 -14 -74 -42 -102s-62 -42 -102 -42c-39.333 0 -73 14 -101 42s-42 62 -42 102c0 39.333 14 73 42 101s61.667 42 101 42z" />
    <glyph glyph-name="Amacron" unicode="&#x100;" horiz-adv-x="1515" 
d="M616 1471h284l566 -1471h-291l-115 303h-600l-120 -303h-291zM760 1081l-196 -505h391zM473 1585v221h569v-221h-569z" />
    <glyph glyph-name="amacron" unicode="&#x101;" horiz-adv-x="1352" 
d="M942 1088h272.003v-1088h-272v115c-53.333 -50.667 -106.833 -87.167 -160.5 -109.5s-111.834 -33.5 -174.501 -33.5c-140.667 0 -262.334 54.5 -365.001 163.5s-154 244.5 -154 406.5c0 168 49.667 305.667 149 413s220 161 362 161
c65.333 0 126.666 -12.333 183.999 -37s110.333 -61.667 159 -111v120zM655.003 864c-84.667 0 -154.999 -29.835 -210.999 -89.502s-84 -136.167 -84 -229.5c0 -94 28.5 -171.333 85.5 -232s127.167 -91 210.5 -91c86 0 157.333 29.833 214 89.5s85 137.834 85 234.501
c0 94.667 -28.333 171.334 -85 230.001s-128.334 88 -215.001 88zM366.004 1287v221h569v-221h-569z" />
    <glyph glyph-name="Abreve" unicode="&#x102;" horiz-adv-x="1515" 
d="M616 1471h284l566 -1471h-291l-115 303h-600l-120 -303h-291zM760 1081l-196 -505h391zM360 1866h221.001c17.333 -27.333 41.5 -47.833 72.5 -61.5s68.833 -20.5 113.5 -20.5c45.333 0 86.333 8 123 24c24 10.667 45 30 63 58h221
c-12.667 -84.667 -53.167 -152.667 -121.5 -204s-163.833 -77 -286.5 -77c-82.667 0 -151.834 11.5 -207.501 34.5s-100.5 55.833 -134.5 98.5s-55.333 92 -64 148z" />
    <glyph glyph-name="abreve" unicode="&#x103;" horiz-adv-x="1352" 
d="M942 1088h272.003v-1088h-272v115c-53.333 -50.667 -106.833 -87.167 -160.5 -109.5s-111.834 -33.5 -174.501 -33.5c-140.667 0 -262.334 54.5 -365.001 163.5s-154 244.5 -154 406.5c0 168 49.667 305.667 149 413s220 161 362 161
c65.333 0 126.666 -12.333 183.999 -37s110.333 -61.667 159 -111v120zM655.003 864c-84.667 0 -154.999 -29.835 -210.999 -89.502s-84 -136.167 -84 -229.5c0 -94 28.5 -171.333 85.5 -232s127.167 -91 210.5 -91c86 0 157.333 29.833 214 89.5s85 137.834 85 234.501
c0 94.667 -28.333 171.334 -85 230.001s-128.334 88 -215.001 88zM251.004 1568h221.001c17.333 -27.333 41.5 -47.833 72.5 -61.5s68.833 -20.5 113.5 -20.5c45.333 0 86.333 8 123 24c24 10.667 45 30 63 58h221c-12.667 -84.667 -53.167 -152.667 -121.5 -204
s-163.833 -77 -286.5 -77c-82.667 0 -151.834 11.5 -207.501 34.5s-100.5 55.833 -134.5 98.5s-55.333 92 -64 148z" />
    <glyph glyph-name="Aogonek" unicode="&#x104;" horiz-adv-x="1515" 
d="M616 1471h284l566 -1471h-291l-115 303h-600l-120 -303h-291zM760 1081l-196 -505h391zM1313 0l144 -0.00195312c-93.333 -55.333 -140 -110.333 -140 -165c0 -27.333 9.66699 -49.666 29 -66.999s44.333 -26 75 -26c22.667 0 51.667 9 87 27v-159
c-46 -10 -88.667 -15 -128 -15c-78.667 0 -139 18 -181 54s-63 81 -63 135c0 40.667 15 80.334 45 119.001s74 71 132 97z" />
    <glyph glyph-name="aogonek" unicode="&#x105;" horiz-adv-x="1352" 
d="M942 1088h272.003v-1088h-272v115c-53.333 -50.667 -106.833 -87.167 -160.5 -109.5s-111.834 -33.5 -174.501 -33.5c-140.667 0 -262.334 54.5 -365.001 163.5s-154 244.5 -154 406.5c0 168 49.667 305.667 149 413s220 161 362 161
c65.333 0 126.666 -12.333 183.999 -37s110.333 -61.667 159 -111v120zM655.003 864c-84.667 0 -154.999 -29.835 -210.999 -89.502s-84 -136.167 -84 -229.5c0 -94 28.5 -171.333 85.5 -232s127.167 -91 210.5 -91c86 0 157.333 29.833 214 89.5s85 137.834 85 234.501
c0 94.667 -28.333 171.334 -85 230.001s-128.334 88 -215.001 88zM1084 -0.00195312l144 -0.00195312c-93.333 -55.333 -140 -110.333 -140 -165c0 -27.333 9.66699 -49.666 29 -66.999s44.333 -26 75 -26c22.667 0 51.667 9 87 27v-159c-46 -10 -88.667 -15 -128 -15
c-78.667 0 -139 18 -181 54s-63 81 -63 135c0 40.667 15 80.334 45 119.001s74 71 132 97z" />
    <glyph glyph-name="Cacute" unicode="&#x106;" horiz-adv-x="1597" 
d="M1520 1212l-195.996 -187c-133.333 140.667 -283.333 211 -450 211c-140.667 0 -259.167 -48 -355.5 -144s-144.5 -214.333 -144.5 -355c0 -98 21.333 -185 64 -261s103 -135.667 181 -179s164.667 -65 260 -65c81.333 0 155.666 15.167 222.999 45.5
s141.333 85.5 222 165.5l190 -198c-108.667 -106 -211.334 -179.5 -308.001 -220.5s-207 -61.5 -331 -61.5c-228.667 0 -415.834 72.5 -561.501 217.5s-218.5 330.833 -218.5 557.5c0 146.667 33.167 277 99.5 391s161.333 205.667 285 275s256.834 104 399.501 104
c121.333 0 238.166 -25.667 350.499 -77s209.166 -124.333 290.499 -219zM895.004 1975h323l-366 -392h-196z" />
    <glyph glyph-name="cacute" unicode="&#x107;" horiz-adv-x="1311" 
d="M1203 868l-227 -125c-42.667 44.667 -84.834 75.667 -126.501 93s-90.5 26 -146.5 26c-102 0 -184.5 -30.5 -247.5 -91.5s-94.5 -139.167 -94.5 -234.5c0 -92.667 30.333 -168.334 91 -227.001s140.334 -88 239.001 -88c122 0 217 41.667 285 125l215 -147
c-116.667 -151.333 -281.334 -227 -494.001 -227c-191.333 0 -341.166 56.667 -449.499 170s-162.5 246 -162.5 398c0 105.333 26.333 202.333 79 291s126.167 158.334 220.5 209.001s199.833 76 316.5 76c108 0 205 -21.5 291 -64.5s156.333 -104.167 211 -183.5zM740 1679
h323l-366 -392h-196z" />
    <glyph glyph-name="Ccircumflex" unicode="&#x108;" horiz-adv-x="1597" 
d="M1520 1212l-195.996 -187c-133.333 140.667 -283.333 211 -450 211c-140.667 0 -259.167 -48 -355.5 -144s-144.5 -214.333 -144.5 -355c0 -98 21.333 -185 64 -261s103 -135.667 181 -179s164.667 -65 260 -65c81.333 0 155.666 15.167 222.999 45.5
s141.333 85.5 222 165.5l190 -198c-108.667 -106 -211.334 -179.5 -308.001 -220.5s-207 -61.5 -331 -61.5c-228.667 0 -415.834 72.5 -561.501 217.5s-218.5 330.833 -218.5 557.5c0 146.667 33.167 277 99.5 391s161.333 205.667 285 275s256.834 104 399.501 104
c121.333 0 238.166 -25.667 350.499 -77s209.166 -124.333 290.499 -219zM436.004 1585l300 283h219l298 -283h-298l-108 131l-111 -131h-300z" />
    <glyph glyph-name="ccircumflex" unicode="&#x109;" horiz-adv-x="1311" 
d="M1203 868l-227 -125c-42.667 44.667 -84.834 75.667 -126.501 93s-90.5 26 -146.5 26c-102 0 -184.5 -30.5 -247.5 -91.5s-94.5 -139.167 -94.5 -234.5c0 -92.667 30.333 -168.334 91 -227.001s140.334 -88 239.001 -88c122 0 217 41.667 285 125l215 -147
c-116.667 -151.333 -281.334 -227 -494.001 -227c-191.333 0 -341.166 56.667 -449.499 170s-162.5 246 -162.5 398c0 105.333 26.333 202.333 79 291s126.167 158.334 220.5 209.001s199.833 76 316.5 76c108 0 205 -21.5 291 -64.5s156.333 -104.167 211 -183.5zM235 1287
l300 283h219l298 -283h-298l-108 131l-111 -131h-300z" />
    <glyph glyph-name="Cdot" unicode="&#x10a;" horiz-adv-x="1597" 
d="M1520 1212l-195.996 -187c-133.333 140.667 -283.333 211 -450 211c-140.667 0 -259.167 -48 -355.5 -144s-144.5 -214.333 -144.5 -355c0 -98 21.333 -185 64 -261s103 -135.667 181 -179s164.667 -65 260 -65c81.333 0 155.666 15.167 222.999 45.5
s141.333 85.5 222 165.5l190 -198c-108.667 -106 -211.334 -179.5 -308.001 -220.5s-207 -61.5 -331 -61.5c-228.667 0 -415.834 72.5 -561.501 217.5s-218.5 330.833 -218.5 557.5c0 146.667 33.167 277 99.5 391s161.333 205.667 285 275s256.834 104 399.501 104
c121.333 0 238.166 -25.667 350.499 -77s209.166 -124.333 290.499 -219zM857.004 1871c40 0 74 -14 102 -42s42 -61.667 42 -101c0 -40 -14 -74 -42 -102s-62 -42 -102 -42c-39.333 0 -73 14 -101 42s-42 62 -42 102c0 39.333 14 73 42 101s61.667 42 101 42z" />
    <glyph glyph-name="cdot" unicode="&#x10b;" horiz-adv-x="1311" 
d="M1203 868l-227 -125c-42.667 44.667 -84.834 75.667 -126.501 93s-90.5 26 -146.5 26c-102 0 -184.5 -30.5 -247.5 -91.5s-94.5 -139.167 -94.5 -234.5c0 -92.667 30.333 -168.334 91 -227.001s140.334 -88 239.001 -88c122 0 217 41.667 285 125l215 -147
c-116.667 -151.333 -281.334 -227 -494.001 -227c-191.333 0 -341.166 56.667 -449.499 170s-162.5 246 -162.5 398c0 105.333 26.333 202.333 79 291s126.167 158.334 220.5 209.001s199.833 76 316.5 76c108 0 205 -21.5 291 -64.5s156.333 -104.167 211 -183.5zM681 1573
c40 0 74 -14 102 -42s42 -61.667 42 -101c0 -40 -14 -74 -42 -102s-62 -42 -102 -42c-39.333 0 -73 14 -101 42s-42 62 -42 102c0 39.333 14 73 42 101s61.667 42 101 42z" />
    <glyph glyph-name="Ccaron" unicode="&#x10c;" horiz-adv-x="1597" 
d="M1520 1212l-195.996 -187c-133.333 140.667 -283.333 211 -450 211c-140.667 0 -259.167 -48 -355.5 -144s-144.5 -214.333 -144.5 -355c0 -98 21.333 -185 64 -261s103 -135.667 181 -179s164.667 -65 260 -65c81.333 0 155.666 15.167 222.999 45.5
s141.333 85.5 222 165.5l190 -198c-108.667 -106 -211.334 -179.5 -308.001 -220.5s-207 -61.5 -331 -61.5c-228.667 0 -415.834 72.5 -561.501 217.5s-218.5 330.833 -218.5 557.5c0 146.667 33.167 277 99.5 391s161.333 205.667 285 275s256.834 104 399.501 104
c121.333 0 238.166 -25.667 350.499 -77s209.166 -124.333 290.499 -219zM463.004 1866h300l111 -132l108 132h298l-298 -283h-219z" />
    <glyph glyph-name="ccaron" unicode="&#x10d;" horiz-adv-x="1311" 
d="M1203 868l-227 -125c-42.667 44.667 -84.834 75.667 -126.501 93s-90.5 26 -146.5 26c-102 0 -184.5 -30.5 -247.5 -91.5s-94.5 -139.167 -94.5 -234.5c0 -92.667 30.333 -168.334 91 -227.001s140.334 -88 239.001 -88c122 0 217 41.667 285 125l215 -147
c-116.667 -151.333 -281.334 -227 -494.001 -227c-191.333 0 -341.166 56.667 -449.499 170s-162.5 246 -162.5 398c0 105.333 26.333 202.333 79 291s126.167 158.334 220.5 209.001s199.833 76 316.5 76c108 0 205 -21.5 291 -64.5s156.333 -104.167 211 -183.5zM283 1570
h300l111 -132l108 132h298l-298 -283h-219z" />
    <glyph glyph-name="Dcaron" unicode="&#x10e;" horiz-adv-x="1434" 
d="M169 1471l331.999 -0.000976562c214 0 373 -26.5 477 -79.5s189.667 -139.167 257 -258.5s101 -258.666 101 -417.999c0 -113.333 -18.833 -217.5 -56.5 -312.5s-89.667 -173.833 -156 -236.5s-138.166 -106 -215.499 -130s-211.333 -36 -402 -36h-337v1471z
M447.999 1201l-0.000976562 -926.998h130c128 0 220.833 14.667 278.5 44s104.834 78.666 141.501 147.999s55 154.666 55 255.999c0 156 -43.667 277 -131 363c-78.667 77.333 -205 116 -379 116h-95zM159.998 1868h300l111 -132l108 132h298l-298 -283h-219z" />
    <glyph glyph-name="dcaron" unicode="&#x10f;" horiz-adv-x="1477" 
d="M942 1508h272.003v-1508h-272v115c-53.333 -50.667 -106.833 -87.167 -160.5 -109.5s-111.834 -33.5 -174.501 -33.5c-140.667 0 -262.334 54.5 -365.001 163.5s-154 244.5 -154 406.5c0 168 49.667 305.667 149 413s220 161 362 161
c65.333 0 126.666 -12.333 183.999 -37s110.333 -61.667 159 -111v540zM655.003 864c-84.667 0 -154.999 -29.835 -210.999 -89.502s-84 -136.167 -84 -229.5c0 -94 28.5 -171.333 85.5 -232s127.167 -91 210.5 -91c86 0 157.333 29.833 214 89.5s85 137.834 85 234.501
c0 94.667 -28.333 171.334 -85 230.001s-128.334 88 -215.001 88zM1289 1508h251.999v-138c0 -88 -10.833 -163.667 -32.5 -227s-58.167 -128.666 -109.5 -195.999l-98 77c24.667 36 42.834 67.167 54.501 93.5s23.167 61.166 34.5 104.499h-101v286z" />
    <glyph glyph-name="Dslash" unicode="&#x110;" horiz-adv-x="1520" 
d="M219 1471l356.999 -0.000976562c213.333 0 372 -26.5 476 -79.5s189.667 -139.167 257 -258.5s101 -258.666 101 -417.999c0 -113.333 -18.833 -217.5 -56.5 -312.5s-89.667 -173.833 -156 -236.5s-138.166 -106 -215.499 -130s-211.333 -36 -402 -36h-361v654h-169v163
h169v654zM497.999 1201l-0.000976562 -383.998h302v-163h-302v-380h154c128 0 220.833 14.667 278.5 44s104.834 78.666 141.501 147.999s55 154.666 55 255.999c0 156 -43.667 277 -131 363c-78.667 77.333 -205 116 -379 116h-119z" />
    <glyph glyph-name="dmacron" unicode="&#x111;" horiz-adv-x="1352" 
d="M942 1508h272.003v-114h137v-163h-137v-1231h-272v115c-53.333 -50.667 -106.833 -87.167 -160.5 -109.5s-111.834 -33.5 -174.501 -33.5c-140.667 0 -262.334 54.5 -365.001 163.5s-154 244.5 -154 406.5c0 168 49.667 305.667 149 413s220 161 362 161
c65.333 0 126.666 -12.333 183.999 -37s110.333 -61.667 159 -111v263h-427v163h427v114zM655.003 864c-84.667 0 -154.999 -29.835 -210.999 -89.502s-84 -136.167 -84 -229.5c0 -94 28.5 -171.333 85.5 -232s127.167 -91 210.5 -91c86 0 157.333 29.833 214 89.5
s85 137.834 85 234.501c0 94.667 -28.333 171.334 -85 230.001s-128.334 88 -215.001 88z" />
    <glyph glyph-name="Emacron" unicode="&#x112;" horiz-adv-x="1065" 
d="M169 1471h803v-274h-525v-266h525v-269h-525v-387h525v-275h-803v1471zM286 1585v221h569v-221h-569z" />
    <glyph glyph-name="emacron" unicode="&#x113;" horiz-adv-x="1311" 
d="M1228 465h-876.999c12.667 -77.333 46.5 -138.833 101.5 -184.5s125.167 -68.5 210.5 -68.5c102 0 189.667 35.667 263 107l230 -108c-57.333 -81.333 -126 -141.5 -206 -180.5s-175 -58.5 -285 -58.5c-170.667 0 -309.667 53.833 -417 161.5s-161 242.5 -161 404.5
c0 166 53.5 303.833 160.5 413.5s241.167 164.5 402.5 164.5c171.333 0 310.666 -54.833 417.999 -164.5s161 -254.5 161 -434.5zM954.001 680c-18 60.667 -53.5 110 -106.5 148s-114.5 57 -184.5 57c-76 0 -142.667 -21.333 -200 -64
c-36 -26.667 -69.333 -73.667 -100 -141h591zM374.001 1287v221h569v-221h-569z" />
    <glyph glyph-name="Ebreve" unicode="&#x114;" horiz-adv-x="1065" 
d="M169 1471h803v-274h-525v-266h525v-269h-525v-387h525v-275h-803v1471zM164 1866h221.001c17.333 -27.333 41.5 -47.833 72.5 -61.5s68.833 -20.5 113.5 -20.5c45.333 0 86.333 8 123 24c24 10.667 45 30 63 58h221c-12.667 -84.667 -53.167 -152.667 -121.5 -204
s-163.833 -77 -286.5 -77c-82.667 0 -151.834 11.5 -207.501 34.5s-100.5 55.833 -134.5 98.5s-55.333 92 -64 148z" />
    <glyph glyph-name="ebreve" unicode="&#x115;" horiz-adv-x="1311" 
d="M1228 465h-876.999c12.667 -77.333 46.5 -138.833 101.5 -184.5s125.167 -68.5 210.5 -68.5c102 0 189.667 35.667 263 107l230 -108c-57.333 -81.333 -126 -141.5 -206 -180.5s-175 -58.5 -285 -58.5c-170.667 0 -309.667 53.833 -417 161.5s-161 242.5 -161 404.5
c0 166 53.5 303.833 160.5 413.5s241.167 164.5 402.5 164.5c171.333 0 310.666 -54.833 417.999 -164.5s161 -254.5 161 -434.5zM954.001 680c-18 60.667 -53.5 110 -106.5 148s-114.5 57 -184.5 57c-76 0 -142.667 -21.333 -200 -64
c-36 -26.667 -69.333 -73.667 -100 -141h591zM251.001 1568h221.001c17.333 -27.333 41.5 -47.833 72.5 -61.5s68.833 -20.5 113.5 -20.5c45.333 0 86.333 8 123 24c24 10.667 45 30 63 58h221c-12.667 -84.667 -53.167 -152.667 -121.5 -204s-163.833 -77 -286.5 -77
c-82.667 0 -151.834 11.5 -207.501 34.5s-100.5 55.833 -134.5 98.5s-55.333 92 -64 148z" />
    <glyph glyph-name="Edot" unicode="&#x116;" horiz-adv-x="1065" 
d="M169 1471h803v-274h-525v-266h525v-269h-525v-387h525v-275h-803v1471zM570 1871c40 0 74 -14 102 -42s42 -61.667 42 -101c0 -40 -14 -74 -42 -102s-62 -42 -102 -42c-39.333 0 -73 14 -101 42s-42 62 -42 102c0 39.333 14 73 42 101s61.667 42 101 42z" />
    <glyph glyph-name="edot" unicode="&#x117;" horiz-adv-x="1311" 
d="M1228 465h-876.999c12.667 -77.333 46.5 -138.833 101.5 -184.5s125.167 -68.5 210.5 -68.5c102 0 189.667 35.667 263 107l230 -108c-57.333 -81.333 -126 -141.5 -206 -180.5s-175 -58.5 -285 -58.5c-170.667 0 -309.667 53.833 -417 161.5s-161 242.5 -161 404.5
c0 166 53.5 303.833 160.5 413.5s241.167 164.5 402.5 164.5c171.333 0 310.666 -54.833 417.999 -164.5s161 -254.5 161 -434.5zM954.001 680c-18 60.667 -53.5 110 -106.5 148s-114.5 57 -184.5 57c-76 0 -142.667 -21.333 -200 -64
c-36 -26.667 -69.333 -73.667 -100 -141h591zM658.001 1573c40 0 74 -14 102 -42s42 -61.667 42 -101c0 -40 -14 -74 -42 -102s-62 -42 -102 -42c-39.333 0 -73 14 -101 42s-42 62 -42 102c0 39.333 14 73 42 101s61.667 42 101 42z" />
    <glyph glyph-name="Eogonek" unicode="&#x118;" horiz-adv-x="1065" 
d="M169 1471h803v-274h-525v-266h525v-269h-525v-387h525v-275h-803v1471zM693 0l144 -0.00195312c-93.333 -55.333 -140 -110.333 -140 -165c0 -27.333 9.66699 -49.666 29 -66.999s44.333 -26 75 -26c22.667 0 51.667 9 87 27v-159c-46 -10 -88.667 -15 -128 -15
c-78.667 0 -139 18 -181 54s-63 81 -63 135c0 40.667 15 80.334 45 119.001s74 71 132 97z" />
    <glyph glyph-name="eogonek" unicode="&#x119;" horiz-adv-x="1311" 
d="M1228 465h-876.999c12.667 -77.333 46.5 -138.833 101.5 -184.5s125.167 -68.5 210.5 -68.5c102 0 189.667 35.667 263 107l230 -108c-57.333 -81.333 -126 -141.5 -206 -180.5s-175 -58.5 -285 -58.5c-170.667 0 -309.667 53.833 -417 161.5s-161 242.5 -161 404.5
c0 166 53.5 303.833 160.5 413.5s241.167 164.5 402.5 164.5c171.333 0 310.666 -54.833 417.999 -164.5s161 -254.5 161 -434.5zM954.001 680c-18 60.667 -53.5 110 -106.5 148s-114.5 57 -184.5 57c-76 0 -142.667 -21.333 -200 -64
c-36 -26.667 -69.333 -73.667 -100 -141h591zM638.001 0l144 -0.00195312c-93.333 -55.333 -140 -110.333 -140 -165c0 -27.333 9.66699 -49.666 29 -66.999s44.333 -26 75 -26c22.667 0 51.667 9 87 27v-159c-46 -10 -88.667 -15 -128 -15c-78.667 0 -139 18 -181 54
s-63 81 -63 135c0 40.667 15 80.334 45 119.001s74 71 132 97z" />
    <glyph glyph-name="Ecaron" unicode="&#x11a;" horiz-adv-x="1065" 
d="M169 1471h803v-274h-525v-266h525v-269h-525v-387h525v-275h-803v1471zM194 1868h300l111 -132l108 132h298l-298 -283h-219z" />
    <glyph glyph-name="ecaron" unicode="&#x11b;" horiz-adv-x="1311" 
d="M1228 465h-876.999c12.667 -77.333 46.5 -138.833 101.5 -184.5s125.167 -68.5 210.5 -68.5c102 0 189.667 35.667 263 107l230 -108c-57.333 -81.333 -126 -141.5 -206 -180.5s-175 -58.5 -285 -58.5c-170.667 0 -309.667 53.833 -417 161.5s-161 242.5 -161 404.5
c0 166 53.5 303.833 160.5 413.5s241.167 164.5 402.5 164.5c171.333 0 310.666 -54.833 417.999 -164.5s161 -254.5 161 -434.5zM954.001 680c-18 60.667 -53.5 110 -106.5 148s-114.5 57 -184.5 57c-76 0 -142.667 -21.333 -200 -64
c-36 -26.667 -69.333 -73.667 -100 -141h591zM247.001 1570h300l111 -132l108 132h298l-298 -283h-219z" />
    <glyph glyph-name="Gcircumflex" unicode="&#x11c;" horiz-adv-x="1720" 
d="M1526 1231l-196.998 -195.001c-124.667 132 -270 198 -436 198c-144.667 0 -265.834 -48 -363.501 -144s-146.5 -212.667 -146.5 -350c0 -142 50.667 -262.333 152 -361s226.333 -148 375 -148c96.667 0 178.167 20.333 244.5 61s119.833 104.334 160.5 191.001h-426v263
h740l2 -62c0 -128.667 -33.333 -250.667 -100 -366s-153 -203.333 -259 -264s-230.333 -91 -373 -91c-152.667 0 -288.834 33.167 -408.501 99.5s-214.334 160.833 -284.001 283.5s-104.5 255 -104.5 397c0 194.667 64.333 364 193 508
c152.667 171.333 351.334 257 596.001 257c128 0 247.667 -23.667 359 -71c94 -40 186 -108.667 276 -206zM458.002 1585l300 283h219l298 -283h-298l-108 131l-111 -131h-300z" />
    <glyph glyph-name="gcircumflex" unicode="&#x11d;" horiz-adv-x="1352" 
d="M942 1088h272.001v-932c0 -184 -37 -319.333 -111 -406c-99.333 -117.333 -249 -176 -449 -176c-106.667 0 -196.334 13.333 -269.001 40s-134 65.834 -184 117.501s-87 114.5 -111 188.5h301c26.667 -30.667 61 -53.834 103 -69.501s91.667 -23.5 149 -23.5
c73.333 0 132.333 11.333 177 34s76.167 52 94.5 88s27.5 98 27.5 186c-48 -48 -98.333 -82.5 -151 -103.5s-112.334 -31.5 -179.001 -31.5c-146 0 -269.333 52.667 -370 158s-151 238.666 -151 399.999c0 172.667 53.333 311.334 160 416.001
c96.667 94.667 212 142 346 142c62.667 0 121.834 -11.5 177.501 -34.5s111.5 -60.833 167.5 -113.5v120zM659.001 861c-86 0 -157.001 -28.834 -213.001 -86.501s-84 -130.167 -84 -217.5c0 -90.667 28.667 -165 86 -223s129.333 -87 216 -87
c84.667 0 154.5 28.333 209.5 85s82.5 131 82.5 223c0 90.667 -27.667 164.334 -83 221.001s-126.666 85 -213.999 85zM243 1287l300 283h219l298 -283h-298l-108 131l-111 -131h-300z" />
    <glyph glyph-name="Gbreve" unicode="&#x11e;" horiz-adv-x="1720" 
d="M1526 1231l-196.998 -195.001c-124.667 132 -270 198 -436 198c-144.667 0 -265.834 -48 -363.501 -144s-146.5 -212.667 -146.5 -350c0 -142 50.667 -262.333 152 -361s226.333 -148 375 -148c96.667 0 178.167 20.333 244.5 61s119.833 104.334 160.5 191.001h-426v263
h740l2 -62c0 -128.667 -33.333 -250.667 -100 -366s-153 -203.333 -259 -264s-230.333 -91 -373 -91c-152.667 0 -288.834 33.167 -408.501 99.5s-214.334 160.833 -284.001 283.5s-104.5 255 -104.5 397c0 194.667 64.333 364 193 508
c152.667 171.333 351.334 257 596.001 257c128 0 247.667 -23.667 359 -71c94 -40 186 -108.667 276 -206zM453.002 1864h221.001c17.333 -27.333 41.5 -47.833 72.5 -61.5s68.833 -20.5 113.5 -20.5c45.333 0 86.333 8 123 24c24 10.667 45 30 63 58h221
c-12.667 -84.667 -53.167 -152.667 -121.5 -204s-163.833 -77 -286.5 -77c-82.667 0 -151.834 11.5 -207.501 34.5s-100.5 55.833 -134.5 98.5s-55.333 92 -64 148z" />
    <glyph glyph-name="gbreve" unicode="&#x11f;" horiz-adv-x="1352" 
d="M942 1088h272.001v-932c0 -184 -37 -319.333 -111 -406c-99.333 -117.333 -249 -176 -449 -176c-106.667 0 -196.334 13.333 -269.001 40s-134 65.834 -184 117.501s-87 114.5 -111 188.5h301c26.667 -30.667 61 -53.834 103 -69.501s91.667 -23.5 149 -23.5
c73.333 0 132.333 11.333 177 34s76.167 52 94.5 88s27.5 98 27.5 186c-48 -48 -98.333 -82.5 -151 -103.5s-112.334 -31.5 -179.001 -31.5c-146 0 -269.333 52.667 -370 158s-151 238.666 -151 399.999c0 172.667 53.333 311.334 160 416.001
c96.667 94.667 212 142 346 142c62.667 0 121.834 -11.5 177.501 -34.5s111.5 -60.833 167.5 -113.5v120zM659.001 861c-86 0 -157.001 -28.834 -213.001 -86.501s-84 -130.167 -84 -217.5c0 -90.667 28.667 -165 86 -223s129.333 -87 216 -87
c84.667 0 154.5 28.333 209.5 85s82.5 131 82.5 223c0 90.667 -27.667 164.334 -83 221.001s-126.666 85 -213.999 85zM305 1568h221.001c17.333 -27.333 41.5 -47.833 72.5 -61.5s68.833 -20.5 113.5 -20.5c45.333 0 86.333 8 123 24c24 10.667 45 30 63 58h221
c-12.667 -84.667 -53.167 -152.667 -121.5 -204s-163.833 -77 -286.5 -77c-82.667 0 -151.834 11.5 -207.501 34.5s-100.5 55.833 -134.5 98.5s-55.333 92 -64 148z" />
    <glyph glyph-name="Gdot" unicode="&#x120;" horiz-adv-x="1720" 
d="M1526 1231l-196.998 -195.001c-124.667 132 -270 198 -436 198c-144.667 0 -265.834 -48 -363.501 -144s-146.5 -212.667 -146.5 -350c0 -142 50.667 -262.333 152 -361s226.333 -148 375 -148c96.667 0 178.167 20.333 244.5 61s119.833 104.334 160.5 191.001h-426v263
h740l2 -62c0 -128.667 -33.333 -250.667 -100 -366s-153 -203.333 -259 -264s-230.333 -91 -373 -91c-152.667 0 -288.834 33.167 -408.501 99.5s-214.334 160.833 -284.001 283.5s-104.5 255 -104.5 397c0 194.667 64.333 364 193 508
c152.667 171.333 351.334 257 596.001 257c128 0 247.667 -23.667 359 -71c94 -40 186 -108.667 276 -206zM866.002 1871c40 0 74 -14 102 -42s42 -61.667 42 -101c0 -40 -14 -74 -42 -102s-62 -42 -102 -42c-39.333 0 -73 14 -101 42s-42 62 -42 102c0 39.333 14 73 42 101
s61.667 42 101 42z" />
    <glyph glyph-name="gdot" unicode="&#x121;" horiz-adv-x="1352" 
d="M942 1088h272.001v-932c0 -184 -37 -319.333 -111 -406c-99.333 -117.333 -249 -176 -449 -176c-106.667 0 -196.334 13.333 -269.001 40s-134 65.834 -184 117.501s-87 114.5 -111 188.5h301c26.667 -30.667 61 -53.834 103 -69.501s91.667 -23.5 149 -23.5
c73.333 0 132.333 11.333 177 34s76.167 52 94.5 88s27.5 98 27.5 186c-48 -48 -98.333 -82.5 -151 -103.5s-112.334 -31.5 -179.001 -31.5c-146 0 -269.333 52.667 -370 158s-151 238.666 -151 399.999c0 172.667 53.333 311.334 160 416.001
c96.667 94.667 212 142 346 142c62.667 0 121.834 -11.5 177.501 -34.5s111.5 -60.833 167.5 -113.5v120zM659.001 861c-86 0 -157.001 -28.834 -213.001 -86.501s-84 -130.167 -84 -217.5c0 -90.667 28.667 -165 86 -223s129.333 -87 216 -87
c84.667 0 154.5 28.333 209.5 85s82.5 131 82.5 223c0 90.667 -27.667 164.334 -83 221.001s-126.666 85 -213.999 85zM651 1573c40 0 74 -14 102 -42s42 -61.667 42 -101c0 -40 -14 -74 -42 -102s-62 -42 -102 -42c-39.333 0 -73 14 -101 42s-42 62 -42 102
c0 39.333 14 73 42 101s61.667 42 101 42z" />
    <glyph glyph-name="Gcedilla" unicode="&#x122;" horiz-adv-x="1720" 
d="M1526 1231l-196.998 -195.001c-124.667 132 -270 198 -436 198c-144.667 0 -265.834 -48 -363.501 -144s-146.5 -212.667 -146.5 -350c0 -142 50.667 -262.333 152 -361s226.333 -148 375 -148c96.667 0 178.167 20.333 244.5 61s119.833 104.334 160.5 191.001h-426v263
h740l2 -62c0 -128.667 -33.333 -250.667 -100 -366s-153 -203.333 -259 -264s-230.333 -91 -373 -91c-152.667 0 -288.834 33.167 -408.501 99.5s-214.334 160.833 -284.001 283.5s-104.5 255 -104.5 397c0 194.667 64.333 364 193 508
c152.667 171.333 351.334 257 596.001 257c128 0 247.667 -23.667 359 -71c94 -40 186 -108.667 276 -206zM787.002 15.999h168.999l-12 -46c44.667 -10 79.834 -29.5 105.501 -58.5s38.5 -60.833 38.5 -95.5c0 -54 -22.667 -100.333 -68 -139s-108.333 -58 -189 -58
c-65.333 0 -139.333 15.333 -222 46l36 129c48 -15.333 95 -23 141 -23c34 0 59.333 6.5 76 19.5s25 30.167 25 51.5c0 17.333 -6.33301 31 -19 41s-32.667 15 -60 15l-56 -2z" />
    <glyph glyph-name="gcedilla" unicode="&#x123;" horiz-adv-x="1352" 
d="M942 1088h272.001v-932c0 -184 -37 -319.333 -111 -406c-99.333 -117.333 -249 -176 -449 -176c-106.667 0 -196.334 13.333 -269.001 40s-134 65.834 -184 117.501s-87 114.5 -111 188.5h301c26.667 -30.667 61 -53.834 103 -69.501s91.667 -23.5 149 -23.5
c73.333 0 132.333 11.333 177 34s76.167 52 94.5 88s27.5 98 27.5 186c-48 -48 -98.333 -82.5 -151 -103.5s-112.334 -31.5 -179.001 -31.5c-146 0 -269.333 52.667 -370 158s-151 238.666 -151 399.999c0 172.667 53.333 311.334 160 416.001
c96.667 94.667 212 142 346 142c62.667 0 121.834 -11.5 177.501 -34.5s111.5 -60.833 167.5 -113.5v120zM659.001 861c-86 0 -157.001 -28.834 -213.001 -86.501s-84 -130.167 -84 -217.5c0 -90.667 28.667 -165 86 -223s129.333 -87 216 -87
c84.667 0 154.5 28.333 209.5 85s82.5 131 82.5 223c0 90.667 -27.667 164.334 -83 221.001s-126.666 85 -213.999 85zM803 1247l-251.999 -0.000976562v139c0 87.333 10.833 162.833 32.5 226.5s58.167 128.834 109.5 195.501l98 -77c-24.667 -36 -42.834 -67 -54.501 -93
s-23.167 -60.667 -34.5 -104h101v-287z" />
    <glyph glyph-name="Hcircumflex" unicode="&#x124;" horiz-adv-x="1393" 
d="M167 1471h284v-555h492v555h283v-1471h-283v645h-492v-645h-284v1471zM288 1585l300 283h219l298 -283h-298l-108 131l-111 -131h-300z" />
    <glyph glyph-name="hcircumflex" unicode="&#x125;" 
d="M137 1508l271 0.000976562v-530c53.333 46 107 80.5 161 103.5s108.667 34.5 164 34.5c108 0 199 -37.333 273 -112c63.333 -64.667 95 -159.667 95 -285v-719h-269v477c0 126 -6 211.333 -18 256s-32.5 78 -61.5 100s-64.833 33 -107.5 33
c-55.333 0 -102.833 -18.333 -142.5 -55s-67.167 -86.667 -82.5 -150c-8 -32.667 -12 -107.334 -12 -224.001v-437h-271v1508zM211 1583l300 283h219l298 -283h-298l-108 131l-111 -131h-300z" />
    <glyph glyph-name="Hbar" unicode="&#x126;" horiz-adv-x="1393" 
d="M450 1292h492v179h283v-179h133v-163h-133v-1129h-283v645h-492v-645h-283v1129h-133v163h133v179h283v-179zM450 1129v-213h492v213h-492z" />
    <glyph glyph-name="hbar" unicode="&#x127;" 
d="M410 1384l321.001 0.000976562v-163h-321v-243c102 92 209.667 138 323 138c109.333 0 198.833 -34.333 268.5 -103s104.5 -166.667 104.5 -294v-719h-273v477c0 110.667 -4.5 190 -13.5 238s-28.333 85.167 -58 111.5s-67.834 39.5 -114.501 39.5
c-55.333 0 -103 -18.333 -143 -55s-65.667 -79.334 -77 -128.001s-17 -130.667 -17 -246v-437h-273v1221h-137v163h137v124h273v-124z" />
    <glyph glyph-name="Itilde" unicode="&#x128;" horiz-adv-x="573" 
d="M148 1471h278v-1471h-278v1471zM-20 1589l-109.998 165c85.333 66 171.666 99 258.999 99c32.667 0 88.667 -11.333 168 -34c54 -14.667 97 -22 129 -22c56 0 114 17.333 174 52l104 -156c-84 -72 -165.333 -108 -244 -108c-42 0 -92.333 9 -151 27
c-48 14 -78.333 22.333 -91 25c-17.333 2.66699 -38 4 -62 4c-58.667 0 -117.334 -17.333 -176.001 -52z" />
    <glyph glyph-name="itilde" unicode="&#x129;" horiz-adv-x="491" 
d="M109 1088h274v-1088h-274v1088zM-61 1291l-109.998 165c85.333 66 171.666 99 258.999 99c32.667 0 88.667 -11.333 168 -34c54 -14.667 97 -22 129 -22c56 0 114 17.333 174 52l104 -156c-84 -72 -165.333 -108 -244 -108c-42 0 -92.333 9 -151 27
c-48 14 -78.333 22.333 -91 25c-17.333 2.66699 -38 4 -62 4c-58.667 0 -117.334 -17.333 -176.001 -52z" />
    <glyph glyph-name="Imacron" unicode="&#x12a;" horiz-adv-x="573" 
d="M148 1471h278v-1471h-278v1471zM2 1585v221h569v-221h-569z" />
    <glyph glyph-name="imacron" unicode="&#x12b;" horiz-adv-x="491" 
d="M109 1088h274v-1088h-274v1088zM-39 1287v221h569v-221h-569z" />
    <glyph glyph-name="Ibreve" unicode="&#x12c;" horiz-adv-x="573" 
d="M148 1471h278v-1471h-278v1471zM-120 1866h221.001c17.333 -27.333 41.5 -47.833 72.5 -61.5s68.833 -20.5 113.5 -20.5c45.333 0 86.333 8 123 24c24 10.667 45 30 63 58h221c-12.667 -84.667 -53.167 -152.667 -121.5 -204s-163.833 -77 -286.5 -77
c-82.667 0 -151.834 11.5 -207.501 34.5s-100.5 55.833 -134.5 98.5s-55.333 92 -64 148z" />
    <glyph glyph-name="ibreve" unicode="&#x12d;" horiz-adv-x="491" 
d="M109 1088h274v-1088h-274v1088zM-162 1568h221.001c17.333 -27.333 41.5 -47.833 72.5 -61.5s68.833 -20.5 113.5 -20.5c45.333 0 86.333 8 123 24c24 10.667 45 30 63 58h221c-12.667 -84.667 -53.167 -152.667 -121.5 -204s-163.833 -77 -286.5 -77
c-82.667 0 -151.834 11.5 -207.501 34.5s-100.5 55.833 -134.5 98.5s-55.333 92 -64 148z" />
    <glyph glyph-name="Iogonek" unicode="&#x12e;" horiz-adv-x="573" 
d="M148 1471h278v-1471h-278v1471zM282 0l144 -0.00195312c-93.333 -55.333 -140 -110.333 -140 -165c0 -27.333 9.66699 -49.666 29 -66.999s44.333 -26 75 -26c22.667 0 51.667 9 87 27v-159c-46 -10 -88.667 -15 -128 -15c-78.667 0 -139 18 -181 54s-63 81 -63 135
c0 40.667 15 80.334 45 119.001s74 71 132 97z" />
    <glyph glyph-name="iogonek" unicode="&#x12f;" horiz-adv-x="491" 
d="M245 1536c48 0 89.167 -17.333 123.5 -52s51.5 -76.667 51.5 -126c0 -48.667 -17 -90.167 -51 -124.5s-74.667 -51.5 -122 -51.5c-48.667 0 -90.167 17.5 -124.5 52.5s-51.5 77.5 -51.5 127.5c0 48 17 89 51 123s75 51 123 51zM108 1088h274v-1088h-274v1088zM238 0
l144 -0.00195312c-93.333 -55.333 -140 -110.333 -140 -165c0 -27.333 9.66699 -49.666 29 -66.999s44.333 -26 75 -26c22.667 0 51.667 9 87 27v-159c-46 -10 -88.667 -15 -128 -15c-78.667 0 -139 18 -181 54s-63 81 -63 135c0 40.667 15 80.334 45 119.001s74 71 132 97z
" />
    <glyph glyph-name="Idot" unicode="&#x130;" horiz-adv-x="573" 
d="M148 1471h278v-1471h-278v1471zM286 1869c40 0 74 -14 102 -42s42 -61.667 42 -101c0 -40 -14 -74 -42 -102s-62 -42 -102 -42c-39.333 0 -73 14 -101 42s-42 62 -42 102c0 39.333 14 73 42 101s61.667 42 101 42z" />
    <glyph glyph-name="dotlessi" unicode="&#x131;" horiz-adv-x="491" 
d="M108 1088h274v-1088h-274v1088z" />
    <glyph glyph-name="IJ" unicode="&#x132;" horiz-adv-x="1556" 
d="M148 1471h278v-1471h-278v1471zM1107 1471h280.998v-976c0 -136 -9.16699 -236.667 -27.5 -302s-57.166 -120 -116.499 -164s-132.666 -66 -219.999 -66c-161.333 0 -299 71 -413 213l202 189c73.333 -85.333 142 -128 206 -128c34 0 57.167 14.667 69.5 44
s18.5 83 18.5 161v1029z" />
    <glyph glyph-name="ij" unicode="&#x133;" horiz-adv-x="1024" 
d="M936 1361c0 -48.667 -17.167 -90.167 -51.5 -124.5s-75.833 -51.5 -124.5 -51.5c-48 0 -89.333 17.167 -124 51.5s-52 75.833 -52 124.5s17.333 90.167 52 124.5s76 51.5 124 51.5c48.667 0 90.167 -17.167 124.5 -51.5s51.5 -75.833 51.5 -124.5zM423 1361
c0 -48.667 -17.333 -90.167 -52 -124.5s-76 -51.5 -124 -51.5s-89.333 17.167 -124 51.5s-52 75.833 -52 124.5c0 48 17.333 89.167 52 123.5s76 51.5 124 51.5c48.667 0 90.167 -17 124.5 -51s51.5 -75.333 51.5 -124zM110 1088h274v-1088h-274v1088zM623 1088
l273.999 0.000976562v-1124c0 -160.667 -27.667 -265.834 -83 -315.501s-122.666 -74.5 -201.999 -74.5c-57.333 0 -125.666 13.667 -204.999 41v215c41.333 -20.667 78.666 -31 111.999 -31c32 0 57.333 9.5 76 28.5s28 57.833 28 116.5v1144z" />
    <glyph glyph-name="Jcircumflex" unicode="&#x134;" horiz-adv-x="983" 
d="M534 1471h281.002v-976c0 -155.333 -12.333 -264.333 -37 -327s-65.334 -112.5 -122.001 -149.5s-124.667 -55.5 -204 -55.5c-162 0 -300 71 -414 213l202 189c44.667 -50.667 82.667 -84.667 114 -102s61.666 -26 90.999 -26c30 0 52.333 12.667 67 38s22 81 22 167
v1029zM156.002 1585l300 283h219l298 -283h-298l-108 131l-111 -131h-300z" />
    <glyph glyph-name="jcircumflex" unicode="&#x135;" horiz-adv-x="532" 
d="M-142 1287l300 283h219l298 -283h-298l-108 131l-111 -131h-300zM130 1088h273.999v-1124c0 -160 -27.833 -265 -83.5 -315s-123.167 -75 -202.5 -75c-57.333 0 -125.666 13.667 -204.999 41v215c42 -20.667 79.667 -31 113 -31c35.333 0 61.5 10.333 78.5 31
s25.5 58.667 25.5 114v1144z" />
    <glyph glyph-name="Kcedilla" unicode="&#x136;" horiz-adv-x="1270" 
d="M170 1471h283v-506l399 506h337l-514 -656l564 -815h-332l-454 653v-653h-283v1471zM507 -79c40.667 2.66699 72.666 4 95.999 4c78 0 136.5 -17.5 175.5 -52.5s58.5 -75.833 58.5 -122.5c0 -50.667 -21.667 -96.167 -65 -136.5s-107.333 -60.5 -192 -60.5
c-55.333 0 -120 12 -194 36l35 131c46.667 -10.667 83.334 -16 110.001 -16c70.667 0 106 23.667 106 71c0 38 -27 57 -81 57c-16 0 -41 -1.66699 -75 -5z" />
    <glyph glyph-name="kcedilla" unicode="&#x137;" horiz-adv-x="1188" 
d="M140 1508h273v-869l402 449h342l-468 -522l525 -566h-339l-462 501v-501h-273v1508zM479 -79c40.667 2.66699 72.666 4 95.999 4c78 0 136.5 -17.5 175.5 -52.5s58.5 -75.833 58.5 -122.5c0 -50.667 -21.667 -96.167 -65 -136.5s-107.333 -60.5 -192 -60.5
c-55.333 0 -120 12 -194 36l35 131c46.667 -10.667 83.334 -16 110.001 -16c70.667 0 106 23.667 106 71c0 38 -27 57 -81 57c-16 0 -41 -1.66699 -75 -5z" />
    <glyph glyph-name="kgreenlandic" unicode="&#x138;" horiz-adv-x="1188" 
d="M140 1088h273v-449l402 449h342l-468 -522l525 -566h-339l-462 501v-501h-273v1088z" />
    <glyph glyph-name="Lacute" unicode="&#x139;" horiz-adv-x="901" 
d="M168 1471h280v-1204h408v-267h-688v1471zM453 1977h323l-366 -392h-196z" />
    <glyph glyph-name="lacute" unicode="&#x13a;" horiz-adv-x="491" 
d="M109 1508h273v-1508h-273v1508zM258 1977h323l-366 -392h-196z" />
    <glyph glyph-name="Lcedilla" unicode="&#x13b;" horiz-adv-x="901" 
d="M168 1471h280v-1204h408v-267h-688v1471zM335 -79c40.667 2.66699 72.666 4 95.999 4c78 0 136.5 -17.5 175.5 -52.5s58.5 -75.833 58.5 -122.5c0 -50.667 -21.667 -96.167 -65 -136.5s-107.333 -60.5 -192 -60.5c-55.333 0 -120 12 -194 36l35 131
c46.667 -10.667 83.334 -16 110.001 -16c70.667 0 106 23.667 106 71c0 38 -27 57 -81 57c-16 0 -41 -1.66699 -75 -5z" />
    <glyph glyph-name="lcedilla" unicode="&#x13c;" horiz-adv-x="491" 
d="M109 1508h273v-1508h-273v1508zM118 -79c40.667 2.66699 72.666 4 95.999 4c78 0 136.5 -17.5 175.5 -52.5s58.5 -75.833 58.5 -122.5c0 -50.667 -21.667 -96.167 -65 -136.5s-107.333 -60.5 -192 -60.5c-55.333 0 -120 12 -194 36l35 131
c46.667 -10.667 83.334 -16 110.001 -16c70.667 0 106 23.667 106 71c0 38 -27 57 -81 57c-16 0 -41 -1.66699 -75 -5z" />
    <glyph glyph-name="Lcaron" unicode="&#x13d;" horiz-adv-x="901" 
d="M168 1471h280v-1204h408v-267h-688v1471zM580 1508h251.999v-138c0 -88 -10.833 -163.667 -32.5 -227s-58.167 -128.666 -109.5 -195.999l-98 77c24.667 36 42.834 67.167 54.501 93.5s23.167 61.166 34.5 104.499h-101v286z" />
    <glyph glyph-name="lcaron" unicode="&#x13e;" horiz-adv-x="645" 
d="M109 1508h273v-1508h-273v1508zM480 1508h251.999v-138c0 -88 -10.833 -163.667 -32.5 -227s-58.167 -128.666 -109.5 -195.999l-98 77c24.667 36 42.834 67.167 54.501 93.5s23.167 61.166 34.5 104.499h-101v286z" />
    <glyph glyph-name="Ldot" unicode="&#x13f;" horiz-adv-x="901" 
d="M168 1471h280v-1204h408v-267h-688v1471zM676 897c40 0 74 -13.833 102 -41.5s42 -61.5 42 -101.5c0 -39.333 -14 -73 -42 -101s-62 -42 -102 -42c-39.333 0 -73 14 -101 42s-42 61.667 -42 101c0 40 14 73.833 42 101.5s61.667 41.5 101 41.5z" />
    <glyph glyph-name="ldot" unicode="&#x140;" horiz-adv-x="711" 
d="M109 1508h273v-1508h-273v1508zM596 897c40 0 74 -13.833 102 -41.5s42 -61.5 42 -101.5c0 -39.333 -14 -73 -42 -101s-62 -42 -102 -42c-39.333 0 -73 14 -101 42s-42 61.667 -42 101c0 40 14 73.833 42 101.5s61.667 41.5 101 41.5z" />
    <glyph glyph-name="Lslash" unicode="&#x141;" horiz-adv-x="983" 
d="M489 995l224 262v-256l-224 -262v-472h409v-267h-689v411l-168 -197v258l168 196v803h280v-476z" />
    <glyph glyph-name="lslash" unicode="&#x142;" horiz-adv-x="655" 
d="M465 1030l108 122v-248l-108 -122v-782h-274v477l-109 -121v245l109 123v784h274v-478z" />
    <glyph glyph-name="Nacute" unicode="&#x143;" horiz-adv-x="1515" 
d="M169 1471h268l631 -968v968h280v-1471h-269l-630 965v-965h-280v1471zM845 1977h323l-366 -392h-196z" />
    <glyph glyph-name="nacute" unicode="&#x144;" 
d="M138 1088h272v-111c62 52 118.167 88.167 168.5 108.5s101.833 30.5 154.5 30.5c108 0 199.667 -37.667 275 -113c63.333 -64 95 -158.667 95 -284v-719h-270v477c0 130 -5.83301 216.333 -17.5 259s-32 75.167 -61 97.5s-64.833 33.5 -107.5 33.5
c-55.333 0 -102.833 -18.5 -142.5 -55.5s-67.167 -88.167 -82.5 -153.5c-8 -34 -12 -107.667 -12 -221v-437h-272v1088zM651 1679h323l-366 -392h-196z" />
    <glyph glyph-name="Ncedilla" unicode="&#x145;" horiz-adv-x="1515" 
d="M169 1471h268l631 -968v968h280v-1471h-269l-630 965v-965h-280v1471zM631 -79c40.667 2.66699 72.666 4 95.999 4c78 0 136.5 -17.5 175.5 -52.5s58.5 -75.833 58.5 -122.5c0 -50.667 -21.667 -96.167 -65 -136.5s-107.333 -60.5 -192 -60.5c-55.333 0 -120 12 -194 36
l35 131c46.667 -10.667 83.334 -16 110.001 -16c70.667 0 106 23.667 106 71c0 38 -27 57 -81 57c-16 0 -41 -1.66699 -75 -5z" />
    <glyph glyph-name="ncedilla" unicode="&#x146;" 
d="M138 1088h272v-111c62 52 118.167 88.167 168.5 108.5s101.833 30.5 154.5 30.5c108 0 199.667 -37.667 275 -113c63.333 -64 95 -158.667 95 -284v-719h-270v477c0 130 -5.83301 216.333 -17.5 259s-32 75.167 -61 97.5s-64.833 33.5 -107.5 33.5
c-55.333 0 -102.833 -18.5 -142.5 -55.5s-67.167 -88.167 -82.5 -153.5c-8 -34 -12 -107.667 -12 -221v-437h-272v1088zM500 -79c40.667 2.66699 72.666 4 95.999 4c78 0 136.5 -17.5 175.5 -52.5s58.5 -75.833 58.5 -122.5c0 -50.667 -21.667 -96.167 -65 -136.5
s-107.333 -60.5 -192 -60.5c-55.333 0 -120 12 -194 36l35 131c46.667 -10.667 83.334 -16 110.001 -16c70.667 0 106 23.667 106 71c0 38 -27 57 -81 57c-16 0 -41 -1.66699 -75 -5z" />
    <glyph glyph-name="Ncaron" unicode="&#x147;" horiz-adv-x="1515" 
d="M169 1471h268l631 -968v968h280v-1471h-269l-630 965v-965h-280v1471zM311 1868h300l111 -132l108 132h298l-298 -283h-219z" />
    <glyph glyph-name="ncaron" unicode="&#x148;" 
d="M138 1088h272v-111c62 52 118.167 88.167 168.5 108.5s101.833 30.5 154.5 30.5c108 0 199.667 -37.667 275 -113c63.333 -64 95 -158.667 95 -284v-719h-270v477c0 130 -5.83301 216.333 -17.5 259s-32 75.167 -61 97.5s-64.833 33.5 -107.5 33.5
c-55.333 0 -102.833 -18.5 -142.5 -55.5s-67.167 -88.167 -82.5 -153.5c-8 -34 -12 -107.667 -12 -221v-437h-272v1088zM297 1570h300l111 -132l108 132h298l-298 -283h-219z" />
    <glyph glyph-name="napostrophe" unicode="&#x149;" horiz-adv-x="1317" 
d="M226 1088h272v-111c62 52 118.167 88.167 168.5 108.5s101.833 30.5 154.5 30.5c108 0 199.667 -37.667 275 -113c63.333 -64 95 -158.667 95 -284v-719h-270v477c0 130 -5.83301 216.333 -17.5 259s-32 75.167 -61 97.5s-64.833 33.5 -107.5 33.5
c-55.333 0 -102.833 -18.5 -142.5 -55.5s-67.167 -88.167 -82.5 -153.5c-8 -34 -12 -107.667 -12 -221v-437h-272v1088zM-51 1508h251.999v-138c0 -88 -10.833 -163.667 -32.5 -227s-58.167 -128.666 -109.5 -195.999l-98 77c24.667 36 42.834 67.167 54.501 93.5
s23.167 61.166 34.5 104.499h-101v286z" />
    <glyph glyph-name="Eng" unicode="&#x14a;" horiz-adv-x="1622" 
d="M451 1315c115.333 128.667 254.998 193.001 418.998 193.001c183.333 0 338.333 -72 465 -216s190 -330.333 190 -559c0 -221.333 -47.667 -405 -143 -551s-231.333 -219 -408 -219c-86 0 -159.667 15.667 -221 47s-121.333 86.666 -180 165.999l199 186
c64.667 -85.333 130.334 -128 197.001 -128c84 0 150.667 46.333 200 139s74 206.667 74 342c0 167.333 -37.333 296.5 -112 387.5s-169 136.5 -283 136.5c-141.333 0 -273.666 -89 -396.999 -267v-972h-284v1471h284v-156z" />
    <glyph glyph-name="eng" unicode="&#x14b;" 
d="M1105 719l-0.00292969 -754.999c0 -160 -27.667 -265 -83 -315s-122.666 -75 -201.999 -75c-57.333 0 -125.666 13.667 -204.999 41v215c41.333 -20.667 78.666 -31 111.999 -31c32.667 0 58.334 9.66699 77.001 29s28 58 28 116v537c0 113.333 -4 192.5 -12 237.5
s-27.167 81 -57.5 108s-69.166 40.5 -116.499 40.5c-54.667 0 -102 -18.667 -142 -56s-65.667 -80.833 -77 -130.5s-17 -130.834 -17 -243.501v-437h-273v1088h273v-111c106 92.667 214 139 324 139c109.333 0 198.5 -34.833 267.5 -104.5s103.5 -167.167 103.5 -292.5z" />
    <glyph glyph-name="Omacron" unicode="&#x14c;" horiz-adv-x="1720" 
d="M863 1508c208 0 386.834 -75.3311 536.501 -225.998s224.5 -334.334 224.5 -551.001c0 -214.667 -73.833 -396.334 -221.5 -545.001s-326.834 -223 -537.501 -223c-220.667 0 -404 76.333 -550 229s-219 334 -219 544c0 140.667 34 270 102 388s161.5 211.5 280.5 280.5
s247.167 103.5 384.5 103.5zM860.001 1234c-136 0 -250.333 -47.332 -343 -141.999s-139 -215 -139 -361c0 -162.667 58.333 -291.334 175 -386.001c90.667 -74 194.667 -111 312 -111c132.667 0 245.667 48 339 144s140 214.333 140 355c0 140 -47 258.5 -141 355.5
s-208.333 145.5 -343 145.5zM575.001 1585v221h569v-221h-569z" />
    <glyph glyph-name="omacron" unicode="&#x14d;" horiz-adv-x="1311" 
d="M649 1116c102.667 0 199.167 -25.668 289.5 -77.001s160.833 -121 211.5 -209s76 -183 76 -285c0 -102.667 -25.5 -198.667 -76.5 -288s-120.5 -159.166 -208.5 -209.499s-185 -75.5 -291 -75.5c-156 0 -289.167 55.5 -399.5 166.5s-165.5 245.833 -165.5 404.5
c0 170 62.333 311.667 187 425c109.333 98.667 235 148 377 148zM653 858.999c-84.667 0 -155.166 -29.4971 -211.499 -88.4971s-84.5 -134.5 -84.5 -226.5c0 -94.667 27.833 -171.334 83.5 -230.001s126.167 -88 211.5 -88s156.333 29.667 213 89s85 135.666 85 228.999
s-27.833 169.166 -83.5 227.499s-126.834 87.5 -213.501 87.5zM371.001 1287v221h569v-221h-569z" />
    <glyph glyph-name="Obreve" unicode="&#x14e;" horiz-adv-x="1720" 
d="M863 1508c208 0 386.834 -75.3311 536.501 -225.998s224.5 -334.334 224.5 -551.001c0 -214.667 -73.833 -396.334 -221.5 -545.001s-326.834 -223 -537.501 -223c-220.667 0 -404 76.333 -550 229s-219 334 -219 544c0 140.667 34 270 102 388s161.5 211.5 280.5 280.5
s247.167 103.5 384.5 103.5zM860.001 1234c-136 0 -250.333 -47.332 -343 -141.999s-139 -215 -139 -361c0 -162.667 58.333 -291.334 175 -386.001c90.667 -74 194.667 -111 312 -111c132.667 0 245.667 48 339 144s140 214.333 140 355c0 140 -47 258.5 -141 355.5
s-208.333 145.5 -343 145.5zM453.001 1866h221.001c17.333 -27.333 41.5 -47.833 72.5 -61.5s68.833 -20.5 113.5 -20.5c45.333 0 86.333 8 123 24c24 10.667 45 30 63 58h221c-12.667 -84.667 -53.167 -152.667 -121.5 -204s-163.833 -77 -286.5 -77
c-82.667 0 -151.834 11.5 -207.501 34.5s-100.5 55.833 -134.5 98.5s-55.333 92 -64 148z" />
    <glyph glyph-name="obreve" unicode="&#x14f;" horiz-adv-x="1311" 
d="M649 1116c102.667 0 199.167 -25.668 289.5 -77.001s160.833 -121 211.5 -209s76 -183 76 -285c0 -102.667 -25.5 -198.667 -76.5 -288s-120.5 -159.166 -208.5 -209.499s-185 -75.5 -291 -75.5c-156 0 -289.167 55.5 -399.5 166.5s-165.5 245.833 -165.5 404.5
c0 170 62.333 311.667 187 425c109.333 98.667 235 148 377 148zM653 858.999c-84.667 0 -155.166 -29.4971 -211.499 -88.4971s-84.5 -134.5 -84.5 -226.5c0 -94.667 27.833 -171.334 83.5 -230.001s126.167 -88 211.5 -88s156.333 29.667 213 89s85 135.666 85 228.999
s-27.833 169.166 -83.5 227.499s-126.834 87.5 -213.501 87.5zM248.001 1568h221.001c17.333 -27.333 41.5 -47.833 72.5 -61.5s68.833 -20.5 113.5 -20.5c45.333 0 86.333 8 123 24c24 10.667 45 30 63 58h221c-12.667 -84.667 -53.167 -152.667 -121.5 -204
s-163.833 -77 -286.5 -77c-82.667 0 -151.834 11.5 -207.501 34.5s-100.5 55.833 -134.5 98.5s-55.333 92 -64 148z" />
    <glyph glyph-name="Odblacute" unicode="&#x150;" horiz-adv-x="1720" 
d="M863 1508c208 0 386.834 -75.3311 536.501 -225.998s224.5 -334.334 224.5 -551.001c0 -214.667 -73.833 -396.334 -221.5 -545.001s-326.834 -223 -537.501 -223c-220.667 0 -404 76.333 -550 229s-219 334 -219 544c0 140.667 34 270 102 388s161.5 211.5 280.5 280.5
s247.167 103.5 384.5 103.5zM860.001 1234c-136 0 -250.333 -47.332 -343 -141.999s-139 -215 -139 -361c0 -162.667 58.333 -291.334 175 -386.001c90.667 -74 194.667 -111 312 -111c132.667 0 245.667 48 339 144s140 214.333 140 355c0 140 -47 258.5 -141 355.5
s-208.333 145.5 -343 145.5zM793.001 1977h323l-366 -392h-196zM1239 1977h323l-365 -392h-197z" />
    <glyph glyph-name="odblacute" unicode="&#x151;" horiz-adv-x="1311" 
d="M649 1116c102.667 0 199.167 -25.668 289.5 -77.001s160.833 -121 211.5 -209s76 -183 76 -285c0 -102.667 -25.5 -198.667 -76.5 -288s-120.5 -159.166 -208.5 -209.499s-185 -75.5 -291 -75.5c-156 0 -289.167 55.5 -399.5 166.5s-165.5 245.833 -165.5 404.5
c0 170 62.333 311.667 187 425c109.333 98.667 235 148 377 148zM653 858.999c-84.667 0 -155.166 -29.4971 -211.499 -88.4971s-84.5 -134.5 -84.5 -226.5c0 -94.667 27.833 -171.334 83.5 -230.001s126.167 -88 211.5 -88s156.333 29.667 213 89s85 135.666 85 228.999
s-27.833 169.166 -83.5 227.499s-126.834 87.5 -213.501 87.5zM611.001 1679h323l-366 -392h-196zM1057 1679h323l-365 -392h-197z" />
    <glyph glyph-name="OE" unicode="&#x152;" horiz-adv-x="2171" 
d="M1305 1471l777.001 -0.000976562v-275h-494v-267h494v-268h-494v-387h494v-274h-777v135c-66.667 -59.333 -137.834 -102.833 -213.501 -130.5s-159.5 -41.5 -251.5 -41.5c-140 0 -266.333 32.667 -379 98s-202 157.833 -268 277.5s-99 251.167 -99 394.5
c0 142.667 32.833 273.334 98.5 392.001s157 212.167 274 280.5s242.167 102.5 375.5 102.5c83.333 0 163.333 -13.5 240 -40.5s151 -69.5 223 -127.5v131zM835.001 1239c-124 0 -231.334 -48.167 -322.001 -144.5s-136 -215.833 -136 -358.5c0 -98 20.667 -185 62 -261
s99.333 -135.667 174 -179s155.334 -65 242.001 -65c125.333 0 231.5 46.667 318.5 140s130.5 212 130.5 356c0 96.667 -20.5 184 -61.5 262s-98.5 139.167 -172.5 183.5s-152.333 66.5 -235 66.5z" />
    <glyph glyph-name="oe" unicode="&#x153;" horiz-adv-x="2212" 
d="M2131 461l-880.997 0.000976562c11.333 -76 45.166 -137.167 101.499 -183.5s127.5 -69.5 213.5 -69.5c94 0 178.667 34 254 102l237 -108c-62.667 -78 -134.5 -135.833 -215.5 -173.5s-173.833 -56.5 -278.5 -56.5c-195.333 0 -346 69.333 -452 208
c-56 -69.333 -121.333 -121.333 -196 -156s-158.334 -52 -251.001 -52c-164.667 0 -302.667 55.5 -414 166.5s-167 246.833 -167 407.5c0 155.333 56.833 289.166 170.5 401.499s250.5 168.5 410.5 168.5c61.333 0 120.833 -8.66699 178.5 -26s110.5 -42.333 158.5 -75
c36 -24 72.667 -60.667 110 -110c114.667 140.667 264.667 211 450 211c114.667 0 215.667 -26.333 303 -79s154.166 -125.167 200.499 -217.5s68.833 -211.833 67.5 -358.5zM1860 675.001c-20.667 66 -57.167 116.833 -109.5 152.5s-114.833 53.5 -187.5 53.5
c-73.333 0 -137.833 -19 -193.5 -57s-92.5 -87.667 -110.5 -149h601zM666.003 869.001c-58.667 0 -111.668 -13.8311 -159.001 -41.498s-84.5 -66.834 -111.5 -117.501s-40.5 -106.667 -40.5 -168c0 -60.667 13.167 -116.334 39.5 -167.001s62.333 -89.5 108 -116.5
s97.834 -40.5 156.501 -40.5c90.667 0 165.167 30.167 223.5 90.5s87.5 139.5 87.5 237.5c0 92 -29.5 168.833 -88.5 230.5s-130.833 92.5 -215.5 92.5z" />
    <glyph glyph-name="Racute" unicode="&#x154;" horiz-adv-x="1188" 
d="M187 1471h296.999c162.667 0 278.5 -14.5 347.5 -43.5s124.5 -77.167 166.5 -144.5s63 -147 63 -239c0 -96.667 -23.167 -177.5 -69.5 -242.5s-116.166 -114.167 -209.499 -147.5l348 -654h-306l-331 623h-26v-623h-280v1471zM466.999 896h88
c89.333 0 150.833 11.667 184.5 35s50.5 62 50.5 116c0 32 -8.33301 59.833 -25 83.5s-39 40.667 -67 51s-79.333 15.5 -154 15.5h-77v-301zM677.999 1977h323l-366 -392h-196z" />
    <glyph glyph-name="racute" unicode="&#x155;" horiz-adv-x="655" 
d="M74 1088h234v-137c25.333 54 59 95 101 123s88 42 138 42c35.333 0 72.333 -9.33301 111 -28l-85 -235c-32 16 -58.333 24 -79 24c-42 0 -77.5 -26 -106.5 -78s-43.5 -154 -43.5 -306l1 -53v-440h-271v1088zM403 1679h323l-366 -392h-196z" />
    <glyph glyph-name="Rcedilla" unicode="&#x156;" horiz-adv-x="1188" 
d="M187 1471h296.999c162.667 0 278.5 -14.5 347.5 -43.5s124.5 -77.167 166.5 -144.5s63 -147 63 -239c0 -96.667 -23.167 -177.5 -69.5 -242.5s-116.166 -114.167 -209.499 -147.5l348 -654h-306l-331 623h-26v-623h-280v1471zM466.999 896h88
c89.333 0 150.833 11.667 184.5 35s50.5 62 50.5 116c0 32 -8.33301 59.833 -25 83.5s-39 40.667 -67 51s-79.333 15.5 -154 15.5h-77v-301zM478.999 -79c40.667 2.66699 72.666 4 95.999 4c78 0 136.5 -17.5 175.5 -52.5s58.5 -75.833 58.5 -122.5
c0 -50.667 -21.667 -96.167 -65 -136.5s-107.333 -60.5 -192 -60.5c-55.333 0 -120 12 -194 36l35 131c46.667 -10.667 83.334 -16 110.001 -16c70.667 0 106 23.667 106 71c0 38 -27 57 -81 57c-16 0 -41 -1.66699 -75 -5z" />
    <glyph glyph-name="rcedilla" unicode="&#x157;" horiz-adv-x="655" 
d="M74 1088h234v-137c25.333 54 59 95 101 123s88 42 138 42c35.333 0 72.333 -9.33301 111 -28l-85 -235c-32 16 -58.333 24 -79 24c-42 0 -77.5 -26 -106.5 -78s-43.5 -154 -43.5 -306l1 -53v-440h-271v1088zM212 -79c40.667 2.66699 72.666 4 95.999 4
c78 0 136.5 -17.5 175.5 -52.5s58.5 -75.833 58.5 -122.5c0 -50.667 -21.667 -96.167 -65 -136.5s-107.333 -60.5 -192 -60.5c-55.333 0 -120 12 -194 36l35 131c46.667 -10.667 83.334 -16 110.001 -16c70.667 0 106 23.667 106 71c0 38 -27 57 -81 57
c-16 0 -41 -1.66699 -75 -5z" />
    <glyph glyph-name="Rcaron" unicode="&#x158;" horiz-adv-x="1188" 
d="M187 1471h296.999c162.667 0 278.5 -14.5 347.5 -43.5s124.5 -77.167 166.5 -144.5s63 -147 63 -239c0 -96.667 -23.167 -177.5 -69.5 -242.5s-116.166 -114.167 -209.499 -147.5l348 -654h-306l-331 623h-26v-623h-280v1471zM466.999 896h88
c89.333 0 150.833 11.667 184.5 35s50.5 62 50.5 116c0 32 -8.33301 59.833 -25 83.5s-39 40.667 -67 51s-79.333 15.5 -154 15.5h-77v-301zM184.999 1868h300l111 -132l108 132h298l-298 -283h-219z" />
    <glyph glyph-name="rcaron" unicode="&#x159;" horiz-adv-x="655" 
d="M74 1088h234v-137c25.333 54 59 95 101 123s88 42 138 42c35.333 0 72.333 -9.33301 111 -28l-85 -235c-32 16 -58.333 24 -79 24c-42 0 -77.5 -26 -106.5 -78s-43.5 -154 -43.5 -306l1 -53v-440h-271v1088zM-81 1570h300l111 -132l108 132h298l-298 -283h-219z" />
    <glyph glyph-name="Sacute" unicode="&#x15a;" horiz-adv-x="1065" 
d="M939 1271l-206.999 -182.999c-72.667 101.333 -146.667 152 -222 152c-36.667 0 -66.667 -9.83301 -90 -29.5s-35 -41.834 -35 -66.501s8.33301 -48 25 -70c22.667 -29.333 91 -92.333 205 -189c106.667 -89.333 171.334 -145.666 194.001 -168.999
c56.667 -57.333 96.834 -112.166 120.501 -164.499s35.5 -109.5 35.5 -171.5c0 -120.667 -41.667 -220.334 -125 -299.001s-192 -118 -326 -118c-104.667 0 -195.834 25.667 -273.501 77s-144.167 132 -199.5 242l235 142c70.667 -130 152 -195 244 -195
c48 0 88.333 14 121 42s49 60.333 49 97c0 33.333 -12.333 66.666 -37 99.999s-79 84.333 -163 153c-160 130.667 -263.333 231.5 -310 302.5s-70 141.833 -70 212.5c0 102 38.833 189.5 116.5 262.5s173.5 109.5 287.5 109.5c73.333 0 143.166 -17 209.499 -51
s138.166 -96 215.499 -186zM508.001 1977h323l-366 -392h-196z" />
    <glyph glyph-name="sacute" unicode="&#x15b;" horiz-adv-x="901" 
d="M804 936l-168.996 -169c-68.667 68 -131 102 -187 102c-30.667 0 -54.667 -6.5 -72 -19.5s-26 -29.167 -26 -48.5c0 -14.667 5.5 -28.167 16.5 -40.5s38.167 -29.166 81.5 -50.499l100 -50c105.333 -52 177.666 -105 216.999 -159s59 -117.333 59 -190
c0 -96.667 -35.5 -177.334 -106.5 -242.001s-166.167 -97 -285.5 -97c-158.667 0 -285.334 62 -380.001 186l168 183c32 -37.333 69.5 -67.5 112.5 -90.5s81.167 -34.5 114.5 -34.5c36 0 65 8.66699 87 26s33 37.333 33 60c0 42 -39.667 83 -119 123l-92 46
c-176 88.667 -264 199.667 -264 333c0 86 33.167 159.5 99.5 220.5s151.166 91.5 254.499 91.5c70.667 0 137.167 -15.5 199.5 -46.5s115.166 -75.5 158.499 -133.5zM478.004 1679h323l-366 -392h-196z" />
    <glyph glyph-name="Scircumflex" unicode="&#x15c;" horiz-adv-x="1065" 
d="M939 1271l-206.999 -182.999c-72.667 101.333 -146.667 152 -222 152c-36.667 0 -66.667 -9.83301 -90 -29.5s-35 -41.834 -35 -66.501s8.33301 -48 25 -70c22.667 -29.333 91 -92.333 205 -189c106.667 -89.333 171.334 -145.666 194.001 -168.999
c56.667 -57.333 96.834 -112.166 120.501 -164.499s35.5 -109.5 35.5 -171.5c0 -120.667 -41.667 -220.334 -125 -299.001s-192 -118 -326 -118c-104.667 0 -195.834 25.667 -273.501 77s-144.167 132 -199.5 242l235 142c70.667 -130 152 -195 244 -195
c48 0 88.333 14 121 42s49 60.333 49 97c0 33.333 -12.333 66.666 -37 99.999s-79 84.333 -163 153c-160 130.667 -263.333 231.5 -310 302.5s-70 141.833 -70 212.5c0 102 38.833 189.5 116.5 262.5s173.5 109.5 287.5 109.5c73.333 0 143.166 -17 209.499 -51
s138.166 -96 215.499 -186zM95.001 1585l300 283h219l298 -283h-298l-108 131l-111 -131h-300z" />
    <glyph glyph-name="scircumflex" unicode="&#x15d;" horiz-adv-x="901" 
d="M805 936l-168.996 -169c-68.667 68 -131 102 -187 102c-30.667 0 -54.667 -6.5 -72 -19.5s-26 -29.167 -26 -48.5c0 -14.667 5.5 -28.167 16.5 -40.5s38.167 -29.166 81.5 -50.499l100 -50c105.333 -52 177.666 -105 216.999 -159s59 -117.333 59 -190
c0 -96.667 -35.5 -177.334 -106.5 -242.001s-166.167 -97 -285.5 -97c-158.667 0 -285.334 62 -380.001 186l168 183c32 -37.333 69.5 -67.5 112.5 -90.5s81.167 -34.5 114.5 -34.5c36 0 65 8.66699 87 26s33 37.333 33 60c0 42 -39.667 83 -119 123l-92 46
c-176 88.667 -264 199.667 -264 333c0 86 33.167 159.5 99.5 220.5s151.166 91.5 254.499 91.5c70.667 0 137.167 -15.5 199.5 -46.5s115.166 -75.5 158.499 -133.5zM30.0039 1287l300 283h219l298 -283h-298l-108 131l-111 -131h-300z" />
    <glyph glyph-name="Scedilla" unicode="&#x15e;" horiz-adv-x="1065" 
d="M939 1271l-206.999 -182.999c-72.667 101.333 -146.667 152 -222 152c-36.667 0 -66.667 -9.83301 -90 -29.5s-35 -41.834 -35 -66.501s8.33301 -48 25 -70c22.667 -29.333 91 -92.333 205 -189c106.667 -89.333 171.334 -145.666 194.001 -168.999
c56.667 -57.333 96.834 -112.166 120.501 -164.499s35.5 -109.5 35.5 -171.5c0 -120.667 -41.667 -220.334 -125 -299.001s-192 -118 -326 -118c-104.667 0 -195.834 25.667 -273.501 77s-144.167 132 -199.5 242l235 142c70.667 -130 152 -195 244 -195
c48 0 88.333 14 121 42s49 60.333 49 97c0 33.333 -12.333 66.666 -37 99.999s-79 84.333 -163 153c-160 130.667 -263.333 231.5 -310 302.5s-70 141.833 -70 212.5c0 102 38.833 189.5 116.5 262.5s173.5 109.5 287.5 109.5c73.333 0 143.166 -17 209.499 -51
s138.166 -96 215.499 -186zM447.001 16.001h168.999l-12 -46c44.667 -10 79.834 -29.5 105.501 -58.5s38.5 -60.833 38.5 -95.5c0 -54 -22.667 -100.333 -68 -139s-108.333 -58 -189 -58c-65.333 0 -139.333 15.333 -222 46l36 129c48 -15.333 95 -23 141 -23
c34 0 59.333 6.5 76 19.5s25 30.167 25 51.5c0 17.333 -6.33301 31 -19 41s-32.667 15 -60 15l-56 -2z" />
    <glyph glyph-name="scedilla" unicode="&#x15f;" horiz-adv-x="901" 
d="M804 936l-168.996 -169c-68.667 68 -131 102 -187 102c-30.667 0 -54.667 -6.5 -72 -19.5s-26 -29.167 -26 -48.5c0 -14.667 5.5 -28.167 16.5 -40.5s38.167 -29.166 81.5 -50.499l100 -50c105.333 -52 177.666 -105 216.999 -159s59 -117.333 59 -190
c0 -96.667 -35.5 -177.334 -106.5 -242.001s-166.167 -97 -285.5 -97c-158.667 0 -285.334 62 -380.001 186l168 183c32 -37.333 69.5 -67.5 112.5 -90.5s81.167 -34.5 114.5 -34.5c36 0 65 8.66699 87 26s33 37.333 33 60c0 42 -39.667 83 -119 123l-92 46
c-176 88.667 -264 199.667 -264 333c0 86 33.167 159.5 99.5 220.5s151.166 91.5 254.499 91.5c70.667 0 137.167 -15.5 199.5 -46.5s115.166 -75.5 158.499 -133.5zM365.004 16h168.999l-12 -46c44.667 -10 79.834 -29.5 105.501 -58.5s38.5 -60.833 38.5 -95.5
c0 -54 -22.667 -100.333 -68 -139s-108.333 -58 -189 -58c-65.333 0 -139.333 15.333 -222 46l36 129c48 -15.333 95 -23 141 -23c34 0 59.333 6.5 76 19.5s25 30.167 25 51.5c0 17.333 -6.33301 31 -19 41s-32.667 15 -60 15l-56 -2z" />
    <glyph glyph-name="Scaron" unicode="&#x160;" horiz-adv-x="1065" 
d="M939 1271l-206.999 -182.999c-72.667 101.333 -146.667 152 -222 152c-36.667 0 -66.667 -9.83301 -90 -29.5s-35 -41.834 -35 -66.501s8.33301 -48 25 -70c22.667 -29.333 91 -92.333 205 -189c106.667 -89.333 171.334 -145.666 194.001 -168.999
c56.667 -57.333 96.834 -112.166 120.501 -164.499s35.5 -109.5 35.5 -171.5c0 -120.667 -41.667 -220.334 -125 -299.001s-192 -118 -326 -118c-104.667 0 -195.834 25.667 -273.501 77s-144.167 132 -199.5 242l235 142c70.667 -130 152 -195 244 -195
c48 0 88.333 14 121 42s49 60.333 49 97c0 33.333 -12.333 66.666 -37 99.999s-79 84.333 -163 153c-160 130.667 -263.333 231.5 -310 302.5s-70 141.833 -70 212.5c0 102 38.833 189.5 116.5 262.5s173.5 109.5 287.5 109.5c73.333 0 143.166 -17 209.499 -51
s138.166 -96 215.499 -186zM124.001 1868h300l111 -132l108 132h298l-298 -283h-219z" />
    <glyph glyph-name="scaron" unicode="&#x161;" horiz-adv-x="901" 
d="M804 936l-168.996 -169c-68.667 68 -131 102 -187 102c-30.667 0 -54.667 -6.5 -72 -19.5s-26 -29.167 -26 -48.5c0 -14.667 5.5 -28.167 16.5 -40.5s38.167 -29.166 81.5 -50.499l100 -50c105.333 -52 177.666 -105 216.999 -159s59 -117.333 59 -190
c0 -96.667 -35.5 -177.334 -106.5 -242.001s-166.167 -97 -285.5 -97c-158.667 0 -285.334 62 -380.001 186l168 183c32 -37.333 69.5 -67.5 112.5 -90.5s81.167 -34.5 114.5 -34.5c36 0 65 8.66699 87 26s33 37.333 33 60c0 42 -39.667 83 -119 123l-92 46
c-176 88.667 -264 199.667 -264 333c0 86 33.167 159.5 99.5 220.5s151.166 91.5 254.499 91.5c70.667 0 137.167 -15.5 199.5 -46.5s115.166 -75.5 158.499 -133.5zM42.0039 1570h300l111 -132l108 132h298l-298 -283h-219z" />
    <glyph glyph-name="Tcedilla" unicode="&#x162;" horiz-adv-x="860" 
d="M23 1471h813v-276h-264v-1195h-284v1195h-265v276zM340 -121l180.001 0.000976562v-29c0 -86.667 -6.33301 -146.167 -19 -178.5s-39.667 -65.5 -81 -99.5l-53 54c31.333 25.333 51.666 54.666 60.999 87.999h-88v165z" />
    <glyph glyph-name="tcedilla" unicode="&#x163;" horiz-adv-x="614" 
d="M171 1489h272v-401h162v-235h-162v-853h-272v853h-140v235h140v401zM217 -121l180.001 0.000976562v-29c0 -86.667 -6.33301 -146.167 -19 -178.5s-39.667 -65.5 -81 -99.5l-53 54c31.333 25.333 51.666 54.666 60.999 87.999h-88v165z" />
    <glyph glyph-name="Tcaron" unicode="&#x164;" horiz-adv-x="860" 
d="M23 1471h813v-276h-268v-1195h-284v1195h-261v276zM24 1868h300l111 -132l108 132h298l-298 -283h-219z" />
    <glyph glyph-name="tcaron" unicode="&#x165;" horiz-adv-x="735" 
d="M595 1508h204v-50c0 -132 -38.333 -244.667 -115 -338l-79 61c43.333 54 67.333 106.667 72 158h-82v169zM171 1489h272v-401h162v-235h-162v-853h-272v853h-140v235h140v401z" />
    <glyph glyph-name="Tbar" unicode="&#x166;" horiz-adv-x="860" 
d="M572 792h216v-163h-216v-629h-284v629h-217v163h217v403h-265v276h813v-276h-264v-403z" />
    <glyph glyph-name="tbar" unicode="&#x167;" horiz-adv-x="614" 
d="M443 616h186v-163h-186v-453h-272v453h-164v163h164v237h-140v235h140v401h272v-401h162v-235h-162v-237z" />
    <glyph glyph-name="Utilde" unicode="&#x168;" horiz-adv-x="1311" 
d="M158 1471l280.998 -0.000976562v-952c0 -82 7.16699 -140 21.5 -174s38 -61.167 71 -81.5s72.833 -30.5 119.5 -30.5c49.333 0 91.833 11.333 127.5 34s60.334 51.5 74.001 86.5s20.5 101.833 20.5 200.5v917h281v-877c0 -148 -8.33301 -250.667 -25 -308
s-48.5 -112.666 -95.5 -165.999s-101.167 -92.833 -162.5 -118.5s-132.666 -38.5 -213.999 -38.5c-106.667 0 -199.5 24.5 -278.5 73.5s-135.5 110.333 -169.5 184s-51 198.167 -51 373.5v877zM348.998 1589l-109.998 165c85.333 66 171.666 99 258.999 99
c32.667 0 88.667 -11.333 168 -34c54 -14.667 97 -22 129 -22c56 0 114 17.333 174 52l104 -156c-84 -72 -165.333 -108 -244 -108c-42 0 -92.333 9 -151 27c-48 14 -78.333 22.333 -91 25c-17.333 2.66699 -38 4 -62 4c-58.667 0 -117.334 -17.333 -176.001 -52z" />
    <glyph glyph-name="utilde" unicode="&#x169;" 
d="M137 1088l276 0.000976562v-524c0 -102 7 -172.833 21 -212.5s36.5 -70.5 67.5 -92.5s69.167 -33 114.5 -33s83.833 10.833 115.5 32.5s55.167 53.5 70.5 95.5c11.333 31.333 17 98.333 17 201v533h274v-461c0 -190 -15 -320 -45 -390
c-36.667 -85.333 -90.667 -150.833 -162 -196.5s-162 -68.5 -272 -68.5c-119.333 0 -215.833 26.667 -289.5 80s-125.5 127.666 -155.5 222.999c-21.333 66 -32 186 -32 360v453zM308 1291l-109.998 165c85.333 66 171.666 99 258.999 99c32.667 0 88.667 -11.333 168 -34
c54 -14.667 97 -22 129 -22c56 0 114 17.333 174 52l104 -156c-84 -72 -165.333 -108 -244 -108c-42 0 -92.333 9 -151 27c-48 14 -78.333 22.333 -91 25c-17.333 2.66699 -38 4 -62 4c-58.667 0 -117.334 -17.333 -176.001 -52z" />
    <glyph glyph-name="Umacron" unicode="&#x16a;" horiz-adv-x="1311" 
d="M158 1471l280.998 -0.000976562v-952c0 -82 7.16699 -140 21.5 -174s38 -61.167 71 -81.5s72.833 -30.5 119.5 -30.5c49.333 0 91.833 11.333 127.5 34s60.334 51.5 74.001 86.5s20.5 101.833 20.5 200.5v917h281v-877c0 -148 -8.33301 -250.667 -25 -308
s-48.5 -112.666 -95.5 -165.999s-101.167 -92.833 -162.5 -118.5s-132.666 -38.5 -213.999 -38.5c-106.667 0 -199.5 24.5 -278.5 73.5s-135.5 110.333 -169.5 184s-51 198.167 -51 373.5v877zM371.998 1585v221h569v-221h-569z" />
    <glyph glyph-name="umacron" unicode="&#x16b;" 
d="M137 1088l276 0.000976562v-524c0 -102 7 -172.833 21 -212.5s36.5 -70.5 67.5 -92.5s69.167 -33 114.5 -33s83.833 10.833 115.5 32.5s55.167 53.5 70.5 95.5c11.333 31.333 17 98.333 17 201v533h274v-461c0 -190 -15 -320 -45 -390
c-36.667 -85.333 -90.667 -150.833 -162 -196.5s-162 -68.5 -272 -68.5c-119.333 0 -215.833 26.667 -289.5 80s-125.5 127.666 -155.5 222.999c-21.333 66 -32 186 -32 360v453zM330 1287v221h569v-221h-569z" />
    <glyph glyph-name="Ubreve" unicode="&#x16c;" horiz-adv-x="1311" 
d="M158 1471l280.998 -0.000976562v-952c0 -82 7.16699 -140 21.5 -174s38 -61.167 71 -81.5s72.833 -30.5 119.5 -30.5c49.333 0 91.833 11.333 127.5 34s60.334 51.5 74.001 86.5s20.5 101.833 20.5 200.5v917h281v-877c0 -148 -8.33301 -250.667 -25 -308
s-48.5 -112.666 -95.5 -165.999s-101.167 -92.833 -162.5 -118.5s-132.666 -38.5 -213.999 -38.5c-106.667 0 -199.5 24.5 -278.5 73.5s-135.5 110.333 -169.5 184s-51 198.167 -51 373.5v877zM248.998 1866h221.001c17.333 -27.333 41.5 -47.833 72.5 -61.5
s68.833 -20.5 113.5 -20.5c45.333 0 86.333 8 123 24c24 10.667 45 30 63 58h221c-12.667 -84.667 -53.167 -152.667 -121.5 -204s-163.833 -77 -286.5 -77c-82.667 0 -151.834 11.5 -207.501 34.5s-100.5 55.833 -134.5 98.5s-55.333 92 -64 148z" />
    <glyph glyph-name="ubreve" unicode="&#x16d;" 
d="M137 1088l276 0.000976562v-524c0 -102 7 -172.833 21 -212.5s36.5 -70.5 67.5 -92.5s69.167 -33 114.5 -33s83.833 10.833 115.5 32.5s55.167 53.5 70.5 95.5c11.333 31.333 17 98.333 17 201v533h274v-461c0 -190 -15 -320 -45 -390
c-36.667 -85.333 -90.667 -150.833 -162 -196.5s-162 -68.5 -272 -68.5c-119.333 0 -215.833 26.667 -289.5 80s-125.5 127.666 -155.5 222.999c-21.333 66 -32 186 -32 360v453zM208 1568h221.001c17.333 -27.333 41.5 -47.833 72.5 -61.5s68.833 -20.5 113.5 -20.5
c45.333 0 86.333 8 123 24c24 10.667 45 30 63 58h221c-12.667 -84.667 -53.167 -152.667 -121.5 -204s-163.833 -77 -286.5 -77c-82.667 0 -151.834 11.5 -207.501 34.5s-100.5 55.833 -134.5 98.5s-55.333 92 -64 148z" />
    <glyph glyph-name="Uring" unicode="&#x16e;" horiz-adv-x="1311" 
d="M158 1471l280.998 -0.000976562v-952c0 -82 7.16699 -140 21.5 -174s38 -61.167 71 -81.5s72.833 -30.5 119.5 -30.5c49.333 0 91.833 11.333 127.5 34s60.334 51.5 74.001 86.5s20.5 101.833 20.5 200.5v917h281v-877c0 -148 -8.33301 -250.667 -25 -308
s-48.5 -112.666 -95.5 -165.999s-101.167 -92.833 -162.5 -118.5s-132.666 -38.5 -213.999 -38.5c-106.667 0 -199.5 24.5 -278.5 73.5s-135.5 110.333 -169.5 184s-51 198.167 -51 373.5v877zM667.998 2032c60.667 0 112.332 -21.833 154.999 -65.5s64 -96.167 64 -157.5
c0 -62 -21.5 -114.833 -64.5 -158.5s-94.5 -65.5 -154.5 -65.5s-111.5 21.833 -154.5 65.5s-64.5 96.5 -64.5 158.5c0 61.333 21.333 113.833 64 157.5s94.334 65.5 155.001 65.5zM667.996 1903c-22.667 0 -42 -8.66699 -58 -26s-24 -38.333 -24 -63
c0 -25.333 8.16699 -46.666 24.5 -63.999s35.5 -26 57.5 -26s41.167 8.66699 57.5 26s24.5 38.666 24.5 63.999c0 24.667 -8 45.667 -24 63s-35.333 26 -58 26z" />
    <glyph glyph-name="uring" unicode="&#x16f;" 
d="M137 1088l276 0.000976562v-524c0 -102 7 -172.833 21 -212.5s36.5 -70.5 67.5 -92.5s69.167 -33 114.5 -33s83.833 10.833 115.5 32.5s55.167 53.5 70.5 95.5c11.333 31.333 17 98.333 17 201v533h274v-461c0 -190 -15 -320 -45 -390
c-36.667 -85.333 -90.667 -150.833 -162 -196.5s-162 -68.5 -272 -68.5c-119.333 0 -215.833 26.667 -289.5 80s-125.5 127.666 -155.5 222.999c-21.333 66 -32 186 -32 360v453zM571 1734c60.667 0 112.332 -21.833 154.999 -65.5s64 -96.167 64 -157.5
c0 -62 -21.5 -114.833 -64.5 -158.5s-94.5 -65.5 -154.5 -65.5s-111.5 21.833 -154.5 65.5s-64.5 96.5 -64.5 158.5c0 61.333 21.333 113.833 64 157.5s94.334 65.5 155.001 65.5zM570.998 1605c-22.667 0 -42 -8.66699 -58 -26s-24 -38.333 -24 -63
c0 -25.333 8.16699 -46.666 24.5 -63.999s35.5 -26 57.5 -26s41.167 8.66699 57.5 26s24.5 38.666 24.5 63.999c0 24.667 -8 45.667 -24 63s-35.333 26 -58 26z" />
    <glyph glyph-name="Udblacute" unicode="&#x170;" horiz-adv-x="1311" 
d="M158 1471l280.998 -0.000976562v-952c0 -82 7.16699 -140 21.5 -174s38 -61.167 71 -81.5s72.833 -30.5 119.5 -30.5c49.333 0 91.833 11.333 127.5 34s60.334 51.5 74.001 86.5s20.5 101.833 20.5 200.5v917h281v-877c0 -148 -8.33301 -250.667 -25 -308
s-48.5 -112.666 -95.5 -165.999s-101.167 -92.833 -162.5 -118.5s-132.666 -38.5 -213.999 -38.5c-106.667 0 -199.5 24.5 -278.5 73.5s-135.5 110.333 -169.5 184s-51 198.167 -51 373.5v877zM567.998 1977h323l-366 -392h-196zM1014 1977h323l-365 -392h-197z" />
    <glyph glyph-name="udblacute" unicode="&#x171;" 
d="M137 1088l276 0.000976562v-524c0 -102 7 -172.833 21 -212.5s36.5 -70.5 67.5 -92.5s69.167 -33 114.5 -33s83.833 10.833 115.5 32.5s55.167 53.5 70.5 95.5c11.333 31.333 17 98.333 17 201v533h274v-461c0 -190 -15 -320 -45 -390
c-36.667 -85.333 -90.667 -150.833 -162 -196.5s-162 -68.5 -272 -68.5c-119.333 0 -215.833 26.667 -289.5 80s-125.5 127.666 -155.5 222.999c-21.333 66 -32 186 -32 360v453zM468 1679h323l-366 -392h-196zM914 1679h323l-365 -392h-197z" />
    <glyph glyph-name="Uogonek" unicode="&#x172;" horiz-adv-x="1311" 
d="M158 1471l280.998 -0.000976562v-952c0 -82 7.16699 -140 21.5 -174s38 -61.167 71 -81.5s72.833 -30.5 119.5 -30.5c49.333 0 91.833 11.333 127.5 34s60.334 51.5 74.001 86.5s20.5 101.833 20.5 200.5v917h281v-877c0 -148 -8.33301 -250.667 -25 -308
s-48.5 -112.666 -95.5 -165.999s-101.167 -92.833 -162.5 -118.5s-132.666 -38.5 -213.999 -38.5c-106.667 0 -199.5 24.5 -278.5 73.5s-135.5 110.333 -169.5 184s-51 198.167 -51 373.5v877zM672.998 -0.000976562l144 -0.00195312
c-93.333 -55.333 -140 -110.333 -140 -165c0 -27.333 9.66699 -49.666 29 -66.999s44.333 -26 75 -26c22.667 0 51.667 9 87 27v-159c-46 -10 -88.667 -15 -128 -15c-78.667 0 -139 18 -181 54s-63 81 -63 135c0 40.667 15 80.334 45 119.001s74 71 132 97z" />
    <glyph glyph-name="uogonek" unicode="&#x173;" 
d="M137 1088l276 0.000976562v-524c0 -102 7 -172.833 21 -212.5s36.5 -70.5 67.5 -92.5s69.167 -33 114.5 -33s83.833 10.833 115.5 32.5s55.167 53.5 70.5 95.5c11.333 31.333 17 98.333 17 201v533h274v-461c0 -190 -15 -320 -45 -390
c-36.667 -85.333 -90.667 -150.833 -162 -196.5s-162 -68.5 -272 -68.5c-119.333 0 -215.833 26.667 -289.5 80s-125.5 127.666 -155.5 222.999c-21.333 66 -32 186 -32 360v453zM642 0.000976562l144 -0.00195312c-93.333 -55.333 -140 -110.333 -140 -165
c0 -27.333 9.66699 -49.666 29 -66.999s44.333 -26 75 -26c22.667 0 51.667 9 87 27v-159c-46 -10 -88.667 -15 -128 -15c-78.667 0 -139 18 -181 54s-63 81 -63 135c0 40.667 15 80.334 45 119.001s74 71 132 97z" />
    <glyph glyph-name="Wcircumflex" unicode="&#x174;" horiz-adv-x="1843" 
d="M56 1471h276l212 -939l263 939h233l266 -939l210 939h276l-331 -1471h-269l-271 951l-266 -951h-266zM515 1585l300 283h219l298 -283h-298l-108 131l-111 -131h-300z" />
    <glyph glyph-name="wcircumflex" unicode="&#x175;" horiz-adv-x="1638" 
d="M17 1088h267l219 -619l236 619h163l231 -612l219 612h269l-397 -1088h-173l-232 620l-239 -620h-171zM410 1287l300 283h219l298 -283h-298l-108 131l-111 -131h-300z" />
    <glyph glyph-name="Ycircumflex" unicode="&#x176;" horiz-adv-x="1270" 
d="M63 1471h301l274 -528l272 528h297l-430 -834v-637h-282v637zM226 1585l300 283h219l298 -283h-298l-108 131l-111 -131h-300z" />
    <glyph glyph-name="ycircumflex" unicode="&#x177;" horiz-adv-x="1188" 
d="M17 1088h279l283 -683l312 683h280l-682 -1486h-282l224 479zM186 1287l300 283h219l298 -283h-298l-108 131l-111 -131h-300z" />
    <glyph glyph-name="Ydieresis" unicode="&#x178;" horiz-adv-x="1270" 
d="M63 1471h301l274 -528l272 528h297l-430 -834v-637h-282v637zM423 1871c40 0 74 -14 102 -42s42 -61.667 42 -101c0 -40 -14 -74 -42 -102s-62 -42 -102 -42c-39.333 0 -73 14 -101 42s-42 62 -42 102c0 39.333 14 73 42 101s61.667 42 101 42zM866 1871
c40 0 74 -14 102 -42s42 -61.667 42 -101c0 -40 -14 -74 -42 -102s-62 -42 -102 -42c-39.333 0 -73 14 -101 42s-42 62 -42 102c0 39.333 14 73 42 101s61.667 42 101 42z" />
    <glyph glyph-name="Zacute" unicode="&#x179;" horiz-adv-x="1024" 
d="M90 1471h890l-525 -1202h491v-269h-899l523 1194h-480v277zM578 1977h323l-366 -392h-196z" />
    <glyph glyph-name="zacute" unicode="&#x17a;" horiz-adv-x="942" 
d="M91 1088h835l-490 -857h462v-231h-882l492 857h-417v231zM478 1679h323l-366 -392h-196z" />
    <glyph glyph-name="Zdot" unicode="&#x17b;" horiz-adv-x="1024" 
d="M90 1471h890l-525 -1202h491v-269h-899l523 1194h-480v277zM486 1871c40 0 74 -14 102 -42s42 -61.667 42 -101c0 -40 -14 -74 -42 -102s-62 -42 -102 -42c-39.333 0 -73 14 -101 42s-42 62 -42 102c0 39.333 14 73 42 101s61.667 42 101 42z" />
    <glyph glyph-name="zdot" unicode="&#x17c;" horiz-adv-x="942" 
d="M91 1088h835l-490 -857h462v-231h-882l492 857h-417v231zM486 1573c40 0 74 -14 102 -42s42 -61.667 42 -101c0 -40 -14 -74 -42 -102s-62 -42 -102 -42c-39.333 0 -73 14 -101 42s-42 62 -42 102c0 39.333 14 73 42 101s61.667 42 101 42z" />
    <glyph glyph-name="Zcaron" unicode="&#x17d;" horiz-adv-x="1024" 
d="M90 1471h890l-525 -1202h491v-269h-899l523 1194h-480v277zM103 1868h300l111 -132l108 132h298l-298 -283h-219z" />
    <glyph glyph-name="zcaron" unicode="&#x17e;" horiz-adv-x="942" 
d="M91 1088h835l-490 -857h462v-231h-882l492 857h-417v231zM62 1570h300l111 -132l108 132h298l-298 -283h-219z" />
    <glyph glyph-name="longs" unicode="&#x17f;" horiz-adv-x="491" 
d="M566 1497l0.000976562 -208c-38.667 11.333 -71.334 17 -98.001 17c-35.333 0 -58.5 -6.66699 -69.5 -20s-16.5 -48 -16.5 -104v-1182h-273v1146c0 117.333 4.83301 196.5 14.5 237.5s35.5 76.667 77.5 107s99.667 45.5 173 45.5c60.667 0 124.667 -13 192 -39z" />
    <glyph glyph-name="florin" unicode="&#x192;" horiz-adv-x="1147" 
d="M1078 1453l-32.998 -239.001c-54.667 39.333 -101 59 -139 59c-27.333 0 -49 -11.333 -65 -34s-29.667 -74.667 -41 -156l-21 -149h224l-34 -234h-226l-106 -756c-13.333 -97.333 -33 -170.333 -59 -219s-60 -86 -102 -112s-87.667 -39 -137 -39
c-38.667 0 -78 6.33301 -118 19s-89.667 36.334 -149 71.001l34 242c63.333 -49.333 116.666 -74 159.999 -74c26 0 46.333 9.66699 61 29s26.667 63.333 36 132l107 707h-227l34 234h227l33 249c17.333 124.667 49.166 214.667 95.499 270s112.5 83 198.5 83
c43.333 0 82.5 -5.5 117.5 -16.5s78.167 -33.167 129.5 -66.5z" />
    <glyph glyph-name="Aringacute" unicode="&#x1fa;" horiz-adv-x="1515" 
d="M616 1471h284l566 -1471h-291l-115 303h-600l-120 -303h-291zM760 1081l-196 -505h391zM757 1858c60.667 0 112.332 -21.833 154.999 -65.5s64 -96.167 64 -157.5c0 -62 -21.5 -114.833 -64.5 -158.5s-94.5 -65.5 -154.5 -65.5s-111.5 21.833 -154.5 65.5
s-64.5 96.5 -64.5 158.5c0 61.333 21.333 113.833 64 157.5s94.334 65.5 155.001 65.5zM756.998 1729c-22.667 0 -42 -8.66699 -58 -26s-24 -38.333 -24 -63c0 -25.333 8.16699 -46.666 24.5 -63.999s35.5 -26 57.5 -26s41.167 8.66699 57.5 26s24.5 38.666 24.5 63.999
c0 24.667 -8 45.667 -24 63s-35.333 26 -58 26zM804.998 2297h323l-366 -392h-196z" />
    <glyph glyph-name="aringacute" unicode="&#x1fb;" horiz-adv-x="1352" 
d="M942 1088h272.003v-1088h-272v115c-53.333 -50.667 -106.833 -87.167 -160.5 -109.5s-111.834 -33.5 -174.501 -33.5c-140.667 0 -262.334 54.5 -365.001 163.5s-154 244.5 -154 406.5c0 168 49.667 305.667 149 413s220 161 362 161
c65.333 0 126.666 -12.333 183.999 -37s110.333 -61.667 159 -111v120zM655.003 864c-84.667 0 -154.999 -29.835 -210.999 -89.502s-84 -136.167 -84 -229.5c0 -94 28.5 -171.333 85.5 -232s127.167 -91 210.5 -91c86 0 157.333 29.833 214 89.5s85 137.834 85 234.501
c0 94.667 -28.333 171.334 -85 230.001s-128.334 88 -215.001 88zM676.004 1686c60.667 0 112.332 -21.833 154.999 -65.5s64 -96.167 64 -157.5c0 -62 -21.5 -114.833 -64.5 -158.5s-94.5 -65.5 -154.5 -65.5s-111.5 21.833 -154.5 65.5s-64.5 96.5 -64.5 158.5
c0 61.333 21.333 113.833 64 157.5s94.334 65.5 155.001 65.5zM676.002 1557c-22.667 0 -42 -8.66699 -58 -26s-24 -38.333 -24 -63c0 -25.333 8.16699 -46.666 24.5 -63.999s35.5 -26 57.5 -26s41.167 8.66699 57.5 26s24.5 38.666 24.5 63.999c0 24.667 -8 45.667 -24 63
s-35.333 26 -58 26zM724.002 2168h323l-366 -392h-196z" />
    <glyph glyph-name="AEacute" unicode="&#x1fc;" horiz-adv-x="1843" 
d="M774 1471h963v-274h-517v-267h517v-269h-517v-387h517v-274h-796v304h-449l-147 -304h-288zM941 579v644l-317 -644h317zM1157 1977h323l-366 -392h-196z" />
    <glyph glyph-name="aeacute" unicode="&#x1fd;" horiz-adv-x="2212" 
d="M992 1088h251v-80c90.667 72 198 108 322 108c105.333 0 202.333 -25.5 291 -76.5s157.167 -121.5 205.5 -211.5s72.5 -191 72.5 -303l-2 -62h-876c16 -79.333 51.333 -141.5 106 -186.5s125.334 -67.5 212.001 -67.5c50 0 94.833 8.33301 134.5 25s80.167 45 121.5 85
l230 -108c-36 -52.667 -77.667 -96 -125 -130s-101.666 -60.667 -162.999 -80s-128 -29 -200 -29c-133.333 0 -243 35.333 -329 106v-78h-251v138c-52.667 -59.333 -107.334 -101.833 -164.001 -127.5s-122 -38.5 -196 -38.5c-154 0 -283 54 -387 162s-156 243.667 -156 407
c0 160.667 53.167 296.667 159.5 408s233.166 167 380.499 167c80.667 0 155.334 -17.667 224.001 -53c47.333 -24 93.666 -63 138.999 -117v142zM1860 676c-16.667 62 -50.499 111.999 -101.499 149.999s-112.5 57 -184.5 57c-73.333 0 -136.333 -17.667 -189 -53
s-91.334 -86.666 -116.001 -153.999h591zM683.001 867.999c-90 0 -165.167 -30.832 -225.5 -92.499s-90.5 -139.5 -90.5 -233.5c0 -92.667 29.5 -169.334 88.5 -230.001s133.833 -91 224.5 -91c94 0 169.833 30 227.5 90s86.5 139.667 86.5 239c0 92 -29.5 168 -88.5 228
s-133.167 90 -222.5 90zM1160 1679h323l-366 -392h-196z" />
    <glyph glyph-name="Oslashacute" unicode="&#x1fe;" horiz-adv-x="1720" 
d="M1429 1251c130.667 -146 195.999 -319.333 195.999 -520c0 -214.667 -73.833 -396.334 -221.5 -545.001s-326.5 -223 -536.5 -223c-159.333 0 -301.333 41.667 -426 125l-171 -202l-127 106l171 202c-68.667 70 -122 152 -160 246s-57 192.667 -57 296
c0 140.667 34 269.834 102 387.501s161.5 211.167 280.5 280.5s246.833 104 383.5 104c158.667 0 306.334 -48.333 443.001 -145l161 190l126 -104zM492.999 405l636.001 749c-75.333 53.333 -164.333 80 -267 80c-136.667 0 -251.334 -47.333 -344.001 -142
s-139 -215 -139 -361c0 -129.333 38 -238 114 -326zM1245 1038l-625 -738.001c74.667 -44 157 -66 247 -66c132 0 244.667 48 338 144s140 214.333 140 355c0 112.667 -33.333 214.334 -100 305.001zM909 1977h323l-366 -392h-196z" />
    <glyph glyph-name="oslashacute" unicode="&#x1ff;" horiz-adv-x="1352" 
d="M1123 900c82.667 -106.667 124.001 -225.001 124.001 -355.001c0 -102.667 -25.5 -198.667 -76.5 -288s-120.5 -159.166 -208.5 -209.499s-184.667 -75.5 -290 -75.5c-112 0 -213 29.333 -303 88l-130 -145l-125 107l130 146c-92 106 -138 231 -138 375
c0 169.333 62 310.333 186 423c109.333 100 235.666 150 378.999 150c118.667 0 229 -34.333 331 -103l126 140l123 -110zM423.001 366.999l406 453c-45.333 26 -96.666 39 -153.999 39c-84.667 0 -155.334 -29.5 -212.001 -88.5s-85 -134.5 -85 -226.5
c0 -62.667 15 -121.667 45 -177zM939.001 695.999l-395 -441c42 -19.333 85.667 -29 131 -29c84 0 154.333 29.667 211 89s85 135.666 85 228.999c0 54.667 -10.667 105.334 -32 152.001zM727.001 1679h323l-366 -392h-196z" />
    <glyph glyph-name="circumflex" unicode="&#x2c6;" horiz-adv-x="1106" 
d="M144 1287l300 283h219l298 -283h-298l-108 131l-111 -131h-300z" />
    <glyph glyph-name="caron" unicode="&#x2c7;" horiz-adv-x="1106" 
d="M144 1570h300l111 -132l108 132h298l-298 -283h-219z" />
    <glyph glyph-name="macron" unicode="&#x2c9;" horiz-adv-x="860" 
d="M145 1287v221h569v-221h-569z" />
    <glyph glyph-name="breve" unicode="&#x2d8;" horiz-adv-x="983" 
d="M85 1568h221.001c17.333 -27.333 41.5 -47.833 72.5 -61.5s68.833 -20.5 113.5 -20.5c45.333 0 86.333 8 123 24c24 10.667 45 30 63 58h221c-12.667 -84.667 -53.167 -152.667 -121.5 -204s-163.833 -77 -286.5 -77c-82.667 0 -151.834 11.5 -207.501 34.5
s-100.5 55.833 -134.5 98.5s-55.333 92 -64 148z" />
    <glyph glyph-name="dotaccent" unicode="&#x2d9;" horiz-adv-x="573" 
d="M286 1573c40 0 74 -14 102 -42s42 -61.667 42 -101c0 -40 -14 -74 -42 -102s-62 -42 -102 -42c-39.333 0 -73 14 -101 42s-42 62 -42 102c0 39.333 14 73 42 101s61.667 42 101 42z" />
    <glyph glyph-name="ring" unicode="&#x2da;" horiz-adv-x="737" 
d="M368 1734c60.667 0 112.332 -21.833 154.999 -65.5s64 -96.167 64 -157.5c0 -62 -21.5 -114.833 -64.5 -158.5s-94.5 -65.5 -154.5 -65.5s-111.5 21.833 -154.5 65.5s-64.5 96.5 -64.5 158.5c0 61.333 21.333 113.833 64 157.5s94.334 65.5 155.001 65.5zM367.998 1605
c-22.667 0 -42 -8.66699 -58 -26s-24 -38.333 -24 -63c0 -25.333 8.16699 -46.666 24.5 -63.999s35.5 -26 57.5 -26s41.167 8.66699 57.5 26s24.5 38.666 24.5 63.999c0 24.667 -8 45.667 -24 63s-35.333 26 -58 26z" />
    <glyph glyph-name="ogonek" unicode="&#x2db;" horiz-adv-x="696" 
d="M338 0l144 -0.00195312c-93.333 -55.333 -140 -110.333 -140 -165c0 -27.333 9.66699 -49.666 29 -66.999s44.333 -26 75 -26c22.667 0 51.667 9 87 27v-159c-46 -10 -88.667 -15 -128 -15c-78.667 0 -139 18 -181 54s-63 81 -63 135c0 40.667 15 80.334 45 119.001
s74 71 132 97z" />
    <glyph glyph-name="tilde" unicode="&#x2dc;" horiz-adv-x="983" 
d="M185 1291l-109.998 165c85.333 66 171.666 99 258.999 99c32.667 0 88.667 -11.333 168 -34c54 -14.667 97 -22 129 -22c56 0 114 17.333 174 52l104 -156c-84 -72 -165.333 -108 -244 -108c-42 0 -92.333 9 -151 27c-48 14 -78.333 22.333 -91 25
c-17.333 2.66699 -38 4 -62 4c-58.667 0 -117.334 -17.333 -176.001 -52z" />
    <glyph glyph-name="hungarumlaut" unicode="&#x2dd;" horiz-adv-x="1434" 
d="M568 1679h323l-366 -392h-196zM1014 1679h323l-365 -392h-197z" />
    <glyph glyph-name="tonos" unicode="&#x384;" horiz-adv-x="860" 
d="M571 1639l-43 -382h-196l-44 382h283z" />
    <glyph glyph-name="dieresistonos" unicode="&#x385;" horiz-adv-x="860" 
d="M571 1639l-43 -382h-196l-44 382h283zM260 1387c0 -36 -12.5 -66.5 -37.5 -91.5s-55.833 -37.5 -92.5 -37.5c-36 0 -66.5 12.5 -91.5 37.5s-37.5 55.5 -37.5 91.5s12.5 66.5 37.5 91.5s55.5 37.5 91.5 37.5c36 0.666992 66.667 -11.5 92 -36.5s38 -55.833 38 -92.5z
M858 1387c0 -36 -12.499 -66.5 -37.499 -91.5s-55.5 -37.5 -91.5 -37.5s-66.5 12.5 -91.5 37.5s-37.5 55.5 -37.5 91.5s12.5 66.5 37.5 91.5s55.5 37.5 91.5 37.5c36 0.666992 66.667 -11.5 92 -36.5s37.666 -55.833 36.999 -92.5z" />
    <glyph glyph-name="Alphatonos" unicode="&#x386;" horiz-adv-x="1515" 
d="M616 1471h284l566 -1471h-291l-115 303h-600l-120 -303h-291zM760 1081l-196 -505h391zM385 1508l-43 -382h-196l-44 382h283z" />
    <glyph glyph-name="anoteleia" unicode="&#x387;" horiz-adv-x="573" 
d="M444 959c0 -43.333 -15.333 -80.167 -46 -110.5s-67.667 -45.5 -111 -45.5c-44 0 -81.167 15 -111.5 45s-45.5 67 -45.5 111c0 43.333 15.167 80.333 45.5 111s67.5 46 111.5 46c43.333 0 80.333 -15.333 111 -46s46 -67.667 46 -111z" />
    <glyph glyph-name="Epsilontonos" unicode="&#x388;" horiz-adv-x="1228" 
d="M332 1471h803v-274h-525v-266h525v-269h-525v-387h525v-275h-803v1471zM183 1508l-43 -382h-196l-44 382h283z" />
    <glyph glyph-name="Etatonos" unicode="&#x389;" horiz-adv-x="1556" 
d="M330 1471h284v-555h492v555h283v-1471h-283v645h-492v-645h-284v1471zM183 1508l-43 -382h-196l-44 382h283z" />
    <glyph glyph-name="Iotatonos" unicode="&#x38a;" horiz-adv-x="736" 
d="M311 1471h278v-1471h-278v1471zM183 1508l-43 -382h-196l-44 382h283z" />
    <glyph glyph-name="Omicrontonos" unicode="&#x38c;" horiz-adv-x="1793" 
d="M936 1508c208 0 386.834 -75.3311 536.501 -225.998s224.5 -334.334 224.5 -551.001c0 -214.667 -73.833 -396.334 -221.5 -545.001s-326.834 -223 -537.501 -223c-220.667 0 -404 76.333 -550 229s-219 334 -219 544c0 140.667 34 270 102 388s161.5 211.5 280.5 280.5
s247.167 103.5 384.5 103.5zM933.001 1234c-136 0 -250.333 -47.332 -343 -141.999s-139 -215 -139 -361c0 -162.667 58.333 -291.334 175 -386.001c90.667 -74 194.667 -111 312 -111c132.667 0 245.667 48 339 144s140 214.333 140 355c0 140 -47 258.5 -141 355.5
s-208.333 145.5 -343 145.5zM183.001 1508l-43 -382h-196l-44 382h283z" />
    <glyph glyph-name="Upsilontonos" unicode="&#x38e;" horiz-adv-x="1443" 
d="M236 1471h301l274 -528l272 528h297l-430 -834v-637h-282v637zM183 1508l-43 -382h-196l-44 382h283z" />
    <glyph glyph-name="Omegatonos" unicode="&#x38f;" horiz-adv-x="1824" 
d="M1351 277h373v-277h-677v333c245.333 124 368 291.667 368 503c0 120.667 -41.667 217 -125 289s-197 108 -341 108c-145.333 0 -259.5 -36.833 -342.5 -110.5s-124.5 -169.167 -124.5 -286.5c0 -210 122.667 -377.667 368 -503v-333h-677v277h373
c-230.667 148 -346 334.667 -346 560c0 202 69.667 364.167 209 486.5s319.333 183.5 540 183.5c227.333 0 408.833 -62.333 544.5 -187s203.5 -285.667 203.5 -483c0 -225.333 -115.333 -412 -346 -560zM183 1508l-43 -382h-196l-44 382h283z" />
    <glyph glyph-name="iotadieresistonos" unicode="&#x390;" horiz-adv-x="491" 
d="M108 1088h274v-1088h-274v1088zM387 1639l-43 -382h-196l-44 382h283zM76 1387c0 -36 -12.5 -66.5 -37.5 -91.5s-55.833 -37.5 -92.5 -37.5c-36 0 -66.5 12.5 -91.5 37.5s-37.5 55.5 -37.5 91.5s12.5 66.5 37.5 91.5s55.5 37.5 91.5 37.5
c36 0.666992 66.667 -11.5 92 -36.5s38 -55.833 38 -92.5zM674 1387c0 -36 -12.499 -66.5 -37.499 -91.5s-55.5 -37.5 -91.5 -37.5s-66.5 12.5 -91.5 37.5s-37.5 55.5 -37.5 91.5s12.5 66.5 37.5 91.5s55.5 37.5 91.5 37.5c36 0.666992 66.667 -11.5 92 -36.5
s37.666 -55.833 36.999 -92.5z" />
    <glyph glyph-name="Alpha" unicode="&#x391;" horiz-adv-x="1515" 
d="M616 1471h284l566 -1471h-291l-115 303h-600l-120 -303h-291zM760 1081l-196 -505h391z" />
    <glyph glyph-name="Beta" unicode="&#x392;" horiz-adv-x="1188" 
d="M168 0l0.000976562 1471h231c134 0 232 -8.66699 294 -26c88 -23.333 158 -66.666 210 -129.999s78 -138 78 -224c0 -56 -11.833 -106.833 -35.5 -152.5s-62.167 -88.5 -115.5 -128.5c89.333 -42 154.666 -94.5 195.999 -157.5s62 -137.5 62 -223.5
c0 -82.667 -21.333 -158 -64 -226s-97.667 -118.833 -165 -152.5s-160.333 -50.5 -279 -50.5h-412zM448.001 1204v-310h61c68 0 118.5 14.333 151.5 43s49.5 67.667 49.5 117c0 46 -15.667 82.5 -47 109.5s-79 40.5 -143 40.5h-72zM448.001 643.999v-377h70
c116 0 194.167 14.667 234.5 44s60.5 72 60.5 128c0 63.333 -23.667 113.333 -71 150s-126 55 -236 55h-58z" />
    <glyph glyph-name="Gamma" unicode="&#x393;" horiz-adv-x="948" 
d="M167 1471h730v-274h-453v-1197h-277v1471z" />
    <glyph glyph-name="Delta" unicode="&#x394;" horiz-adv-x="1515" 
d="M1444 0h-1368v235l557 1236h251l560 -1236v-235zM1117 275l-360 806l-357 -806h717z" />
    <glyph glyph-name="Epsilon" unicode="&#x395;" horiz-adv-x="1065" 
d="M169 1471h803v-274h-525v-266h525v-269h-525v-387h525v-275h-803v1471z" />
    <glyph glyph-name="Zeta" unicode="&#x396;" horiz-adv-x="1024" 
d="M90 1471h890l-525 -1202h491v-269h-899l523 1194h-480v277z" />
    <glyph glyph-name="Eta" unicode="&#x397;" horiz-adv-x="1393" 
d="M167 1471h284v-555h492v555h283v-1471h-283v645h-492v-645h-284v1471z" />
    <glyph glyph-name="Theta" unicode="&#x398;" horiz-adv-x="1720" 
d="M1624 731c0 -214.667 -73.168 -396.332 -219.501 -544.999s-326.166 -223 -539.499 -223c-216.667 0 -399 74.667 -547 224s-222 332.333 -222 549c0 217.333 75.5 400.333 226.5 549s331.167 223 540.5 223c211.333 0 391 -75.333 539 -226s222 -334.334 222 -551.001z
M377.999 731.002c0 -148.667 48.5 -268.666 145.5 -359.999s210.833 -137 341.5 -137c136 0 249.833 48.5 341.5 145.5s137.5 214.833 137.5 353.5c0 139.333 -46.5 257.666 -139.5 354.999s-207.833 146 -344.5 146c-139.333 0 -254.5 -47.833 -345.5 -143.5
s-136.5 -215.5 -136.5 -359.5zM597.999 876.003h526v-269h-526v269z" />
    <glyph glyph-name="Iota" unicode="&#x399;" horiz-adv-x="573" 
d="M148 1471h278v-1471h-278v1471z" />
    <glyph glyph-name="Kappa" unicode="&#x39a;" horiz-adv-x="1270" 
d="M170 1471h283v-506l399 506h337l-514 -656l564 -815h-332l-454 653v-653h-283v1471z" />
    <glyph glyph-name="Lambda" unicode="&#x39b;" horiz-adv-x="1421" 
d="M1120 0l-407 1081l-414 -1081h-297l567 1471h284l566 -1471h-299z" />
    <glyph glyph-name="Mu" unicode="&#x39c;" horiz-adv-x="1843" 
d="M310 1471h274l340 -1026l345 1026h270l248 -1471h-270l-158 929l-313 -929h-247l-309 929l-161 -929h-273z" />
    <glyph glyph-name="Nu" unicode="&#x39d;" horiz-adv-x="1515" 
d="M169 1471h268l631 -968v968h280v-1471h-269l-630 965v-965h-280v1471z" />
    <glyph glyph-name="Xi" unicode="&#x39e;" horiz-adv-x="1083" 
d="M973 1197h-863v274h863v-274zM973 662h-863v269h863v-269zM973 0h-863v275h863v-275z" />
    <glyph glyph-name="Omicron" unicode="&#x39f;" horiz-adv-x="1720" 
d="M863 1508c208 0 386.834 -75.3311 536.501 -225.998s224.5 -334.334 224.5 -551.001c0 -214.667 -73.833 -396.334 -221.5 -545.001s-326.834 -223 -537.501 -223c-220.667 0 -404 76.333 -550 229s-219 334 -219 544c0 140.667 34 270 102 388s161.5 211.5 280.5 280.5
s247.167 103.5 384.5 103.5zM860.001 1234c-136 0 -250.333 -47.332 -343 -141.999s-139 -215 -139 -361c0 -162.667 58.333 -291.334 175 -386.001c90.667 -74 194.667 -111 312 -111c132.667 0 245.667 48 339 144s140 214.333 140 355c0 140 -47 258.5 -141 355.5
s-208.333 145.5 -343 145.5z" />
    <glyph glyph-name="Pi" unicode="&#x3a0;" horiz-adv-x="1393" 
d="M167 1471h1059v-1471h-283v1209h-492v-1209h-284v1471z" />
    <glyph glyph-name="Rho" unicode="&#x3a1;" horiz-adv-x="1147" 
d="M167 1471h297c160.667 0 276.5 -14.833 347.5 -44.5s127 -77.667 168 -144s61.5 -145.833 61.5 -238.5c0 -102.667 -26.833 -188 -80.5 -256s-126.5 -115.333 -218.5 -142c-54 -15.333 -152.333 -23 -295 -23v-623h-280v1471zM447 896h89c70 0 118.667 5 146 15
s48.833 26.5 64.5 49.5s23.5 50.833 23.5 83.5c0 56.667 -22 98 -66 124c-32 19.333 -91.333 29 -178 29h-79v-301z" />
    <glyph glyph-name="Sigma" unicode="&#x3a3;" horiz-adv-x="1027" 
d="M26 0l388 734l-382 737h902v-274h-458l242 -464l-245 -458h474v-275h-921z" />
    <glyph glyph-name="Tau" unicode="&#x3a4;" horiz-adv-x="860" 
d="M23 1471h813v-276h-268v-1195h-284v1195h-261v276z" />
    <glyph glyph-name="Upsilon" unicode="&#x3a5;" horiz-adv-x="1270" 
d="M63 1471h301l274 -528l272 528h297l-430 -834v-637h-282v637z" />
    <glyph glyph-name="Phi" unicode="&#x3a6;" horiz-adv-x="1760" 
d="M1022 148v-147.996h-284v148c-208.667 20 -371 81.5 -487 184.5s-174 239.833 -174 410.5c0 170 62.167 309.167 186.5 417.5s282.5 168.166 474.5 179.499v131h284v-131c199.333 -14.667 359.333 -74.834 480 -180.501s181 -243.834 181 -414.501
c0 -182.667 -58.667 -326.334 -176 -431.001s-279 -160 -485 -166zM1022 1084v-679c250.667 22.667 376 136 376 340c0 202 -125.333 315 -376 339zM738 1084c-250.667 -22 -376 -135.333 -376 -340c0 -201.333 125.333 -314.333 376 -339v679z" />
    <glyph glyph-name="Chi" unicode="&#x3a7;" horiz-adv-x="1393" 
d="M72 1471h315l308 -471l311 471h315l-468 -712l497 -759h-315l-340 517l-337 -517h-317l497 759z" />
    <glyph glyph-name="Psi" unicode="&#x3a8;" horiz-adv-x="1682" 
d="M981 369v-368.999h-280v369c-380.667 45.333 -571 246 -571 602v500h281v-467c0 -130.667 21.833 -221.834 65.5 -273.501s118.5 -85.5 224.5 -101.5v842h280v-843c107.333 18 182.5 52.333 225.5 103s64.5 141.667 64.5 273v467h281v-509
c0 -349.333 -190.333 -547 -571 -593z" />
    <glyph glyph-name="Omega" unicode="&#x3a9;" horiz-adv-x="1751" 
d="M1278 277h373v-277h-677v333c245.333 124 368 291.667 368 503c0 120.667 -41.667 217 -125 289s-197 108 -341 108c-145.333 0 -259.5 -36.833 -342.5 -110.5s-124.5 -169.167 -124.5 -286.5c0 -210 122.667 -377.667 368 -503v-333h-677v277h373
c-230.667 148 -346 334.667 -346 560c0 202 69.667 364.167 209 486.5s319.333 183.5 540 183.5c227.333 0 408.833 -62.333 544.5 -187s203.5 -285.667 203.5 -483c0 -225.333 -115.333 -412 -346 -560z" />
    <glyph glyph-name="Iotadieresis" unicode="&#x3aa;" horiz-adv-x="573" 
d="M148 1471h278v-1471h-278v1471zM65 1871c40 0 74 -14 102 -42s42 -61.667 42 -101c0 -40 -14 -74 -42 -102s-62 -42 -102 -42c-39.333 0 -73 14 -101 42s-42 62 -42 102c0 39.333 14 73 42 101s61.667 42 101 42zM508 1871c40 0 74 -14 102 -42s42 -61.667 42 -101
c0 -40 -14 -74 -42 -102s-62 -42 -102 -42c-39.333 0 -73 14 -101 42s-42 62 -42 102c0 39.333 14 73 42 101s61.667 42 101 42z" />
    <glyph glyph-name="Upsilondieresis" unicode="&#x3ab;" horiz-adv-x="1270" 
d="M63 1471h301l274 -528l272 528h297l-430 -834v-637h-282v637zM423 1871c40 0 74 -14 102 -42s42 -61.667 42 -101c0 -40 -14 -74 -42 -102s-62 -42 -102 -42c-39.333 0 -73 14 -101 42s-42 62 -42 102c0 39.333 14 73 42 101s61.667 42 101 42zM866 1871
c40 0 74 -14 102 -42s42 -61.667 42 -101c0 -40 -14 -74 -42 -102s-62 -42 -102 -42c-39.333 0 -73 14 -101 42s-42 62 -42 102c0 39.333 14 73 42 101s61.667 42 101 42z" />
    <glyph glyph-name="alphatonos" unicode="&#x3ac;" horiz-adv-x="1352" 
d="M942 1088h272.003v-1088h-272v115c-53.333 -50.667 -106.833 -87.167 -160.5 -109.5s-111.834 -33.5 -174.501 -33.5c-140.667 0 -262.334 54.5 -365.001 163.5s-154 244.5 -154 406.5c0 168 49.667 305.667 149 413s220 161 362 161
c65.333 0 126.666 -12.333 183.999 -37s110.333 -61.667 159 -111v120zM655.003 864c-84.667 0 -154.999 -29.835 -210.999 -89.502s-84 -136.167 -84 -229.5c0 -94 28.5 -171.333 85.5 -232s127.167 -91 210.5 -91c86 0 157.333 29.833 214 89.5s85 137.834 85 234.501
c0 94.667 -28.333 171.334 -85 230.001s-128.334 88 -215.001 88zM817.004 1639l-43 -382h-196l-44 382h283z" />
    <glyph glyph-name="epsilontonos" unicode="&#x3ad;" horiz-adv-x="897" 
d="M880 96c-96 -82.667 -217.666 -124.002 -364.999 -124.002c-124.667 0 -227.334 30 -308.001 90s-121 142.667 -121 248c0 130.667 67.667 221 203 271c-101.333 58.667 -152 135.334 -152 230.001c0 93.333 34.833 167.5 104.5 222.5s157.5 82.5 263.5 82.5
c115.333 0 220 -37.333 314 -112l-108 -188c-67.333 43.333 -123.333 65 -168 65c-36.667 0 -66.834 -11 -90.501 -33s-35.5 -49.333 -35.5 -82c0 -73.333 45.667 -110 137 -110h54v-195h-71c-41.333 0 -75.666 -11.833 -102.999 -35.5s-41 -54.167 -41 -91.5
s14.167 -66.666 42.5 -87.999s64.833 -32 109.5 -32c64.667 0 135.667 30.333 213 91zM590.001 1639l-43 -382h-196l-44 382h283z" />
    <glyph glyph-name="etatonos" unicode="&#x3ae;" 
d="M138 1088h271.999v-111c110 92.667 217.667 139 323 139c100 0 186.667 -32.667 260 -98s110 -165 110 -299v-1117h-270v875c0 98.667 -3 172.5 -9 221.5s-24.167 89.333 -54.5 121s-71.166 47.5 -122.499 47.5c-56.667 0 -103.5 -16.333 -140.5 -49
s-62.333 -75 -76 -127s-20.5 -136.667 -20.5 -254v-437h-272v1088zM755.999 1639l-43 -382h-196l-44 382h283z" />
    <glyph glyph-name="iotatonos" unicode="&#x3af;" horiz-adv-x="491" 
d="M108 1088h274v-1088h-274v1088zM387 1639l-43 -382h-196l-44 382h283z" />
    <glyph glyph-name="upsilondieresistonos" unicode="&#x3b0;" 
d="M110 1089l272 -0.00195312v-512c0 -135.333 19.333 -227.666 58 -276.999s98.667 -74 180 -74c169.333 0 254 99.333 254 298c0 159.333 -90 282.333 -270 369l148 227c261.333 -144 392 -343.667 392 -599c0 -158 -46.5 -289 -139.5 -393s-221.167 -156 -384.5 -156
c-110 0 -201.833 19.167 -275.5 57.5s-131.167 96.333 -172.5 174s-62 193.834 -62 348.501v537zM756 1639l-43 -382h-196l-44 382h283zM445 1387c0 -36 -12.5 -66.5 -37.5 -91.5s-55.833 -37.5 -92.5 -37.5c-36 0 -66.5 12.5 -91.5 37.5s-37.5 55.5 -37.5 91.5
s12.5 66.5 37.5 91.5s55.5 37.5 91.5 37.5c36 0.666992 66.667 -11.5 92 -36.5s38 -55.833 38 -92.5zM1043 1387c0 -36 -12.499 -66.5 -37.499 -91.5s-55.5 -37.5 -91.5 -37.5s-66.5 12.5 -91.5 37.5s-37.5 55.5 -37.5 91.5s12.5 66.5 37.5 91.5s55.5 37.5 91.5 37.5
c36 0.666992 66.667 -11.5 92 -36.5s37.666 -55.833 36.999 -92.5z" />
    <glyph glyph-name="alpha" unicode="&#x3b1;" horiz-adv-x="1352" 
d="M942 1088h272.003v-1088h-272v115c-53.333 -50.667 -106.833 -87.167 -160.5 -109.5s-111.834 -33.5 -174.501 -33.5c-140.667 0 -262.334 54.5 -365.001 163.5s-154 244.5 -154 406.5c0 168 49.667 305.667 149 413s220 161 362 161
c65.333 0 126.666 -12.333 183.999 -37s110.333 -61.667 159 -111v120zM655.003 864c-84.667 0 -154.999 -29.835 -210.999 -89.502s-84 -136.167 -84 -229.5c0 -94 28.5 -171.333 85.5 -232s127.167 -91 210.5 -91c86 0 157.333 29.833 214 89.5s85 137.834 85 234.501
c0 94.667 -28.333 171.334 -85 230.001s-128.334 88 -215.001 88z" />
    <glyph glyph-name="beta" unicode="&#x3b2;" horiz-adv-x="1267" 
d="M402 83l-0.000976562 -481.001h-272v1470c0 140 41 252.333 123 337s192 127 330 127c127.333 0 229.833 -34.667 307.5 -104s116.5 -157 116.5 -263c0 -105.333 -53.667 -196.666 -161 -273.999c224 -67.333 336 -205.333 336 -414
c0 -153.333 -45.667 -276.333 -137 -369s-210.333 -139 -357 -139c-119.333 0 -214.666 36.667 -285.999 110zM527.999 715.999l-0.000976562 230.999c138 20.667 207 84.334 207 191.001c0 43.333 -12.833 78.833 -38.5 106.5s-60.167 41.5 -103.5 41.5
c-127.333 0 -191 -88.333 -191 -265v-538c0 -80 21.833 -143.333 65.5 -190s105.834 -70 186.501 -70c75.333 0 136.833 21 184.5 63s71.5 97.333 71.5 166c0 176 -125 264 -375 264h-7z" />
    <glyph glyph-name="gamma" unicode="&#x3b3;" horiz-adv-x="1147" 
d="M710 114v-512h-274v511l-415 975h278l275 -642l274 642h277z" />
    <glyph glyph-name="delta" unicode="&#x3b4;" horiz-adv-x="1228" 
d="M397 898c-96.667 75.333 -145.003 163 -145.003 263c0 117.333 42.5 209.166 127.5 275.499s194.5 99.5 328.5 99.5c86.667 0 189.334 -14.333 308.001 -43l-71 -246c-89.333 22.667 -164.666 34 -225.999 34c-130 0 -195 -39 -195 -117c0 -46 19.333 -81.5 58 -106.5
s103.334 -55.167 194.001 -90.5c244.667 -95.333 367 -257.666 367 -486.999c0 -142.667 -51.5 -263 -154.5 -361s-227.833 -147 -374.5 -147c-146 0 -270.667 48.333 -374 145s-155 211 -155 343c0 206.667 104 352.667 312 438zM613.997 739
c-71.333 0 -132 -25.5 -182 -76.5s-75 -112.833 -75 -185.5s24.5 -133.834 73.5 -183.501s110.167 -74.5 183.5 -74.5s134.5 24.833 183.5 74.5s73.5 110.834 73.5 183.501c0 73.333 -25.333 135.333 -76 186s-111 76 -181 76zM613.997 986z" />
    <glyph glyph-name="epsilon" unicode="&#x3b5;" horiz-adv-x="897" 
d="M880 96c-96 -82.667 -217.666 -124.002 -364.999 -124.002c-124.667 0 -227.334 30 -308.001 90s-121 142.667 -121 248c0 130.667 67.667 221 203 271c-101.333 58.667 -152 135.334 -152 230.001c0 93.333 34.833 167.5 104.5 222.5s157.5 82.5 263.5 82.5
c115.333 0 220 -37.333 314 -112l-108 -188c-67.333 43.333 -123.333 65 -168 65c-36.667 0 -66.834 -11 -90.501 -33s-35.5 -49.333 -35.5 -82c0 -73.333 45.667 -110 137 -110h54v-195h-71c-41.333 0 -75.666 -11.833 -102.999 -35.5s-41 -54.167 -41 -91.5
s14.167 -66.666 42.5 -87.999s64.833 -32 109.5 -32c64.667 0 135.667 30.333 213 91z" />
    <glyph glyph-name="zeta" unicode="&#x3b6;" horiz-adv-x="974" 
d="M340 -393l57.998 241.002c51.333 -20.667 109.333 -31 174 -31c90.667 0 136 29.667 136 89c0 42 -23 70.333 -69 85c-134 30.667 -238 62.5 -312 95.5s-134.333 87.667 -181 164s-70 170.166 -70 281.499c0 118 36.833 231.333 110.5 340s202.834 235.667 387.501 381
h-408v255h785v-227c-206 -145.333 -358 -276 -456 -392s-147 -231.667 -147 -347c0 -82.667 18.333 -141 55 -175s107.334 -65 212.001 -93c152.667 -40.667 250.667 -88.834 294 -144.501s65 -124.834 65 -207.501c0 -111.333 -37 -197.166 -111 -257.499
s-171.333 -90.5 -292 -90.5c-65.333 0 -142.333 11 -231 33z" />
    <glyph glyph-name="eta" unicode="&#x3b7;" 
d="M138 1088h271.999v-111c110 92.667 217.667 139 323 139c100 0 186.667 -32.667 260 -98s110 -165 110 -299v-1117h-270v875c0 98.667 -3 172.5 -9 221.5s-24.167 89.333 -54.5 121s-71.166 47.5 -122.499 47.5c-56.667 0 -103.5 -16.333 -140.5 -49
s-62.333 -75 -76 -127s-20.5 -136.667 -20.5 -254v-437h-272v1088z" />
    <glyph glyph-name="theta" unicode="&#x3b8;" horiz-adv-x="1341" 
d="M665 -28c-186.667 0 -329.999 68.833 -429.999 206.5s-150 328.834 -150 573.501c0 238.667 51.167 429 153.5 571s245.833 213 430.5 213c191.333 0 337 -67.667 437 -203s150 -328 150 -578c0 -250.667 -50.333 -443.834 -151 -579.501
s-247.334 -203.5 -440.001 -203.5zM363.001 880h612c-24.667 268 -127 402 -307 402c-177.333 0 -279 -134 -305 -402zM973.001 625h-609.999c27.333 -266 128.666 -399 303.999 -399c177.333 0 279.333 133 306 399z" />
    <glyph glyph-name="iota" unicode="&#x3b9;" horiz-adv-x="491" 
d="M108 1088h274v-1088h-274v1088z" />
    <glyph glyph-name="kappa" unicode="&#x3ba;" horiz-adv-x="1188" 
d="M140 1089h273v-450l402 449h342l-468 -522l525 -566h-339l-462 501v-501h-273v1089z" />
    <glyph glyph-name="lambda" unicode="&#x3bb;" horiz-adv-x="1188" 
d="M1171 0h-280l-312 683l-283 -683h-279l414 1007l-234 501h282z" />
    <glyph glyph-name="mu" unicode="&#x3bc;" 
d="M1097 0h-271.998v111c-86.667 -86.667 -175.334 -130 -266.001 -130c-66.667 0 -119 21 -157 63v-442h-270v1486h270v-477c0 -98.667 3 -172.5 9 -221.5s24.167 -89.333 54.5 -121s71.166 -47.5 122.499 -47.5c56.667 0 103.5 16.333 140.5 49s62.333 75 76 127
s20.5 136.667 20.5 254v437h272v-1088z" />
    <glyph glyph-name="nu" unicode="&#x3bd;" horiz-adv-x="1147" 
d="M21 1088h278l275 -642l274 642h277l-463 -1088h-177z" />
    <glyph glyph-name="xi" unicode="&#x3be;" horiz-adv-x="974" 
d="M340 -392l58 240.001c57.333 -20.667 115.666 -31 174.999 -31c90 0 135 29.333 135 88c0 27.333 -11.167 47.166 -33.5 59.499s-83.166 30.833 -182.499 55.5c-277.333 66 -416 212.667 -416 440c0 182 83.667 319 251 411c-117.333 72 -176 173.333 -176 304
c0 116.667 42.667 206 128 268s198.666 93 339.999 93c104 0 210.667 -15.333 320 -46l-74 -244c-84 22.667 -168.667 34 -254 34c-125.333 0 -188 -48 -188 -144c0 -52.667 26.5 -93.667 79.5 -123s122.167 -44 207.5 -44h147v-255h-226c-88.667 0 -158 -19.667 -208 -59
s-75 -95.333 -75 -168c0 -60 18 -104.833 54 -134.5s108.333 -58.834 217 -87.501c154.667 -40.667 252.5 -88.167 293.5 -142.5s61.5 -121.166 61.5 -200.499c0 -112 -37.167 -198 -111.5 -258s-173.166 -90 -296.499 -90c-66.667 0 -142 11.333 -226 34z" />
    <glyph glyph-name="omicron" unicode="&#x3bf;" horiz-adv-x="1311" 
d="M649 1116c102.667 0 199.167 -25.668 289.5 -77.001s160.833 -121 211.5 -209s76 -183 76 -285c0 -102.667 -25.5 -198.667 -76.5 -288s-120.5 -159.166 -208.5 -209.499s-185 -75.5 -291 -75.5c-156 0 -289.167 55.5 -399.5 166.5s-165.5 245.833 -165.5 404.5
c0 170 62.333 311.667 187 425c109.333 98.667 235 148 377 148zM653 858.999c-84.667 0 -155.166 -29.4971 -211.499 -88.4971s-84.5 -134.5 -84.5 -226.5c0 -94.667 27.833 -171.334 83.5 -230.001s126.167 -88 211.5 -88s156.333 29.667 213 89s85 135.666 85 228.999
s-27.833 169.166 -83.5 227.499s-126.834 87.5 -213.501 87.5z" />
    <glyph glyph-name="pi" unicode="&#x3c0;" horiz-adv-x="1382" 
d="M1322 833h-180v-833h-272v833h-368v-833h-272v833h-170v255h1262v-255z" />
    <glyph glyph-name="rho" unicode="&#x3c1;" horiz-adv-x="1336" 
d="M384 127l0.000976562 -525h-274v941c0 158 54.667 293 164 405s242.666 168 399.999 168c158 0 293.667 -55.333 407 -166s170 -245.667 170 -405c0 -166 -49.667 -303 -149 -411s-227 -162 -383 -162c-124 0 -235.667 51.667 -335 155zM382.001 544
c0 -92.667 27.168 -168.834 81.501 -228.501s125.5 -89.5 213.5 -89.5c87.333 0 158.833 30 214.5 90s83.5 136 83.5 228c0 92.667 -27.333 168.334 -82 227.001s-126.334 88 -215.001 88c-85.333 0 -156 -29.5 -212 -88.5s-84 -134.5 -84 -226.5z" />
    <glyph glyph-name="sigma1" unicode="&#x3c2;" horiz-adv-x="1199" 
d="M1171 868l-227.001 -125.003c-82.667 79.333 -174 119 -274 119c-92 0 -166.5 -24.5 -223.5 -73.5s-85.5 -117.833 -85.5 -206.5c0 -78 23.833 -140.667 71.5 -188s134.5 -89 260.5 -125c144 -41.333 239.833 -89.166 287.5 -143.499s71.5 -122.166 71.5 -203.499
c0 -111.333 -37 -197.166 -111 -257.499s-171.333 -90.5 -292 -90.5c-65.333 0 -142.333 11 -231 33l58 241c49.333 -20.667 107.333 -31 174 -31c51.333 0 86.833 6.66699 106.5 20s29.5 36.333 29.5 69c0 42 -50 74.667 -150 98c-197.333 46 -338.5 113.5 -423.5 202.5
s-127.5 205.5 -127.5 349.5c0 174 54.167 310.833 162.5 410.5s252.5 149.5 432.5 149.5c94.667 0 186.834 -22 276.501 -66s161.167 -104.667 214.5 -182z" />
    <glyph glyph-name="sigma" unicode="&#x3c3;" horiz-adv-x="1468" 
d="M1408 833l-272.001 0.000976562c60 -65.333 90 -161.333 90 -288c0 -156.667 -55 -291.334 -165 -404.001s-247 -169 -411 -169c-157.333 0 -290.833 55.333 -400.5 166s-164.5 245.667 -164.5 405c0 162 56.333 298 169 408s244.334 165 395.001 165
c62 0 121.667 -9.33301 179 -28h580v-255zM652.999 859.001c-87.333 0 -158.499 -30 -213.499 -90s-82.5 -135 -82.5 -225c0 -92.667 27.167 -168.834 81.5 -228.501s125.5 -89.5 213.5 -89.5c87.333 0 158.833 30 214.5 90s83.5 136 83.5 228
c0 92.667 -27.333 168.334 -82 227.001s-126.334 88 -215.001 88zM1311 0.000976562z" />
    <glyph glyph-name="tau" unicode="&#x3c4;" horiz-adv-x="852" 
d="M792 833h-230v-833h-272v833h-230v255h732v-255z" />
    <glyph glyph-name="upsilon" unicode="&#x3c5;" 
d="M110 1089l272 -0.00195312v-512c0 -135.333 19.333 -227.666 58 -276.999s98.667 -74 180 -74c169.333 0 254 99.333 254 298c0 159.333 -90 282.333 -270 369l148 227c261.333 -144 392 -343.667 392 -599c0 -158 -46.5 -289 -139.5 -393s-221.167 -156 -384.5 -156
c-110 0 -201.833 19.167 -275.5 57.5s-131.167 96.333 -172.5 174s-62 193.834 -62 348.501v537z" />
    <glyph glyph-name="phi" unicode="&#x3c6;" horiz-adv-x="1632" 
d="M947 -23v-374.999h-272v376c-393.333 40.667 -590 230 -590 568c0 114 35.833 220.667 107.5 320s172.167 180 301.5 242l76 -265c-142 -82.667 -213 -182.667 -213 -300c0 -92 24.833 -162.333 74.5 -211s130.834 -82 243.501 -100v877
c51.333 4.66699 97.666 7 138.999 7c228 0 407.167 -49.833 537.5 -149.5s195.5 -239.834 195.5 -420.501c0 -324 -200 -513.667 -600 -569zM947 857.001v-625c218.667 29.333 328 133 328 311c0 195.333 -109.333 300 -328 314z" />
    <glyph glyph-name="chi" unicode="&#x3c7;" horiz-adv-x="1147" 
d="M1100 1088l-381 -702l427 -784h-302l-273 530l-272 -530h-298l423 780l-384 706h302l230 -452l229 452h299z" />
    <glyph glyph-name="psi" unicode="&#x3c8;" horiz-adv-x="1560" 
d="M916 -22v-375.999h-272v376c-356 40 -534 232.667 -534 578v532h272v-460c0 -156 22.167 -256.667 66.5 -302s109.5 -73.333 195.5 -84v846h272v-847c108.667 15.333 179.5 50.666 212.5 105.999s49.5 149 49.5 281v460h272v-541c0 -338 -178 -527.667 -534 -569z" />
    <glyph glyph-name="omega" unicode="&#x3c9;" horiz-adv-x="1756" 
d="M878 133c-67.333 -107.333 -167.332 -160.999 -299.999 -160.999c-156 0 -277.667 47 -365 141s-131 223.667 -131 389c0 179.333 56.5 324.666 169.5 435.999s267.5 171.666 463.5 180.999l21 -258c-254.667 -32 -382 -153 -382 -363c0 -186.667 71 -280 213 -280
c117.333 0 176 92 176 276v131h269v-131c0 -184 59 -276 177 -276c142 0 213 93.333 213 280c0 112 -30.667 195.833 -92 251.5s-158 92.834 -290 111.501l21 258c193.333 -9.33301 347.166 -69.5 461.499 -180.5s171.5 -256.5 171.5 -436.5
c0 -165.333 -43.667 -295 -131 -389s-209 -141 -365 -141c-141.333 0 -241.333 53.667 -300 161z" />
    <glyph glyph-name="iotadieresis" unicode="&#x3ca;" horiz-adv-x="491" 
d="M108 1088h274v-1088h-274v1088zM24 1573c40 0 74 -14 102 -42s42 -61.667 42 -101c0 -40 -14 -74 -42 -102s-62 -42 -102 -42c-39.333 0 -73 14 -101 42s-42 62 -42 102c0 39.333 14 73 42 101s61.667 42 101 42zM467 1573c40 0 74 -14 102 -42s42 -61.667 42 -101
c0 -40 -14 -74 -42 -102s-62 -42 -102 -42c-39.333 0 -73 14 -101 42s-42 62 -42 102c0 39.333 14 73 42 101s61.667 42 101 42z" />
    <glyph glyph-name="upsilondieresis" unicode="&#x3cb;" 
d="M110 1089l272 -0.00195312v-512c0 -135.333 19.333 -227.666 58 -276.999s98.667 -74 180 -74c169.333 0 254 99.333 254 298c0 159.333 -90 282.333 -270 369l148 227c261.333 -144 392 -343.667 392 -599c0 -158 -46.5 -289 -139.5 -393s-221.167 -156 -384.5 -156
c-110 0 -201.833 19.167 -275.5 57.5s-131.167 96.333 -172.5 174s-62 193.834 -62 348.501v537zM392 1573c40 0 74 -14 102 -42s42 -61.667 42 -101c0 -40 -14 -74 -42 -102s-62 -42 -102 -42c-39.333 0 -73 14 -101 42s-42 62 -42 102c0 39.333 14 73 42 101
s61.667 42 101 42zM835 1573c40 0 74 -14 102 -42s42 -61.667 42 -101c0 -40 -14 -74 -42 -102s-62 -42 -102 -42c-39.333 0 -73 14 -101 42s-42 62 -42 102c0 39.333 14 73 42 101s61.667 42 101 42z" />
    <glyph glyph-name="omicrontonos" unicode="&#x3cc;" horiz-adv-x="1311" 
d="M649 1116c102.667 0 199.167 -25.668 289.5 -77.001s160.833 -121 211.5 -209s76 -183 76 -285c0 -102.667 -25.5 -198.667 -76.5 -288s-120.5 -159.166 -208.5 -209.499s-185 -75.5 -291 -75.5c-156 0 -289.167 55.5 -399.5 166.5s-165.5 245.833 -165.5 404.5
c0 170 62.333 311.667 187 425c109.333 98.667 235 148 377 148zM653 858.999c-84.667 0 -155.166 -29.4971 -211.499 -88.4971s-84.5 -134.5 -84.5 -226.5c0 -94.667 27.833 -171.334 83.5 -230.001s126.167 -88 211.5 -88s156.333 29.667 213 89s85 135.666 85 228.999
s-27.833 169.166 -83.5 227.499s-126.834 87.5 -213.501 87.5zM797.001 1639l-43 -382h-196l-44 382h283z" />
    <glyph glyph-name="upsilontonos" unicode="&#x3cd;" 
d="M110 1089l272 -0.00195312v-512c0 -135.333 19.333 -227.666 58 -276.999s98.667 -74 180 -74c169.333 0 254 99.333 254 298c0 159.333 -90 282.333 -270 369l148 227c261.333 -144 392 -343.667 392 -599c0 -158 -46.5 -289 -139.5 -393s-221.167 -156 -384.5 -156
c-110 0 -201.833 19.167 -275.5 57.5s-131.167 96.333 -172.5 174s-62 193.834 -62 348.501v537zM756 1639l-43 -382h-196l-44 382h283z" />
    <glyph glyph-name="omegatonos" unicode="&#x3ce;" horiz-adv-x="1756" 
d="M878 133c-67.333 -107.333 -167.332 -160.999 -299.999 -160.999c-156 0 -277.667 47 -365 141s-131 223.667 -131 389c0 179.333 56.5 324.666 169.5 435.999s267.5 171.666 463.5 180.999l21 -258c-254.667 -32 -382 -153 -382 -363c0 -186.667 71 -280 213 -280
c117.333 0 176 92 176 276v131h269v-131c0 -184 59 -276 177 -276c142 0 213 93.333 213 280c0 112 -30.667 195.833 -92 251.5s-158 92.834 -290 111.501l21 258c193.333 -9.33301 347.166 -69.5 461.499 -180.5s171.5 -256.5 171.5 -436.5
c0 -165.333 -43.667 -295 -131 -389s-209 -141 -365 -141c-141.333 0 -241.333 53.667 -300 161zM1019 1639l-43 -382h-196l-44 382h283z" />
    <glyph glyph-name="afii10023" unicode="&#x401;" horiz-adv-x="1065" 
d="M169 1471h803v-274h-525v-266h525v-269h-525v-387h525v-275h-803v1471zM347 1871c40 0 74 -14 102 -42s42 -61.667 42 -101c0 -40 -14 -74 -42 -102s-62 -42 -102 -42c-39.333 0 -73 14 -101 42s-42 62 -42 102c0 39.333 14 73 42 101s61.667 42 101 42zM790 1871
c40 0 74 -14 102 -42s42 -61.667 42 -101c0 -40 -14 -74 -42 -102s-62 -42 -102 -42c-39.333 0 -73 14 -101 42s-42 62 -42 102c0 39.333 14 73 42 101s61.667 42 101 42z" />
    <glyph glyph-name="afii10051" unicode="&#x402;" horiz-adv-x="1413" 
d="M569 0h-285v1195h-264v276h813v-276h-264v-279h120c167.333 0 294.666 -14.333 381.999 -43s153.5 -81 198.5 -157s67.5 -171.667 67.5 -287c0 -138.667 -29.667 -250.5 -89 -335.5s-147.666 -127.5 -264.999 -127.5c-74.667 0 -164 15.667 -268 47l85 234
c44 -16 80 -24 108 -24c94.667 0 142 64 142 192c0 65.333 -14.5 115.333 -43.5 150s-68 56.667 -117 66s-124.5 14 -226.5 14h-94v-645z" />
    <glyph glyph-name="afii10052" unicode="&#x403;" horiz-adv-x="948" 
d="M167 1471h730v-274h-453v-1197h-277v1471zM691 1977h323l-366 -392h-196z" />
    <glyph glyph-name="afii10053" unicode="&#x404;" horiz-adv-x="1597" 
d="M1325 443l189.999 -198.001c-114.667 -113.333 -222 -188.666 -322 -225.999s-205.667 -56 -317 -56c-234 0 -422.5 73.833 -565.5 221.5s-214.5 332.167 -214.5 553.5c0 230.667 78.333 416.667 235 558s339.667 212 549 212c118.667 0 235.334 -25.667 350.001 -77
s211.667 -124.333 291 -219l-196 -187c-130 140.667 -280 211 -450 211c-124 0 -232.5 -39 -325.5 -117s-146.167 -167.333 -159.5 -268h564v-255h-564c38 -127.333 102.333 -219.833 193 -277.5s189.667 -86.5 297 -86.5c160.667 0 309 70.333 445 211z" />
    <glyph glyph-name="afii10054" unicode="&#x405;" horiz-adv-x="1065" 
d="M939 1271l-206.999 -182.999c-72.667 101.333 -146.667 152 -222 152c-36.667 0 -66.667 -9.83301 -90 -29.5s-35 -41.834 -35 -66.501s8.33301 -48 25 -70c22.667 -29.333 91 -92.333 205 -189c106.667 -89.333 171.334 -145.666 194.001 -168.999
c56.667 -57.333 96.834 -112.166 120.501 -164.499s35.5 -109.5 35.5 -171.5c0 -120.667 -41.667 -220.334 -125 -299.001s-192 -118 -326 -118c-104.667 0 -195.834 25.667 -273.501 77s-144.167 132 -199.5 242l235 142c70.667 -130 152 -195 244 -195
c48 0 88.333 14 121 42s49 60.333 49 97c0 33.333 -12.333 66.666 -37 99.999s-79 84.333 -163 153c-160 130.667 -263.333 231.5 -310 302.5s-70 141.833 -70 212.5c0 102 38.833 189.5 116.5 262.5s173.5 109.5 287.5 109.5c73.333 0 143.166 -17 209.499 -51
s138.166 -96 215.499 -186z" />
    <glyph glyph-name="afii10055" unicode="&#x406;" horiz-adv-x="573" 
d="M148 1471h278v-1471h-278v1471z" />
    <glyph glyph-name="afii10056" unicode="&#x407;" horiz-adv-x="573" 
d="M148 1471h278v-1471h-278v1471zM65 1871c40 0 74 -14 102 -42s42 -61.667 42 -101c0 -40 -14 -74 -42 -102s-62 -42 -102 -42c-39.333 0 -73 14 -101 42s-42 62 -42 102c0 39.333 14 73 42 101s61.667 42 101 42zM508 1871c40 0 74 -14 102 -42s42 -61.667 42 -101
c0 -40 -14 -74 -42 -102s-62 -42 -102 -42c-39.333 0 -73 14 -101 42s-42 62 -42 102c0 39.333 14 73 42 101s61.667 42 101 42z" />
    <glyph glyph-name="afii10057" unicode="&#x408;" horiz-adv-x="983" 
d="M534 1471h281.002v-976c0 -155.333 -12.333 -264.333 -37 -327s-65.334 -112.5 -122.001 -149.5s-124.667 -55.5 -204 -55.5c-162 0 -300 71 -414 213l202 189c44.667 -50.667 82.667 -84.667 114 -102s61.666 -26 90.999 -26c30 0 52.333 12.667 67 38s22 81 22 167
v1029z" />
    <glyph glyph-name="afii10058" unicode="&#x409;" horiz-adv-x="2034" 
d="M1086 916l293.001 -0.000976562c124 0 222.833 -11.833 296.5 -35.5s139 -75 196 -154s85.5 -172.5 85.5 -280.5c0 -104 -27.333 -193.167 -82 -267.5s-115.834 -122.666 -183.501 -144.999s-158.5 -33.5 -272.5 -33.5h-299l-407 1081l-414 -1081h-297l567 1471h284z
M1167 665.999l154 -399h67c116 0 193.667 14.333 233 43s59 77.667 59 147c0 139.333 -101.667 209 -305 209h-208zM1425 -0.000976562z" />
    <glyph glyph-name="afii10059" unicode="&#x40a;" horiz-adv-x="1941" 
d="M943 0l0.000976562 647.999h-492v-648h-284v1471h284v-555h492v555h283v-555h78c191.333 0 332.833 -45.167 424.5 -135.5s137.5 -201.166 137.5 -332.499c0 -100.667 -24.333 -186.167 -73 -256.5s-105.334 -119.833 -170.001 -148.5s-152.667 -43 -264 -43h-416z
M1226 647.999v-381h71c116.667 0 194.5 15.5 233.5 46.5s58.5 77.167 58.5 138.5c0 131.333 -86 197 -258 197l-47 -1h-58z" />
    <glyph glyph-name="afii10060" unicode="&#x40b;" horiz-adv-x="1403" 
d="M569 1195l0.000976562 -279h93c136.667 0 237.167 -7 301.5 -21s125.666 -44 183.999 -90s99.333 -101.667 123 -167s35.5 -151 35.5 -257v-381h-283v376c0 106 -23 177.333 -69 214s-135 55 -267 55h-118v-645h-285v1195h-264v276h813v-276h-264z" />
    <glyph glyph-name="afii10061" unicode="&#x40c;" horiz-adv-x="1266" 
d="M167 1471h283v-506l399 506h337l-514 -656l564 -815h-332l-454 653v-653h-283v1471zM751 1977h323l-366 -392h-196z" />
    <glyph glyph-name="afii10062" unicode="&#x40e;" horiz-adv-x="1313" 
d="M579 336l-522 1135h316l346 -820l284 820h288l-392 -1052c-67.333 -180 -140.5 -300.5 -219.5 -361.5s-163.167 -91.5 -252.5 -91.5c-145.333 0 -279.333 71.333 -402 214l184 185c73.333 -85.333 145.666 -128 216.999 -128c32 0 58.333 7.66699 79 23
s45.334 40.666 74.001 75.999zM274 1865h221.001c17.333 -27.333 41.5 -47.833 72.5 -61.5s68.833 -20.5 113.5 -20.5c45.333 0 86.333 8 123 24c24 10.667 45 30 63 58h221c-12.667 -84.667 -53.167 -152.667 -121.5 -204s-163.833 -77 -286.5 -77
c-82.667 0 -151.834 11.5 -207.501 34.5s-100.5 55.833 -134.5 98.5s-55.333 92 -64 148z" />
    <glyph glyph-name="afii10145" unicode="&#x40f;" horiz-adv-x="1393" 
d="M167 0v1471h284v-1219h491v1219h284v-1471h-399v-220h-262v220h-398z" />
    <glyph glyph-name="afii10017" unicode="&#x410;" horiz-adv-x="1515" 
d="M616 1471h284l566 -1471h-291l-115 303h-600l-120 -303h-291zM760 1081l-196 -505h391z" />
    <glyph glyph-name="afii10018" unicode="&#x411;" horiz-adv-x="1165" 
d="M167 0v1471h769v-273h-489v-282h61c124 0 225.333 -13.667 304 -41s144.167 -78.833 196.5 -154.5s78.5 -165.167 78.5 -268.5c0 -102.667 -19.667 -184.5 -59 -245.5s-93.5 -110.667 -162.5 -149s-164.5 -57.5 -286.5 -57.5h-412zM447 666v-399h70
c128 0 209 16.667 243 50s51 78.333 51 135c0 142.667 -102 214 -306 214h-58z" />
    <glyph glyph-name="afii10019" unicode="&#x412;" horiz-adv-x="1188" 
d="M168 0l0.000976562 1471h231c134 0 232 -8.66699 294 -26c88 -23.333 158 -66.666 210 -129.999s78 -138 78 -224c0 -56 -11.833 -106.833 -35.5 -152.5s-62.167 -88.5 -115.5 -128.5c89.333 -42 154.666 -94.5 195.999 -157.5s62 -137.5 62 -223.5
c0 -82.667 -21.333 -158 -64 -226s-97.667 -118.833 -165 -152.5s-160.333 -50.5 -279 -50.5h-412zM448.001 1204v-310h61c68 0 118.5 14.333 151.5 43s49.5 67.667 49.5 117c0 46 -15.667 82.5 -47 109.5s-79 40.5 -143 40.5h-72zM448.001 643.999v-377h70
c116 0 194.167 14.667 234.5 44s60.5 72 60.5 128c0 63.333 -23.667 113.333 -71 150s-126 55 -236 55h-58z" />
    <glyph glyph-name="afii10020" unicode="&#x413;" horiz-adv-x="948" 
d="M167 1471h730v-274h-453v-1197h-277v1471z" />
    <glyph glyph-name="afii10021" unicode="&#x414;" horiz-adv-x="1579" 
d="M646 1471h283l473 -1208h164v-483h-271v220h-1012v-220h-271v483h163zM790 1081l-322 -818h643z" />
    <glyph glyph-name="afii10022" unicode="&#x415;" horiz-adv-x="1065" 
d="M169 1471h803v-274h-525v-266h525v-269h-525v-387h525v-275h-803v1471z" />
    <glyph glyph-name="afii10024" unicode="&#x416;" horiz-adv-x="1915" 
d="M815 653l-39 42l-414 -695h-332l543 851l-493 620h337l398 -526v526h284v-526l398 526h338l-494 -620l543 -851h-332l-414 695l-39 -42v-653h-284v653z" />
    <glyph glyph-name="afii10025" unicode="&#x417;" horiz-adv-x="1094" 
d="M238 383c74 -103.333 160.668 -155.001 260.001 -155.001c66 0 119.333 18.667 160 56s61 87 61 149c0 60.667 -19.833 111 -59.5 151s-121.834 60 -246.501 60h-60v250h60c74 0 130.167 17 168.5 51s57.5 79.667 57.5 137c0 52.667 -16 94.334 -48 125.001
s-74.333 46 -127 46c-62.667 0 -127 -31 -193 -93l-165 184c88.667 80 162.667 127.833 222 143.5s114 23.5 164 23.5c120 0 220.833 -35 302.5 -105s122.5 -164.333 122.5 -283c0 -52.667 -9.16699 -104 -27.5 -154s-69.5 -103 -153.5 -159
c172 -76.667 258 -207.667 258 -393c0 -136.667 -45.833 -246.5 -137.5 -329.5s-209.5 -124.5 -353.5 -124.5c-90.667 0 -172 16.5 -244 49.5s-150.333 104.167 -235 213.5z" />
    <glyph glyph-name="afii10026" unicode="&#x418;" horiz-adv-x="1407" 
d="M1240 1471v-1471h-280v921l-549 -921h-244v1471h280v-951l557 951h236z" />
    <glyph glyph-name="afii10027" unicode="&#x419;" horiz-adv-x="1407" 
d="M1240 1471v-1471h-280v921l-549 -921h-244v1471h280v-951l557 951h236zM306 1865h221.001c17.333 -27.333 41.5 -47.833 72.5 -61.5s68.833 -20.5 113.5 -20.5c45.333 0 86.333 8 123 24c24 10.667 45 30 63 58h221c-12.667 -84.667 -53.167 -152.667 -121.5 -204
s-163.833 -77 -286.5 -77c-82.667 0 -151.834 11.5 -207.501 34.5s-100.5 55.833 -134.5 98.5s-55.333 92 -64 148z" />
    <glyph glyph-name="afii10028" unicode="&#x41a;" horiz-adv-x="1270" 
d="M170 1471h283v-506l399 506h337l-514 -656l564 -815h-332l-454 653v-653h-283v1471z" />
    <glyph glyph-name="afii10029" unicode="&#x41b;" horiz-adv-x="1421" 
d="M1120 0l-407 1081l-414 -1081h-297l567 1471h284l566 -1471h-299z" />
    <glyph glyph-name="afii10030" unicode="&#x41c;" horiz-adv-x="1843" 
d="M310 1471h274l340 -1026l345 1026h270l248 -1471h-270l-158 929l-313 -929h-247l-309 929l-161 -929h-273z" />
    <glyph glyph-name="afii10031" unicode="&#x41d;" horiz-adv-x="1393" 
d="M167 1471h284v-555h492v555h283v-1471h-283v645h-492v-645h-284v1471z" />
    <glyph glyph-name="afii10032" unicode="&#x41e;" horiz-adv-x="1720" 
d="M863 1508c208 0 386.834 -75.3311 536.501 -225.998s224.5 -334.334 224.5 -551.001c0 -214.667 -73.833 -396.334 -221.5 -545.001s-326.834 -223 -537.501 -223c-220.667 0 -404 76.333 -550 229s-219 334 -219 544c0 140.667 34 270 102 388s161.5 211.5 280.5 280.5
s247.167 103.5 384.5 103.5zM860.001 1234c-136 0 -250.333 -47.332 -343 -141.999s-139 -215 -139 -361c0 -162.667 58.333 -291.334 175 -386.001c90.667 -74 194.667 -111 312 -111c132.667 0 245.667 48 339 144s140 214.333 140 355c0 140 -47 258.5 -141 355.5
s-208.333 145.5 -343 145.5z" />
    <glyph glyph-name="afii10033" unicode="&#x41f;" horiz-adv-x="1393" 
d="M167 1471h1059v-1471h-283v1209h-492v-1209h-284v1471z" />
    </font>
</defs>
</svg>
