<?xml version="1.0" standalone="no"?> <!DOCTYPE svg PUBLIC "-//W3C//DTD SVG 1.0//EN" "http://www.w3.org/TR/2001/REC-SVG-20010904/DTD/svg10.dtd" > <svg xmlns="http://www.w3.org/2000/svg" width="100%" height="100%">
<defs >
<font id="Cookie-Regular" horiz-adv-x="287" ><font-face
    font-family="Cookie"
    units-per-em="1000"
    panose-1="2 0 0 0 0 0 0 0 0 0"
    ascent="789"
    descent="-320"
    alphabetic="0" />
<missing-glyph horiz-adv-x="355" />
<glyph unicode=" " glyph-name="space" horiz-adv-x="199" />
<glyph unicode="!" glyph-name="exclam" horiz-adv-x="253" d="M93 -18T79 -9T65 23T85 57T122 70T150 61T162 37Q162 -18 108 -18Q93 -18 79 -9ZM183 580T194 570T205 545T203 517T197 485T187 435T165 301T142 158Q140 149 133 141T117 133Q95 133 95 172Q95
235 98 278T102 360Q103 443 112 483T139 552T174 580Q183 580 194 570Z" />
<glyph unicode="&quot;" glyph-name="quotedbl" horiz-adv-x="248" d="M48 580Q69 580 78 574T87 546T77 473T57 400Q52 391 39 391T23 402Q15 437 15 547Q15 580 48 580ZM160 580Q181 580 190 574T199 546T189 473T169 400Q164 391 151 391T135 402Q127 437 127
547Q127 580 160 580Z" />
<glyph unicode="#" glyph-name="numbersign" horiz-adv-x="572" d="M289 240L200 237Q189 159 169 70Q149 -10 116 -10Q101 -10 86 -5T69 10Q69 36 99 102T135 189L147 236Q137 235 110 230T65 224Q33 224 33 242Q33 249 55 255T99 263L155 268Q166 322 177 397L89
386Q59 386 59 402Q59 409 82 415T125 424L181 430Q196 539 206 569Q214 600 227 600Q235 600 240 595T246 579T242 555T234 534T227 510T219 433Q290 440 359 444Q373 534 382 567T404 600T417 588T411 561Q405 518 398 446Q476 451 508 451T541 437Q541 432 535
421T514 397T472 385T391 394Q383 322 377 285Q452 290 483 290T515 276Q515 271 509 261T487 241T440 231T370 235Q358 157 341 74T294 -10Q280 -10 267 -5T252 10Q252 37 279 105T310 189L322 239Q309 240 289 240ZM317 401L217 398Q210 313 205 272L331 282Q333
295 338 319Q344 354 352 399Q343 401 317 401Z" />
<glyph unicode="$" glyph-name="dollar" horiz-adv-x="481" d="M337 459L342 485Q340 537 274 539Q272 480 266 340Q386 276 409 231Q421 208 421 181Q421 108 371 62T247 2Q240 -67 219 -67T197 -4Q117 -4 66 24T14 115Q14 147 34 173T96 199Q112 199 125 190T140
166Q140 151 122 151Q88 151 88 122Q88 90 116 63T197 35Q197 44 216 296Q114 350 94 390Q84 410 84 434Q84 488 128 527T234 577Q234 633 260 633Q275 633 275 581Q323 581 361 561T399 500Q399 444 357 444Q337 444 337 459ZM348 159Q348 218 263 270Q250 71
250 42Q292 54 320 86T348 159ZM155 446Q155 406 221 366L232 532Q200 520 178 496T155 446Z" />
<glyph unicode="%" glyph-name="percent" horiz-adv-x="521" d="M51 18Q51 33 67 52T117 111T178 199Q270 360 328 450Q289 438 258 435Q254 387 220 352T134 317T58 346T34 415T62 487T137 519Q142 519 145 518Q162 532 188 532T233 513T258 463Q302 466 353
487Q367 508 387 534T435 561T462 541Q462 511 427 496Q387 478 262 234Q153 20 116 2Q104 -4 86 -4Q51 -4 51 18ZM309 92T328 70T377 47T424 71T442 123T437 164T426 182T419 187T411 184T397 181Q378 181 378 195Q378 222 417 222Q442 222 461 201T481 134T447
51T350 13Q307 13 282 42T256 115T284 196T359 235Q373 235 373 225Q373 218 358 215T326 183T309 123ZM142 349Q179 349 197 374T218 433Q177 434 153 449T129 485Q129 495 133 503Q83 494 83 425Q83 395 101 372T142 349ZM176 507Q167 507 167 497T180 478T215
465Q205 507 176 507Z" />
<glyph unicode="&amp;" glyph-name="ampersand" horiz-adv-x="532" d="M140 312Q89 406 89 464T132 567T242 612T348 583T386 501Q386 449 341 406Q294 363 258 340T217 314Q285 216 385 129Q402 165 402 195T390 243T363 263T347 276Q347 290 361 298T402 306T448
284T467 230Q467 160 422 98Q492 43 554 20Q566 16 573 14T586 8Q598 3 598 -6T577 -28T538 -41Q460 -41 360 39Q285 -13 188 -13T45 28T0 127T36 226T140 312ZM85 155Q85 102 124 65T222 28T331 65Q233 154 159 276Q85 221 85 155ZM253 385T282 416T312 486T290
549T229 573T171 545T152 470T196 348Q253 385 282 416Z" />
<glyph unicode="&apos;" glyph-name="quotesingle" horiz-adv-x="130" d="M41 580Q62 580 71 574T80 546T70 473T50 400Q46 391 32 391T16 402Q8 437 8 547Q8 580 41 580Z" />
<glyph unicode="(" glyph-name="parenleft" horiz-adv-x="274" d="M231 -62T238 -73T246 -90T234 -99T212 -102Q178 -102 161 -84Q112 -35 89 44T65 210Q65 391 203 570Q240 618 264 618Q273 618 273 605T245 561Q136 431 136 255T200 -21Q206 -30 218 -46Z" />
<glyph unicode=")" glyph-name="parenright" horiz-adv-x="258" d="M48 578T41 589T33 606T45 615T67 618Q101 618 118 600Q167 551 190 472T214 306Q214 125 76 -54Q39 -102 15 -102Q6 -102 6 -89T34 -45Q143 85 143 261T79 537Q73 546 61 562Z" />
<glyph unicode="*" glyph-name="asterisk" horiz-adv-x="373" d="M132 320Q98 320 98 350Q98 364 118 389T145 427Q105 419 68 419T30 435Q30 447 52 447Q117 447 159 463Q122 504 117 508T101 520T88 530T78 539T69 550Q62 564 62 574Q62 597 90 597Q102 597
110 589T124 573T136 558Q155 535 176 505Q189 551 191 597T211 643Q226 643 226 598T213 491Q222 497 244 515T285 545T320 557T335 534T311 497Q266 470 221 452Q227 446 248 430Q300 393 300 376Q300 365 288 365Q250 365 196 423Q194 418 189 398T179 369T168
346Q155 320 132 320Z" />
<glyph unicode="+" glyph-name="plus" horiz-adv-x="402" d="M200 72T187 72T166 80T158 99T166 134Q180 175 185 234Q173 235 144 235T96 232T74 229Q50 229 50 247Q50 260 61 271T79 282T94 281Q126 277 190 277Q199 358 199 380T209 412T225 423Q234 423 234
340Q234 317 232 277Q305 277 325 283L352 292Q363 292 363 277T353 245T327 229Q274 229 230 231Q218 102 209 87Z" />
<glyph unicode="," glyph-name="comma" horiz-adv-x="152" d="M30 41T49 58T83 76T110 58T122 14T86 -62T24 -114Q16 -114 16 -103T36 -66T56 -26T43 4T30 30Z" />
<glyph unicode="-" glyph-name="hyphen" d="M244 267Q241 198 159 198Q146 198 119 202T66 207T24 205T6 203Q-15 204 -15 224T6 253Q20 260 99 260T201 269T234 278T244 267Z" />
<glyph unicode="." glyph-name="period" horiz-adv-x="178" d="M56 -18T42 -9T28 23T48 57T85 70T113 61T125 37Q125 -18 71 -18Q56 -18 42 -9Z" />
<glyph unicode="/" glyph-name="slash" horiz-adv-x="274" d="M-10 -151T-19 -138T-28 -109T-15 -60T12 2Q39 53 73 113Q114 194 156 353T213 544T248 577Q255 577 255 565T249 529Q158 138 83 -52Q67 -92 43 -121T5 -151Z" />
<glyph unicode="0" glyph-name="zero" horiz-adv-x="467" d="M251 504L199 499Q191 499 191 509Q191 526 218 538T281 550Q344 550 388 490T432 316Q432 205 377 105Q350 56 302 26T193 -5Q108 -5 69 53T29 202Q29 371 110 477Q144 522 168 522Q175 522 175 515Q175
509 166 497Q124 437 115 381T106 239T137 99T212 44T284 66T327 126Q354 199 354 282T328 434T251 504Z" />
<glyph unicode="1" glyph-name="one" horiz-adv-x="313" d="M169 503Q203 560 237 560T271 426Q271 387 265 323T256 231Q256 156 251 101T243 35T235 12Q225 -10 185 -10Q163 -10 163 38T181 212T200 406T193 473T152 408T104 307T81 242T67 198T48 184Q29 184
29 204T74 323T169 503Z" />
<glyph unicode="2" glyph-name="two" horiz-adv-x="415" d="M108 455Q108 441 117 419T127 384T119 359T96 347T73 370T63 416Q63 480 114 520T225 560T328 527T372 440T352 346T304 283T224 212T130 122Q166 116 229 98T304 79Q341 79 374 133Q391 162 398 162Q407
162 407 150Q407 122 379 76T327 13T258 -5Q244 -5 185 28T90 61Q62 0 39 0Q22 0 12 10T1 42T24 93T77 126Q111 162 154 203T215 263T253 308T279 359T286 422T263 488T202 517T136 503T108 455Z" />
<glyph unicode="3" glyph-name="three" horiz-adv-x="404" d="M94 492L99 467Q99 459 87 459T66 477T57 518T72 558T109 576T190 556T293 535Q314 560 335 560Q376 560 376 500Q376 481 351 469T302 457Q287 439 258 407T204 345Q228 349 252 349Q309 349 342
302T375 201Q375 101 302 46T130 -10Q89 -10 51 18T12 74Q12 87 18 95T39 104T69 92T92 66T115 39T151 27Q219 27 258 76T298 192Q298 230 272 269T206 308Q190 308 170 304T139 300T127 309T135 326Q209 396 255 462Q219 470 172 492T117 514Q94 514 94 492Z"
/>
<glyph unicode="4" glyph-name="four" horiz-adv-x="440" d="M239 161L44 150Q27 150 17 159T7 178T34 197Q42 223 96 352T155 497T165 536T174 569T191 592T219 604T240 591T247 563Q247 525 221 486T151 362T78 202Q126 202 178 213T250 228Q265 402 288 402Q299
402 310 387T322 357L314 234Q353 234 382 216T412 177Q412 151 379 151Q365 151 344 156T307 162Q305 120 305 32Q305 14 290 2T246 -10Q226 -10 226 23Q226 76 239 161Z" />
<glyph unicode="5" glyph-name="five" horiz-adv-x="391" d="M119 348Q154 359 213 359T312 312T352 208T330 105T274 36Q205 -10 147 -10T46 16T3 71Q3 85 12 97T35 110T62 97T84 68T111 39T157 26Q202 26 239 67T276 174T240 278T151 318Q131 318 113 312T79
306T64 319T77 337Q92 408 92 457Q73 461 60 473T46 501T59 532T86 547T110 538T125 513Q165 513 203 526T265 554T307 582T334 595Q353 595 353 552Q353 528 332 507T260 471T131 455Q131 421 119 348Z" />
<glyph unicode="6" glyph-name="six" horiz-adv-x="447" d="M278 560Q332 560 364 532T396 457Q396 438 387 418T356 398Q326 398 326 426Q326 433 331 446T337 468Q336 521 274 521T168 455T116 263Q165 322 258 322Q314 322 352 280T391 169T344 45T214 -10Q38
-10 38 197Q38 390 129 492Q189 560 278 560ZM330 206T308 246T246 286T174 270Q128 245 115 216Q115 157 133 99Q143 67 166 48T221 28Q272 28 301 68T330 157Z" />
<glyph unicode="7" glyph-name="seven" horiz-adv-x="354" d="M167 225Q154 225 137 220T110 214Q90 214 90 230Q90 269 187 269Q234 373 259 441Q213 451 141 477T61 503Q40 503 40 481Q40 473 44 462T49 446Q49 438 42 438Q26 438 14 461T1 507T15 547T51 565T154
541T280 515Q286 524 302 535T330 547T354 529T365 480Q365 462 345 451T299 437Q276 368 237 264Q268 261 303 261T339 245Q339 232 312 230Q303 229 223 227Q180 112 175 95T166 58T158 26T139 2T108 -10T83 3T75 31Q75 67 111 116Q127 139 167 225Z" />
<glyph unicode="8" glyph-name="eight" horiz-adv-x="405" d="M135 542Q160 560 168 560T177 552T158 520Q127 483 127 443Q127 381 212 331Q313 395 313 451Q313 484 296 502T259 521T224 515T203 509Q194 509 194 523T217 548T274 560T341 538T373 480Q373 443
361 425L343 398Q331 380 289 350T240 315Q374 237 374 143Q374 66 317 28T163 -10Q104 -10 59 18T13 104Q13 211 169 304Q137 325 119 338T84 377T67 431Q67 494 135 542ZM295 134Q295 214 200 284Q85 187 85 107Q85 70 113 44T188 18T265 52T295 134Z" />
<glyph unicode="9" glyph-name="nine" horiz-adv-x="428" d="M174 27Q216 27 245 57T288 136Q312 220 312 314Q312 526 217 526Q176 526 145 481T113 379Q113 308 140 272Q158 250 189 250T252 264T289 278T295 270Q295 251 261 232T171 213T83 260T50 366Q50
443 101 501T224 560Q263 560 293 545T340 507T370 452Q389 398 389 328Q389 -10 156 -10Q113 -10 79 15T44 72T63 104T97 92T118 66T139 39T174 27Z" />
<glyph unicode=":" glyph-name="colon" horiz-adv-x="205" d="M97 -18T83 -9T69 23T89 57T126 70T154 61T166 37Q166 -18 112 -18Q97 -18 83 -9ZM97 267T83 276T69 308T89 342T126 355T154 346T166 322Q166 267 112 267Q97 267 83 276Z" />
<glyph unicode=";" glyph-name="semicolon" horiz-adv-x="203" d="M68 41T87 58T121 76T148 58T160 14T124 -62T62 -114Q54 -114 54 -103T74 -66T94 -26T81 4T68 30ZM97 267T83 276T69 308T89 342T126 355T154 346T166 322Q166 267 112 267Q97 267 83 276Z" />
<glyph unicode="&lt;" glyph-name="less" horiz-adv-x="443" d="M388 409Q409 409 409 392Q409 367 360 341Q339 329 262 301T133 248Q218 224 303 184T389 125Q389 92 370 92Q355 92 244 142T85 205T37 238Q37 248 46 255T75 262T312 367Q335 378 360 393T388 409Z" />
<glyph unicode="=" glyph-name="equal" horiz-adv-x="511" d="M365 138Q328 138 274 147T197 156T159 153T122 149Q84 149 84 176Q84 205 155 205Q189 205 221 200Q270 191 306 191Q351 191 395 218Q399 221 403 221T408 205T396 164T365 138ZM183 287L110 283Q89
284 89 304T110 333Q124 340 244 340T387 349T420 358T430 347Q427 278 345 278L183 287Z" />
<glyph unicode="&gt;" glyph-name="greater" horiz-adv-x="453" d="M56 88Q35 88 35 105Q35 130 84 156Q105 168 182 196T311 249Q228 267 142 310T55 372Q55 409 76 409Q89 409 196 354T343 290T396 276T409 262T399 244T367 234T132 130Q109 119 84 104T56 88Z" />
<glyph unicode="?" glyph-name="question" horiz-adv-x="386" d="M160 133Q136 133 121 152T106 197T121 244T159 279T203 309T241 354T257 425T234 496T168 524Q150 524 134 508Q114 487 102 454Q90 428 69 428Q57 428 51 437T44 456Q45 499 96 529T200 560T294
530T337 449T319 363T275 308T223 273T178 244T160 216T175 189T190 170T179 148T160 133ZM118 -18T104 -9T90 23T110 57T147 70T175 61T187 37Q187 -18 133 -18Q118 -18 104 -9Z" />
<glyph unicode="@" glyph-name="at" horiz-adv-x="727" d="M406 11Q399 18 399 47T401 133Q373 62 348 29T281 -5T210 32T180 150T225 293T345 355Q377 355 417 313Q426 326 447 345T482 365T497 322T482 246T467 134T473 44T495 33Q528 33 554 65T593 137T606
213Q606 328 552 404T398 481T225 429T114 297T77 133Q77 14 154 -55T337 -124Q423 -124 513 -79Q563 -54 570 -54T578 -68Q578 -88 515 -122Q406 -181 283 -181T80 -106T0 95Q0 281 113 400T412 519Q494 519 558 476T653 373T684 257Q684 140 629 68T470 -5Q426
-5 406 11ZM339 315Q311 315 280 274T248 176T264 84T308 48Q342 48 407 219L411 269Q402 285 379 300T339 315Z" />
<glyph unicode="A" glyph-name="A" horiz-adv-x="501" d="M396 46Q414 46 444 87T503 194T539 260T546 252Q546 224 517 163Q438 -5 383 -5Q337 -5 317 11Q308 20 308 201L144 189Q125 137 110 85T90 21Q79 -5 37 -5Q9 -5 9 19T47 89Q54 98 93 186Q79 185 66 185Q31
185 31 215Q31 242 59 242Q61 242 116 237Q131 272 148 306Q279 580 328 580Q365 580 379 237H388Q395 237 395 227T380 210Q386 46 396 46ZM159 232Q276 232 308 233Q307 249 306 289T304 358T302 420Q298 489 290 489Q279 489 245 424T192 314Q166 249 159 232Z"
/>
<glyph unicode="B" glyph-name="B" horiz-adv-x="506" d="M255 26Q309 26 350 64T392 151T361 243Q327 226 294 226Q217 226 217 274Q217 288 236 299T290 311T368 290Q408 333 408 387Q408 454 350 493T224 533Q210 533 203 532Q202 503 198 439Q192 343 192
146Q192 70 181 70Q138 70 126 82T114 151Q114 165 119 266T125 429T129 520Q76 502 72 462Q68 429 58 416T30 403T6 412T0 432Q0 519 135 552Q152 620 189 620Q204 620 204 564Q230 567 268 567T357 553T444 502T481 420Q481 336 400 269Q456 225 456 164T418
63Q347 -10 228 -10Q147 -10 112 1Q105 3 98 11T90 33Q90 54 131 54Q144 54 188 40T255 26ZM340 265Q310 290 284 290T257 279Q257 256 306 256Q324 256 340 265Z" />
<glyph unicode="C" glyph-name="C" horiz-adv-x="412" d="M410 165Q417 175 430 200Q462 257 468 257T475 249Q475 200 424 125Q332 -10 179 -10Q136 -10 100 10T43 61Q0 124 0 193Q0 367 90 473T305 580Q352 580 382 553T412 483T391 405T341 369T311 385Q311
403 330 426T350 472Q350 543 275 543T138 442T77 234Q77 160 119 103T237 45Q327 45 410 165Z" />
<glyph unicode="D" glyph-name="D" horiz-adv-x="654" d="M78 359L84 295Q84 285 74 279T56 273Q42 273 32 295T21 337Q21 411 72 462T203 540Q203 574 217 604T263 635Q276 635 276 598V556Q308 560 323 560Q456 560 533 486T611 298Q611 220 583 160T507 65Q411
-5 277 -5H256Q253 -34 248 -34Q201 -34 185 -21Q178 -14 177 3Q88 28 88 58Q88 68 95 73T110 79T177 55Q186 317 200 505Q145 486 112 448T78 359ZM296 521Q282 521 275 520Q271 345 265 226Q260 71 258 31Q278 28 300 28Q395 28 465 98T535 272T468 448T296 521Z"
/>
<glyph unicode="E" glyph-name="E" horiz-adv-x="436" d="M287 327T271 335T234 344T193 334Q227 303 268 303Q277 303 282 307T287 315Q287 327 271 335ZM334 482L336 509Q336 531 320 550T275 570Q227 570 188 527T149 436T174 354Q217 373 254 373T313 361T336
323T312 286T257 274Q201 274 155 305Q131 280 117 246T102 183Q102 124 140 75T241 26Q373 26 456 200Q484 257 491 257T499 249Q499 209 450 129T343 17T202 -15T70 34T22 156Q22 204 50 248T124 325Q77 364 77 419Q77 495 136 547T279 600Q334 600 371 572T409
504Q409 482 396 468T363 454Q334 454 334 482Z" />
<glyph unicode="F" glyph-name="F" horiz-adv-x="409" d="M69 401L79 354Q79 337 67 326T39 315T16 330T8 363Q8 417 54 460T160 504H166Q186 580 226 580Q238 580 238 548Q238 542 235 500Q250 498 270 495Q317 488 348 488T412 498T456 509Q484 509 484 481T454
438T367 423T228 449Q216 380 214 345T210 241Q252 243 326 243Q339 243 348 233T358 212T351 194T336 187L209 194Q205 96 203 61T183 -4T143 -34Q130 -34 115 -21T99 5T102 23T110 36T117 47Q129 73 139 190L100 185Q92 185 87 190T82 203T85 217T97 226T110
231Q126 235 142 235Q144 259 147 339T158 464Q152 465 140 465Q69 465 69 401Z" />
<glyph unicode="G" glyph-name="G" horiz-adv-x="551" d="M487 214Q518 223 552 244T595 266T604 255T590 233Q539 197 484 178Q463 81 390 33T223 -15Q163 -15 118 6T48 60Q0 125 0 197Q0 290 28 365T103 486T202 556T311 580T412 545T458 463Q458 448 447 438T419
428Q396 428 387 460Q365 537 282 537Q212 537 147 450T81 244Q81 160 131 98T258 36Q319 36 362 71T417 161Q392 156 356 156T294 173T267 219T297 270T375 291T454 272T487 214ZM372 257Q327 257 327 237Q327 222 345 212T382 202T422 204Q421 228 406 242T372
257Z" />
<glyph unicode="H" glyph-name="H" horiz-adv-x="550" d="M67 466T79 447T91 416T86 395T71 386Q54 386 43 415T32 476Q32 524 67 562T158 600Q195 600 213 565T232 484T230 400T225 339T217 271T209 206Q289 206 377 287Q389 431 410 512T454 627T501 660T543
637T560 582Q560 464 455 327Q449 248 449 182T468 53T488 -17T477 -29T453 -34Q418 -34 396 -16Q385 -7 378 45T371 142T374 241Q285 165 205 162Q204 148 203 116T200 68T192 32Q182 -5 144 -5Q121 -5 121 34T133 172Q88 191 88 239Q88 274 106 298T150 323Q159
415 159 465Q159 555 131 555Q67 555 67 490Q67 466 79 447ZM528 565Q528 580 524 592T512 605Q484 605 461 388Q528 490 528 565ZM147 291Q133 281 133 264T141 236L147 291Z" />
<glyph unicode="I" glyph-name="I" horiz-adv-x="429" d="M371 502L375 316Q375 -20 145 -20Q100 -20 64 1T27 66Q27 93 41 110T78 128T102 117Q102 112 96 98T90 69T107 38T158 21T217 35T257 76T281 133T295 206Q301 271 301 353T303 490Q175 468 175 380Q175
355 165 341T138 327Q108 327 108 361Q108 422 161 463T307 524Q314 565 341 590T390 616T425 604T439 570Q439 521 371 502ZM398 582Q376 582 372 537Q408 548 408 566Q408 582 398 582Z" />
<glyph unicode="J" glyph-name="J" horiz-adv-x="415" d="M78 361Q78 422 131 463T275 524Q281 566 309 591T359 616T395 604T409 570Q409 521 340 502Q325 222 325 215Q355 232 395 247T453 263T470 256Q470 243 458 239Q393 218 324 176Q316 -36 314 -78Q307
-196 262 -258T137 -320Q74 -320 37 -269T0 -155Q0 -67 62 11T251 173L272 489Q145 467 145 380Q145 355 135 341T108 327Q78 327 78 361ZM151 -284Q219 -284 231 -133Q237 -57 241 18T248 125Q207 96 182 76T128 24Q73 -38 73 -126Q73 -211 102 -256Q121 -284
151 -284ZM368 582Q346 582 342 537Q378 548 378 566Q378 582 368 582Z" />
<glyph unicode="K" glyph-name="K" horiz-adv-x="653" d="M617 -33L657 -29Q666 -29 666 -37Q664 -55 635 -75T566 -95Q524 -95 478 -1Q438 78 397 184Q368 168 337 163Q293 -40 121 -40Q76 -40 38 -19T0 46Q0 73 14 90T51 108T75 97Q75 92 69 78T63 49T80 18T131
1T190 16T230 62T254 123T268 200Q275 266 275 352T277 490Q149 468 149 380Q149 355 139 341T112 327Q82 327 82 361Q82 421 136 462T280 524Q287 564 315 590T366 616T402 604T416 570Q416 521 348 502L352 316Q352 258 345 208Q396 224 445 299T529 490Q556
580 620 580Q647 580 647 547Q647 515 607 488Q592 478 590 474Q512 295 447 226Q510 97 549 32T617 -33ZM375 582Q354 582 349 537Q385 548 385 566Q385 582 375 582Z" />
<glyph unicode="L" glyph-name="L" horiz-adv-x="482" d="M215 463T266 521T402 580T486 522Q486 483 468 451T418 396Q357 355 275 337Q255 165 216 91Q308 60 340 52T407 43T456 72T475 101Q487 101 487 86Q487 39 452 6T376 -27Q334 -27 300 -13T257 5T221
22T182 40Q144 0 80 0Q54 0 34 19T14 64Q14 121 79 121Q107 121 157 108Q176 168 197 326Q186 325 168 325T149 331Q149 350 201 355Q215 463 266 521ZM342 380T383 413T425 501T388 555Q307 555 278 366Q342 380 383 413ZM134 61Q76 86 63 86T49 72T61 48T94 38T134
61Z" />
<glyph unicode="M" glyph-name="M" horiz-adv-x="651" d="M511 46T529 46T577 87T637 194T673 260T680 252Q680 224 646 150Q573 -5 515 -5Q493 -5 475 0T453 11Q443 23 443 99Q443 279 455 391Q397 334 349 261Q370 181 370 123T348 32T291 0Q250 0 250 79Q250
133 293 222Q273 292 235 359Q219 268 186 173T118 32T35 -15Q0 -15 0 12Q0 34 15 43T50 56T77 67Q116 108 150 207T201 410Q158 466 158 493T172 542T220 563Q230 563 237 538T244 484Q305 395 337 300Q393 392 465 470Q496 659 537 659Q551 659 566 638T582 595Q582
527 523 457Q511 372 511 209ZM303 179Q279 126 279 85T289 43T304 67T309 119T303 179Z" />
<glyph unicode="N" glyph-name="N" horiz-adv-x="497" d="M208 267T180 171T117 30T35 -15Q0 -15 0 12Q0 34 15 43T50 56T77 67Q114 106 145 206T191 411Q148 456 148 484T164 548T202 585Q215 585 225 553T235 473Q287 407 316 359Q347 461 401 530T525 600Q550
600 565 582T580 542T572 503T549 485T535 499T527 520T505 528Q464 528 428 485Q377 424 343 311Q409 169 409 81Q409 45 393 18T346 -10Q280 -10 280 102Q280 181 292 252Q262 316 224 369Q208 267 180 171ZM316 186Q311 150 311 112T316 53T327 32Q339 32 339
73T316 186Z" />
<glyph unicode="O" glyph-name="O" horiz-adv-x="586" d="M21 223Q21 290 46 355T120 464Q132 529 182 569T327 610T477 537T534 345Q534 268 511 199Q557 215 594 239T633 264Q644 264 644 251Q644 240 596 209T497 164Q460 83 392 37T228 -10T76 54T21 223ZM443
187Q456 232 456 287Q456 405 412 487T285 569Q250 569 216 550T166 497Q218 526 271 526T325 511Q325 502 318 497T304 492Q218 492 158 434Q166 332 247 260T443 187ZM265 41Q385 41 432 154Q312 154 224 217T119 382Q91 329 91 263Q91 172 141 107T265 41Z"
/>
<glyph unicode="P" glyph-name="P" horiz-adv-x="553" d="M291 579Q297 580 323 580T387 571T460 540T517 477T539 378Q539 284 466 226T273 168Q273 -27 204 -27Q158 -27 158 12Q158 24 170 45T187 93T195 180Q154 193 154 216T175 239Q186 239 197 236Q210 503
215 531Q158 517 121 485T83 409Q83 384 73 370T46 356Q16 356 16 390Q16 457 75 505T224 571Q243 635 277 635Q291 635 291 579ZM464 350Q464 440 413 487T288 538Q273 361 273 205Q287 203 295 203Q379 203 421 246T464 350Z" />
<glyph unicode="Q" glyph-name="Q" horiz-adv-x="599" d="M342 592Q439 592 495 529T551 355T504 153T371 19Q414 -19 432 -19Q485 -19 518 30Q535 55 545 55T555 45Q555 21 538 -5Q488 -83 399 -83Q360 -83 293 -5Q265 -10 242 -10Q151 -10 94 56T36 217Q36 363
108 472Q143 527 203 559T342 592ZM315 546Q208 546 158 467T107 258Q107 204 129 157T186 79Q215 108 246 108T339 50Q404 71 438 136T472 303T428 475T315 546Z" />
<glyph unicode="R" glyph-name="R" horiz-adv-x="584" d="M551 -43L584 -35Q600 -35 600 -51Q599 -77 574 -97T516 -118T465 -87Q438 -42 414 74Q403 130 388 166Q361 157 331 157T279 169T256 200Q258 246 330 246Q365 246 405 215Q467 262 467 346Q467 396 448
434T398 495Q337 538 262 538Q260 516 255 468Q245 368 243 313L240 155Q240 -27 168 -27Q122 -27 122 12Q122 22 135 46T155 101T168 286T187 528Q134 513 101 482T67 409Q67 385 56 371T29 356Q0 356 0 387Q0 457 56 502T196 568Q216 635 252 635Q266 635 266
603Q266 596 264 578Q275 580 306 580T376 571T454 541T518 476T542 374T512 266T434 186Q468 144 487 83T524 -10T551 -43ZM297 204T311 198T340 192T369 197Q349 220 323 220T297 212Z" />
<glyph unicode="S" glyph-name="S" horiz-adv-x="479" d="M333 459L338 485Q334 539 265 539Q225 539 196 511T166 451T192 396T256 354T331 314T395 258T422 181Q422 92 352 41T201 -10T66 19T12 109Q12 141 34 167T97 193Q113 193 126 184T142 160Q142 145 124
145Q90 145 90 116Q91 83 121 56T207 29T302 67T342 159Q342 195 315 224T250 273T174 315T108 366T81 434Q81 501 138 541T269 581Q318 581 358 561T399 500Q399 476 387 460T355 444T333 459Z" />
<glyph unicode="T" glyph-name="T" horiz-adv-x="420" d="M307 326V496Q288 500 252 508T197 521Q140 533 107 533Q44 533 44 498Q44 459 70 432T118 405T155 416T185 427Q202 427 202 410T187 381T138 370Q85 370 48 416T11 510T33 582T88 606Q164 606 314 558Q326
621 359 621Q374 621 374 539Q471 509 541 509Q586 509 620 538Q630 546 637 546T645 539Q645 512 605 491T509 469T374 483Q376 345 376 293T373 204T357 127T326 59T272 13T192 -5T110 16T73 81Q73 108 87 125T124 143T148 132Q148 127 142 113T136 84T154 52T208
35Q307 35 307 326Z" />
<glyph unicode="U" glyph-name="U" horiz-adv-x="509" d="M415 46Q432 46 462 87T521 194T557 260T564 252Q564 224 535 163Q456 -5 403 -5Q357 -5 338 10Q330 18 330 49T335 145Q297 80 255 38T171 -5T103 39T77 159T92 348T107 517Q107 531 100 531Q84 531 64
508T36 435Q35 424 28 416T12 407Q0 407 0 427T20 483T72 550T136 580Q172 580 172 523T159 355T147 190Q147 50 199 50Q229 50 269 98T340 210Q360 466 369 527Q371 536 400 558T444 580T460 522Q460 478 453 446T436 371T420 307Q410 173 410 73Q410 46 415 46Z"
/>
<glyph unicode="V" glyph-name="V" horiz-adv-x="507" d="M234 -20Q151 -20 121 52Q100 101 88 176Q58 142 48 130T30 117Q18 117 18 127Q18 133 24 139Q59 174 84 203Q76 260 76 324T88 446T128 541T199 580Q250 580 250 493Q250 381 160 262Q167 172 195 93Q206
61 219 46T257 30T312 63T369 150T413 279T431 437T419 552T378 613Q340 645 340 676Q340 691 352 702T378 714Q411 714 433 693T466 636Q484 573 484 498Q484 357 446 235T350 47T234 -20ZM212 480Q212 533 200 533Q192 533 182 509T164 442T156 358T157 300Q212
392 212 480Z" />
<glyph unicode="W" glyph-name="W" horiz-adv-x="689" d="M452 480L446 406Q446 266 464 160T507 53Q541 53 582 148T623 338Q623 447 600 486Q591 500 572 519Q537 554 537 586Q537 601 545 610T566 620Q597 620 618 596T648 532Q665 463 665 386Q665 207 599
96T468 -15Q422 -15 400 83T377 332Q317 82 250 16Q217 -15 179 -15Q159 -15 140 2T111 49Q91 108 91 274Q49 280 16 296Q0 304 0 314T20 324L92 309Q101 482 157 576Q187 627 224 627Q291 627 291 527Q291 446 260 372T167 278Q167 211 175 158Q191 53 214 53Q233
53 264 110T324 266T363 459Q364 473 390 491T426 509Q452 509 452 480ZM210 326T233 390T257 492T254 548Q247 579 235 579Q213 579 192 488T167 309Q210 326 233 390Z" />
<glyph unicode="X" glyph-name="X" horiz-adv-x="524" d="M405 -20Q367 -20 338 19T249 189Q120 -20 76 -20Q26 -20 26 9Q26 25 50 48T127 124T227 238Q184 324 148 378Q147 376 96 260Q86 234 70 234Q59 234 59 248T70 284Q102 341 127 410Q96 460 96 473Q96
517 107 558T139 600Q187 600 187 517Q201 489 282 317Q304 344 341 418T410 546T467 600T492 579Q492 553 484 538T456 506T426 474Q370 393 302 275Q403 61 425 61Q459 61 537 234Q549 261 558 261Q561 261 564 256T568 242Q566 200 506 90T405 -20Z" />
<glyph unicode="Y" glyph-name="Y" horiz-adv-x="519" d="M113 517Q113 531 106 531Q90 531 70 508T42 435Q41 424 34 416T18 407Q6 407 6 427T26 483T78 550T142 580Q178 580 178 523T165 355T153 190Q153 50 205 50Q243 50 293 121T370 266Q390 484 401 547Q403
556 432 578T476 600T492 553Q492 498 482 458Q455 355 448 327Q436 247 431 100Q475 123 507 123Q519 123 519 115T507 101Q466 88 429 64Q429 -159 399 -239T268 -320Q158 -320 158 -227Q158 -158 211 -86T355 51Q358 114 363 186Q323 107 274 51T180 -5T109
39T83 159T98 348T113 517ZM295 -33T261 -91T226 -194T243 -261T282 -284Q313 -284 329 -218T352 9Q295 -33 261 -91Z" />
<glyph unicode="Z" glyph-name="Z" horiz-adv-x="501" d="M513 477T490 456T436 435T363 454Q255 324 155 125Q203 118 293 89T395 60Q452 60 518 203Q544 260 556 260Q562 260 562 248T528 159T472 45T424 -8T350 -25Q326 -25 248 18T130 61Q99 0 72 0Q29 0 29
38Q29 55 49 82T97 122Q221 334 338 467Q210 540 143 540Q118 540 118 497Q118 485 124 463T130 436Q130 424 119 424T95 458T82 530T97 593T136 620T187 614T232 601T276 580T314 558Q358 528 380 512Q432 562 462 562Q482 562 497 549T513 507ZM460 507Q460 521
444 521T403 498Q420 489 430 489Q460 489 460 507Z" />
<glyph unicode="[" glyph-name="bracketleft" horiz-adv-x="372" d="M323 551L252 555Q189 555 183 549Q168 534 168 494Q168 399 156 200T144 -39T149 -86T202 -93T280 -85T325 -77T344 -82T349 -92Q349 -108 326 -116Q286 -130 199 -130T87 -119Q75 -114 75
-84Q75 20 89 208T104 461Q104 595 145 595L227 590L330 595Q339 595 346 587T354 568Q354 551 323 551Z" />
<glyph unicode="\" glyph-name="backslash" horiz-adv-x="274" d="M283 -93T283 -108T274 -137T251 -151T212 -122T172 -52Q97 138 6 529Q0 553 0 565T7 577Q27 577 42 545T99 353T182 113Q252 -13 267 -53Z" />
<glyph unicode="]" glyph-name="bracketright" horiz-adv-x="336" d="M29 -86L108 -96Q157 -96 170 -83T184 -29Q184 66 197 265T210 506T204 556T160 565T99 555T63 545Q37 545 37 563Q37 577 62 586T160 595T258 584Q270 579 270 549Q270 446 264 258T257 -18T224
-117Q215 -120 182 -124T111 -129T22 -123Q5 -121 5 -101Q5 -86 29 -86Z" />
<glyph unicode="^" glyph-name="asciicircum" horiz-adv-x="536" d="M424 441Q433 436 433 430T418 414T391 403Q358 403 312 439T237 554Q211 487 165 441T96 395Q63 395 60 412Q60 419 75 427T109 451T148 488T176 523T195 560T216 599T239 625T265 636Q281
636 289 605T304 559Q318 520 373 472Q385 461 424 441Z" />
<glyph unicode="_" glyph-name="underscore" horiz-adv-x="460" d="M140 -96L20 -101Q-1 -101 -1 -81Q-1 -68 9 -54T29 -39Q30 -39 58 -42Q140 -51 256 -51T398 -40T433 -29T442 -43T428 -81T400 -104Q340 -104 260 -100T140 -96Z" />
<glyph unicode="`" glyph-name="grave" horiz-adv-x="344" d="M152 540T159 522T171 498T178 488T185 480T193 474T201 468T210 463T219 458T230 453L240 448Q253 442 253 431Q253 416 236 416T190 425T141 449Q91 483 91 521Q91 532 107 547T130 563T145 552Z" />
<glyph unicode="a" glyph-name="a" horiz-adv-x="383" d="M281 -5Q242 -5 222 11Q215 18 215 46T217 123Q191 58 166 27T100 -5T30 32T0 150T45 293T165 355Q197 355 237 313Q245 324 265 339T300 355T315 317Q315 307 310 278T297 236Q288 213 288 73Q288 46
294 46Q311 47 341 88T400 195T436 260T443 252Q443 224 414 163Q335 -5 281 -5ZM159 315Q131 315 100 274T68 176T84 84T128 48Q161 48 225 213Q226 221 227 240T230 270Q221 286 199 300T159 315Z" />
<glyph unicode="b" glyph-name="b" horiz-adv-x="358" d="M187 345Q233 345 263 312T294 218Q335 230 366 247T400 264Q406 264 406 254T378 223T292 181Q280 92 220 44T100 -5T20 39T0 180T14 362T50 497T95 573T140 600Q150 600 158 576T167 517Q167 440 139
337Q158 345 187 345ZM232 165Q224 164 199 164T143 181T101 230Q91 205 78 182Q80 106 90 73T122 40Q157 40 190 69T232 165ZM143 499Q143 541 132 541Q123 541 111 498T88 380T77 232Q143 419 143 499ZM171 309Q157 309 149 301T140 278Q140 247 167 227T234
206Q233 247 218 278T171 309Z" />
<glyph unicode="c" glyph-name="c" horiz-adv-x="286" d="M179 243L187 294Q187 305 180 314T162 323Q125 323 98 268T71 161T92 79T143 47T198 61T242 101Q284 156 314 226Q322 244 326 252T336 260T342 252Q342 219 319 173T281 103T241 51Q191 -5 116 -5Q59
-5 30 35T0 122Q0 236 49 295T175 355Q207 355 225 339T244 301Q244 262 230 243T196 224Q179 224 179 243Z" />
<glyph unicode="d" glyph-name="d" horiz-adv-x="394" d="M285 -5Q251 -5 232 10Q224 18 224 52T227 141Q200 69 172 32T102 -5T30 32T0 150T45 293T165 355Q201 355 240 327Q256 522 269 547Q275 558 297 579T335 600T350 553Q350 498 340 458Q313 355 306 327Q292
219 292 73Q292 46 298 46Q316 47 346 88T405 194T441 260T448 252Q448 224 419 163Q340 -5 285 -5ZM159 319Q132 319 105 276T78 177T92 84T129 48Q174 48 232 228Q237 283 237 293Q208 319 159 319Z" />
<glyph unicode="e" glyph-name="e" horiz-adv-x="293" d="M122 -5Q66 -5 33 37T0 134Q0 243 46 299T165 355Q199 355 221 337T243 286Q243 226 193 186T69 143Q73 104 95 76T148 47T202 61T246 101Q288 156 318 226Q326 244 330 252T340 260T346 252Q346 202 285
102Q219 -5 122 -5ZM69 167Q128 177 155 205T183 278T154 323Q119 323 95 275T69 167Z" />
<glyph unicode="f" glyph-name="f" horiz-adv-x="227" d="M149 211Q203 224 239 244T278 264Q284 264 284 254T264 229Q222 198 159 176Q185 77 185 -34Q185 -127 164 -212Q152 -260 127 -290T64 -320Q32 -320 20 -292Q5 -259 3 -229Q0 -182 0 -76T16 180Q-20
206 -20 243T-4 301T36 328Q50 415 63 478T105 580T161 620Q193 620 193 549Q193 437 110 297Q131 267 149 211ZM79 161Q70 38 70 -121T87 -281Q117 -281 137 -203T157 -27T135 169Q105 161 79 161ZM94 311Q123 359 147 424T171 534T162 578Q146 578 128 505T94
311ZM94 271L88 261L83 210Q96 206 106 206T124 207Q111 246 94 271ZM32 303Q17 298 17 280T25 249Q29 285 32 303Z" />
<glyph unicode="g" glyph-name="g" horiz-adv-x="372" d="M198 71T172 33T102 -5T30 32T0 150T45 293T165 355Q180 355 201 343T238 312Q241 322 267 343T307 365T322 322T304 246Q294 179 293 122Q391 246 397 253T409 260Q419 260 419 250Q419 244 415 237Q383
190 289 72Q283 -47 281 -90Q276 -217 246 -268T137 -320Q103 -320 74 -300T44 -229T82 -125T223 38L229 153Q198 71 172 33ZM159 319Q131 319 100 276T68 176T84 84T126 48T174 89T233 230Q235 264 235 273Q227 288 202 303T159 319ZM220 -9Q106 -132 106 -206Q106
-240 118 -262T151 -284Q183 -284 196 -249T215 -107L220 -9Z" />
<glyph unicode="h" glyph-name="h" horiz-adv-x="371" d="M83 54L84 23Q84 -5 68 -5Q44 -5 22 1T0 19T5 98T11 200V258Q11 514 102 584Q123 600 145 600Q155 600 165 578T175 521Q175 435 146 360T87 245Q86 220 86 167Q90 173 128 235T192 326T240 355T277 341T294
306Q294 262 285 177T275 69T281 46Q298 47 328 88T387 195T423 260T430 252Q430 224 401 163Q322 -5 268 -5Q229 -5 209 11Q202 18 202 47T207 143T213 243T202 276T141 208T89 120Q83 85 83 54ZM148 499Q148 541 137 541Q119 541 102 430Q93 371 89 293Q148 416
148 499Z" />
<glyph unicode="i" glyph-name="i" horiz-adv-x="175" d="M37 489Q37 507 56 520T90 533Q117 533 117 502T101 449T56 426Q37 426 37 489ZM66 -5Q27 -5 7 11Q0 18 0 61T6 204T18 313T49 343T89 365T104 327Q104 317 99 288T86 246Q73 213 73 73Q73 46 79 46Q96
47 126 88T185 195T221 260T228 252Q228 224 199 163Q120 -5 66 -5Z" />
<glyph unicode="j" glyph-name="j" horiz-adv-x="168" d="M16 38Q29 300 30 310T59 342T100 365T115 322T97 246Q88 170 86 122Q184 246 190 253T202 260Q212 260 212 250Q212 244 208 237Q176 190 82 72Q76 -47 74 -90Q69 -217 39 -268T-70 -320Q-104 -320 -133
-300T-163 -236T-143 -152T-100 -86T-38 -19T16 38ZM13 -9Q-101 -132 -101 -206Q-101 -240 -89 -262T-56 -284Q-24 -284 -11 -249T8 -107L13 -9ZM47 489Q47 507 66 520T100 533Q127 533 127 502T111 449T66 426Q47 426 47 489Z" />
<glyph unicode="k" glyph-name="k" horiz-adv-x="343" d="M322 -35L349 -32Q357 -32 357 -40Q357 -54 338 -61T295 -68Q250 -68 220 -32T135 101Q122 122 122 133Q122 148 164 168Q232 203 232 256Q232 271 222 281T194 292Q170 292 137 236T93 130T81 23Q81 -5
65 -5Q42 -5 21 1T0 18T8 113T17 235Q21 439 41 547Q44 556 68 578T108 600T123 563T106 402T86 177Q104 241 143 298T223 355Q291 355 291 289Q291 245 265 210T195 152Q186 148 186 143T189 133Q252 22 296 -23Q308 -35 322 -35Z" />
<glyph unicode="l" glyph-name="l" horiz-adv-x="175" d="M73 -5Q51 -5 33 0T10 11Q0 23 0 135T25 441Q46 600 123 600Q141 600 149 581T157 543Q157 413 78 252Q75 169 75 108T86 46Q103 47 133 88T192 195T228 260T235 252Q235 224 206 163Q127 -5 73 -5ZM132
534Q132 566 124 566Q94 566 80 317Q132 454 132 534Z" />
<glyph unicode="m" glyph-name="m" horiz-adv-x="542" d="M83 54L84 23Q84 -5 68 -5Q44 -5 22 1T0 19T5 98T11 200V259Q11 307 21 317T56 346T93 365T108 361T111 346Q111 293 91 246Q86 189 86 167Q139 266 160 297Q197 355 227 355Q246 355 262 340T279 303T279
262T277 231T276 217Q280 225 310 262T350 310T373 332Q396 355 414 355T449 341T466 306Q466 262 457 177T447 69T453 46Q470 47 500 88T559 195T595 260T602 252Q602 224 573 163Q494 -5 440 -5Q406 -5 386 11Q379 18 379 47T384 143T390 243T379 276Q366 276
323 232T276 170Q270 136 270 23Q270 -5 255 -5Q232 -5 212 1T191 19T197 118T203 240T192 276T136 208T88 112T83 54Z" />
<glyph unicode="n" glyph-name="n" horiz-adv-x="371" d="M78 54L79 23Q79 -5 63 -5Q39 -5 17 1T-5 19T0 98T6 200V259Q6 307 16 317T51 346T88 365T103 361T106 346Q106 293 86 246Q81 189 81 167Q85 173 123 235T187 326T235 355T272 341T289 306Q289 262 280
177T270 69T276 46Q293 47 323 88T382 195T418 260T425 252Q425 224 396 163Q317 -5 263 -5Q224 -5 204 11Q197 18 197 47T202 143T208 243T197 276T136 208T84 120Q78 85 78 54Z" />
<glyph unicode="o" glyph-name="o" horiz-adv-x="364" d="M313 217Q353 230 368 239T392 254L404 261Q409 264 412 264Q420 264 420 255T389 224T312 183Q305 99 259 47T128 -5Q66 -5 33 44T0 160T39 286T141 345Q169 365 207 365T279 324T313 217ZM248 166L212
164Q166 164 134 191T102 252T113 309Q70 275 70 175Q70 127 90 84T153 40T220 76T248 166ZM186 332Q170 332 161 318T152 286Q152 249 177 226T237 203H249Q247 252 233 292T186 332Z" />
<glyph unicode="p" glyph-name="p" horiz-adv-x="360" d="M31 311Q42 324 66 344T104 365T118 326T97 248Q93 230 91 196Q120 275 149 315T219 355T292 318T323 200T278 57T158 -5Q120 -5 81 23Q81 -168 59 -268Q57 -277 33 -298T-3 -320T-20 -304T-25 -274Q-25
-171 17 -9Q24 85 26 197T31 311ZM164 31Q193 31 224 71T255 171T239 266T194 302Q146 302 85 103Q83 75 83 59Q111 31 164 31Z" />
<glyph unicode="q" glyph-name="q" horiz-adv-x="378" d="M169 -261Q169 -188 202 -98L214 114Q189 54 165 25T100 -5T30 32T0 150T45 293T165 355Q197 355 236 314Q283 365 305 365Q320 365 320 327Q320 318 313 290T299 248Q293 228 289 146T284 48Q297 69 340
148Q404 264 418 264Q426 264 426 253T415 229Q361 164 281 -18Q281 -186 254 -267Q249 -281 227 -300T189 -320Q179 -320 174 -302T169 -261ZM159 319Q131 319 100 276T68 176T84 84T125 48T170 82T221 196L229 282Q217 296 196 307T159 319Z" />
<glyph unicode="r" glyph-name="r" horiz-adv-x="255" d="M87 261L142 267Q150 267 156 258T162 239T156 171T149 80T155 46Q172 47 202 88T261 195T297 260T304 252Q304 224 275 163Q196 -5 142 -5Q103 -5 83 11Q76 18 76 98T93 235Q35 235 12 272Q0 291 0 315T10
357T38 375T72 356T88 312T74 264Q78 261 87 261Z" />
<glyph unicode="s" glyph-name="s" horiz-adv-x="208" d="M148 306L150 321Q150 339 130 339T90 313T71 269T73 242T77 226T86 210T95 197L106 183Q113 173 116 170Q168 213 240 266Q244 269 249 269Q259 269 259 258T250 241Q186 200 129 152Q151 120 151 82T122
17T48 -10T3 33Q3 64 69 128Q64 134 51 147T32 169T16 190Q0 215 0 244Q0 303 38 339T119 376Q146 376 161 362T176 332Q176 298 160 298Q148 298 148 306ZM84 109Q44 69 44 45T69 20Q84 20 94 32Q116 62 84 109Z" />
<glyph unicode="t" glyph-name="t" horiz-adv-x="201" d="M224 163Q145 -5 91 -5T27 8T17 94T31 305Q-19 315 -22 346Q-22 362 -1 362T36 354Q45 426 57 500Q60 519 76 536T107 553Q120 553 120 512Q120 493 106 337Q133 342 165 357T204 372Q222 372 222 361Q223
351 185 334T103 307Q91 161 91 86Q91 46 103 46Q121 47 151 88T210 194T246 260T253 252Q253 224 224 163Z" />
<glyph unicode="u" glyph-name="u" horiz-adv-x="365" d="M0 87L6 199Q6 306 16 316T51 345T88 365T103 361T106 345Q106 302 87 258Q72 166 72 107T91 48Q114 48 145 88T207 207Q216 307 221 315T249 344T285 365T300 327Q300 317 295 288T282 246Q271 218 271
73Q271 46 277 46Q294 47 324 88T383 195T419 260T426 252Q426 224 397 163Q318 -5 264 -5Q225 -5 205 11Q198 18 198 54T201 134Q169 66 137 31T66 -5T13 16T0 87Z" />
<glyph unicode="v" glyph-name="v" horiz-adv-x="350" d="M125 44Q161 44 188 81T228 173Q192 184 173 211T154 275T172 338T226 365Q247 365 258 339T269 279T264 213Q279 207 296 207Q335 207 371 243Q389 261 395 261T402 251T389 227Q336 168 255 168Q236
95 196 45T98 -5Q64 -5 42 24Q5 71 5 162Q5 193 10 242T21 302T53 329T89 345Q104 345 104 327Q104 276 78 216Q78 145 89 95T125 44ZM216 327Q208 327 208 294T238 231Q240 243 240 255Q240 327 216 327Z" />
<glyph unicode="w" glyph-name="w" horiz-adv-x="465" d="M416 207Q458 207 494 243Q512 261 518 261T525 251T512 227Q459 168 379 168Q363 94 329 45T243 -5T168 56Q127 -5 83 -5Q0 -5 0 155Q0 266 22 306Q26 313 52 329T88 345Q103 345 103 327Q101 280 75
216Q69 204 69 159T79 79T110 44T159 92Q154 117 154 145T160 206T184 272T227 305Q235 305 238 300T242 276Q242 225 215 149Q219 105 235 75T272 44Q301 44 321 81T352 173Q315 183 295 211T275 275T292 338T344 365Q390 365 390 266Q390 240 387 212Q402 207
416 207ZM337 327Q328 327 328 293T359 230Q360 235 360 245Q360 327 337 327Z" />
<glyph unicode="x" glyph-name="x" horiz-adv-x="316" d="M240 51Q270 51 336 197Q344 214 349 226T358 246Q364 260 369 260T375 252Q375 223 345 160Q268 -5 220 -5Q184 -5 173 12T128 104Q98 51 77 23T37 -5T9 -1T-3 7T-6 19T7 38Q63 89 107 148Q93 175 70
207T33 261T18 299T31 343T63 370T90 352T99 315Q108 300 151 211Q166 235 188 276T222 336T242 355Q260 355 265 349T271 331T262 308T240 288T217 262T168 177Q229 51 240 51Z" />
<glyph unicode="y" glyph-name="y" horiz-adv-x="350" d="M0 87L6 199Q6 306 16 316T51 345T88 365T103 361T106 345Q106 302 87 258Q72 166 72 107T86 48Q110 48 141 90T206 216Q207 238 208 262T210 298T211 315T239 342T280 365T295 327Q295 317 290 288T277
246Q269 175 266 122Q364 246 370 253T382 260Q392 260 392 250Q392 244 388 237Q356 190 262 72Q256 -47 254 -90Q249 -217 219 -268T110 -320Q76 -320 47 -300T17 -229T55 -125T196 38L202 147Q168 72 135 34T62 -5T11 15T0 87ZM193 -9Q79 -132 79 -206Q79 -240
91 -262T124 -284Q156 -284 169 -249T188 -107L193 -9Z" />
<glyph unicode="z" glyph-name="z" horiz-adv-x="340" d="M169 224Q48 224 16 262Q0 281 0 305T14 341T45 354T73 341T84 315Q84 297 124 290T202 282Q241 337 257 344Q263 346 270 346Q286 346 286 314T272 265T223 233Q164 179 107 108Q133 102 186 85T247 67Q288
67 348 200Q375 260 381 260T388 245T359 163Q282 -10 213 -10Q206 -10 149 15T63 40Q38 3 15 3Q0 3 0 30T22 85T71 113Q141 191 169 224Z" />
<glyph unicode="{" glyph-name="braceleft" horiz-adv-x="295" d="M179 473L185 363Q185 303 132 268Q153 256 164 228T175 174T165 101T154 27Q154 -41 191 -71L202 -77Q220 -87 220 -94T192 -102Q149 -102 117 -60T84 52Q84 72 95 112T106 171T100 214T88 245Q71
242 57 242Q40 242 40 260Q40 269 47 279T62 289L78 287Q93 287 99 296Q119 323 119 359L108 455Q108 518 141 568T227 618Q255 618 255 608Q255 602 241 596T224 587Q179 557 179 473Z" />
<glyph unicode="|" glyph-name="bar" horiz-adv-x="191" d="M74 -167Q53 -167 53 -76Q53 -48 58 26Q80 345 92 558Q94 601 115 601Q132 601 132 570Q132 432 106 -45Q100 -167 74 -167Z" />
<glyph unicode="}" glyph-name="braceright" horiz-adv-x="274" d="M86 43L80 153Q80 226 133 261Q90 286 90 345Q90 368 100 415T111 489Q111 557 74 587L63 593Q45 603 45 610T73 618Q116 618 148 576T181 464Q181 444 170 404T159 334T177 284Q194 287 208
287Q225 287 225 269Q225 260 218 250T203 240Q203 240 187 242Q172 242 166 233Q146 206 146 157L157 61Q157 -2 124 -52T38 -102Q10 -102 10 -92Q10 -86 24 -80T41 -71Q86 -41 86 43Z" />
<glyph unicode="~" glyph-name="asciitilde" horiz-adv-x="455" d="M47 226T86 261T159 296T243 269T316 242T353 254T379 277T397 289T405 282Q405 239 371 204T298 169T213 205T146 241T97 211T57 180Q47 180 47 192Q47 226 86 261Z" />
</font>
</defs>
</svg>
