<?xml version="1.0" standalone="no"?>
<!DOCTYPE svg PUBLIC "-//W3C//DTD SVG 1.1//EN" "http://www.w3.org/Graphics/SVG/1.1/DTD/svg11.dtd" >
<svg xmlns="http://www.w3.org/2000/svg" width="100%" height="100%">
<metadata>
Created by FontXChange 20100429 at Fri Dec  6 09:32:45 2013
 By Payas
Copyright 1990-1993 Bitstream Inc.  All rights reserved.
</metadata>
<defs>
<font id="GeometricSlab703BT-Bold" horiz-adv-x="1024" >
  <font-face 
    font-family="GeoSlab703 Md BT"
    font-weight="700"
    font-stretch="normal"
    units-per-em="2048"
    panose-1="2 6 7 3 2 2 5 2 4 3"
    ascent="1638"
    descent="-410"
    x-height="952"
    cap-height="1475"
    bbox="-342 -483 2595 1972"
    underline-thickness="158"
    underline-position="-134"
    unicode-range="U+0020-F002"
  />
<missing-glyph horiz-adv-x="1229" 
d="M102 -362v1806h1024v-1806h-1024zM217 -248h795v1577h-795v-1577z" />
    <glyph glyph-name=".notdef" horiz-adv-x="1229" 
d="M102 -362v1806h1024v-1806h-1024zM217 -248h795v1577h-795v-1577z" />
    <glyph glyph-name=".null" horiz-adv-x="0" 
 />
    <glyph glyph-name="nonmarkingreturn" horiz-adv-x="547" 
 />
    <glyph glyph-name="space" unicode=" " horiz-adv-x="547" 
 />
    <glyph glyph-name="exclam" unicode="!" horiz-adv-x="707" 
d="M352 -25q-79 0 -130.5 52t-51.5 131q0 78 52 129t130 51q77 0 131 -52.5t54 -127.5q0 -76 -54 -129.5t-131 -53.5zM455 444h-203l-55 1031h313z" />
    <glyph glyph-name="quotedbl" unicode="&#x22;" horiz-adv-x="643" 
d="M395 1436h164v-557h-164v557zM86 1436h164v-557h-164v557z" />
    <glyph glyph-name="numbersign" unicode="#" horiz-adv-x="1575" 
d="M709 852l-91 -254h256l91 254h-256zM735 1460h191l-154 -436h250l156 436h190l-154 -436h291l-59 -172h-293l-90 -252h309l-61 -172h-307l-156 -434h-191l156 434h-252l-158 -434h-190l156 434h-299l61 172h297l90 252h-315l61 172h316z" />
    <glyph glyph-name="dollar" unicode="$" horiz-adv-x="1096" 
d="M483 858v338q-65 -15 -102 -58.5t-37 -105.5q0 -61 37 -107.5t102 -66.5zM109 451h155q22 -97 78 -164.5t141 -98.5v426q-179 49 -270.5 145.5t-91.5 237.5q0 163 98.5 265t263.5 110v117h127v-121q64 -6 115 -38.5t82 -86.5l-6 119h149v-391h-143q-25 89 -77.5 148
t-119.5 73v-371q220 -59 325 -161.5t105 -258.5q0 -174 -121.5 -293.5t-308.5 -125.5v-168h-127v176q-75 12 -134.5 54t-94.5 108l8 -150h-153v449zM610 178q93 12 147 66t54 133q0 72 -46.5 120t-154.5 85v-404z" />
    <glyph glyph-name="percent" unicode="%" horiz-adv-x="1817" 
d="M1384 197q70 0 117 47.5t47 117.5q0 71 -47.5 118.5t-116.5 47.5q-68 0 -115.5 -48t-47.5 -118q0 -69 47.5 -117t115.5 -48zM1747 362q0 -151 -106.5 -256.5t-256.5 -105.5q-149 0 -255.5 106t-106.5 256q0 152 105.5 256.5t256.5 104.5q153 0 258 -104t105 -257z
M1262 1464h143l-852 -1493h-143zM432 909q70 0 117 48t47 118q0 71 -47.5 118.5t-116.5 47.5t-117.5 -48t-48.5 -118q0 -69 48.5 -117.5t117.5 -48.5zM793 1075q0 -151 -106.5 -256.5t-256.5 -105.5q-149 0 -254.5 105.5t-105.5 256.5q0 152 104.5 256.5t255.5 104.5
q152 0 257.5 -104.5t105.5 -256.5z" />
    <glyph glyph-name="ampersand" unicode="&#x26;" horiz-adv-x="1518" 
d="M1407 205v-205h-311l-140 160q-103 -97 -211 -143t-233 -46q-169 0 -279 112.5t-110 283.5q0 113 59 208t211 218q-95 106 -138.5 192.5t-43.5 167.5q0 142 105 244t253 102q141 0 237.5 -95t96.5 -239q0 -101 -49.5 -190t-159.5 -182l283 -314q52 76 79.5 151t35.5 160
l-113 1v180h428v-180l-129 -1q-5 -122 -45.5 -234t-122.5 -226l119 -125h178zM821 309l-297 326q-87 -71 -128.5 -135t-41.5 -127q0 -82 52.5 -131t140.5 -49q73 0 144 30t130 86zM559 922q77 67 112.5 126t35.5 119q0 70 -41 115t-103 45q-63 0 -104 -43t-41 -110
q0 -54 34 -115t107 -137z" />
    <glyph glyph-name="quotesingle" unicode="'" horiz-adv-x="334" 
d="M86 1436h164v-557h-164v557z" />
    <glyph glyph-name="parenleft" unicode="(" horiz-adv-x="649" 
d="M629 1378q-139 -177 -214 -385.5t-75 -421.5q0 -215 76 -424t217 -378l-176 -127q-171 211 -259.5 448.5t-88.5 480.5q0 244 88 481t260 451z" />
    <glyph glyph-name="parenright" unicode=")" horiz-adv-x="649" 
d="M20 1378l173 125q171 -214 259.5 -451t88.5 -481q0 -243 -89 -480.5t-259 -448.5l-177 127q141 169 217 378t76 424q0 213 -74.5 421.5t-214.5 385.5z" />
    <glyph glyph-name="asterisk" unicode="*" horiz-adv-x="1139" 
d="M471 1503h207l-35 -311l281 149l73 -192l-321 -92l237 -209l-153 -135l-193 256l-188 -256l-154 135l238 209l-322 92l74 192l285 -149z" />
    <glyph glyph-name="plus" unicode="+" horiz-adv-x="1706" 
d="M768 1221h170v-527h514v-166h-514v-528h-170v528h-514v166h514v527z" />
    <glyph glyph-name="comma" unicode="," horiz-adv-x="547" 
d="M170 240h260l-149 -457h-246z" />
    <glyph glyph-name="hyphen" unicode="-" horiz-adv-x="631" 
d="M61 371v211h508v-211h-508z" />
    <glyph glyph-name="period" unicode="." horiz-adv-x="547" 
d="M274 -25q-79 0 -131.5 52t-52.5 131q0 77 52.5 128.5t131.5 51.5q77 0 130 -52.5t53 -127.5q0 -76 -53 -129.5t-130 -53.5z" />
    <glyph glyph-name="slash" unicode="/" horiz-adv-x="682" 
d="M645 1503l-504 -1693h-137l504 1693h137z" />
    <glyph glyph-name="zero" unicode="0" horiz-adv-x="1096" 
d="M342 879v-322q0 -206 47 -284t158 -78t159 80.5t48 281.5v324q0 204 -48 283t-159 79q-110 0 -157.5 -80t-47.5 -284zM94 537v364q0 154 15.5 226t50.5 130q60 100 159.5 153.5t227.5 53.5q129 0 228.5 -52.5t160.5 -154.5q34 -55 48.5 -123t14.5 -192v-41v-412
q0 -102 -10 -159t-33 -107q-53 -119 -161 -185.5t-248 -66.5q-127 0 -227 54.5t-160 154.5q-35 59 -50.5 130t-15.5 227z" />
    <glyph glyph-name="one" unicode="1" horiz-adv-x="1096" 
d="M264 0v199h168v1038h-156v199h404v-1237h166v-199h-582z" />
    <glyph glyph-name="two" unicode="2" horiz-adv-x="1096" 
d="M786 420h236v-420h-936v199l467 516q110 122 157.5 206t47.5 154q0 83 -52.5 128.5t-148.5 45.5q-120 0 -171.5 -77t-51.5 -263v-41l-236 1q-1 13 -1.5 27t-0.5 42q0 266 115 396t350 130q205 0 326 -106.5t121 -286.5q0 -110 -57 -214t-228 -277l-361 -365h424v205z" />
    <glyph glyph-name="three" unicode="3" horiz-adv-x="1096" 
d="M325 506q4 -161 58.5 -236t167.5 -75q92 0 153.5 64.5t61.5 160.5q0 108 -70 169.5t-192 61.5h-23v178q7 0 17.5 -1t15.5 -1q112 0 170.5 58t58.5 168q0 90 -50.5 142t-137.5 52q-117 0 -166 -75.5t-49 -260.5v-14h-242q0 9 -1 32.5t-1 39.5q0 236 118.5 366.5
t332.5 130.5q204 0 323 -110.5t119 -298.5q0 -119 -52.5 -199.5t-150.5 -109.5q105 -25 165.5 -112t60.5 -214q0 -208 -123.5 -328.5t-337.5 -120.5q-232 0 -351.5 122t-119.5 358q0 9 1 26.5t1 26.5h243z" />
    <glyph glyph-name="four" unicode="4" horiz-adv-x="1096" 
d="M301 522h344v357q0 54 6.5 127.5t18.5 156.5zM442 0v182h203v160h-559v186l553 908h238v-914h172v-180h-172v-160h172v-182h-607z" />
    <glyph glyph-name="five" unicode="5" horiz-adv-x="1096" 
d="M86 455h238v-29q0 -113 51.5 -172t148.5 -59q110 0 173 73.5t63 202.5q0 135 -77 197.5t-245 62.5q-43 0 -107 -4.5t-144 -13.5l-1 725h705v-217h-461v-270q16 0 33 0.5t47 0.5q233 0 366.5 -130.5t133.5 -358.5q0 -222 -129.5 -357t-343.5 -135q-209 0 -331 119.5
t-122 323.5q0 6 1 19.5t1 21.5z" />
    <glyph glyph-name="six" unicode="6" horiz-adv-x="1096" 
d="M561 195q90 0 150.5 67.5t60.5 169.5q0 103 -60.5 170.5t-150.5 67.5q-88 0 -147.5 -67.5t-59.5 -170.5q0 -104 59 -170.5t148 -66.5zM748 1030q-7 111 -53 164t-136 53q-114 0 -161.5 -73.5t-47.5 -278.5v-107q70 53 137 79t134 26q175 0 288 -126.5t113 -328.5
q0 -209 -124.5 -338t-330.5 -129q-233 0 -348 136t-115 413v432q0 251 117.5 381.5t341.5 130.5q202 0 314 -108.5t112 -304.5v-21h-241z" />
    <glyph glyph-name="seven" unicode="7" horiz-adv-x="1096" 
d="M227 0l539 1221h-422v-254h-235v469h911v-209l-528 -1227h-265z" />
    <glyph glyph-name="eight" unicode="8" horiz-adv-x="1096" 
d="M547 844q84 0 143.5 59.5t59.5 145.5t-59.5 146t-143.5 60q-85 0 -142 -59.5t-57 -146.5t57.5 -146t141.5 -59zM549 186q91 0 154 64t63 158q0 95 -62.5 159t-154.5 64q-93 0 -156 -64t-63 -159q0 -94 63.5 -158t155.5 -64zM307 743q-97 50 -149 133t-52 189
q0 176 124 288.5t317 112.5t317.5 -113t124.5 -288q0 -105 -52.5 -188.5t-150.5 -133.5q109 -61 165.5 -153t56.5 -209q0 -176 -130 -293t-331 -117t-330 116.5t-129 293.5q0 118 55.5 210t163.5 152z" />
    <glyph glyph-name="nine" unicode="9" horiz-adv-x="1096" 
d="M532 1241q-89 0 -149.5 -67.5t-60.5 -169.5q0 -103 60 -170.5t150 -67.5t150.5 67.5t60.5 170.5t-60.5 170t-150.5 67zM348 403q6 -110 52 -162.5t137 -52.5q114 0 161 73.5t47 279.5v104q-68 -52 -135 -77t-135 -25q-176 0 -288.5 125.5t-112.5 326.5q0 211 125 340
t329 129q234 0 348.5 -136t114.5 -413v-434q0 -249 -117 -379.5t-342 -130.5q-202 0 -314 108t-112 304v20h242z" />
    <glyph glyph-name="colon" unicode=":" horiz-adv-x="674" 
d="M336 614q-80 0 -131 51t-51 130q0 78 52 130t130 52q76 0 129 -53t53 -129t-53 -128.5t-129 -52.5zM336 -25q-79 0 -130.5 52t-51.5 131q0 78 51.5 129t130.5 51q76 0 129 -52.5t53 -127.5q0 -76 -53 -129.5t-129 -53.5z" />
    <glyph glyph-name="semicolon" unicode=";" horiz-adv-x="674" 
d="M207 240h258l-150 -457h-245zM346 614q-80 0 -132 51t-52 130q0 78 52.5 130t131.5 52q76 0 129 -53t53 -129t-52.5 -128.5t-129.5 -52.5z" />
    <glyph glyph-name="less" unicode="&#x3c;" horiz-adv-x="1706" 
d="M1442 1176v-185l-934 -381l934 -381v-182l-1178 483v160z" />
    <glyph glyph-name="equal" unicode="=" horiz-adv-x="1706" 
d="M254 487h1198v-165h-1198v165zM254 901h1198v-168h-1198v168z" />
    <glyph glyph-name="greater" unicode="&#x3e;" horiz-adv-x="1706" 
d="M264 1176l1178 -486v-160l-1178 -483v182l934 381l-934 381v185z" />
    <glyph glyph-name="question" unicode="?" horiz-adv-x="1219" 
d="M172 1073q18 209 132 319.5t310 110.5q198 0 316.5 -110t118.5 -293q0 -155 -88 -259.5t-248 -138.5v-258h-238v439q15 0 29.5 -1t15.5 -1q139 0 214 59.5t75 169.5q0 84 -54.5 134t-146.5 50t-147 -59t-60 -162h-229zM586 -25q-79 0 -131 52t-52 131q0 78 52 129t131 51
q76 0 129 -52.5t53 -127.5q0 -76 -53 -129.5t-129 -53.5z" />
    <glyph glyph-name="at" unicode="@" horiz-adv-x="2048" 
d="M1174 283q-55 -87 -128 -127.5t-176 -40.5q-152 0 -232.5 86.5t-80.5 249.5q0 233 138 395t333 162q89 0 149 -34.5t99 -107.5l55 107h154l-148 -586q-1 -5 -2 -12q-6 -28 -6 -37q0 -38 26.5 -61t69.5 -23q51 0 107.5 30.5t105.5 84.5q72 76 110 177.5t38 215.5
q0 253 -187 411t-489 158q-138 0 -256 -31t-215 -94q-181 -113 -279 -291t-98 -395q0 -312 209.5 -499t558.5 -187q166 0 323.5 49t291.5 142l67 -99q-149 -113 -318.5 -170t-355.5 -57q-192 0 -351 48t-281 142q-155 118 -231.5 275.5t-76.5 357.5q0 165 52 313.5
t153 272.5q147 179 353.5 272t459.5 93q166 0 315 -45.5t255 -127.5q132 -102 198 -235.5t66 -300.5q0 -162 -65 -302t-185 -237q-69 -55 -150 -83.5t-168 -28.5q-106 0 -157 40.5t-51 125.5v4zM1233 707q-14 84 -61.5 130t-122.5 46q-127 0 -217.5 -128.5t-90.5 -310.5
q0 -98 45.5 -151t128.5 -53q90 0 163.5 66.5t99.5 172.5z" />
    <glyph glyph-name="A" unicode="A" horiz-adv-x="1403" 
d="M518 678h334l-166 500zM365 205h157v-205h-528v205h117l372 1065h-159v205h755v-205h-170l365 -1065h135v-205h-559v205h158l-90 268h-463z" />
    <glyph glyph-name="B" unicode="B" horiz-adv-x="1255" 
d="M473 692v-487h111q158 0 226.5 57t68.5 187q0 127 -70 185t-225 58h-111zM473 1270v-387h111q106 0 166.5 51t60.5 141q0 94 -58.5 144.5t-168.5 50.5h-111zM51 0v205h158v1065h-158v205h533q239 0 366 -96.5t127 -278.5q0 -118 -62 -192.5t-188 -108.5
q155 -37 235.5 -131t80.5 -238q0 -216 -139.5 -323t-419.5 -107h-533z" />
    <glyph glyph-name="C" unicode="C" horiz-adv-x="1554" 
d="M1212 983q-44 132 -142 203t-236 71q-222 0 -358 -143t-136 -377q0 -233 136 -375.5t358 -142.5q138 0 232.5 62t162.5 198h256q-60 -233 -236 -370.5t-415 -137.5q-333 0 -550.5 218t-217.5 548q0 337 212 551.5t539 214.5q131 0 234 -39t166 -112l-5 123h220v-492h-220
z" />
    <glyph glyph-name="D" unicode="D" horiz-adv-x="1534" 
d="M473 1270v-1065h178q269 0 408 135.5t139 396.5q0 262 -139 397.5t-408 135.5h-178zM643 1475q405 0 616 -189t211 -549q0 -359 -211 -548t-616 -189h-592v205h158v1065h-158v205h592z" />
    <glyph glyph-name="E" unicode="E" horiz-adv-x="1280" 
d="M51 0v205h158v1065h-158v205h1123v-402h-230v195h-471v-369h395v-221h-395v-473h463v231h238v-436h-1123z" />
    <glyph glyph-name="F" unicode="F" horiz-adv-x="1223" 
d="M51 0v205h158v1065h-158v205h1123v-402h-230v195h-471v-369h420v-221h-420v-473h193v-205h-615z" />
    <glyph glyph-name="G" unicode="G" horiz-adv-x="1706" 
d="M1290 168q-89 -98 -206.5 -147.5t-262.5 -49.5q-323 0 -541.5 219t-218.5 547q0 335 216.5 550.5t556.5 215.5q133 0 241 -36.5t176 -104.5v113h217v-492h-217q-59 135 -163 202.5t-250 67.5q-226 0 -361 -141t-135 -375q0 -224 140 -370t352 -146q149 0 256.5 62.5
t187.5 195.5h-338v213h705v-213h-154v-479h-193z" />
    <glyph glyph-name="H" unicode="H" horiz-adv-x="1534" 
d="M473 662v-457h158v-205h-580v205h158v1065h-158v205h580v-205h-158v-371h588v371h-158v205h578v-205h-156v-1065h156v-205h-578v205h158v457h-588z" />
    <glyph glyph-name="I" unicode="I" horiz-adv-x="682" 
d="M473 205h158v-205h-580v205h158v1065h-158v205h580v-205h-158v-1065z" />
    <glyph glyph-name="J" unicode="J" horiz-adv-x="682" 
d="M483 137q0 -198 -89.5 -287.5t-289.5 -89.5q-27 0 -41.5 0.5t-27.5 2.5v257q17 -1 32.5 -1.5t28.5 -0.5q62 0 91.5 33t29.5 101v1118h-178v205h600v-205h-156v-1133z" />
    <glyph glyph-name="K" unicode="K" horiz-adv-x="1327" 
d="M473 205h158v-205h-580v205h158v1065h-158v205h580v-205h-158v-482l406 482h-154v205h557v-205h-104l-424 -490l422 -575h137v-205h-588v205h147l-399 545v-545z" />
    <glyph glyph-name="L" unicode="L" horiz-adv-x="1118" 
d="M51 0v205h158v1065h-158v205h602v-207h-180v-1063h369v231h239v-436h-1030z" />
    <glyph glyph-name="M" unicode="M" horiz-adv-x="1812" 
d="M469 205h176v-205h-594v205h158v1065h-158v205h574l290 -846l293 846h553v-205h-157v-1065h157v-205h-594v205h176v997l-364 -1005h-141l-369 1005v-997z" />
    <glyph glyph-name="N" unicode="N" horiz-adv-x="1489" 
d="M461 205h155v-205h-565v205h158v1065h-158v205h451l526 -963v758h-158v205h566v-205h-158v-1299h-223l-594 1116v-882z" />
    <glyph glyph-name="O" unicode="O" horiz-adv-x="1669" 
d="M61 737q0 326 220.5 546t552.5 220q153 0 282.5 -46.5t233.5 -139.5q126 -113 192 -260.5t66 -319.5q0 -149 -52.5 -283.5t-150.5 -240.5q-111 -120 -255 -181t-316 -61q-330 0 -551.5 221t-221.5 545zM342 737q0 -223 140.5 -369.5t351.5 -146.5t352 146t141 370
t-141.5 370t-351.5 146q-209 0 -350.5 -146.5t-141.5 -369.5z" />
    <glyph glyph-name="P" unicode="P" horiz-adv-x="1200" 
d="M473 1272v-535h82q182 0 270 66t88 203q0 135 -87.5 200.5t-270.5 65.5h-82zM473 205h191v-205h-613v205h158v1065h-158v205h504q309 0 467 -119.5t158 -351.5t-158.5 -350.5t-466.5 -118.5h-82v-330z" />
    <glyph glyph-name="Q" unicode="Q" horiz-adv-x="1669" 
d="M1083 281q116 60 180 180t64 276q0 227 -140 371.5t-353 144.5t-352.5 -145t-139.5 -371t139 -371t353 -145h32l-69 144l190 104zM1198 57l41 -75h203v-238h-338l-117 240q-46 -7 -84.5 -10t-68.5 -3q-151 0 -280.5 47t-234.5 140q-124 109 -191 259t-67 320
q0 326 220.5 546t552.5 220q152 0 281 -46.5t235 -139.5q126 -111 192 -259.5t66 -320.5q0 -222 -111 -405.5t-299 -274.5z" />
    <glyph glyph-name="R" unicode="R" horiz-adv-x="1327" 
d="M473 1270v-389h193q138 0 200 46.5t62 147.5q0 102 -62 148.5t-200 46.5h-193zM473 205h178v-205h-600v205h158v1065h-158v205h608q278 0 405.5 -91.5t127.5 -287.5q0 -122 -62.5 -202.5t-189.5 -123.5q111 -15 160 -75.5t49 -180.5v-309h141v-205h-407v371
q0 191 -58.5 248t-214.5 57h-137v-471z" />
    <glyph glyph-name="S" unicode="S" horiz-adv-x="1282" 
d="M354 125v-125h-213v500h213q42 -159 130.5 -241.5t220.5 -82.5q101 0 170 64t69 157q0 84 -59.5 137t-200.5 93l-168 47q-202 56 -293.5 153.5t-91.5 253.5q0 180 127 301t317 121q102 0 189 -32t149 -93v97h205v-439h-205q-35 131 -109 195.5t-188 64.5
q-96 0 -156.5 -52.5t-60.5 -133.5q0 -69 38.5 -109.5t135.5 -68.5l179 -51q247 -72 347.5 -175.5t100.5 -277.5q0 -207 -125.5 -332t-333.5 -125q-118 0 -216 39t-171 115z" />
    <glyph glyph-name="T" unicode="T" horiz-adv-x="1223" 
d="M743 205h191v-205h-645v205h190v1065h-192v-213h-236v418h1120v-418h-235v213h-193v-1065z" />
    <glyph glyph-name="U" unicode="U" horiz-adv-x="1522" 
d="M500 537q0 -175 60.5 -245.5t201.5 -70.5q140 0 200 71.5t60 244.5v733h-156v205h578v-205h-156v-703q0 -160 -18 -242.5t-60 -148.5q-64 -102 -176 -153.5t-272 -51.5q-146 0 -253.5 43t-176.5 129q-53 66 -76 159.5t-23 264.5v703h-155v205h577v-205h-155v-733z" />
    <glyph glyph-name="V" unicode="V" horiz-adv-x="1352" 
d="M586 -29l-459 1299h-104v205h516v-205h-133l274 -811l272 811h-139v205h500v-205h-101l-448 -1299h-178z" />
    <glyph glyph-name="W" unicode="W" horiz-adv-x="1937" 
d="M967 891l-277 -920h-174l-422 1299h-102v205h510v-205h-140l246 -797l234 797h-133v205h520v-205h-135l249 -803l254 803h-163v205h512v-205h-105l-422 -1299h-172z" />
    <glyph glyph-name="X" unicode="X" horiz-adv-x="1352" 
d="M674 551l-221 -346h122v-205h-536v205h129l371 524l-361 541h-127v205h541v-205h-113l209 -334l213 334h-121v205h512v-205h-104l-369 -514l373 -551h129v-205h-551v205h119z" />
    <glyph glyph-name="Y" unicode="Y" horiz-adv-x="1343" 
d="M797 205h180v-205h-627v205h180v475l-387 590h-116v205h538v-205h-116l225 -367l221 367h-133v205h536v-205h-118l-383 -590v-475z" />
    <glyph glyph-name="Z" unicode="Z" horiz-adv-x="1329" 
d="M956 201v245h242v-446h-1077v188l756 1080h-486v-201h-241v403h1048v-180l-760 -1089h518z" />
    <glyph glyph-name="bracketleft" unicode="[" horiz-adv-x="743" 
d="M197 -174v1649h479v-181h-242v-1288h242v-180h-479z" />
    <glyph glyph-name="backslash" unicode="\" horiz-adv-x="682" 
d="M524 -190l-504 1693h140l502 -1693h-138z" />
    <glyph glyph-name="bracketright" unicode="]" horiz-adv-x="743" 
d="M549 -174h-479v180h241v1288h-241v181h479v-1649z" />
    <glyph glyph-name="asciicircum" unicode="^" horiz-adv-x="2048" 
d="M915 1460h218l495 -561h-207l-397 397l-399 -397h-207z" />
    <glyph glyph-name="underscore" unicode="_" 
d="M0 -311h1024v-172h-1024v172z" />
    <glyph glyph-name="grave" unicode="`" 
d="M659 1087h-131l-295 349h222z" />
    <glyph glyph-name="a" unicode="a" horiz-adv-x="1270" 
d="M1073 199h133v-199h-370v102q-60 -61 -136.5 -93t-162.5 -32q-212 0 -348 141t-136 359q0 212 138 356t346 144q85 0 159 -31.5t140 -95.5v102h370v-198h-133v-555zM295 475q0 -126 76.5 -205.5t197.5 -79.5q118 0 196.5 80.5t78.5 204.5t-79 205.5t-196 81.5
q-121 0 -197.5 -80t-76.5 -207z" />
    <glyph glyph-name="b" unicode="b" horiz-adv-x="1262" 
d="M418 475q0 -123 78.5 -204t195.5 -81q118 0 196.5 80.5t78.5 204.5t-79 205.5t-196 81.5t-195.5 -81.5t-78.5 -205.5zM55 0v199h133v1077h-133v199h369v-625q65 64 140 95.5t161 31.5q207 0 345 -144t138 -356q0 -218 -135.5 -359t-347.5 -141q-87 0 -164.5 32.5
t-136.5 92.5v-102h-369z" />
    <glyph glyph-name="c" unicode="c" horiz-adv-x="1057" 
d="M1004 215q-91 -118 -204 -179t-243 -61q-218 0 -362 143t-144 359q0 217 135.5 359.5t337.5 142.5q76 0 140 -23t114 -69v65h187v-319h-152q-63 79 -124.5 111t-147.5 32q-115 0 -183.5 -81t-68.5 -218q0 -126 76 -210.5t190 -84.5q89 0 157 35.5t144 122.5z" />
    <glyph glyph-name="d" unicode="d" horiz-adv-x="1255" 
d="M705 1475h368v-1276h133v-199h-370v102q-60 -61 -136.5 -93t-162.5 -32q-212 0 -348 141t-136 359q0 212 138 356t346 144q85 0 159 -31.5t140 -95.5v426h-131v199zM295 475q0 -123 78.5 -204t195.5 -81q119 0 197 80.5t78 204.5t-79 205.5t-196 81.5q-116 0 -195 -81.5
t-79 -205.5z" />
    <glyph glyph-name="e" unicode="e" horiz-adv-x="1141" 
d="M297 573h553q-29 99 -98.5 150t-173.5 51q-108 0 -182.5 -53t-98.5 -148zM1059 281q-42 -146 -167 -226t-312 -80q-237 0 -382 138t-145 362q0 219 147.5 359.5t377.5 140.5q229 0 368 -148.5t139 -396.5v-24h-788q12 -110 87 -169t202 -59q79 0 142 27t97 76h234z" />
    <glyph glyph-name="f" unicode="f" horiz-adv-x="668" 
d="M604 0h-559v199h158v555h-158v198h158v129q0 251 69 322.5t279 71.5q22 0 36 -0.5t29 -2.5v-188h-53q-73 0 -99 -25.5t-26 -123.5v-66v-117h178v-198h-178v-555h166v-199z" />
    <glyph glyph-name="g" unicode="g" horiz-adv-x="1262" 
d="M295 475q0 -123 78.5 -204t195.5 -81q119 0 197 80.5t78 204.5t-79 205.5t-196 81.5q-116 0 -195 -81.5t-79 -205.5zM1073 166v-78q0 -138 -13 -205t-44 -114q-61 -95 -169.5 -145t-254.5 -50q-131 0 -239.5 26t-198.5 78v230q107 -65 199 -97t169 -32q161 0 237.5 56.5
t76.5 176.5v90q-60 -61 -136.5 -93t-162.5 -32q-212 0 -348 141t-136 359q0 212 138 356t346 144q85 0 159 -31.5t140 -95.5v102h370v-198h-133v-588z" />
    <glyph glyph-name="h" unicode="h" horiz-adv-x="1217" 
d="M180 1276h-133v199h371v-652q84 80 165.5 117t172.5 37q150 0 222.5 -81t72.5 -251v-446h133v-199h-504v199h133v393q0 77 -39 119.5t-110 42.5q-63 0 -124 -35.5t-122 -108.5v-411h133v-199h-504v199h133v1077z" />
    <glyph glyph-name="i" unicode="i" horiz-adv-x="598" 
d="M113 1108v252h315v-252h-315zM428 199h137v-199h-520v199h145v555h-143v198h381v-753z" />
    <glyph glyph-name="j" unicode="j" horiz-adv-x="569" 
d="M428 66q0 -329 -83.5 -407.5t-309.5 -82.5v211q92 13 123.5 50.5t31.5 176.5v37v703h-143v198h381v-886zM113 1108v252h315v-252h-315z" />
    <glyph glyph-name="k" unicode="k" horiz-adv-x="1139" 
d="M186 1276h-143v199h379v-959l303 238h-113v198h488v-198h-113l-315 -258l325 -297h103v-199h-475v199h84l-287 266v-266h115v-199h-496v199h145v1077z" />
    <glyph glyph-name="l" unicode="l" horiz-adv-x="592" 
d="M186 1276h-143v199h379v-1276h139v-199h-520v199h145v1077z" />
    <glyph glyph-name="m" unicode="m" horiz-adv-x="1792" 
d="M428 823q66 74 145.5 114t157.5 40q98 0 165.5 -43t102.5 -127q68 87 147 128.5t179 41.5q156 0 229.5 -80.5t73.5 -251.5v-446h133v-199h-501v199h137v338q0 124 -36.5 168.5t-125.5 44.5q-60 0 -112 -26t-99 -79v-446h135v-199h-500v199h136v338q0 127 -36.5 170
t-127.5 43q-62 0 -114.5 -35t-94.5 -105v-411h137v-199h-502v199h133v555h-133v198h371v-129z" />
    <glyph glyph-name="n" unicode="n" horiz-adv-x="1225" 
d="M428 823q85 81 165.5 117.5t170.5 36.5q151 0 224 -81.5t73 -250.5v-446h133v-199h-504v199h133v393q0 76 -38.5 117t-110.5 41q-65 0 -125.5 -34.5t-120.5 -105.5v-411h133v-199h-504v199h133v555h-133v198h371v-129z" />
    <glyph glyph-name="o" unicode="o" horiz-adv-x="1157" 
d="M297 477q0 -125 81 -209t200 -84t199.5 83.5t80.5 209.5q0 129 -80 212t-200 83t-200.5 -83.5t-80.5 -211.5zM51 477q0 212 151 356t376 144t375.5 -144t150.5 -356q0 -211 -150 -354t-376 -143q-225 0 -376 143t-151 354z" />
    <glyph glyph-name="p" unicode="p" horiz-adv-x="1264" 
d="M420 475q0 -123 78.5 -204t195.5 -81q118 0 196.5 80.5t78.5 204.5t-79 205.5t-196 81.5t-195.5 -81.5t-78.5 -205.5zM57 -426v199h133v981h-133v198h371v-102q66 64 139.5 95.5t159.5 31.5q207 0 345 -144t138 -356q0 -219 -135 -359.5t-348 -140.5q-81 0 -157 29
t-142 84v-317h141v-199h-512z" />
    <glyph glyph-name="q" unicode="q" horiz-adv-x="1264" 
d="M1206 -426h-512v199h142v317q-67 -55 -142.5 -84t-156.5 -29q-213 0 -348.5 140.5t-135.5 359.5q0 212 138 356t346 144q85 0 159 -31.5t140 -95.5v102h370v-198h-133v-981h133v-199zM844 475q0 124 -79 205.5t-196 81.5q-116 0 -195 -81.5t-79 -205.5t78 -204.5
t196 -80.5t196.5 81t78.5 204z" />
    <glyph glyph-name="r" unicode="r" horiz-adv-x="825" 
d="M428 815l12 4q20 72 65 111t109 39q73 0 120.5 -48t47.5 -122t-47 -121t-123 -47q-57 0 -100.5 33.5t-69.5 97.5l-14 -6v-557h133v-199h-504v199h133v555h-133v198h371v-137z" />
    <glyph glyph-name="s" unicode="s" horiz-adv-x="1053" 
d="M289 0h-178v332h186q36 -88 110 -134t181 -46q64 0 103.5 31t39.5 81q0 42 -30 64.5t-136 42.5l-157 26q-157 28 -232.5 98.5t-75.5 188.5q0 133 94.5 213t251.5 80q86 0 153.5 -23t113.5 -67l2 65h178v-301h-193q-25 76 -83 116t-142 40q-68 0 -108.5 -28t-40.5 -72
q0 -83 184 -117q9 -1 14 -2l109 -19q170 -31 251 -103t81 -192q0 -130 -100.5 -214.5t-262.5 -84.5q-82 0 -158.5 23.5t-152.5 71.5z" />
    <glyph glyph-name="t" unicode="t" horiz-adv-x="692" 
d="M426 365q0 -126 20 -153.5t121 -27.5q6 0 23 3q7 1 10 1v-188q-37 -4 -76.5 -6t-83.5 -2q-152 0 -201 45t-49 209v508h-165v198h165v336h236v-336h174v-198h-174v-389z" />
    <glyph glyph-name="u" unicode="u" horiz-adv-x="1219" 
d="M799 129q-85 -80 -166.5 -117t-171.5 -37q-151 0 -223 81.5t-72 250.5v447h-133v198h370v-592q0 -76 39 -116.5t111 -40.5q64 0 125 34t121 105v412h-133v198h370v-753h131v-199h-368v129z" />
    <glyph glyph-name="v" unicode="v" horiz-adv-x="1104" 
d="M455 0l-334 754h-111v198h459v-198h-92l180 -455l193 455h-97v198h441v-198h-113l-334 -754h-192z" />
    <glyph glyph-name="w" unicode="w" horiz-adv-x="1626" 
d="M590 0h-158l-311 754h-113v198h445v-198h-105l174 -447l189 447h-113v198h446v-198h-114l182 -447l184 447h-125v198h449v-198h-107l-319 -754h-164l-217 522z" />
    <glyph glyph-name="x" unicode="x" horiz-adv-x="1139" 
d="M442 188v-188h-395v199h139l254 272l-280 283h-113v198h379v-164l147 -176l136 176v164h376v-198h-137l-241 -271l286 -284h92v-199h-374v188l-142 154z" />
    <glyph glyph-name="y" unicode="y" horiz-adv-x="1161" 
d="M711 -426h-535v199h150l125 252l-318 729h-119v198h486v-198h-127l205 -490l213 490h-123v198h477v-198h-117l-467 -981h150v-199z" />
    <glyph glyph-name="z" unicode="z" horiz-adv-x="1008" 
d="M934 0h-860v199l544 555h-311v-127h-205v325h809v-198l-542 -555h362v141h203v-340z" />
    <glyph glyph-name="braceleft" unicode="{" 
d="M874 1477v-179q-8 0 -24 1t-23 1q-109 0 -147.5 -41.5t-38.5 -173.5v-241q0 -155 -44 -220.5t-159 -93.5q114 -27 158.5 -92.5t44.5 -220.5v-240q0 -132 39.5 -174.5t148.5 -42.5q7 0 22 1t23 1v-176h-63q-102 0 -165.5 12t-106.5 37q-57 34 -80 96t-23 203v248
q0 144 -52.5 203t-178.5 59q-7 0 -21.5 -1t-21.5 -1v179q7 0 21.5 -1.5t21.5 -1.5q126 0 178.5 59t52.5 202v247q0 145 23 206.5t80 94.5q44 27 109 38.5t181 11.5h45z" />
    <glyph glyph-name="bar" unicode="|" 
d="M424 1565h178v-2048h-178v2048z" />
    <glyph glyph-name="braceright" unicode="}" 
d="M152 1477h45q115 0 179.5 -11.5t108.5 -38.5q57 -33 80 -95t23 -206v-247q0 -144 52 -202.5t179 -58.5q6 0 21 1.5t22 1.5v-179q-7 0 -21.5 1t-21.5 1q-126 0 -178.5 -59t-52.5 -203v-248q0 -143 -23 -204t-80 -95q-43 -26 -108 -37.5t-180 -11.5h-45v176q8 0 23 -1
t22 -1q109 0 147.5 42t38.5 175v240q0 153 45 219t160 94q-115 28 -160 93.5t-45 220.5v241q0 132 -38 173.5t-146 41.5q-7 0 -23 -1t-24 -1v179z" />
    <glyph glyph-name="asciitilde" unicode="~" horiz-adv-x="1706" 
d="M1530 784v-184q-103 -71 -197.5 -106t-183.5 -35q-44 0 -92.5 8.5t-98.5 26.5q-25 8 -76 26q-212 74 -319 74q-82 0 -174 -38t-211 -122v187q106 72 202 107.5t185 35.5q62 0 125.5 -12t168.5 -48q13 -4 42 -15q164 -58 250 -58q85 0 177 37t202 116z" />
    <glyph glyph-name="Adieresis" unicode="&#xc4;" horiz-adv-x="1403" 
d="M518 678h334l-166 500zM365 205h157v-205h-528v205h117l372 1065h-159v205h755v-205h-170l365 -1065h135v-205h-559v205h158l-90 268h-463zM770 1661v229h204v-229h-204zM430 1661v229h204v-229h-204z" />
    <glyph glyph-name="Aring" unicode="&#xc5;" horiz-adv-x="1403" 
d="M610 1751q0 -38 27 -65t65 -27q39 0 67 27t28 65t-28 66t-67 28q-38 0 -65 -27.5t-27 -66.5zM481 1751q0 92 64.5 156.5t156.5 64.5q91 0 155.5 -64.5t64.5 -156.5q0 -91 -64.5 -155t-155.5 -64q-92 0 -156.5 63.5t-64.5 155.5zM518 678h336l-168 500zM365 205h157v-205
h-528v205h117l372 1065h-159v205h755v-205h-159l354 -1065h135v-205h-559v205h158l-93 268h-460z" />
    <glyph glyph-name="Ccedilla" unicode="&#xc7;" horiz-adv-x="1554" 
d="M1212 983q-44 132 -142 203t-236 71q-222 0 -358 -143t-136 -377q0 -233 136 -375.5t358 -142.5q138 0 232.5 62t162.5 198h256q-60 -233 -236 -370.5t-415 -137.5q-333 0 -550.5 218t-217.5 548q0 337 212 551.5t539 214.5q131 0 234 -39t166 -112l-5 123h220v-492h-220
zM592 -434v119q82 -22 146.5 -32.5t109.5 -10.5q53 0 80.5 19t27.5 56q0 42 -34 61t-109 19q-6 0 -20 -1t-21 -1v205h90v-94h16q120 0 178 -47.5t58 -145.5q0 -91 -65 -140.5t-185 -49.5q-54 0 -124 11t-148 32z" />
    <glyph glyph-name="Eacute" unicode="&#xc9;" horiz-adv-x="1280" 
d="M51 0v205h158v1065h-158v205h1123v-402h-230v195h-471v-369h395v-221h-395v-473h463v231h238v-436h-1123zM494 1613l204 349h222l-295 -349h-131z" />
    <glyph glyph-name="Ntilde" unicode="&#xd1;" horiz-adv-x="1489" 
d="M461 205h155v-205h-565v205h158v1065h-158v205h451l526 -963v758h-158v205h566v-205h-158v-1299h-223l-594 1116v-882zM1046 1898q-24 -118 -71.5 -172.5t-127.5 -54.5q-16 0 -33.5 2.5t-35.5 7.5l-85 25q-19 5 -34.5 7.5t-28.5 2.5q-33 0 -54 -16.5t-32 -51.5h-100
q20 111 67.5 165t124.5 54q23 0 44 -3t40 -9l88 -24q20 -5 31 -7t21 -2q31 0 54 20.5t32 55.5h100z" />
    <glyph glyph-name="Odieresis" unicode="&#xd6;" horiz-adv-x="1669" 
d="M61 737q0 326 220.5 546t552.5 220q153 0 282.5 -46.5t233.5 -139.5q126 -113 192 -260.5t66 -319.5q0 -149 -52.5 -283.5t-150.5 -240.5q-111 -120 -255 -181t-316 -61q-330 0 -551.5 221t-221.5 545zM342 737q0 -223 140.5 -369.5t351.5 -146.5t352 146t141 370
t-141.5 370t-351.5 146q-209 0 -350.5 -146.5t-141.5 -369.5zM904 1661v229h204v-229h-204zM564 1661v229h204v-229h-204z" />
    <glyph glyph-name="Udieresis" unicode="&#xdc;" horiz-adv-x="1522" 
d="M500 537q0 -175 60.5 -245.5t201.5 -70.5q140 0 200 71.5t60 244.5v733h-156v205h578v-205h-156v-703q0 -160 -18 -242.5t-60 -148.5q-64 -102 -176 -153.5t-272 -51.5q-146 0 -253.5 43t-176.5 129q-53 66 -76 159.5t-23 264.5v703h-155v205h577v-205h-155v-733z
M830 1661v229h204v-229h-204zM490 1661v229h204v-229h-204z" />
    <glyph glyph-name="aacute" unicode="&#xe1;" horiz-adv-x="1270" 
d="M1073 199h133v-199h-370v102q-60 -61 -136.5 -93t-162.5 -32q-212 0 -348 141t-136 359q0 212 138 356t346 144q85 0 159 -31.5t140 -95.5v102h370v-198h-133v-555zM295 475q0 -126 76.5 -205.5t197.5 -79.5q118 0 196.5 80.5t78.5 204.5t-79 205.5t-196 81.5
q-121 0 -197.5 -80t-76.5 -207zM527 1087l204 349h222l-295 -349h-131z" />
    <glyph glyph-name="agrave" unicode="&#xe0;" horiz-adv-x="1270" 
d="M1073 199h133v-199h-370v102q-60 -61 -136.5 -93t-162.5 -32q-212 0 -348 141t-136 359q0 212 138 356t346 144q85 0 159 -31.5t140 -95.5v102h370v-198h-133v-555zM295 475q0 -126 76.5 -205.5t197.5 -79.5q118 0 196.5 80.5t78.5 204.5t-79 205.5t-196 81.5
q-121 0 -197.5 -80t-76.5 -207zM821 1087h-131l-295 349h222z" />
    <glyph glyph-name="acircumflex" unicode="&#xe2;" horiz-adv-x="1270" 
d="M1073 199h133v-199h-370v102q-60 -61 -136.5 -93t-162.5 -32q-212 0 -348 141t-136 359q0 212 138 356t346 144q85 0 159 -31.5t140 -95.5v102h370v-198h-133v-555zM295 475q0 -126 76.5 -205.5t197.5 -79.5q118 0 196.5 80.5t78.5 204.5t-79 205.5t-196 81.5
q-121 0 -197.5 -80t-76.5 -207zM377 1085l188 351h218l188 -351h-131l-166 211l-168 -211h-129z" />
    <glyph glyph-name="adieresis" unicode="&#xe4;" horiz-adv-x="1270" 
d="M1073 199h133v-199h-370v102q-60 -61 -136.5 -93t-162.5 -32q-212 0 -348 141t-136 359q0 212 138 356t346 144q85 0 159 -31.5t140 -95.5v102h370v-198h-133v-555zM295 475q0 -126 76.5 -205.5t197.5 -79.5q118 0 196.5 80.5t78.5 204.5t-79 205.5t-196 81.5
q-121 0 -197.5 -80t-76.5 -207zM742 1135v229h204v-229h-204zM402 1135v229h204v-229h-204z" />
    <glyph glyph-name="atilde" unicode="&#xe3;" horiz-adv-x="1270" 
d="M1073 199h133v-199h-370v102q-60 -61 -136.5 -93t-162.5 -32q-212 0 -348 141t-136 359q0 212 138 356t346 144q85 0 159 -31.5t140 -95.5v102h370v-198h-133v-555zM295 475q0 -126 76.5 -205.5t197.5 -79.5q118 0 196.5 80.5t78.5 204.5t-79 205.5t-196 81.5
q-121 0 -197.5 -80t-76.5 -207zM975 1372q-24 -118 -71.5 -172.5t-127.5 -54.5q-16 0 -33.5 2.5t-35.5 7.5l-85 25q-19 5 -34.5 7.5t-28.5 2.5q-33 0 -54 -16.5t-32 -51.5h-100q20 111 67.5 165t124.5 54q23 0 44 -3t40 -9l88 -24q20 -5 31 -7t21 -2q31 0 54 20.5t32 55.5
h100z" />
    <glyph glyph-name="aring" unicode="&#xe5;" horiz-adv-x="1270" 
d="M522 1253q0 -38 27 -65t65 -27q39 0 67 27t28 65q0 39 -28 67t-67 28q-38 0 -65 -28t-27 -67zM395 1253q0 93 64 157.5t155 64.5q92 0 157 -65t65 -157q0 -90 -65.5 -154.5t-156.5 -64.5q-92 0 -155.5 63.5t-63.5 155.5zM295 475q0 -126 76.5 -205.5t197.5 -79.5
q118 0 196.5 80.5t78.5 204.5t-79 205.5t-196 81.5q-121 0 -197.5 -80t-76.5 -207zM1073 199h133v-199h-370v102q-60 -61 -136.5 -93t-162.5 -32q-212 0 -348 141t-136 359q0 212 138 356t346 144q85 0 159 -31.5t140 -95.5v102h370v-198h-133v-555z" />
    <glyph glyph-name="ccedilla" unicode="&#xe7;" horiz-adv-x="1057" 
d="M1004 215q-91 -118 -204 -179t-243 -61q-218 0 -362 143t-144 359q0 217 135.5 359.5t337.5 142.5q76 0 140 -23t114 -69v65h187v-319h-152q-63 79 -124.5 111t-147.5 32q-115 0 -183.5 -81t-68.5 -218q0 -126 76 -210.5t190 -84.5q89 0 157 35.5t144 122.5zM320 -434
v119q82 -22 146.5 -32.5t109.5 -10.5q53 0 80.5 19t27.5 56q0 42 -34 61t-109 19q-6 0 -20 -1t-21 -1v205h90v-94h16q120 0 178 -47.5t58 -145.5q0 -91 -65 -140.5t-185 -49.5q-54 0 -124 11t-148 32z" />
    <glyph glyph-name="eacute" unicode="&#xe9;" horiz-adv-x="1141" 
d="M297 573h553q-29 99 -98.5 150t-173.5 51q-108 0 -182.5 -53t-98.5 -148zM1059 281q-42 -146 -167 -226t-312 -80q-237 0 -382 138t-145 362q0 219 147.5 359.5t377.5 140.5q229 0 368 -148.5t139 -396.5v-24h-788q12 -110 87 -169t202 -59q79 0 142 27t97 76h234z
M437 1087l204 349h222l-295 -349h-131z" />
    <glyph glyph-name="egrave" unicode="&#xe8;" horiz-adv-x="1141" 
d="M297 573h553q-29 99 -98.5 150t-173.5 51q-108 0 -182.5 -53t-98.5 -148zM1059 281q-42 -146 -167 -226t-312 -80q-237 0 -382 138t-145 362q0 219 147.5 359.5t377.5 140.5q229 0 368 -148.5t139 -396.5v-24h-788q12 -110 87 -169t202 -59q79 0 142 27t97 76h234z
M731 1087h-131l-295 349h222z" />
    <glyph glyph-name="ecircumflex" unicode="&#xea;" horiz-adv-x="1141" 
d="M297 573h553q-29 99 -98.5 150t-173.5 51q-108 0 -182.5 -53t-98.5 -148zM1059 281q-42 -146 -167 -226t-312 -80q-237 0 -382 138t-145 362q0 219 147.5 359.5t377.5 140.5q229 0 368 -148.5t139 -396.5v-24h-788q12 -110 87 -169t202 -59q79 0 142 27t97 76h234z
M287 1085l188 351h218l188 -351h-131l-166 211l-168 -211h-129z" />
    <glyph glyph-name="edieresis" unicode="&#xeb;" horiz-adv-x="1141" 
d="M297 573h553q-29 99 -98.5 150t-173.5 51q-108 0 -182.5 -53t-98.5 -148zM1059 281q-42 -146 -167 -226t-312 -80q-237 0 -382 138t-145 362q0 219 147.5 359.5t377.5 140.5q229 0 368 -148.5t139 -396.5v-24h-788q12 -110 87 -169t202 -59q79 0 142 27t97 76h234z
M652 1135v229h204v-229h-204zM312 1135v229h204v-229h-204z" />
    <glyph glyph-name="iacute" unicode="&#xed;" horiz-adv-x="598" 
d="M428 199h137v-199h-520v199h145v555h-143v198h381v-753zM121 1087l204 349h222l-295 -349h-131z" />
    <glyph glyph-name="igrave" unicode="&#xec;" horiz-adv-x="598" 
d="M428 199h137v-199h-520v199h145v555h-143v198h381v-753zM415 1087h-131l-295 349h222z" />
    <glyph glyph-name="icircumflex" unicode="&#xee;" horiz-adv-x="598" 
d="M428 199h137v-199h-520v199h145v555h-143v198h381v-753zM-29 1085l188 351h218l188 -351h-131l-166 211l-168 -211h-129z" />
    <glyph glyph-name="idieresis" unicode="&#xef;" horiz-adv-x="598" 
d="M428 199h137v-199h-520v199h145v555h-143v198h381v-753zM336 1135v229h204v-229h-204zM-4 1135v229h204v-229h-204z" />
    <glyph glyph-name="ntilde" unicode="&#xf1;" horiz-adv-x="1225" 
d="M428 823q85 81 165.5 117.5t170.5 36.5q151 0 224 -81.5t73 -250.5v-446h133v-199h-504v199h133v393q0 76 -38.5 117t-110.5 41q-65 0 -125.5 -34.5t-120.5 -105.5v-411h133v-199h-504v199h133v555h-133v198h371v-129zM934 1372q-24 -118 -71.5 -172.5t-127.5 -54.5
q-16 0 -33.5 2.5t-35.5 7.5l-85 25q-19 5 -34.5 7.5t-28.5 2.5q-33 0 -54 -16.5t-32 -51.5h-100q20 111 67.5 165t124.5 54q23 0 44 -3t40 -9l88 -24q20 -5 31 -7t21 -2q31 0 54 20.5t32 55.5h100z" />
    <glyph glyph-name="oacute" unicode="&#xf3;" horiz-adv-x="1157" 
d="M297 477q0 -125 81 -209t200 -84t199.5 83.5t80.5 209.5q0 129 -80 212t-200 83t-200.5 -83.5t-80.5 -211.5zM51 477q0 212 151 356t376 144t375.5 -144t150.5 -356q0 -211 -150 -354t-376 -143q-225 0 -376 143t-151 354zM433 1087l204 349h222l-295 -349h-131z" />
    <glyph glyph-name="ograve" unicode="&#xf2;" horiz-adv-x="1157" 
d="M297 477q0 -125 81 -209t200 -84t199.5 83.5t80.5 209.5q0 129 -80 212t-200 83t-200.5 -83.5t-80.5 -211.5zM51 477q0 212 151 356t376 144t375.5 -144t150.5 -356q0 -211 -150 -354t-376 -143q-225 0 -376 143t-151 354zM727 1087h-131l-295 349h222z" />
    <glyph glyph-name="ocircumflex" unicode="&#xf4;" horiz-adv-x="1157" 
d="M297 477q0 -125 81 -209t200 -84t199.5 83.5t80.5 209.5q0 129 -80 212t-200 83t-200.5 -83.5t-80.5 -211.5zM51 477q0 212 151 356t376 144t375.5 -144t150.5 -356q0 -211 -150 -354t-376 -143q-225 0 -376 143t-151 354zM283 1085l188 351h218l188 -351h-131l-166 211
l-168 -211h-129z" />
    <glyph glyph-name="odieresis" unicode="&#xf6;" horiz-adv-x="1157" 
d="M297 477q0 -125 81 -209t200 -84t199.5 83.5t80.5 209.5q0 129 -80 212t-200 83t-200.5 -83.5t-80.5 -211.5zM51 477q0 212 151 356t376 144t375.5 -144t150.5 -356q0 -211 -150 -354t-376 -143q-225 0 -376 143t-151 354zM648 1135v229h204v-229h-204zM308 1135v229h204
v-229h-204z" />
    <glyph glyph-name="otilde" unicode="&#xf5;" horiz-adv-x="1157" 
d="M297 477q0 -125 81 -209t200 -84t199.5 83.5t80.5 209.5q0 129 -80 212t-200 83t-200.5 -83.5t-80.5 -211.5zM51 477q0 212 151 356t376 144t375.5 -144t150.5 -356q0 -211 -150 -354t-376 -143q-225 0 -376 143t-151 354zM881 1372q-24 -118 -71.5 -172.5t-127.5 -54.5
q-16 0 -33.5 2.5t-35.5 7.5l-85 25q-19 5 -34.5 7.5t-28.5 2.5q-33 0 -54 -16.5t-32 -51.5h-100q20 111 67.5 165t124.5 54q23 0 44 -3t40 -9l88 -24q20 -5 31 -7t21 -2q31 0 54 20.5t32 55.5h100z" />
    <glyph glyph-name="uacute" unicode="&#xfa;" horiz-adv-x="1219" 
d="M799 129q-85 -80 -166.5 -117t-171.5 -37q-151 0 -223 81.5t-72 250.5v447h-133v198h370v-592q0 -76 39 -116.5t111 -40.5q64 0 125 34t121 105v412h-133v198h370v-753h131v-199h-368v129zM439 1087l204 349h222l-295 -349h-131z" />
    <glyph glyph-name="ugrave" unicode="&#xf9;" horiz-adv-x="1219" 
d="M799 129q-85 -80 -166.5 -117t-171.5 -37q-151 0 -223 81.5t-72 250.5v447h-133v198h370v-592q0 -76 39 -116.5t111 -40.5q64 0 125 34t121 105v412h-133v198h370v-753h131v-199h-368v129zM733 1087h-131l-295 349h222z" />
    <glyph glyph-name="ucircumflex" unicode="&#xfb;" horiz-adv-x="1219" 
d="M799 129q-85 -80 -166.5 -117t-171.5 -37q-151 0 -223 81.5t-72 250.5v447h-133v198h370v-592q0 -76 39 -116.5t111 -40.5q64 0 125 34t121 105v412h-133v198h370v-753h131v-199h-368v129zM289 1085l188 351h218l188 -351h-131l-166 211l-168 -211h-129z" />
    <glyph glyph-name="udieresis" unicode="&#xfc;" horiz-adv-x="1219" 
d="M799 129q-85 -80 -166.5 -117t-171.5 -37q-151 0 -223 81.5t-72 250.5v447h-133v198h370v-592q0 -76 39 -116.5t111 -40.5q64 0 125 34t121 105v412h-133v198h370v-753h131v-199h-368v129zM654 1135v229h204v-229h-204zM314 1135v229h204v-229h-204z" />
    <glyph glyph-name="dagger" unicode="&#x2020;" horiz-adv-x="1139" 
d="M463 -240v1014h-176v-102h-185v397h185v-102h176v317h-103v191h418v-191h-102v-317h172v102h188v-397h-188v102h-172v-1014h-213z" />
    <glyph glyph-name="degree" unicode="&#xb0;" horiz-adv-x="674" 
d="M338 1350q-77 0 -131.5 -54t-54.5 -131q0 -76 54.5 -131t131.5 -55t130.5 54.5t53.5 131.5t-53.5 131t-130.5 54zM338 1460q121 0 208 -87t87 -210q0 -121 -87 -208t-210 -87t-208 85.5t-85 209.5q0 125 86 211t209 86z" />
    <glyph glyph-name="cent" unicode="&#xa2;" horiz-adv-x="1096" 
d="M432 252l184 522q-7 1 -14.5 1.5t-13.5 0.5q-105 0 -173.5 -80t-68.5 -207q0 -71 21 -129t65 -108zM877 334l141 -127q-92 -112 -201 -172t-219 -60q-24 0 -58.5 5t-76.5 14l-88 -262h-121l108 303q-124 74 -188.5 187t-64.5 257q0 214 133 356t333 142q27 0 53 -3t52 -9
l76 223h114l-90 -270q27 -17 49 -38t41 -48l-8 120h137v-327h-161q-20 41 -48 69t-69 47l-195 -553q17 -4 34.5 -6t35.5 -2q76 0 142.5 36.5t138.5 117.5z" />
    <glyph glyph-name="sterling" unicode="&#xa3;" horiz-adv-x="1096" 
d="M49 -26v253q125 8 186.5 73.5t61.5 191.5q0 32 -6.5 67t-18.5 70h-204v190h165q-21 78 -32 142.5t-11 113.5q0 182 112 286.5t306 104.5q196 0 299 -104.5t103 -304.5q0 -20 -0.5 -30.5t-1.5 -20.5h-230v30q0 114 -40.5 164.5t-131.5 50.5q-76 0 -121 -47.5t-45 -128.5
q0 -31 12.5 -88.5t43.5 -167.5h247v-190h-218q5 -33 7 -58t3 -49q0 -63 -16.5 -125.5t-51.5 -132.5q44 -29 89 -44t89 -15q89 0 130.5 45t41.5 141v6h238l4 -47q0 -5 1 -14t1 -14q0 -143 -103.5 -247t-246.5 -104q-86 0 -172.5 34.5t-169.5 100.5q-60 -69 -129.5 -102
t-155.5 -33q-1 0 -3 1q-10 3 -18 3q-5 0 -8 -0.5t-6 -0.5z" />
    <glyph glyph-name="section" unicode="&#xa7;" 
d="M352 664l178 -191q53 -54 87.5 -74t70.5 -20q43 0 67.5 22.5t24.5 61.5q0 24 -20 57t-62 78l-178 190q-52 55 -86.5 75t-71.5 20q-42 0 -66 -22.5t-24 -61.5q0 -26 19.5 -58.5t60.5 -76.5zM162 92h209v-127h114q50 0 77.5 20.5t27.5 57.5q0 27 -19.5 59.5t-60.5 75.5
l-320 330q-71 74 -108 146.5t-37 138.5q0 101 72 170t178 69q24 0 37 -1t24 -3q-61 54 -93 113t-32 121q0 105 81.5 159t240.5 54h293v-318h-209v131h-102q-44 0 -67.5 -16.5t-23.5 -46.5q0 -24 20.5 -57.5t59.5 -73.5l312 -320q87 -91 122 -160t35 -145q0 -112 -65 -181
t-172 -69q-12 0 -23 0.5t-22 1.5q60 -62 86 -112.5t26 -104.5q0 -116 -80 -175.5t-235 -59.5h-346v323z" />
    <glyph glyph-name="bullet" unicode="&#x2022;" horiz-adv-x="1208" 
d="M307 762q0 123 87 209t210 86q122 0 208.5 -86.5t86.5 -208.5t-87.5 -209.5t-209.5 -87.5q-123 0 -209 87t-86 210z" />
    <glyph glyph-name="paragraph" unicode="&#xb6;" 
d="M969 1479v-99h-117v-1380h-129v1380h-168v-1380h-131v784q-168 6 -268.5 101t-100.5 245q0 158 107 253.5t284 95.5h523z" />
    <glyph glyph-name="germandbls" unicode="&#xdf;" horiz-adv-x="1208" 
d="M49 0v199h131v774q0 284 100.5 402t331.5 118q197 0 304.5 -94.5t107.5 -268.5q0 -96 -46.5 -164.5t-143.5 -115.5q158 -49 235.5 -157.5t77.5 -278.5q0 -198 -97 -317.5t-255 -119.5q-43 0 -83.5 8t-78.5 23l33 184q21 -3 36.5 -4.5t26.5 -1.5q85 0 129.5 62.5
t44.5 181.5q0 154 -66.5 230.5t-199.5 76.5q-16 0 -25 -0.5t-16 -0.5v177q97 11 149 66t52 147q0 81 -50.5 131t-134.5 50q-107 0 -150.5 -65.5t-43.5 -260.5v-782h112v-199h-481z" />
    <glyph glyph-name="registered" unicode="&#xae;" horiz-adv-x="1706" 
d="M729 1047v-261h117q100 0 146 30.5t46 96.5q0 69 -48 101.5t-152 32.5h-109zM551 1159h319q173 0 262 -57t89 -168q0 -91 -48 -150.5t-137 -78.5l185 -375h-199l-164 346h-129v-346h-178v829zM854 1362q-129 0 -240 -45.5t-200 -134.5q-92 -94 -141.5 -210t-49.5 -241
t47 -238.5t136 -203.5q90 -91 204 -140t234 -49q130 0 246.5 47t209.5 138q89 86 137 198.5t48 237.5q0 133 -45.5 247.5t-134.5 205.5q-93 92 -207.5 140t-243.5 48zM852 1470q153 0 288.5 -56t241.5 -165q103 -104 157 -236.5t54 -281.5q0 -153 -55.5 -287t-161.5 -237
q-108 -105 -243 -161t-281 -56q-147 0 -282.5 57.5t-241.5 165.5q-105 106 -160 239t-55 279q0 147 57.5 284t165.5 245q104 104 234.5 157t281.5 53z" />
    <glyph glyph-name="copyright" unicode="&#xa9;" horiz-adv-x="1706" 
d="M1206 903h-166q-10 74 -60 114t-130 40q-99 0 -155 -86.5t-56 -239.5q0 -152 57.5 -234.5t163.5 -82.5q80 0 129 43.5t60 124.5h165q-7 -135 -106.5 -217t-253.5 -82q-183 0 -290 119t-107 323q0 208 109.5 331.5t291.5 123.5q147 0 243 -77t105 -200zM854 1362
q-130 0 -243 -46.5t-201 -135.5q-90 -92 -138.5 -208t-48.5 -241q0 -126 48 -240t139 -204q90 -91 204.5 -139t239.5 -48t240 48.5t209 140.5q89 88 135.5 200.5t46.5 241.5t-47 243.5t-135 203.5q-91 90 -205 137t-244 47zM852 1470q152 0 286 -55t240 -162
q105 -105 160 -238.5t55 -283.5q0 -153 -54.5 -286t-158.5 -234q-108 -107 -244.5 -164t-283.5 -57q-146 0 -280 56.5t-240 162.5q-107 106 -163 240.5t-56 281.5q0 145 57 280.5t164 243.5q105 107 235.5 161t282.5 54z" />
    <glyph glyph-name="trademark" unicode="&#x2122;" horiz-adv-x="1706" 
d="M809 1460h170l141 -360l133 360h170v-542h-114v428l-160 -428h-59l-166 428v-428h-115v542zM225 1460h467v-94h-168v-448h-129v448h-170v94z" />
    <glyph glyph-name="acute" unicode="&#xb4;" 
d="M365 1087l204 349h222l-295 -349h-131z" />
    <glyph glyph-name="dieresis" unicode="&#xa8;" 
d="M580 1135v229h204v-229h-204zM240 1135v229h204v-229h-204z" />
    <glyph glyph-name="notequal" unicode="&#x2260;" horiz-adv-x="1706" 
d="M1204 1212l123 -100l-170 -215h295v-162h-403l-197 -250h600v-161h-707l-249 -314l-123 99l170 215h-289v161h393l199 250h-592v162h700z" />
    <glyph glyph-name="AE" unicode="&#xc6;" horiz-adv-x="2052" 
d="M1946 1475v-402h-230v195h-469v-369h393v-221h-393v-473h463v231h236v-436h-1121v205h156v268h-475l-133 -268h149v-205h-528v205h117l542 1065h-174v205h1467zM606 674h375v612h-72z" />
    <glyph glyph-name="Oslash" unicode="&#xd8;" horiz-adv-x="1669" 
d="M1090 1186q-57 34 -117 50.5t-127 16.5q-223 0 -368.5 -145t-145.5 -371q0 -99 30.5 -187t92.5 -167zM1251 1389l138 176h198l-215 -271q117 -115 176.5 -255.5t59.5 -301.5q0 -148 -52 -282t-151 -242q-111 -120 -255 -181t-316 -61q-117 0 -223 29.5t-195 85.5
l-142 -180h-196l215 274q-115 120 -173.5 259.5t-58.5 297.5q0 326 220.5 546t552.5 220q121 0 227 -29t190 -85zM578 289q63 -35 126 -51.5t130 -16.5q215 0 359 146.5t144 369.5q0 103 -32 192.5t-95 160.5z" />
    <glyph glyph-name="infinity" unicode="&#x221e;" horiz-adv-x="1706" 
d="M928 559q45 -81 109.5 -122.5t146.5 -41.5q97 0 159 61.5t62 157.5q0 95 -57 158.5t-142 63.5q-78 0 -142 -63.5t-136 -213.5zM780 662q-46 81 -111 123t-145 42q-98 0 -159.5 -62t-61.5 -159q0 -94 56.5 -156.5t140.5 -62.5q80 0 144.5 62.5t135.5 212.5zM862 471
q-71 -135 -148.5 -197.5t-172.5 -62.5q-137 0 -232.5 114.5t-95.5 284.5q0 179 85 289.5t220 110.5q93 0 168.5 -60t157.5 -200q71 139 149.5 200.5t184.5 61.5q127 0 222 -116t95 -284q0 -178 -84.5 -288.5t-220.5 -110.5q-92 0 -166.5 57.5t-161.5 200.5z" />
    <glyph glyph-name="plusminus" unicode="&#xb1;" horiz-adv-x="1706" 
d="M254 182h1198v-168h-1198v168zM768 1206h170v-334h514v-165h-514v-334h-170v334h-514v165h514v334z" />
    <glyph glyph-name="lessequal" unicode="&#x2264;" horiz-adv-x="1706" 
d="M260 178h1186v-166h-1186v166zM1446 1223v-176l-889 -287l889 -287v-176l-1186 389v145z" />
    <glyph glyph-name="greaterequal" unicode="&#x2265;" horiz-adv-x="1706" 
d="M260 178h1188v-166h-1188v166zM260 1223l1186 -392v-145l-1186 -389v176l891 287l-891 287v176z" />
    <glyph glyph-name="yen" unicode="&#xa5;" horiz-adv-x="1096" 
d="M854 969h227v-154h-307l-96 -162h403v-153h-409v-310h168v-190h-584v190h168v310h-410v153h406l-92 162h-314v154h224l-158 278h-96v191h477v-191h-115l205 -385l199 385h-115v191h481v-191h-104z" />
    <glyph glyph-name="mu" unicode="&#xb5;" horiz-adv-x="1208" 
d="M205 1081h229l-125 -635q-6 -29 -9 -55t-3 -49q0 -96 46.5 -146.5t135.5 -50.5q122 0 193.5 88.5t111.5 292.5l109 555h225l-145 -739q-10 -49 -14.5 -81.5t-4.5 -51.5q0 -36 15.5 -51t52.5 -15q13 0 20.5 0.5t13.5 1.5l-32 -159q-32 -9 -68.5 -13t-81.5 -4
q-74 0 -111.5 31.5t-37.5 93.5v15q-41 -67 -108 -104.5t-146 -37.5q-81 0 -137.5 26t-97.5 83l-99 -506h-229z" />
    <glyph glyph-name="partialdiff" unicode="&#x2202;" horiz-adv-x="1075" 
d="M758 639q17 103 26 186.5t9 147.5q0 120 -29 174.5t-92 54.5q-62 0 -147 -58.5t-122 -58.5t-64.5 26t-27.5 60q0 66 79 115t200 49q176 0 287.5 -159t111.5 -422q0 -338 -150 -558.5t-376 -220.5q-161 0 -266 112t-105 286q0 193 113 322.5t278 129.5q101 0 167.5 -45
t107.5 -141zM705 504q0 116 -41 178.5t-117 62.5q-105 0 -174.5 -131.5t-69.5 -337.5q0 -116 40.5 -177.5t117.5 -61.5q105 0 174.5 132.5t69.5 334.5z" />
    <glyph glyph-name="summation" unicode="&#x2211;" horiz-adv-x="1421" 
d="M61 1473h1280v-226h-921l647 -684l-661 -729h974v-227h-1347v160l712 786l-684 719v201z" />
    <glyph glyph-name="product" unicode="&#x220f;" horiz-adv-x="1579" 
d="M154 1473h1267v-1866h-286v1622h-695v-1622h-286v1866z" />
    <glyph glyph-name="pi" unicode="&#x3c0;" horiz-adv-x="1368" 
d="M360 889h-45q-54 0 -83.5 -31.5t-39.5 -99.5h-174q28 187 100 255t242 68h953l-39 -192h-193l-84 -437q-2 -13 -8 -41q-22 -113 -22 -147q0 -58 23 -82t77 -24q18 0 42.5 2.5t59.5 7.5l-34 -168q-29 -8 -61 -12t-75 -4q-139 0 -202.5 48t-63.5 154q0 77 52 344l1 6
l70 353h-268l-174 -889h-226z" />
    <glyph glyph-name="integral" unicode="&#x222b;" horiz-adv-x="1120" 
d="M324 -258q106 0 122 692l3 123q13 538 113 766.5t312 228.5q87 0 143 -45.5t56 -111.5q0 -61 -34 -95t-95 -34q-45 0 -74.5 22.5t-40.5 65.5q-4 17 -6 45q-3 40 -26 41q-101 0 -119 -615q-5 -161 -8 -249q-10 -280 -30.5 -427t-59.5 -245q-55 -136 -139.5 -205.5
t-194.5 -69.5q-87 0 -142 44t-55 112q0 63 35.5 97t99.5 34q39 0 66 -18t41 -54q6 -16 9 -59t24 -43z" />
    <glyph glyph-name="ordfeminine" unicode="&#xaa;" horiz-adv-x="952" 
d="M805 946h100v-139h-278v72q-45 -43 -102 -65.5t-122 -22.5q-158 0 -260 98.5t-102 251.5q0 149 103.5 249.5t258.5 100.5q63 0 119 -22t105 -66v72h278v-140h-100v-389zM221 1139q0 -88 57.5 -143.5t149.5 -55.5q87 0 146 56.5t59 142.5q0 87 -59 143.5t-146 56.5
q-93 0 -150 -55t-57 -145z" />
    <glyph glyph-name="ordmasculine" unicode="&#xba;" horiz-adv-x="868" 
d="M223 1141q0 -89 60.5 -147t150.5 -58q89 0 149 58.5t60 146.5q0 90 -59.5 148.5t-149.5 58.5t-150.5 -59t-60.5 -148zM39 1141q0 148 113 249t282 101t281 -100.5t112 -249.5q0 -148 -112 -248t-281 -100t-282 100t-113 248z" />
    <glyph glyph-name="Omega" unicode="&#x3a9;" horiz-adv-x="1569" 
d="M1194 213h305v-213h-602v229q160 94 242 244.5t82 351.5q0 210 -121 341.5t-316 131.5q-197 0 -316.5 -132.5t-119.5 -352.5q0 -191 84 -342t240 -242v-229h-602v213h305q-144 130 -211.5 274t-67.5 322q0 314 190.5 508t497.5 194q303 0 496 -192.5t193 -493.5
q0 -190 -65.5 -333t-213.5 -279z" />
    <glyph glyph-name="ae" unicode="&#xe6;" horiz-adv-x="1810" 
d="M825 129q-87 -79 -183.5 -116.5t-215.5 -37.5q-179 0 -288 87.5t-109 228.5q0 143 117 233t300 90q79 0 142 -19t110 -56q0 6 1 19t1 17q0 110 -54.5 160.5t-172.5 50.5q-79 0 -148 -13t-130 -40l-80 166q78 39 167.5 58.5t190.5 19.5q127 0 223.5 -36.5t165.5 -111.5
q75 77 159 111.5t191 34.5q231 0 370.5 -149t139.5 -396v-24h-790q12 -110 87 -169t202 -59q79 0 142 27t97 76h236q-42 -146 -168 -226t-314 -80q-128 0 -225.5 39t-163.5 115zM932 573h553q-29 99 -98.5 150t-174.5 51q-108 0 -182 -53t-98 -148zM248 303
q0 -64 59.5 -103.5t159.5 -39.5q95 0 154 39.5t59 101.5q0 61 -59.5 102t-151.5 41q-103 0 -162 -38t-59 -103z" />
    <glyph glyph-name="oslash" unicode="&#xf8;" horiz-adv-x="1139" 
d="M6 -147l205 262q-74 72 -113 165t-39 197q0 212 146 356t364 144q76 0 142 -17t120 -51l154 193h154l-211 -266q76 -78 113.5 -167.5t37.5 -191.5q0 -212 -145.5 -354.5t-364.5 -142.5q-78 0 -147 16.5t-115 46.5l-147 -190h-154zM356 293l346 438q-20 19 -54.5 29
t-78.5 10q-114 0 -190 -82.5t-76 -210.5q0 -48 13 -92.5t40 -91.5zM780 659l-346 -440q37 -17 70.5 -26t64.5 -9q114 0 189.5 83t75.5 210q0 52 -13 95.5t-41 86.5z" />
    <glyph glyph-name="questiondown" unicode="&#xbf;" horiz-adv-x="1219" 
d="M1047 408q-19 -210 -133 -321.5t-310 -111.5q-198 0 -316 110.5t-118 293.5q0 155 88 259.5t248 137.5v258h237v-436h-45q-139 0 -213.5 -59t-74.5 -168q0 -85 54 -135t146 -50t147 59t60 162zM633 1503q79 0 130.5 -51.5t51.5 -130.5q0 -78 -51.5 -129t-130.5 -51
q-77 0 -130.5 52.5t-53.5 127.5q0 76 53.5 129t130.5 53z" />
    <glyph glyph-name="exclamdown" unicode="&#xa1;" horiz-adv-x="707" 
d="M170 1317q0 79 51.5 129.5t130.5 50.5q77 0 131 -52.5t54 -127.5t-54 -127.5t-131 -52.5q-78 0 -130 51t-52 129zM455 1030l55 -1030h-313l55 1030h203z" />
    <glyph glyph-name="logicalnot" unicode="&#xac;" horiz-adv-x="1706" 
d="M254 862h1198v-502h-166v336h-1032v166z" />
    <glyph glyph-name="radical" unicode="&#x221a;" horiz-adv-x="1323" 
d="M1128 1675h197v-110h-108l-594 -1606h-82l-316 872l-131 -49l-28 95l305 108l247 -688z" />
    <glyph glyph-name="florin" unicode="&#x192;" horiz-adv-x="1096" 
d="M2 -184q40 -13 74 -19t63 -6q156 0 229 577l7 54l35 268h-211v191h239l29 180q32 203 123 303t244 100q53 0 105 -9.5t89 -27.5l-53 -169q-33 9 -59.5 13.5t-47.5 4.5q-80 0 -121.5 -55t-66.5 -213l-21 -127h201v-191h-229l-25 -196q-26 -209 -50.5 -354t-47.5 -228
q-47 -162 -136 -234.5t-241 -72.5q-46 0 -90.5 7.5t-87.5 22.5z" />
    <glyph glyph-name="approxequal" unicode="&#x2248;" horiz-adv-x="1706" 
d="M1530 592v-186q-107 -73 -200 -106.5t-189 -33.5q-89 0 -279.5 66.5t-298.5 66.5q-84 0 -173.5 -36t-211.5 -121v184q112 75 206.5 110t180.5 35q118 0 309 -67.5t277 -67.5q83 0 172 36.5t207 119.5zM1530 979v-184q-109 -75 -201.5 -108.5t-187.5 -33.5
q-88 0 -278.5 67.5t-299.5 67.5q-82 0 -170 -35t-215 -122v184q109 73 205 109.5t182 36.5q120 0 310 -68t268 -68q92 0 181 35t206 119z" />
    <glyph glyph-name="Delta" unicode="&#x2206;" horiz-adv-x="1395" 
d="M698 1196l-379 -983h756zM569 1473h256l574 -1473h-1403z" />
    <glyph glyph-name="guillemotleft" unicode="&#xab;" horiz-adv-x="1108" 
d="M1026 788l-262 -313l262 -311h-231l-258 311l258 313h231zM592 788l-262 -313l262 -311h-230l-258 311l258 313h230z" />
    <glyph glyph-name="guillemotright" unicode="&#xbb;" horiz-adv-x="1108" 
d="M514 788h231l259 -313l-259 -311h-231l262 311zM80 788h231l258 -313l-258 -311h-231l264 311z" />
    <glyph glyph-name="ellipsis" unicode="&#x2026;" horiz-adv-x="2048" 
d="M342 -25q-79 0 -131.5 52t-52.5 131q0 77 52.5 128.5t131.5 51.5q77 0 130 -52.5t53 -127.5q0 -76 -53 -129.5t-130 -53.5zM1024 -25q-79 0 -131.5 52t-52.5 131q0 77 52.5 128.5t131.5 51.5q77 0 130 -52.5t53 -127.5q0 -76 -53 -129.5t-130 -53.5zM1708 -25
q-79 0 -131.5 52t-52.5 131q0 77 52.5 128.5t131.5 51.5q77 0 130 -52.5t53 -127.5q0 -76 -53 -129.5t-130 -53.5z" />
    <glyph glyph-name="nonbreakingspace" unicode="&#xa0;" horiz-adv-x="1096" 
 />
    <glyph glyph-name="Agrave" unicode="&#xc0;" horiz-adv-x="1403" 
d="M518 678h334l-166 500zM365 205h157v-205h-528v205h117l372 1065h-159v205h755v-205h-170l365 -1065h135v-205h-559v205h158l-90 268h-463zM849 1613h-131l-295 349h222z" />
    <glyph glyph-name="Atilde" unicode="&#xc3;" horiz-adv-x="1403" 
d="M518 678h334l-166 500zM365 205h157v-205h-528v205h117l372 1065h-159v205h755v-205h-170l365 -1065h135v-205h-559v205h158l-90 268h-463zM1003 1898q-24 -118 -71.5 -172.5t-127.5 -54.5q-16 0 -33.5 2.5t-35.5 7.5l-85 25q-19 5 -34.5 7.5t-28.5 2.5q-33 0 -54 -16.5
t-32 -51.5h-100q20 111 67.5 165t124.5 54q23 0 44 -3t40 -9l88 -24q20 -5 31 -7t21 -2q31 0 54 20.5t32 55.5h100z" />
    <glyph glyph-name="Otilde" unicode="&#xd5;" horiz-adv-x="1669" 
d="M61 737q0 326 220.5 546t552.5 220q153 0 282.5 -46.5t233.5 -139.5q126 -113 192 -260.5t66 -319.5q0 -149 -52.5 -283.5t-150.5 -240.5q-111 -120 -255 -181t-316 -61q-330 0 -551.5 221t-221.5 545zM342 737q0 -223 140.5 -369.5t351.5 -146.5t352 146t141 370
t-141.5 370t-351.5 146q-209 0 -350.5 -146.5t-141.5 -369.5zM1137 1898q-24 -118 -71.5 -172.5t-127.5 -54.5q-16 0 -33.5 2.5t-35.5 7.5l-85 25q-19 5 -34.5 7.5t-28.5 2.5q-33 0 -54 -16.5t-32 -51.5h-100q20 111 67.5 165t124.5 54q23 0 44 -3t40 -9l88 -24q20 -5 31 -7
t21 -2q31 0 54 20.5t32 55.5h100z" />
    <glyph glyph-name="OE" unicode="&#x152;" horiz-adv-x="2095" 
d="M1024 403v756q0 66 -38 89.5t-150 23.5q-239 0 -370.5 -140t-131.5 -393q0 -244 138 -389t370 -145q108 0 145 36.5t37 161.5zM948 0q-220 0 -333.5 22t-204.5 72q-164 90 -256.5 260.5t-92.5 382.5q0 216 90.5 381t260.5 260q92 52 211.5 74.5t322.5 22.5h1043v-402
h-230v195h-469v-369h393v-221h-393v-473h463v231h236v-436h-1041z" />
    <glyph glyph-name="oe" unicode="&#x153;" horiz-adv-x="1970" 
d="M1090 573h552q-29 99 -98 150t-174 51q-108 0 -182 -53t-98 -148zM1851 281q-42 -147 -166.5 -226.5t-312.5 -79.5q-124 0 -220.5 48.5t-178.5 152.5q-77 -101 -173 -148.5t-222 -47.5q-222 0 -370.5 143t-148.5 354t148.5 354.5t370.5 143.5q137 0 234 -51t161 -158
q69 104 168.5 156.5t228.5 52.5q230 0 369 -148.5t139 -396.5v-24h-788q12 -110 86.5 -169t201.5 -59q80 0 142.5 27t97.5 76h233zM307 477q0 -127 77.5 -210t193.5 -83q115 0 191.5 83t76.5 210q0 128 -76.5 210.5t-191.5 82.5q-117 0 -194 -82.5t-77 -210.5z" />
    <glyph glyph-name="endash" unicode="&#x2013;" 
d="M0 397v158h1024v-158h-1024z" />
    <glyph glyph-name="emdash" unicode="&#x2014;" horiz-adv-x="2048" 
d="M0 555h2048v-158h-2048v158z" />
    <glyph glyph-name="quotedblleft" unicode="&#x201c;" horiz-adv-x="907" 
d="M164 1475h258l-143 -426h-246zM612 1475h258l-143 -426h-246z" />
    <glyph glyph-name="quotedblright" unicode="&#x201d;" horiz-adv-x="907" 
d="M612 1475h260l-145 -426h-246zM166 1475h258l-143 -426h-246z" />
    <glyph glyph-name="quoteleft" unicode="&#x2018;" horiz-adv-x="461" 
d="M166 1475h258l-143 -426h-246z" />
    <glyph glyph-name="quoteright" unicode="&#x2019;" horiz-adv-x="461" 
d="M166 1475h258l-143 -426h-246z" />
    <glyph glyph-name="divide" unicode="&#xf7;" horiz-adv-x="1706" 
d="M854 367q57 0 97 -40.5t40 -97.5q0 -56 -39.5 -95.5t-97.5 -39.5t-97.5 39t-39.5 96t40.5 97.5t96.5 40.5zM254 694h1198v-166h-1198v166zM854 1128q57 0 97 -41t40 -98q0 -56 -39.5 -95.5t-97.5 -39.5t-97.5 39t-39.5 96t40.5 98t96.5 41z" />
    <glyph glyph-name="lozenge" unicode="&#x25ca;" horiz-adv-x="1012" 
d="M506 1409l-385 -817l385 -825l385 825zM506 1653l500 -1061l-500 -1069l-500 1069z" />
    <glyph glyph-name="ydieresis" unicode="&#xff;" horiz-adv-x="1161" 
d="M711 -426h-535v199h150l125 252l-318 729h-119v198h486v-198h-127l205 -490l213 490h-123v198h477v-198h-117l-467 -981h150v-199zM650 1135v229h204v-229h-204zM310 1135v229h204v-229h-204z" />
    <glyph glyph-name="Ydieresis" unicode="&#x178;" horiz-adv-x="1343" 
d="M797 205h180v-205h-627v205h180v475l-387 590h-116v205h538v-205h-116l225 -367l221 367h-133v205h536v-205h-118l-383 -590v-475zM740 1661v229h204v-229h-204zM400 1661v229h204v-229h-204z" />
    <glyph glyph-name="fraction" unicode="&#x2215;" horiz-adv-x="342" 
d="M-342 -29l879 1493h145l-881 -1493h-143z" />
    <glyph glyph-name="currency" unicode="&#xa4;" horiz-adv-x="1241" 
d="M623 1176q-120 0 -205.5 -86t-85.5 -205q0 -120 84.5 -204.5t206.5 -84.5q121 0 205.5 84.5t84.5 204.5q0 119 -85.5 205t-204.5 86zM168 1430l203 -203q55 41 117 61.5t133 20.5t134 -20.5t117 -61.5l203 203l94 -93l-204 -204q39 -54 59 -116.5t20 -131.5
q0 -70 -20 -132.5t-59 -115.5l204 -205l-94 -92l-203 205q-57 -42 -118 -62t-131 -20q-72 0 -135 20.5t-117 61.5l-203 -205l-92 92l203 205q-40 53 -60 115.5t-20 132.5q0 69 20 131.5t60 116.5l-203 204z" />
    <glyph glyph-name="guilsinglleft" unicode="&#x2039;" horiz-adv-x="674" 
d="M592 788l-262 -313l262 -311h-230l-258 311l258 313h230z" />
    <glyph glyph-name="guilsinglright" unicode="&#x203a;" horiz-adv-x="674" 
d="M80 788h231l258 -313l-258 -311h-231l264 311z" />
    <glyph glyph-name="fi" unicode="&#xf001;" horiz-adv-x="1266" 
d="M780 1108v252h316v-252h-316zM1096 199h139v-199h-520v199h143v555h-143v198h381v-753zM604 0h-559v199h158v555h-158v198h158v129q0 251 69 322.5t279 71.5q22 0 36 -0.5t29 -2.5v-188h-53q-73 0 -99 -25.5t-26 -123.5v-66v-117h178v-198h-178v-555h166v-199z" />
    <glyph glyph-name="fl" unicode="&#xf002;" horiz-adv-x="1262" 
d="M858 1276h-143v199h381v-1276h139v-199h-520v199h143v1077zM604 0h-559v199h158v555h-158v198h158v129q0 251 69 322.5t279 71.5q22 0 36 -0.5t29 -2.5v-188h-53q-73 0 -99 -25.5t-26 -123.5v-66v-117h178v-198h-178v-555h166v-199z" />
    <glyph glyph-name="daggerdbl" unicode="&#x2021;" 
d="M616 358h187v103h188v-387h-188v102h-187v-225h103v-191h-414v191h103v225h-187v-102h-188v387h188v-103h187v519h-187v-103h-188v387h188v-102h187v225h-103v191h414v-191h-103v-225h187v102h188v-387h-188v103h-187v-519z" />
    <glyph glyph-name="periodcentered" unicode="&#xb7;" horiz-adv-x="547" 
d="M274 551q-79 0 -131.5 52t-52.5 130t52.5 129t131.5 51q77 0 130 -52t53 -128t-53 -129t-130 -53z" />
    <glyph glyph-name="quotesinglbase" unicode="&#x201a;" horiz-adv-x="461" 
d="M166 240h258l-143 -426h-246z" />
    <glyph glyph-name="quotedblbase" unicode="&#x201e;" horiz-adv-x="907" 
d="M166 240h258l-143 -426h-246zM612 240h260l-145 -426h-246z" />
    <glyph glyph-name="perthousand" unicode="&#x2030;" horiz-adv-x="2664" 
d="M2232 197q70 0 117 47.5t47 117.5q0 71 -47.5 118.5t-116.5 47.5q-68 0 -116 -48t-48 -118q0 -69 48 -117t116 -48zM2595 362q0 -151 -106.5 -256.5t-256.5 -105.5q-149 0 -255.5 106t-106.5 256q0 152 105.5 256.5t256.5 104.5q152 0 257.5 -104t105.5 -257zM1384 197
q70 0 117 47.5t47 117.5q0 71 -47.5 118.5t-116.5 47.5q-68 0 -115.5 -48t-47.5 -118q0 -69 47.5 -117t115.5 -48zM1747 362q0 -151 -106.5 -256.5t-256.5 -105.5q-149 0 -255.5 106t-106.5 256q0 152 105.5 256.5t256.5 104.5q153 0 258 -104t105 -257zM1262 1464h143
l-852 -1493h-143zM432 909q70 0 117 48t47 118q0 71 -47.5 118.5t-116.5 47.5t-117.5 -48t-48.5 -118q0 -69 48.5 -117.5t117.5 -48.5zM793 1075q0 -151 -106.5 -256.5t-256.5 -105.5q-149 0 -254.5 105.5t-105.5 256.5q0 152 104.5 256.5t255.5 104.5q152 0 257.5 -104.5
t105.5 -256.5z" />
    <glyph glyph-name="Acircumflex" unicode="&#xc2;" horiz-adv-x="1403" 
d="M518 678h334l-166 500zM365 205h157v-205h-528v205h117l372 1065h-159v205h755v-205h-170l365 -1065h135v-205h-559v205h158l-90 268h-463zM405 1611l188 351h218l188 -351h-131l-166 211l-168 -211h-129z" />
    <glyph glyph-name="Ecircumflex" unicode="&#xca;" horiz-adv-x="1280" 
d="M51 0v205h158v1065h-158v205h1123v-402h-230v195h-471v-369h395v-221h-395v-473h463v231h238v-436h-1123zM344 1611l188 351h218l188 -351h-131l-166 211l-168 -211h-129z" />
    <glyph glyph-name="Aacute" unicode="&#xc1;" horiz-adv-x="1403" 
d="M518 678h334l-166 500zM365 205h157v-205h-528v205h117l372 1065h-159v205h755v-205h-170l365 -1065h135v-205h-559v205h158l-90 268h-463zM555 1613l204 349h222l-295 -349h-131z" />
    <glyph glyph-name="Edieresis" unicode="&#xcb;" horiz-adv-x="1280" 
d="M51 0v205h158v1065h-158v205h1123v-402h-230v195h-471v-369h395v-221h-395v-473h463v231h238v-436h-1123zM709 1661v229h204v-229h-204zM369 1661v229h204v-229h-204z" />
    <glyph glyph-name="Egrave" unicode="&#xc8;" horiz-adv-x="1280" 
d="M51 0v205h158v1065h-158v205h1123v-402h-230v195h-471v-369h395v-221h-395v-473h463v231h238v-436h-1123zM788 1613h-131l-295 349h222z" />
    <glyph glyph-name="Iacute" unicode="&#xcd;" horiz-adv-x="682" 
d="M473 205h158v-205h-580v205h158v1065h-158v205h580v-205h-158v-1065zM195 1613l204 349h222l-295 -349h-131z" />
    <glyph glyph-name="Icircumflex" unicode="&#xce;" horiz-adv-x="682" 
d="M473 205h158v-205h-580v205h158v1065h-158v205h580v-205h-158v-1065zM45 1611l188 351h218l188 -351h-131l-166 211l-168 -211h-129z" />
    <glyph glyph-name="Idieresis" unicode="&#xcf;" horiz-adv-x="682" 
d="M473 205h158v-205h-580v205h158v1065h-158v205h580v-205h-158v-1065zM410 1661v229h204v-229h-204zM70 1661v229h204v-229h-204z" />
    <glyph glyph-name="Igrave" unicode="&#xcc;" horiz-adv-x="682" 
d="M473 205h158v-205h-580v205h158v1065h-158v205h580v-205h-158v-1065zM489 1613h-131l-295 349h222z" />
    <glyph glyph-name="Oacute" unicode="&#xd3;" horiz-adv-x="1669" 
d="M61 737q0 326 220.5 546t552.5 220q153 0 282.5 -46.5t233.5 -139.5q126 -113 192 -260.5t66 -319.5q0 -149 -52.5 -283.5t-150.5 -240.5q-111 -120 -255 -181t-316 -61q-330 0 -551.5 221t-221.5 545zM342 737q0 -223 140.5 -369.5t351.5 -146.5t352 146t141 370
t-141.5 370t-351.5 146q-209 0 -350.5 -146.5t-141.5 -369.5zM689 1613l204 349h222l-295 -349h-131z" />
    <glyph glyph-name="Ocircumflex" unicode="&#xd4;" horiz-adv-x="1669" 
d="M61 737q0 326 220.5 546t552.5 220q153 0 282.5 -46.5t233.5 -139.5q126 -113 192 -260.5t66 -319.5q0 -149 -52.5 -283.5t-150.5 -240.5q-111 -120 -255 -181t-316 -61q-330 0 -551.5 221t-221.5 545zM342 737q0 -223 140.5 -369.5t351.5 -146.5t352 146t141 370
t-141.5 370t-351.5 146q-209 0 -350.5 -146.5t-141.5 -369.5zM539 1611l188 351h218l188 -351h-131l-166 211l-168 -211h-129z" />
    <glyph glyph-name="apple" unicode="&#xf000;" horiz-adv-x="1618" 
d="M836 1216q-1 6 -1.5 14t-0.5 23q0 124 95 229.5t236 131.5q1 -10 1.5 -23t0.5 -39q0 -131 -103.5 -234.5t-203.5 -103.5h-8q-3 0 -7.5 1t-8.5 1zM1505 403q-114 -247 -205 -342.5t-204 -95.5q-50 0 -131.5 33t-122.5 33q-45 0 -131 -33t-127 -33q-64 0 -128.5 44
t-129.5 132q-102 140 -157.5 295.5t-55.5 300.5q0 219 125 356.5t323 137.5q68 0 155 -34t124 -34q34 0 121.5 35t152.5 35q110 0 198 -40t161 -124q-102 -65 -151.5 -145.5t-49.5 -182.5q0 -113 60 -200t173 -138z" />
    <glyph glyph-name="Ograve" unicode="&#xd2;" horiz-adv-x="1669" 
d="M61 737q0 326 220.5 546t552.5 220q153 0 282.5 -46.5t233.5 -139.5q126 -113 192 -260.5t66 -319.5q0 -149 -52.5 -283.5t-150.5 -240.5q-111 -120 -255 -181t-316 -61q-330 0 -551.5 221t-221.5 545zM342 737q0 -223 140.5 -369.5t351.5 -146.5t352 146t141 370
t-141.5 370t-351.5 146q-209 0 -350.5 -146.5t-141.5 -369.5zM983 1613h-131l-295 349h222z" />
    <glyph glyph-name="Uacute" unicode="&#xda;" horiz-adv-x="1522" 
d="M500 537q0 -175 60.5 -245.5t201.5 -70.5q140 0 200 71.5t60 244.5v733h-156v205h578v-205h-156v-703q0 -160 -18 -242.5t-60 -148.5q-64 -102 -176 -153.5t-272 -51.5q-146 0 -253.5 43t-176.5 129q-53 66 -76 159.5t-23 264.5v703h-155v205h577v-205h-155v-733z
M615 1613l204 349h222l-295 -349h-131z" />
    <glyph glyph-name="Ucircumflex" unicode="&#xdb;" horiz-adv-x="1522" 
d="M500 537q0 -175 60.5 -245.5t201.5 -70.5q140 0 200 71.5t60 244.5v733h-156v205h578v-205h-156v-703q0 -160 -18 -242.5t-60 -148.5q-64 -102 -176 -153.5t-272 -51.5q-146 0 -253.5 43t-176.5 129q-53 66 -76 159.5t-23 264.5v703h-155v205h577v-205h-155v-733z
M465 1611l188 351h218l188 -351h-131l-166 211l-168 -211h-129z" />
    <glyph glyph-name="Ugrave" unicode="&#xd9;" horiz-adv-x="1522" 
d="M500 537q0 -175 60.5 -245.5t201.5 -70.5q140 0 200 71.5t60 244.5v733h-156v205h578v-205h-156v-703q0 -160 -18 -242.5t-60 -148.5q-64 -102 -176 -153.5t-272 -51.5q-146 0 -253.5 43t-176.5 129q-53 66 -76 159.5t-23 264.5v703h-155v205h577v-205h-155v-733z
M909 1613h-131l-295 349h222z" />
    <glyph glyph-name="dotlessi" unicode="&#x131;" horiz-adv-x="598" 
d="M428 199h137v-199h-520v199h145v555h-143v198h381v-753z" />
    <glyph glyph-name="circumflex" unicode="&#x2c6;" 
d="M215 1085l188 351h218l188 -351h-131l-166 211l-168 -211h-129z" />
    <glyph glyph-name="tilde" unicode="&#x2dc;" 
d="M813 1372q-24 -118 -71.5 -172.5t-127.5 -54.5q-16 0 -33.5 2.5t-35.5 7.5l-85 25q-19 5 -34.5 7.5t-28.5 2.5q-33 0 -54 -16.5t-32 -51.5h-100q20 111 67.5 165t124.5 54q23 0 44 -3t40 -9l88 -24q20 -5 31 -7t21 -2q31 0 54 20.5t32 55.5h100z" />
    <glyph glyph-name="macron" unicode="&#xaf;" 
d="M236 1176v147h552v-147h-552z" />
    <glyph glyph-name="breve" unicode="&#x2d8;" 
d="M213 1407h120q5 -75 47.5 -110t131.5 -35q88 0 129.5 34t47.5 111h117q-9 -151 -80.5 -222t-213.5 -71t-215 71.5t-84 221.5z" />
    <glyph glyph-name="dotaccent" unicode="&#x2d9;" 
d="M406 1130v240h215v-240h-215z" />
    <glyph glyph-name="ring" unicode="&#x2da;" 
d="M385 1325q0 -54 37.5 -91.5t91.5 -37.5q53 0 90 38t37 91q0 54 -36.5 90.5t-90.5 36.5t-91.5 -36.5t-37.5 -90.5zM256 1325q0 108 74.5 183t181.5 75q108 0 183 -75t75 -183t-75 -183t-183 -75t-182 74.5t-74 183.5z" />
    <glyph glyph-name="cedilla" unicode="&#xb8;" 
d="M287 -434v119q82 -22 146.5 -32.5t109.5 -10.5q53 0 80.5 19t27.5 56q0 42 -34 61t-109 19q-6 0 -20 -1t-21 -1v205h90v-94h16q120 0 178 -47.5t58 -145.5q0 -91 -65 -140.5t-185 -49.5q-54 0 -124 11t-148 32z" />
    <glyph glyph-name="hungarumlaut" unicode="&#x2dd;" 
d="M565 1087l162 349h197l-254 -349h-105zM408 1087h-105l133 349h189z" />
    <glyph glyph-name="ogonek" unicode="&#x2db;" 
d="M625 0q-70 -60 -100.5 -110t-30.5 -103q0 -44 19.5 -62t68.5 -18h94v-156h-96q-119 0 -175.5 44t-56.5 137q0 65 45.5 130t143.5 138h88z" />
    <glyph glyph-name="caron" unicode="&#x2c7;" 
d="M215 1436h129l168 -211l166 211h131l-188 -351h-218z" />
    <glyph glyph-name="Lslash" unicode="&#x141;" horiz-adv-x="1128" 
d="M61 0v205h156v280l-217 -153v248l217 153v537h-156v205h603v-207h-181v-359l260 187v-252l-260 -182v-457h369v231h238v-436h-1029z" />
    <glyph glyph-name="lslash" unicode="&#x142;" horiz-adv-x="602" 
d="M195 528l-185 -129v222l185 127v528h-144v199h381v-590l184 129v-219l-184 -129v-467h139v-199h-520v199h144v329z" />
    <glyph glyph-name="Scaron" unicode="&#x160;" horiz-adv-x="1282" 
d="M354 125v-125h-213v500h213q42 -159 130.5 -241.5t220.5 -82.5q101 0 170 64t69 157q0 84 -59.5 137t-200.5 93l-168 47q-202 56 -293.5 153.5t-91.5 253.5q0 180 127 301t317 121q102 0 189 -32t149 -93v97h205v-439h-205q-35 131 -109 195.5t-188 64.5
q-96 0 -156.5 -52.5t-60.5 -133.5q0 -69 38.5 -109.5t135.5 -68.5l179 -51q247 -72 347.5 -175.5t100.5 -277.5q0 -207 -125.5 -332t-333.5 -125q-118 0 -216 39t-171 115zM344 1962h129l168 -211l166 211h131l-188 -351h-218z" />
    <glyph glyph-name="scaron" unicode="&#x161;" horiz-adv-x="1053" 
d="M289 0h-178v332h186q36 -88 110 -134t181 -46q64 0 103.5 31t39.5 81q0 42 -30 64.5t-136 42.5l-157 26q-157 28 -232.5 98.5t-75.5 188.5q0 133 94.5 213t251.5 80q86 0 153.5 -23t113.5 -67l2 65h178v-301h-193q-25 76 -83 116t-142 40q-68 0 -108.5 -28t-40.5 -72
q0 -83 184 -117q9 -1 14 -2l109 -19q170 -31 251 -103t81 -192q0 -130 -100.5 -214.5t-262.5 -84.5q-82 0 -158.5 23.5t-152.5 71.5zM229 1436h129l168 -211l166 211h131l-188 -351h-218z" />
    <glyph glyph-name="Zcaron" unicode="&#x17d;" horiz-adv-x="1329" 
d="M956 201v245h242v-446h-1077v188l756 1080h-486v-201h-241v403h1048v-180l-760 -1089h518zM369 1962h129l168 -211l166 211h131l-188 -351h-218z" />
    <glyph glyph-name="zcaron" unicode="&#x17e;" horiz-adv-x="1008" 
d="M934 0h-860v199l544 555h-311v-127h-205v325h809v-198l-542 -555h362v141h203v-340zM207 1436h129l168 -211l166 211h131l-188 -351h-218z" />
    <glyph glyph-name="brokenbar" unicode="&#xa6;" 
d="M424 408h178v-758h-178v758zM424 1432h178v-758h-178v758z" />
    <glyph glyph-name="Eth" unicode="&#xd0;" horiz-adv-x="1542" 
d="M653 1475q405 0 616.5 -189t211.5 -549q0 -359 -211.5 -548t-616.5 -189h-592v205h156v463h-215v204h215v398h-156v205h592zM483 668v-463h176q269 0 408 135.5t139 396.5q0 262 -139 397.5t-408 135.5h-176v-398h359v-204h-359z" />
    <glyph glyph-name="eth" unicode="&#xf0;" horiz-adv-x="1157" 
d="M653 955l-133 173l-348 -67l-37 149l281 56l-150 209h234l129 -164l297 59l37 -149l-228 -50l176 -229q117 -151 157 -250t40 -211q0 -219 -150 -361.5t-380 -142.5q-228 0 -378.5 141t-150.5 351q0 205 146 350.5t350 145.5q20 0 46.5 -2.5t61.5 -7.5zM578 772
q-119 0 -200 -84t-81 -211q0 -126 80.5 -209.5t200.5 -83.5q119 0 199.5 83.5t80.5 209.5q0 128 -80.5 211.5t-199.5 83.5z" />
    <glyph glyph-name="Yacute" unicode="&#xdd;" horiz-adv-x="1343" 
d="M797 205h180v-205h-627v205h180v475l-387 590h-116v205h538v-205h-116l225 -367l221 367h-133v205h536v-205h-118l-383 -590v-475zM525 1613l204 349h222l-295 -349h-131z" />
    <glyph glyph-name="yacute" unicode="&#xfd;" horiz-adv-x="1161" 
d="M711 -426h-535v199h150l125 252l-318 729h-119v198h486v-198h-127l205 -490l213 490h-123v198h477v-198h-117l-467 -981h150v-199zM435 1087l204 349h222l-295 -349h-131z" />
    <glyph glyph-name="Thorn" unicode="&#xde;" horiz-adv-x="1208" 
d="M555 983h-82v-489h82q183 0 270.5 59.5t87.5 183.5q0 125 -88 185.5t-270 60.5zM664 205v-205h-613v205h158v1065h-158v205h580v-205h-158v-101h82q308 0 466.5 -109.5t158.5 -322.5q0 -211 -159.5 -321.5t-465.5 -110.5h-82v-100h191z" />
    <glyph glyph-name="thorn" unicode="&#xfe;" horiz-adv-x="1266" 
d="M694 762q-117 0 -195.5 -81.5t-78.5 -205.5q0 -123 78.5 -204t195.5 -81q118 0 196.5 80.5t78.5 204.5t-79 205.5t-196 81.5zM57 -227h133v1503h-133v199h371v-625q66 64 139.5 95.5t159.5 31.5q207 0 345 -144t138 -356q0 -219 -135 -359.5t-348 -140.5q-82 0 -158.5 29
t-140.5 84v-317h141v-199h-512v199z" />
    <glyph glyph-name="minus" unicode="&#x2212;" horiz-adv-x="1706" 
d="M254 696h1198v-170h-1198v170z" />
    <glyph glyph-name="multiply" unicode="&#xd7;" horiz-adv-x="1706" 
d="M403 1188l459 -459l461 459l117 -117l-459 -461l459 -458l-117 -119l-461 461l-459 -461l-116 119l458 458l-458 461z" />
    <glyph glyph-name="onesuperior" unicode="&#xb9;" horiz-adv-x="723" 
d="M174 575v119h111v623h-103v121h267v-744h110v-119h-385z" />
    <glyph glyph-name="twosuperior" unicode="&#xb2;" horiz-adv-x="723" 
d="M518 827h156v-252h-617v119l308 310q73 75 104 125t31 92q0 49 -34.5 76.5t-96.5 27.5q-80 0 -114 -46t-34 -159v-24h-155q-2 9 -2.5 17.5t-0.5 25.5q0 159 76 237t232 78q136 0 215.5 -64t79.5 -171q0 -67 -38 -130t-151 -165l-237 -219h278v122z" />
    <glyph glyph-name="threesuperior" unicode="&#xb3;" horiz-adv-x="723" 
d="M215 878q2 -95 38.5 -140.5t111.5 -45.5q60 0 100.5 39t40.5 96q0 65 -46.5 102.5t-127.5 37.5h-15v106q5 0 12 -1t11 -1q74 0 113 34.5t39 100.5q0 55 -34 86t-91 31q-77 0 -109.5 -45t-32.5 -156v-8h-159q0 5 -1.5 19t-1.5 24q0 142 78.5 220.5t218.5 78.5
q136 0 214.5 -66.5t78.5 -179.5q0 -72 -35 -120.5t-100 -65.5q70 -15 110 -67.5t40 -127.5q0 -125 -81 -197.5t-222 -72.5q-153 0 -232.5 73.5t-79.5 215.5v31z" />
    <glyph glyph-name="onequarter" unicode="&#xbc;" horiz-adv-x="1722" 
d="M1223 293h215v199q0 30 4 71.5t12 87.5zM1311 0v102h127v91h-353v102l351 510h149v-512h109v-100h-109v-91h109v-102h-383zM348 -29l879 1493h145l-880 -1493h-144zM166 633v110h106v582h-98v113h254v-695h104v-110h-366z" />
    <glyph glyph-name="onehalf" unicode="&#xbd;" horiz-adv-x="1722" 
d="M1528 236h147v-236h-590v111l295 288q70 70 99.5 117t29.5 86q0 47 -33 72.5t-94 25.5q-74 0 -106.5 -43t-32.5 -147v-25h-149v39q0 150 72 222.5t220 72.5q129 0 205 -59.5t76 -159.5q0 -62 -35.5 -119.5t-144.5 -156.5l-225 -203h266v115zM348 -29l879 1493h145
l-880 -1493h-144zM166 633v110h106v582h-98v113h254v-695h104v-110h-366z" />
    <glyph glyph-name="threequarters" unicode="&#xbe;" horiz-adv-x="1722" 
d="M1223 293h215v199q0 30 4 71.5t12 87.5zM1311 0v102h127v91h-353v102l351 510h149v-512h109v-100h-109v-91h109v-102h-383zM348 -29l879 1493h145l-880 -1493h-144zM205 915q1 -88 35.5 -131t105.5 -43q59 0 98 37t39 90q0 60 -44.5 94.5t-121.5 34.5h-14v101q4 0 11 -1
t10 -1q70 0 107.5 32.5t37.5 94.5q0 50 -32 79t-87 29q-74 0 -104.5 -42t-30.5 -146v-8h-154v41q0 132 74 205t209 73q129 0 204 -62t75 -167q0 -68 -33 -112.5t-94 -61.5q66 -14 103.5 -62.5t37.5 -120.5q0 -116 -77.5 -183t-213.5 -67q-146 0 -220.5 68.5t-74.5 200.5v28
h154z" />
    <glyph glyph-name="franc" unicode="&#x20a3;" horiz-adv-x="2048" 
d="M51 0v205h158v1065h-158v205h1123v-402h-230v195h-471v-369h420v-221h-420v-473h193v-205h-615zM1651 815l12 4q20 72 65 111t109 39q73 0 120.5 -48t47.5 -122t-47 -121t-123 -47q-57 0 -100.5 33.5t-69.5 97.5l-14 -6v-557h133v-199h-504v199h133v555h-133v198h371
v-137z" />
    <glyph glyph-name="Gbreve" unicode="&#x11e;" horiz-adv-x="1706" 
d="M1290 168q-89 -98 -206.5 -147.5t-262.5 -49.5q-323 0 -541.5 219t-218.5 547q0 335 216.5 550.5t556.5 215.5q133 0 241 -36.5t176 -104.5v113h217v-492h-217q-59 135 -163 202.5t-250 67.5q-226 0 -361 -141t-135 -375q0 -224 140 -370t352 -146q149 0 256.5 62.5
t187.5 195.5h-338v213h705v-213h-154v-479h-193zM555 1933h120q5 -75 47.5 -110t131.5 -35q88 0 129.5 34t47.5 111h117q-9 -151 -80.5 -222t-213.5 -71t-215 71.5t-84 221.5z" />
    <glyph glyph-name="gbreve" unicode="&#x11f;" horiz-adv-x="1262" 
d="M295 475q0 -123 78.5 -204t195.5 -81q119 0 197 80.5t78 204.5t-79 205.5t-196 81.5q-116 0 -195 -81.5t-79 -205.5zM1073 166v-78q0 -138 -13 -205t-44 -114q-61 -95 -169.5 -145t-254.5 -50q-131 0 -239.5 26t-198.5 78v230q107 -65 199 -97t169 -32q161 0 237.5 56.5
t76.5 176.5v90q-60 -61 -136.5 -93t-162.5 -32q-212 0 -348 141t-136 359q0 212 138 356t346 144q85 0 159 -31.5t140 -95.5v102h370v-198h-133v-588zM332 1407h120q5 -75 47.5 -110t131.5 -35q88 0 129.5 34t47.5 111h117q-9 -151 -80.5 -222t-213.5 -71t-215 71.5
t-84 221.5z" />
    <glyph glyph-name="Idotaccent" unicode="&#x130;" horiz-adv-x="682" 
d="M473 205h158v-205h-580v205h158v1065h-158v205h580v-205h-158v-1065zM236 1656v240h215v-240h-215z" />
    <glyph glyph-name="Scedilla" unicode="&#x15e;" horiz-adv-x="1282" 
d="M354 125v-125h-213v500h213q42 -159 130.5 -241.5t220.5 -82.5q101 0 170 64t69 157q0 84 -59.5 137t-200.5 93l-168 47q-202 56 -293.5 153.5t-91.5 253.5q0 180 127 301t317 121q102 0 189 -32t149 -93v97h205v-439h-205q-35 131 -109 195.5t-188 64.5
q-96 0 -156.5 -52.5t-60.5 -133.5q0 -69 38.5 -109.5t135.5 -68.5l179 -51q247 -72 347.5 -175.5t100.5 -277.5q0 -207 -125.5 -332t-333.5 -125q-118 0 -216 39t-171 115zM416 -434v119q82 -22 146.5 -32.5t109.5 -10.5q53 0 80.5 19t27.5 56q0 42 -34 61t-109 19
q-6 0 -20 -1t-21 -1v205h90v-94h16q120 0 178 -47.5t58 -145.5q0 -91 -65 -140.5t-185 -49.5q-54 0 -124 11t-148 32z" />
    <glyph glyph-name="scedilla" unicode="&#x15f;" horiz-adv-x="1053" 
d="M289 0h-178v332h186q36 -88 110 -134t181 -46q64 0 103.5 31t39.5 81q0 42 -30 64.5t-136 42.5l-157 26q-157 28 -232.5 98.5t-75.5 188.5q0 133 94.5 213t251.5 80q86 0 153.5 -23t113.5 -67l2 65h178v-301h-193q-25 76 -83 116t-142 40q-68 0 -108.5 -28t-40.5 -72
q0 -83 184 -117q9 -1 14 -2l109 -19q170 -31 251 -103t81 -192q0 -130 -100.5 -214.5t-262.5 -84.5q-82 0 -158.5 23.5t-152.5 71.5zM301 -434v119q82 -22 146.5 -32.5t109.5 -10.5q53 0 80.5 19t27.5 56q0 42 -34 61t-109 19q-6 0 -20 -1t-21 -1v205h90v-94h16
q120 0 178 -47.5t58 -145.5q0 -91 -65 -140.5t-185 -49.5q-54 0 -124 11t-148 32z" />
    <glyph glyph-name="Cacute" unicode="&#x106;" horiz-adv-x="1554" 
d="M1212 983q-44 132 -142 203t-236 71q-222 0 -358 -143t-136 -377q0 -233 136 -375.5t358 -142.5q138 0 232.5 62t162.5 198h256q-60 -233 -236 -370.5t-415 -137.5q-333 0 -550.5 218t-217.5 548q0 337 212 551.5t539 214.5q131 0 234 -39t166 -112l-5 123h220v-492h-220
zM678 1613l204 349h222l-295 -349h-131z" />
    <glyph glyph-name="cacute" unicode="&#x107;" horiz-adv-x="1057" 
d="M1004 215q-91 -118 -204 -179t-243 -61q-218 0 -362 143t-144 359q0 217 135.5 359.5t337.5 142.5q76 0 140 -23t114 -69v65h187v-319h-152q-63 79 -124.5 111t-147.5 32q-115 0 -183.5 -81t-68.5 -218q0 -126 76 -210.5t190 -84.5q89 0 157 35.5t144 122.5zM402 1087
l204 349h222l-295 -349h-131z" />
    <glyph glyph-name="Ccaron" unicode="&#x10c;" horiz-adv-x="1554" 
d="M1212 983q-44 132 -142 203t-236 71q-222 0 -358 -143t-136 -377q0 -233 136 -375.5t358 -142.5q138 0 232.5 62t162.5 198h256q-60 -233 -236 -370.5t-415 -137.5q-333 0 -550.5 218t-217.5 548q0 337 212 551.5t539 214.5q131 0 234 -39t166 -112l-5 123h220v-492h-220
zM528 1962h129l168 -211l166 211h131l-188 -351h-218z" />
    <glyph glyph-name="ccaron" unicode="&#x10d;" horiz-adv-x="1057" 
d="M1004 215q-91 -118 -204 -179t-243 -61q-218 0 -362 143t-144 359q0 217 135.5 359.5t337.5 142.5q76 0 140 -23t114 -69v65h187v-319h-152q-63 79 -124.5 111t-147.5 32q-115 0 -183.5 -81t-68.5 -218q0 -126 76 -210.5t190 -84.5q89 0 157 35.5t144 122.5zM252 1436
h129l168 -211l166 211h131l-188 -351h-218z" />
    <glyph glyph-name="dcroat" unicode="&#x111;" horiz-adv-x="1255" 
d="M295 475q0 -123 78.5 -204t195.5 -81q119 0 197 80.5t78 204.5t-79 205.5t-196 81.5q-116 0 -195 -81.5t-79 -205.5zM705 1475h368v-285h182v-141h-182v-850h133v-199h-370v102q-60 -61 -136.5 -93t-162.5 -32q-212 0 -348 141t-136 359q0 212 138 356t346 144
q85 0 159 -31.5t140 -95.5v199h-357v141h357v86h-131v199z" />
    <glyph glyph-name="sfthyphen" unicode="&#xad;" horiz-adv-x="631" 
d="M61 371v211h508v-211h-508z" />
    <glyph glyph-name="periodcentered" unicode="&#x2219;" horiz-adv-x="547" 
d="M274 551q-79 0 -131.5 52t-52.5 130t52.5 129t131.5 51q77 0 130 -52t53 -128t-53 -129t-130 -53z" />
    </font>
</defs>
</svg>
