<?xml version="1.0" standalone="no"?>
<!DOCTYPE svg PUBLIC "-//W3C//DTD SVG 1.1//EN" "http://www.w3.org/Graphics/SVG/1.1/DTD/svg11.dtd" >
<svg xmlns="http://www.w3.org/2000/svg" width="100%" height="100%">
<metadata>
Created by FontXChange 20100429 at Thu Feb 20 15:16:45 2014
 By Payas Chhetri
Copyright (c) 2008 by Jos Buivenga/exljbris. All rights reserved.
</metadata>
<defs>
<font id="Museo900-Regular" horiz-adv-x="630" >
  <font-face 
    font-family="Museo 900"
    font-weight="900"
    font-stretch="normal"
    units-per-em="1000"
    panose-1="2 0 0 0 0 0 0 0 0 0"
    ascent="750"
    descent="-250"
    x-height="515"
    cap-height="715"
    bbox="-53 -237 1241 918"
    underline-thickness="50"
    underline-position="-50"
    stemh="150"
    stemv="173"
    unicode-range="U+0020-FB04"
  />
<missing-glyph horiz-adv-x="510" 
d="M5 0v700h500v-700h-500zM255 395l170 255h-340zM285 350l170 -255v510zM55 95l170 255l-170 255v-510zM85 50h340l-170 255z" />
    <glyph glyph-name="f_f" unicode="ff" horiz-adv-x="744" 
d="M79 0v380h-63v135h63v12c0 169 153 192 236 192c31 0 52 -3 52 -3v-146s-12 2 -28 2c-34 0 -87 -7 -87 -54v-3h194v12c0 169 153 192 236 192c31 0 52 -3 52 -3v-146s-12 2 -28 2c-34 0 -87 -7 -87 -54v-3h95v-135h-95v-380h-173v380h-194v-380h-173z" />
    <glyph glyph-name="fi" unicode="fi" horiz-adv-x="704" 
d="M79 0v380h-63v135h63v12c0 169 153 192 236 192c31 0 52 -3 52 -3v-146s-14 2 -33 2c-34 0 -82 -8 -82 -53v-4h297c51 0 73 -22 73 -73v-275c0 -14 8 -22 22 -22h38v-145h-160c-51 0 -73 22 -73 73v285c0 14 -8 22 -22 22h-175v-380h-173zM462 575v140h145v-140h-145z
" />
    <glyph glyph-name="fl" unicode="fl" horiz-adv-x="695" 
d="M442 73v475c0 14 -8 22 -22 22h-81c-34 0 -87 -4 -87 -48v-7h95v-135h-95v-380h-173v380h-63v135h63v12c0 168 152 188 235 188h228c51 0 73 -22 73 -73v-475c0 -14 8 -22 22 -22h38v-145h-160c-51 0 -73 22 -73 73z" />
    <glyph glyph-name="f_f_i" unicode="ffi" horiz-adv-x="1071" 
d="M79 0v380h-63v135h63v12c0 169 153 192 236 192c31 0 52 -3 52 -3v-146s-14 2 -32 2c-34 0 -83 -8 -83 -54v-3h194v12c0 169 153 192 236 192c31 0 52 -3 52 -3v-146s-14 2 -32 2c-34 0 -83 -8 -83 -54v-3h297c51 0 73 -22 73 -73v-275c0 -14 8 -22 22 -22h38v-145h-160
c-51 0 -73 22 -73 73v285c0 14 -8 22 -22 22h-175v-380h-173v380h-194v-380h-173zM829 575v140h145v-140h-145z" />
    <glyph glyph-name="f_f_l" unicode="ffl" horiz-adv-x="1062" 
d="M79 0v380h-63v135h63v12c0 169 153 192 236 192c31 0 52 -3 52 -3v-146s-13 2 -29 2c-34 0 -86 -8 -86 -54v-3h194v6c0 160 148 206 290 206c107 0 246 -28 246 -122v-438c0 -14 8 -22 22 -22h38v-145h-160c-51 0 -73 22 -73 73v446c0 52 -31 56 -81 56
c-51 0 -109 -16 -109 -56v-4h95v-135h-95v-380h-173v380h-194v-380h-173z" />
    <glyph glyph-name="f_j" unicode="fj" horiz-adv-x="706" 
d="M79 0v380h-63v135h63v12c0 169 153 192 236 192c31 0 52 -3 52 -3v-146s-14 2 -32 2c-34 0 -83 -8 -83 -54v-3h312c51 0 73 -22 73 -73v-455c0 -173 -162 -195 -242 -195c-28 0 -46 3 -46 3v144s9 -1 22 -1c34 0 93 8 93 66v354c0 14 -8 22 -22 22h-190v-380h-173z
M477 575v140h145v-140h-145z" />
    <glyph glyph-name=".notdef" horiz-adv-x="510" 
d="M5 0v700h500v-700h-500zM255 395l170 255h-340zM285 350l170 -255v510zM55 95l170 255l-170 255v-510zM85 50h340l-170 255z" />
    <glyph glyph-name="space" unicode=" " horiz-adv-x="260" 
 />
    <glyph glyph-name="space" unicode="&#xa0;" horiz-adv-x="260" 
 />
    <glyph glyph-name="exclam" unicode="!" horiz-adv-x="360" 
d="M106 221l-16 494h180l-16 -494h-148zM101 0v150h158v-150h-158z" />
    <glyph glyph-name="quotedbl" unicode="&#x22;" horiz-adv-x="413" 
d="M241 490v240h122v-240h-122zM50 490v240h122v-240h-122z" />
    <glyph glyph-name="numbersign" unicode="#" horiz-adv-x="689" 
d="M95 0l31 180h-101l20 120h101l17 95h-99l20 120h99l35 200h134l-35 -200h108l35 200h134l-35 -200h105l-20 -120h-105l-17 -95h103l-20 -120h-103l-31 -180h-134l31 180h-108l-31 -180h-134zM280 300h108l17 95h-108z" />
    <glyph glyph-name="dollar" unicode="$" horiz-adv-x="582" 
d="M32 139l122 104s58 -96 151 -96c36 0 72 13 72 53c0 84 -324 86 -324 321c0 110 87 182 196 201v93h114v-93c83 -14 168 -61 168 -150v-78h-160v31c0 26 -32 42 -65 42c-36 0 -73 -15 -73 -44c0 -95 324 -73 324 -319c0 -103 -77 -189 -194 -210v-93h-114v91
c-151 24 -217 147 -217 147z" />
    <glyph glyph-name="percent" unicode="%" horiz-adv-x="889" 
d="M231 382c-101 0 -181 76 -181 172c0 94 80 173 181 173c100 0 181 -79 181 -173c0 -96 -81 -172 -181 -172zM90 0l552 715h152l-552 -715h-152zM231 502c30 0 55 23 55 53c0 28 -25 52 -55 52s-55 -24 -55 -52c0 -30 25 -53 55 -53zM477 160c0 94 80 173 181 173
c100 0 181 -79 181 -173c0 -96 -81 -172 -181 -172c-101 0 -181 76 -181 172zM603 161c0 -30 25 -53 55 -53s55 23 55 53c0 28 -25 52 -55 52s-55 -24 -55 -52z" />
    <glyph glyph-name="ampersand" unicode="&#x26;" horiz-adv-x="673" 
d="M40 217c0 61 38 138 109 160v2s-79 39 -79 155c0 121 102 193 223 193c70 0 111 -13 111 -13l-40 -136s-19 5 -40 5c-51 0 -77 -38 -77 -75c0 -35 24 -69 73 -69h77v76h172v-76h79v-150h-79v-69c0 -128 -94 -232 -263 -232c-158 0 -266 101 -266 229zM219 218
c0 -36 33 -71 87 -71c60 0 91 36 91 83v59h-78c-52 0 -100 -17 -100 -71z" />
    <glyph glyph-name="quotesingle" unicode="'" horiz-adv-x="225" 
d="M50 490v240h125v-240h-125z" />
    <glyph glyph-name="parenleft" unicode="(" horiz-adv-x="385" 
d="M77 321c0 155 41 310 125 429h143c-78 -130 -115 -273 -115 -417c0 -147 39 -295 115 -428h-143c-85 114 -125 264 -125 416z" />
    <glyph glyph-name="parenright" unicode=")" horiz-adv-x="385" 
d="M40 -95c76 133 115 281 115 428c0 144 -37 287 -115 417h143c84 -119 125 -274 125 -429c0 -152 -40 -302 -125 -416h-143z" />
    <glyph glyph-name="asterisk" unicode="*" horiz-adv-x="487" 
d="M187 309l-122 88l75 83v2l-110 23l46 143l102 -45l-11 112h152l-12 -112l103 46l47 -143l-111 -23v-2l76 -83l-122 -89l-56 97h-2z" />
    <glyph glyph-name="plus" unicode="+" 
d="M42 222v130h205v223h136v-223h205v-130h-205v-222h-136v222h-205z" />
    <glyph glyph-name="comma" unicode="," horiz-adv-x="304" 
d="M96 166h160l-113 -277h-122z" />
    <glyph glyph-name="hyphen" unicode="-" horiz-adv-x="430" 
d="M58 212v150h314v-150h-314z" />
    <glyph glyph-name="hyphen" unicode="&#xad;" horiz-adv-x="430" 
d="M58 212v150h314v-150h-314z" />
    <glyph glyph-name="period" unicode="." horiz-adv-x="304" 
d="M73 0v164h158v-164h-158z" />
    <glyph glyph-name="slash" unicode="/" horiz-adv-x="400" 
d="M-5 -42l256 792h144l-256 -792h-144z" />
    <glyph glyph-name="zero" unicode="0" horiz-adv-x="620" 
d="M310 -12c-203 0 -269 166 -269 371s66 368 269 368s269 -163 269 -368s-66 -371 -269 -371zM310 148c69 0 89 94 89 211c0 116 -20 208 -89 208s-89 -92 -89 -208c0 -117 20 -211 89 -211z" />
    <glyph glyph-name="one" unicode="1" horiz-adv-x="579" 
d="M64 0v150h150v298c0 27 1 55 1 55h-2s-9 -20 -28 -38l-43 -39l-101 108l193 181h159v-565h151v-150h-480z" />
    <glyph glyph-name="two" unicode="2" horiz-adv-x="594" 
d="M26 113c0 255 327 247 327 392c0 40 -31 60 -71 60c-45 0 -67 -23 -67 -41v-29h-160v84c0 99 128 148 234 148c117 0 244 -70 244 -219c0 -235 -320 -264 -320 -343c0 -12 8 -15 30 -15h139c14 0 22 8 22 22v39h160v-138c0 -51 -22 -73 -73 -73h-384
c-74 0 -81 33 -81 113z" />
    <glyph glyph-name="three" unicode="3" horiz-adv-x="578" 
d="M26 89l84 135s67 -71 167 -71c59 0 92 31 92 71c0 38 -40 69 -105 69h-51l-35 85l79 123c29 46 56 67 56 67v2s-23 -5 -68 -5h-15c-14 0 -22 -8 -22 -22v-39h-160v138c0 51 13 73 64 73h410v-109l-129 -173c102 -23 157 -111 157 -206c0 -117 -88 -239 -270 -239
c-166 0 -254 101 -254 101z" />
    <glyph glyph-name="four" unicode="4" horiz-adv-x="610" 
d="M20 168v111l256 436h217v-397h106v-150h-106v-168h-179v168h-294zM317 318v125c0 39 6 85 6 85h-2s-18 -44 -35 -74l-50 -89c-17 -30 -34 -48 -34 -48v-2s29 3 65 3h50z" />
    <glyph glyph-name="five" unicode="5" horiz-adv-x="616" 
d="M42 84l82 138s69 -69 167 -69c62 0 95 40 95 83c0 65 -64 87 -131 87c-76 0 -132 -27 -132 -27l-54 30l22 316c4 51 22 73 73 73h286c51 0 73 -22 73 -73v-138h-160v39c0 14 -8 22 -22 22h-70c-14 0 -21 -8 -22 -22l-3 -49c-1 -14 -3 -28 -3 -28h2s25 4 51 4
c179 0 271 -105 271 -237c0 -123 -91 -246 -276 -246c-158 0 -249 97 -249 97z" />
    <glyph glyph-name="six" unicode="6" horiz-adv-x="586" 
d="M316 -12c-144 0 -290 107 -290 337c0 196 119 402 341 402c100 0 158 -31 158 -31l-47 -150s-47 21 -98 21c-82 0 -130 -52 -152 -118h2c17 12 62 25 96 25c149 0 234 -122 234 -245c0 -121 -89 -241 -244 -241zM208 290c0 -85 58 -142 108 -142c44 0 72 38 72 80
c0 51 -31 105 -108 105c-38 0 -72 -10 -72 -43z" />
    <glyph glyph-name="seven" unicode="7" horiz-adv-x="559" 
d="M22 0l283 501c27 48 46 65 46 65v2s-10 -3 -46 -3h-107c-14 0 -22 -8 -22 -22v-39h-160v138c0 51 13 73 64 73h466v-122l-330 -593h-194z" />
    <glyph glyph-name="eight" unicode="8" horiz-adv-x="593" 
d="M28 211c0 101 95 169 95 169v2s-64 48 -64 139c0 105 84 206 239 206c143 0 239 -90 239 -205c0 -93 -64 -151 -64 -151v-2c59 -41 87 -102 87 -163c0 -109 -97 -218 -267 -218c-156 0 -265 99 -265 223zM295 451c8 -4 26 -12 35 -12c20 0 37 34 37 70s-28 58 -69 58
c-43 0 -68 -24 -68 -50c0 -29 27 -49 65 -66zM206 223c0 -44 34 -75 87 -75c52 0 87 28 87 67c0 32 -33 52 -77 72c-30 14 -41 20 -50 20c-21 0 -47 -42 -47 -84z" />
    <glyph glyph-name="nine" unicode="9" horiz-adv-x="586" 
d="M60 19l47 150s47 -21 98 -21c82 0 130 52 152 118h-2c-16 -12 -62 -25 -96 -25c-149 0 -234 122 -234 245c0 121 89 241 244 241c144 0 290 -107 290 -337c0 -196 -119 -402 -341 -402c-100 0 -158 31 -158 31zM305 382c38 0 72 10 72 43c0 85 -58 142 -108 142
c-44 0 -72 -38 -72 -80c0 -51 31 -105 108 -105z" />
    <glyph glyph-name="colon" unicode=":" horiz-adv-x="324" 
d="M83 351v164h158v-164h-158zM83 0v164h158v-164h-158z" />
    <glyph glyph-name="semicolon" unicode=";" horiz-adv-x="324" 
d="M83 351v164h158v-164h-158zM19 -111l59 277h160l-97 -277h-122z" />
    <glyph glyph-name="less" unicode="&#x3c;" 
d="M59 234v107l504 223v-145l-330 -131v-2l330 -130v-145z" />
    <glyph glyph-name="equal" unicode="=" 
d="M62 337v130h506v-130h-506zM62 107v130h506v-130h-506z" />
    <glyph glyph-name="greater" unicode="&#x3e;" 
d="M67 11v145l330 130v2l-330 131v145l504 -223v-107z" />
    <glyph glyph-name="question" unicode="?" horiz-adv-x="511" 
d="M139 221v50c0 135 157 159 157 243c0 34 -33 59 -71 59c-48 0 -95 -43 -95 -43l-96 117s75 83 209 83c112 0 233 -67 233 -196c0 -164 -171 -188 -171 -277v-36h-166zM143 0v150h158v-150h-158z" />
    <glyph glyph-name="at" unicode="@" horiz-adv-x="822" 
d="M35 239c0 211 168 376 393 376c221 0 298 -110 298 -240v-198h74v-119h-283c-150 0 -227 91 -227 182c0 88 74 176 227 176h49c0 43 -73 64 -135 64c-130 0 -227 -120 -227 -241c0 -127 88 -239 252 -239v-130c-262 0 -421 163 -421 369zM461 244c0 -37 22 -67 66 -67h39
v134h-37c-46 0 -68 -31 -68 -67z" />
    <glyph glyph-name="A" unicode="A" horiz-adv-x="688" 
d="M10 0v150h19c16 0 21 5 27 22l195 543h186l195 -543c6 -17 11 -22 27 -22h19v-150h-115c-50 0 -70 15 -84 58l-31 92h-208l-31 -92c-14 -43 -34 -58 -84 -58h-115zM278 295h132l-36 119c-14 45 -29 118 -29 118h-2s-15 -73 -29 -118z" />
    <glyph glyph-name="B" unicode="B" horiz-adv-x="648" 
d="M93 73v492h-65v150h313c143 0 243 -64 243 -187c0 -80 -46 -132 -83 -152v-2c82 -25 112 -98 112 -161c0 -156 -130 -213 -272 -213h-175c-51 0 -73 22 -73 73zM272 438h71c42 0 61 32 61 66c0 33 -19 61 -64 61h-68v-127zM272 172c0 -14 8 -22 22 -22h64
c48 0 71 35 71 75s-22 73 -70 73h-87v-126z" />
    <glyph glyph-name="C" unicode="C" horiz-adv-x="720" 
d="M24 365c0 205 157 362 370 362c85 0 274 -33 274 -167v-94h-160v39c0 41 -64 57 -110 57c-104 0 -188 -67 -188 -197c0 -117 87 -212 192 -212c125 0 204 91 204 91l91 -128s-108 -128 -298 -128c-226 0 -375 162 -375 377z" />
    <glyph glyph-name="D" unicode="D" horiz-adv-x="715" 
d="M93 73v492h-65v150h294c225 0 369 -131 369 -356s-144 -359 -369 -359h-156c-51 0 -73 22 -73 73zM272 172c0 -14 8 -22 22 -22h21c118 0 190 72 190 209c0 136 -75 206 -190 206h-43v-393z" />
    <glyph glyph-name="E" unicode="E" horiz-adv-x="594" 
d="M93 73v492h-65v150h450c51 0 73 -22 73 -73v-138h-160v39c0 14 -8 22 -22 22h-97v-130h204v-150h-204v-113c0 -14 8 -22 22 -22h99c14 0 22 8 22 22v39h160v-138c0 -51 -22 -73 -73 -73h-336c-51 0 -73 22 -73 73z" />
    <glyph glyph-name="F" unicode="F" horiz-adv-x="548" 
d="M93 0v565h-65v150h430c51 0 73 -22 73 -73v-138h-160v39c0 14 -8 22 -22 22h-77v-150h204v-150h-204v-265h-179z" />
    <glyph glyph-name="G" unicode="G" horiz-adv-x="752" 
d="M24 364c0 205 157 363 370 363c183 0 269 -93 269 -93l-100 -127s-71 57 -165 57c-95 0 -188 -74 -188 -199c0 -141 95 -212 197 -212c94 0 148 52 148 52v27c0 14 -8 22 -22 22h-43v150h151c51 0 73 -22 73 -73v-331h-150v20c0 15 1 30 1 30h-2s-71 -62 -193 -62
c-180 0 -346 132 -346 376z" />
    <glyph glyph-name="H" unicode="H" horiz-adv-x="786" 
d="M93 0v543c0 14 -8 22 -22 22h-43v150h171c51 0 73 -22 73 -73v-213h242v213c0 51 22 73 73 73h171v-150h-43c-14 0 -22 -8 -22 -22v-543h-179v280h-242v-280h-179z" />
    <glyph glyph-name="I" unicode="I" horiz-adv-x="381" 
d="M31 0v150h75v415h-75v150h319v-150h-75v-415h75v-150h-319z" />
    <glyph glyph-name="J" unicode="J" horiz-adv-x="566" 
d="M16 220v52h179v-33c0 -66 31 -86 66 -86c37 0 63 24 63 76v314c0 14 -8 22 -22 22h-170v150h298c51 0 73 -22 73 -73v-422c0 -157 -122 -232 -244 -232s-243 77 -243 232z" />
    <glyph glyph-name="K" unicode="K" horiz-adv-x="669" 
d="M93 0v543c0 14 -8 22 -22 22h-43v150h171c51 0 73 -22 73 -73v-203h24c25 0 43 0 55 22l121 254h195l-143 -289c-24 -49 -53 -62 -53 -62v-2s30 -7 55 -57l65 -132c10 -21 29 -23 49 -23h19v-150h-105c-50 0 -79 8 -101 53l-107 214c-12 23 -33 23 -60 23h-14v-290h-179z
" />
    <glyph glyph-name="L" unicode="L" horiz-adv-x="580" 
d="M93 73v470c0 14 -8 22 -22 22h-43v150h171c51 0 73 -22 73 -73v-470c0 -14 8 -22 22 -22h94c14 0 22 8 22 22v39h160v-138c0 -51 -22 -73 -73 -73h-331c-51 0 -73 22 -73 73z" />
    <glyph glyph-name="M" unicode="M" horiz-adv-x="890" 
d="M16 0v150h25c14 0 21 8 22 22l44 543h187l114 -282c18 -45 36 -103 36 -103h2s18 58 36 103l114 282h187l44 -543c1 -14 8 -22 22 -22h25v-150h-148c-51 0 -69 22 -73 73l-16 229c-4 54 0 120 0 120h-2s-21 -76 -40 -120l-80 -187h-140l-80 187c-19 44 -40 120 -40 120
h-2s4 -66 0 -120l-16 -229c-4 -51 -22 -73 -73 -73h-148z" />
    <glyph glyph-name="N" unicode="N" horiz-adv-x="778" 
d="M28 0v150h43c14 0 22 8 22 22v543h161l198 -307c30 -46 60 -107 60 -107h2s-8 62 -8 107v234c0 51 22 73 73 73h171v-150h-43c-14 0 -22 -8 -22 -22v-543h-160l-199 306c-30 45 -60 107 -60 107h-2s8 -62 8 -107v-233c0 -51 -22 -73 -73 -73h-171z" />
    <glyph glyph-name="O" unicode="O" horiz-adv-x="796" 
d="M24 362c0 205 158 365 374 365s374 -160 374 -365c0 -210 -158 -374 -374 -374s-374 164 -374 374zM210 362c0 -119 84 -209 188 -209s188 90 188 209c0 114 -84 200 -188 200s-188 -86 -188 -200z" />
    <glyph glyph-name="P" unicode="P" horiz-adv-x="625" 
d="M93 0v565h-65v150h347c139 0 233 -102 233 -246s-94 -248 -233 -248h-103v-221h-179zM272 371h67c58 0 86 41 86 98s-28 96 -83 96h-70v-194z" />
    <glyph glyph-name="Q" unicode="Q" horiz-adv-x="796" 
d="M24 362c0 205 158 364 374 364s374 -159 374 -364c0 -79 -28 -149 -70 -210l70 -58l-105 -117l-71 67c-58 -39 -127 -56 -198 -56c-216 0 -374 164 -374 374zM210 362c0 -119 84 -209 188 -209c46 0 67 11 67 11l-62 53l104 117l62 -61c11 27 17 57 17 89
c0 114 -84 199 -188 199s-188 -85 -188 -199z" />
    <glyph glyph-name="R" unicode="R" horiz-adv-x="653" 
d="M93 0v565h-65v150h334c139 0 236 -81 236 -225c0 -143 -105 -186 -105 -186v-2s28 -12 44 -43l45 -86c11 -21 29 -23 49 -23h12v-150h-98c-50 0 -78 9 -101 53l-84 161c-12 22 -27 27 -64 27h-24v-241h-179zM272 391h62c53 0 81 31 81 88s-28 86 -78 86h-65v-174z" />
    <glyph glyph-name="S" unicode="S" horiz-adv-x="573" 
d="M28 106l99 125s74 -84 164 -84c36 0 72 13 72 53c0 79 -324 88 -324 312c0 129 113 215 255 215c95 0 228 -46 228 -155v-78h-160v31c0 26 -37 42 -70 42c-36 0 -73 -15 -73 -48c0 -87 324 -75 324 -310c0 -119 -93 -221 -254 -221c-168 0 -261 118 -261 118z" />
    <glyph glyph-name="T" unicode="T" horiz-adv-x="679" 
d="M250 0v565h-58c-14 0 -22 -8 -22 -22v-39h-155v142c0 51 18 69 69 69h511c51 0 69 -18 69 -69v-142h-155v39c0 14 -8 22 -22 22h-58v-565h-179z" />
    <glyph glyph-name="U" unicode="U" horiz-adv-x="758" 
d="M85 263v280c0 14 -8 22 -22 22h-43v150h171c51 0 73 -22 73 -73v-374c0 -75 47 -115 115 -115s115 40 115 115v374c0 51 22 73 73 73h171v-150h-43c-14 0 -22 -8 -22 -22v-280c0 -161 -116 -275 -293 -275c-179 0 -295 114 -295 275z" />
    <glyph glyph-name="V" unicode="V" horiz-adv-x="708" 
d="M260 0l-198 543c-6 17 -11 22 -27 22h-25v150h125c50 0 70 -15 84 -58l107 -334c15 -45 27 -115 27 -115h2s12 70 27 115l107 334c14 43 34 58 84 58h125v-150h-25c-16 0 -21 -5 -27 -22l-198 -543h-188z" />
    <glyph glyph-name="W" unicode="W" horiz-adv-x="1028" 
d="M204 0l-136 543c-4 17 -12 22 -28 22h-25v150h128c49 0 80 -14 89 -58l79 -374c9 -44 9 -75 9 -75h2s1 31 12 75l109 431h143l108 -431c11 -44 12 -75 12 -75h2s0 31 9 75l79 374c9 44 39 58 89 58h128v-150h-25c-16 0 -24 -5 -28 -22l-136 -543h-205l-90 333
c-13 46 -14 76 -14 76h-2s-1 -30 -14 -76l-90 -333h-205z" />
    <glyph glyph-name="X" unicode="X" horiz-adv-x="647" 
d="M-2 0l216 355l-117 188c-13 20 -14 22 -36 22h-37v150h116c47 0 67 -11 87 -48l51 -93c25 -45 44 -90 44 -90h2s19 45 44 90l52 93c21 37 40 48 87 48h116v-150h-37c-22 0 -23 -2 -36 -22l-118 -188l217 -355h-199l-82 144c-25 45 -44 87 -44 87h-2s-19 -42 -44 -87
l-82 -144h-198z" />
    <glyph glyph-name="Y" unicode="Y" horiz-adv-x="633" 
d="M227 0v313l-152 230c-13 20 -14 22 -36 22h-29v150h98c44 0 68 -7 92 -48l73 -123c27 -46 43 -80 43 -80h2s16 34 43 80l72 123c24 41 48 48 92 48h98v-150h-29c-22 0 -23 -2 -36 -22l-152 -230v-313h-179z" />
    <glyph glyph-name="Z" unicode="Z" horiz-adv-x="599" 
d="M16 0v110l273 391c31 44 55 65 55 65v2s-23 -3 -55 -3h-88c-14 0 -22 -8 -22 -22v-39h-160v138c0 51 22 73 73 73h475v-108l-274 -393c-31 -44 -55 -65 -55 -65v-2s23 3 55 3h108c14 0 22 8 22 22v39h160v-138c0 -51 -22 -73 -73 -73h-494z" />
    <glyph glyph-name="bracketleft" unicode="[" horiz-adv-x="390" 
d="M85 -22v699c0 51 22 73 73 73h173v-120h-80c-14 0 -22 -8 -22 -22v-561c0 -14 8 -22 22 -22h80v-120h-173c-51 0 -73 22 -73 73z" />
    <glyph glyph-name="backslash" unicode="\" horiz-adv-x="400" 
d="M261 -42l-256 792h144l256 -792h-144z" />
    <glyph glyph-name="bracketright" unicode="]" horiz-adv-x="390" 
d="M59 25h80c14 0 22 8 22 22v561c0 14 -8 22 -22 22h-80v120h173c51 0 73 -22 73 -73v-699c0 -51 -22 -73 -73 -73h-173v120z" />
    <glyph glyph-name="asciicircum" unicode="^" 
d="M58 241l203 474h107l203 -474h-145l-112 300l-111 -300h-145z" />
    <glyph glyph-name="underscore" unicode="_" horiz-adv-x="606" 
d="M5 0h596v-130h-596v130z" />
    <glyph glyph-name="grave" unicode="`" horiz-adv-x="430" 
d="M174 761l-118 150h157l81 -150h-120z" />
    <glyph glyph-name="a" unicode="a" horiz-adv-x="584" 
d="M28 154c0 153 219 170 299 170h7v6c0 49 -23 67 -66 67c-22 0 -45 -5 -45 -25v-23h-160v57c0 115 146 121 205 121c180 0 239 -92 239 -210v-150c0 -14 8 -22 22 -22h38v-145h-150c-50 0 -68 31 -68 54v9h-2s-36 -75 -144 -75c-96 0 -175 64 -175 166zM202 163
c0 -24 15 -43 49 -43c45 0 85 49 85 91v8h-16c-55 0 -118 -15 -118 -56z" />
    <glyph glyph-name="b" unicode="b" horiz-adv-x="644" 
d="M75 0v548c0 14 -8 22 -22 22h-38v145h160c51 0 73 -22 73 -73v-121c0 -26 -2 -44 -2 -44h2s48 50 139 50c140 0 232 -110 232 -270c0 -163 -103 -269 -240 -269c-95 0 -141 53 -141 53h-2s1 -13 1 -29v-12h-162zM243 254c0 -62 33 -123 101 -123c54 0 101 44 101 123
c0 77 -41 127 -101 127c-52 0 -101 -38 -101 -127z" />
    <glyph glyph-name="c" unicode="c" horiz-adv-x="546" 
d="M25 258c0 136 96 269 291 269c72 0 190 -28 190 -121v-71h-150v27c0 16 -19 22 -40 22c-73 0 -117 -55 -117 -124c0 -88 66 -123 130 -123c74 0 142 67 142 67l69 -116s-81 -100 -228 -100c-184 0 -287 128 -287 270z" />
    <glyph glyph-name="d" unicode="d" horiz-adv-x="649" 
d="M25 258c0 163 98 269 235 269c104 0 135 -36 135 -36h2s-1 10 -1 23v34c0 14 -8 22 -22 22h-38v145h160c51 0 73 -22 73 -73v-475c0 -14 8 -22 22 -22h38v-145h-154c-49 0 -67 25 -67 49v9h-2s-43 -70 -149 -70c-140 0 -232 110 -232 270zM300 131c52 0 101 38 101 127
c0 62 -33 123 -101 123c-54 0 -101 -44 -101 -123c0 -77 41 -127 101 -127z" />
    <glyph glyph-name="e" unicode="e" horiz-adv-x="564" 
d="M25 258c0 151 102 269 268 269c152 0 238 -106 238 -249c0 -17 -4 -52 -4 -52h-325c13 -65 65 -94 120 -94c74 0 137 54 137 54l69 -116s-83 -82 -220 -82c-184 0 -283 133 -283 270zM207 331h147c0 32 -25 66 -61 66c-50 0 -75 -28 -86 -66z" />
    <glyph glyph-name="f" unicode="f" horiz-adv-x="377" 
d="M79 0v380h-63v135h63v12c0 169 153 192 236 192c31 0 52 -3 52 -3v-146s-12 2 -28 2c-34 0 -87 -6 -87 -50v-7h95v-135h-95v-380h-173z" />
    <glyph glyph-name="g" unicode="g" horiz-adv-x="637" 
d="M25 274c0 131 75 253 231 253c105 0 149 -60 149 -60h2v7c0 14 16 41 55 41h156v-145h-36c-13 0 -22 -7 -22 -19v-304c0 -188 -150 -257 -291 -257c-69 0 -145 20 -195 46l50 135s63 -33 144 -33c62 0 119 23 119 99v8c0 6 1 19 1 19h-2c-30 -33 -69 -49 -129 -49
c-155 0 -232 127 -232 259zM298 159c45 0 93 23 93 113c0 91 -48 111 -100 111c-61 0 -92 -44 -92 -103c0 -64 30 -121 99 -121z" />
    <glyph glyph-name="h" unicode="h" horiz-adv-x="667" 
d="M75 0v548c0 14 -8 22 -22 22h-38v145h160c51 0 73 -22 73 -73v-153c0 -26 -2 -44 -2 -44h2c29 51 89 82 157 82c104 0 185 -48 185 -193v-167c0 -14 8 -22 22 -22h38v-145h-160c-51 0 -73 22 -73 73v229c0 48 -19 68 -57 68c-53 0 -88 -31 -103 -76c-7 -20 -9 -42 -9 -66
v-228h-173z" />
    <glyph glyph-name="i" unicode="i" horiz-adv-x="337" 
d="M95 575v140h145v-140h-145zM82 73v275c0 14 -8 22 -22 22h-38v145h160c51 0 73 -22 73 -73v-275c0 -14 8 -22 22 -22h38v-145h-160c-51 0 -73 22 -73 73z" />
    <glyph glyph-name="j" unicode="j" horiz-adv-x="334" 
d="M108 575v140h145v-140h-145zM-18 -61c0 0 9 -1 22 -1c34 0 93 8 93 66v344c0 14 -8 22 -22 22h-38v145h160c51 0 73 -22 73 -73v-455c0 -173 -162 -195 -242 -195c-28 0 -46 3 -46 3v144z" />
    <glyph glyph-name="k" unicode="k" horiz-adv-x="597" 
d="M75 0v548c0 14 -8 22 -22 22h-38v145h160c51 0 73 -7 73 -58v-312h27c15 0 32 0 41 16l84 154h188l-117 -198c-19 -33 -38 -43 -38 -43v-2s21 -8 39 -43l33 -67c7 -14 18 -17 38 -17h40v-145h-131c-37 0 -57 6 -74 39l-74 144c-9 17 -28 17 -41 17h-15v-200h-173z" />
    <glyph glyph-name="l" unicode="l" horiz-adv-x="328" 
d="M75 73v475c0 14 -8 22 -22 22h-38v145h160c51 0 73 -22 73 -73v-475c0 -14 8 -22 22 -22h38v-145h-160c-51 0 -73 22 -73 73z" />
    <glyph glyph-name="m" unicode="m" horiz-adv-x="953" 
d="M79 0v348c0 14 -8 22 -22 22h-38v145h155c47 0 72 -23 72 -58v-7c0 -5 -1 -12 -1 -12h2c24 36 70 89 151 89c65 0 117 -29 144 -87h2c27 43 88 87 165 87c94 0 167 -51 167 -193v-167c0 -14 8 -22 22 -22h38v-145h-160c-51 0 -73 22 -73 73v232c0 38 -7 65 -40 65
c-52 0 -82 -42 -93 -99c-4 -18 -6 -37 -6 -58v-213h-173v305c0 38 -7 65 -40 65c-51 0 -80 -40 -92 -95c-4 -19 -7 -40 -7 -62v-213h-173z" />
    <glyph glyph-name="n" unicode="n" horiz-adv-x="671" 
d="M79 0v348c0 14 -8 22 -22 22h-38v145h154c47 0 72 -23 72 -58v-7c0 -5 -1 -12 -1 -12h2c24 40 72 89 163 89c104 0 185 -48 185 -193v-167c0 -14 8 -22 22 -22h38v-145h-160c-51 0 -73 22 -73 73v229c0 48 -19 68 -57 68c-54 0 -87 -30 -102 -74c-7 -20 -10 -43 -10 -68
v-228h-173z" />
    <glyph glyph-name="o" unicode="o" horiz-adv-x="632" 
d="M25 256c0 162 129 271 290 271c163 0 292 -109 292 -271c0 -161 -129 -268 -291 -268s-291 107 -291 268zM199 256c0 -77 54 -124 117 -124s117 47 117 124c0 78 -54 127 -117 127s-117 -49 -117 -127z" />
    <glyph glyph-name="p" unicode="p" horiz-adv-x="648" 
d="M79 -200v548c0 14 -8 22 -22 22h-38v145h149c50 0 67 -23 67 -45v-9h2s45 66 154 66c140 0 232 -110 232 -270c0 -163 -103 -269 -240 -269c-84 0 -131 44 -131 44h-2s2 -18 2 -44v-188h-173zM247 254c0 -62 33 -123 101 -123c54 0 101 44 101 123c0 77 -41 127 -101 127
c-52 0 -101 -38 -101 -127z" />
    <glyph glyph-name="q" unicode="q" horiz-adv-x="648" 
d="M25 258c0 163 98 269 235 269c111 0 152 -57 152 -57h2v6c0 20 20 39 69 39h146v-145h-38c-14 0 -22 -8 -22 -22v-548h-173v197c0 26 2 44 2 44h-2s-45 -53 -139 -53c-140 0 -232 110 -232 270zM300 131c52 0 101 38 101 127c0 62 -33 123 -101 123
c-54 0 -101 -44 -101 -123c0 -77 41 -127 101 -127z" />
    <glyph glyph-name="r" unicode="r" horiz-adv-x="451" 
d="M79 0v348c0 14 -8 22 -22 22h-38v145h153c47 0 73 -19 73 -66v-27c0 -16 -2 -26 -2 -26h2c22 70 87 128 164 128c10 0 20 -2 20 -2v-170s-14 3 -35 3c-41 0 -108 -13 -133 -90c-6 -19 -9 -42 -9 -70v-195h-173z" />
    <glyph glyph-name="s" unicode="s" horiz-adv-x="491" 
d="M21 82l77 111s72 -74 151 -74c25 0 39 7 39 25c0 43 -258 57 -258 224c0 111 103 159 212 159c84 0 200 -24 200 -117v-61h-150v25c0 14 -22 24 -47 24c-24 0 -46 -8 -46 -24c0 -53 261 -46 261 -219c0 -104 -91 -167 -211 -167c-148 0 -228 94 -228 94z" />
    <glyph glyph-name="t" unicode="t" horiz-adv-x="397" 
d="M79 190v190h-66v135h71v139h168v-139h108v-135h-108v-167c0 -58 59 -66 92 -66c14 0 23 1 23 1v-150s-19 -3 -47 -3c-82 0 -241 22 -241 195z" />
    <glyph glyph-name="u" unicode="u" horiz-adv-x="666" 
d="M77 181v167c0 14 -8 22 -22 22h-38v145h160c51 0 73 -22 73 -73v-229c0 -48 19 -68 55 -68c74 0 109 65 109 142v228h173v-348c0 -14 8 -22 22 -22h38v-145h-153c-47 0 -73 23 -73 58v7c0 5 1 12 1 12h-2c-28 -55 -91 -89 -160 -89c-102 0 -183 48 -183 193z" />
    <glyph glyph-name="v" unicode="v" horiz-adv-x="567" 
d="M178 0l-133 354c-4 11 -10 16 -22 16h-13v145h110c37 0 61 -15 70 -42l78 -232c11 -33 19 -83 19 -83h2s8 50 19 83l77 232c9 27 35 42 71 42h101v-145h-13c-12 0 -20 -5 -24 -16l-131 -354h-211z" />
    <glyph glyph-name="w" unicode="w" horiz-adv-x="836" 
d="M151 0l-104 354c-4 13 -10 16 -22 16h-15v145h128c38 0 60 -15 67 -49l52 -255c6 -28 6 -54 6 -54h2s2 26 9 54l71 302h148l71 -302c7 -28 8 -54 8 -54h2s0 26 6 54l52 255c7 34 28 49 66 49h128v-145h-15c-12 0 -17 -3 -22 -16l-104 -354h-197l-58 238
c-7 28 -10 55 -10 55h-2s-3 -27 -10 -55l-58 -238h-199z" />
    <glyph glyph-name="x" unicode="x" horiz-adv-x="539" 
d="M5 0l159 255l-65 100c-9 13 -12 15 -33 15h-49v145h129c36 0 57 -9 74 -42l33 -63c7 -13 15 -34 15 -34h2s9 21 16 34l33 63c17 33 38 42 74 42h129v-145h-49c-21 0 -24 -2 -33 -15l-65 -100l159 -255h-190l-62 106c-5 9 -12 26 -12 26h-2s-7 -17 -12 -26l-61 -106h-190z
" />
    <glyph glyph-name="y" unicode="y" horiz-adv-x="565" 
d="M58 -33c0 0 30 -33 71 -33c28 0 60 8 77 51l6 15l-163 354c-6 13 -10 16 -22 16h-19v145h126c29 0 50 -15 60 -42l76 -208c10 -28 19 -80 19 -80h2s9 52 17 80l57 208c7 27 34 42 61 42h129v-145h-19c-12 0 -19 -3 -24 -16l-156 -409c-44 -114 -133 -155 -215 -155
c-89 0 -145 55 -145 55z" />
    <glyph glyph-name="z" unicode="z" horiz-adv-x="521" 
d="M17 0v86l198 237c26 32 45 47 45 47v2s-13 -2 -45 -2h-19c-14 0 -22 -8 -22 -22v-21h-155v115c0 51 22 73 73 73h394v-87l-197 -237c-25 -31 -46 -47 -46 -47v-2s13 3 46 3h38c14 0 22 8 22 22v21h155v-115c0 -51 -22 -73 -73 -73h-414z" />
    <glyph glyph-name="braceleft" unicode="{" horiz-adv-x="372" 
d="M102 62v98c0 96 -85 96 -85 96v150s85 0 85 99v88c0 143 129 162 199 162c25 0 43 -2 43 -2v-124s-11 2 -25 2c-29 0 -73 -8 -73 -54v-117c0 -102 -84 -127 -84 -127v-2s84 -21 84 -126v-127c0 -46 44 -54 73 -54c14 0 25 2 25 2v-124s-18 -2 -43 -2
c-70 0 -199 19 -199 162z" />
    <glyph glyph-name="bar" unicode="|" horiz-adv-x="334" 
d="M95 -165v967h144v-967h-144z" />
    <glyph glyph-name="braceright" unicode="}" horiz-adv-x="372" 
d="M28 26c0 0 11 -2 25 -2c29 0 73 8 73 54v127c0 105 84 126 84 126v2s-84 25 -84 127v117c0 46 -44 54 -73 54c-14 0 -25 -2 -25 -2v124s18 2 43 2c70 0 199 -19 199 -162v-88c0 -99 85 -99 85 -99v-150s-85 0 -85 -96v-98c0 -143 -129 -162 -199 -162c-25 0 -43 2 -43 2
v124z" />
    <glyph glyph-name="asciitilde" unicode="~" 
d="M48 191c0 134 58 203 174 203c93 0 120 -80 172 -80c32 0 55 25 55 76h133c0 -134 -58 -203 -173 -203c-93 0 -120 80 -173 80c-31 0 -54 -25 -54 -76h-134z" />
    <glyph glyph-name="exclamdown" unicode="&#xa1;" horiz-adv-x="360" 
d="M101 364v150h158v-150h-158zM90 -200l16 493h148l16 -493h-180z" />
    <glyph glyph-name="cent" unicode="&#xa2;" horiz-adv-x="617" 
d="M266 -35v110c-118 27 -211 140 -211 283c0 142 93 256 211 283v109h114v-109c90 -20 162 -84 191 -172l-154 -60c-13 39 -44 75 -90 75c-47 0 -98 -50 -98 -126c0 -83 46 -126 98 -126c45 0 77 35 90 75l154 -60c-24 -68 -88 -157 -191 -172v-110h-114z" />
    <glyph glyph-name="sterling" unicode="&#xa3;" horiz-adv-x="589" 
d="M41 0v150h55v149h-43v112h43v100c0 128 103 216 244 216c118 0 196 -83 196 -83l-97 -118s-46 44 -94 44c-38 0 -70 -25 -70 -64v-95h165v-112h-165v-149h93c14 0 22 8 22 22v39h160v-138c0 -51 -22 -73 -73 -73h-436z" />
    <glyph glyph-name="yen" unicode="&#xa5;" horiz-adv-x="633" 
d="M68 179v96h159v38l-26 39h-133v96h69v2l-62 93c-13 20 -14 22 -36 22h-29v150h98c44 0 68 -7 92 -48l73 -123c27 -46 43 -78 43 -78h2s16 32 43 78l72 123c24 41 48 48 92 48h98v-150h-29c-22 0 -23 -2 -36 -22l-62 -93v-2h68v-96h-132l-26 -39v-38h158v-96h-158v-179
h-179v179h-159z" />
    <glyph glyph-name="section" unicode="&#xa7;" horiz-adv-x="573" 
d="M171 179l-76 273c-7 26 -10 51 -10 75c0 114 77 200 231 200c133 0 207 -77 207 -77l-74 -108s-54 47 -131 47c-55 0 -98 -17 -98 -83c0 -19 3 -41 10 -67l72 -260h-131zM62 15l69 115s59 -55 137 -55c53 0 98 23 98 94c0 21 -4 46 -13 77l-68 240h131l74 -273
c7 -26 10 -51 10 -75c0 -114 -77 -200 -231 -200c-133 0 -207 77 -207 77z" />
    <glyph glyph-name="dieresis" unicode="&#xa8;" horiz-adv-x="522" 
d="M306 771v140h112v-140h-112zM103 771v140h112v-140h-112z" />
    <glyph glyph-name="copyright" unicode="&#xa9;" horiz-adv-x="772" 
d="M25 358c0 204 161 368 359 368c202 0 363 -164 363 -368s-161 -370 -363 -370c-198 0 -359 166 -359 370zM138 358c0 -149 107 -267 246 -267c142 0 251 118 251 267c0 148 -109 265 -251 265c-139 0 -246 -117 -246 -265zM214 355c0 106 80 187 172 187
c130 0 162 -115 162 -115l-100 -39s-14 49 -58 49c-30 0 -59 -33 -59 -82c0 -54 25 -82 59 -82c44 0 58 49 58 49l100 -39s-32 -115 -162 -115c-92 0 -172 81 -172 187z" />
    <glyph glyph-name="ordfeminine" unicode="&#xaa;" horiz-adv-x="418" 
d="M148 384c-54 0 -107 38 -107 107c0 85 108 103 170 103h14c-2 29 -10 37 -32 37c-9 0 -19 -3 -19 -11v-9h-112v46c0 60 94 68 131 68c114 0 151 -62 151 -136v-82c0 -10 4 -14 14 -14h23v-103h-85c-25 0 -50 5 -57 31l-2 7h-2s-29 -44 -87 -44zM182 475c24 0 38 21 44 47
h-7c-26 0 -58 -7 -58 -27c0 -12 5 -20 21 -20zM43 268v85h338v-85h-338z" />
    <glyph glyph-name="guillemotleft" unicode="&#xab;" horiz-adv-x="686" 
d="M312 282l164 206h158l-164 -206l164 -205h-158zM216 77l-164 205l164 206h158l-164 -206l164 -205h-158z" />
    <glyph glyph-name="logicalnot" unicode="&#xac;" 
d="M62 337v130h506v-335h-135v205h-371z" />
    <glyph glyph-name="registered" unicode="&#xae;" horiz-adv-x="772" 
d="M25 358c0 204 161 368 359 368c202 0 363 -164 363 -368s-161 -370 -363 -370c-198 0 -359 166 -359 370zM138 358c0 -149 107 -267 246 -267c142 0 251 118 251 267c0 148 -109 265 -251 265c-139 0 -246 -117 -246 -265zM254 187v273h-29v74h192c75 0 122 -45 122 -115
c0 -56 -41 -84 -58 -89v-2s15 -3 25 -19l22 -37c7 -11 13 -12 18 -12h12v-73h-63c-25 0 -39 6 -50 26l-44 80c-6 12 -20 12 -31 12h-8v-118h-108zM362 377h27c26 0 40 15 40 42c0 28 -14 41 -38 41h-29v-83z" />
    <glyph glyph-name="macron" unicode="&#xaf;" horiz-adv-x="471" 
d="M97 782v107h275v-107h-275z" />
    <glyph glyph-name="macron" unicode="&#x2c9;" horiz-adv-x="471" 
d="M97 782v107h275v-107h-275z" />
    <glyph glyph-name="degree" unicode="&#xb0;" horiz-adv-x="432" 
d="M216 385c-101 0 -181 76 -181 172c0 94 80 173 181 173c100 0 181 -79 181 -173c0 -96 -81 -172 -181 -172zM216 505c30 0 55 23 55 53c0 28 -25 52 -55 52s-55 -24 -55 -52c0 -30 25 -53 55 -53z" />
    <glyph glyph-name="plusminus" unicode="&#xb1;" 
d="M42 222v130h205v223h136v-223h205v-130h-205v-222h-136v222h-205zM52 -70h526v-130h-526v130z" />
    <glyph glyph-name="twosuperior" unicode="&#xb2;" horiz-adv-x="460" 
d="M107 268c-42 0 -55 10 -55 83c0 85 65 126 120 158c40 22 75 44 75 75c0 18 -14 26 -32 26c-22 0 -31 -11 -31 -21v-20h-115v59c0 66 92 96 149 96c75 0 156 -43 156 -138s-79 -135 -136 -165c-31 -16 -55 -30 -55 -40c0 -5 6 -5 13 -5h76c4 0 6 2 6 6v31h115v-92
c0 -37 -17 -53 -53 -53h-233z" />
    <glyph glyph-name="threesuperior" unicode="&#xb3;" horiz-adv-x="460" 
d="M235 260c-109 0 -177 102 -177 102l85 76s40 -61 90 -61c29 0 45 16 45 34s-15 31 -47 31h-35l-16 68l54 81c7 11 17 20 17 20v2s-14 -2 -27 -2h-26c-5 0 -7 -3 -7 -8v-21h-115v84c0 35 10 49 48 49h266v-86l-71 -93c69 -21 86 -87 86 -127c0 -96 -84 -149 -170 -149z
" />
    <glyph glyph-name="acute" unicode="&#xb4;" horiz-adv-x="430" 
d="M130 761l81 150h157l-118 -150h-120z" />
    <glyph glyph-name="mu" unicode="&#xb5;" horiz-adv-x="666" 
d="M17 370v145h160c51 0 73 -22 73 -73v-229c0 -48 19 -68 55 -68c74 0 109 65 109 142v228h173v-348c0 -14 8 -22 22 -22h38v-145h-154c-47 0 -72 23 -72 58v7c0 5 1 12 1 12h-3s-40 -89 -159 -89c-25 0 -42 4 -42 4h-2s8 -48 8 -88v-104h-147v548c0 14 -8 22 -22 22h-38z
" />
    <glyph glyph-name="mu" unicode="&#x3bc;" horiz-adv-x="666" 
d="M17 370v145h160c51 0 73 -22 73 -73v-229c0 -48 19 -68 55 -68c74 0 109 65 109 142v228h173v-348c0 -14 8 -22 22 -22h38v-145h-154c-47 0 -72 23 -72 58v7c0 5 1 12 1 12h-3s-40 -89 -159 -89c-25 0 -42 4 -42 4h-2s8 -48 8 -88v-104h-147v548c0 14 -8 22 -22 22h-38z
" />
    <glyph glyph-name="paragraph" unicode="&#xb6;" horiz-adv-x="665" 
d="M268 -50v291c-129 0 -233 104 -233 238s104 236 233 236h357v-150h-237v-615h-120zM450 -50v565h120v-565h-120z" />
    <glyph glyph-name="periodcentered" unicode="&#xb7;" horiz-adv-x="304" 
d="M73 213v164h158v-164h-158z" />
    <glyph glyph-name="periodcentered" unicode="&#x2219;" horiz-adv-x="304" 
d="M73 213v164h158v-164h-158z" />
    <glyph glyph-name="cedilla" unicode="&#xb8;" horiz-adv-x="425" 
d="M166 29l72 -17v-7l-10 -41c40 -4 75 -27 75 -80c0 -72 -60 -94 -117 -94c-38 0 -71 9 -71 9v87s23 -10 45 -10s38 7 38 23c0 17 -21 21 -41 21c-13 0 -26 -2 -26 -2z" />
    <glyph glyph-name="onesuperior" unicode="&#xb9;" horiz-adv-x="460" 
d="M66 268v108h90v149c0 19 1 30 1 30h-2s-3 -8 -9 -13l-25 -22l-72 79l124 116h109v-339h89v-108h-305z" />
    <glyph glyph-name="ordmasculine" unicode="&#xba;" horiz-adv-x="455" 
d="M227 385c-100 0 -182 68 -182 170s82 170 181 170c102 0 184 -68 184 -170s-82 -170 -183 -170zM227 488c34 0 63 25 63 67c0 41 -29 68 -63 68s-63 -27 -63 -68c0 -42 29 -67 63 -67zM58 268v85h338v-85h-338z" />
    <glyph glyph-name="guillemotright" unicode="&#xbb;" horiz-adv-x="686" 
d="M312 77l164 205l-164 206h158l164 -206l-164 -205h-158zM52 77l164 205l-164 206h158l164 -206l-164 -205h-158z" />
    <glyph glyph-name="onequarter" unicode="&#xbc;" horiz-adv-x="985" 
d="M325 0l261 715h127l-261 -715h-127zM76 268v108h90v149c0 19 1 30 1 30h-2s-3 -8 -9 -13l-25 -22l-72 79l124 116h109v-339h82v-108h-298zM570 101v71l150 276h159v-238h63v-109h-63v-101h-127v101h-182zM691 209c0 0 10 1 17 1h46v93c0 14 1 29 1 29h-2s-5 -16 -12 -29
l-37 -73c-6 -11 -13 -19 -13 -19v-2z" />
    <glyph glyph-name="onehalf" unicode="&#xbd;" horiz-adv-x="985" 
d="M311 0l261 715h127l-261 -715h-127zM76 268v108h90v149c0 19 1 30 1 30h-2s-3 -8 -9 -13l-25 -22l-72 79l124 116h109v-339h82v-108h-298zM605 83c0 85 65 126 120 158c40 22 75 44 75 75c0 18 -14 26 -32 26c-22 0 -31 -11 -31 -21v-20h-115v59c0 66 92 96 149 96
c75 0 156 -43 156 -138s-79 -135 -136 -165c-31 -16 -55 -30 -55 -40c0 -5 6 -5 13 -5h76c4 0 6 2 6 6v31h115v-92c0 -37 -17 -53 -53 -53h-233c-42 0 -55 10 -55 83z" />
    <glyph glyph-name="threequarters" unicode="&#xbe;" horiz-adv-x="985" 
d="M320 0l261 715h127l-261 -715h-127zM231 260c-109 0 -177 102 -177 102l85 76s40 -61 90 -61c29 0 45 16 45 34s-15 31 -47 31h-35l-16 68l54 81c7 11 17 20 17 20v2s-14 -2 -27 -2h-26c-5 0 -7 -3 -7 -8v-21h-115v84c0 35 10 49 48 49h266v-86l-71 -93
c69 -21 86 -87 86 -127c0 -96 -84 -149 -170 -149zM570 101v71l150 276h159v-238h63v-109h-63v-101h-127v101h-182zM691 209c0 0 10 1 17 1h46v93c0 14 1 29 1 29h-2s-5 -16 -12 -29l-37 -73c-6 -11 -13 -19 -13 -19v-2z" />
    <glyph glyph-name="questiondown" unicode="&#xbf;" horiz-adv-x="511" 
d="M210 365v150h158v-150h-158zM35 -14c0 164 171 188 171 277v31h166v-45c0 -135 -157 -159 -157 -243c0 -34 33 -59 71 -59c48 0 95 43 95 43l96 -117s-75 -83 -209 -83c-112 0 -233 67 -233 196z" />
    <glyph glyph-name="Agrave" unicode="&#xc0;" horiz-adv-x="688" 
d="M10 0v150h19c16 0 21 5 27 22l195 543h186l195 -543c6 -17 11 -22 27 -22h19v-150h-115c-50 0 -70 15 -84 58l-31 92h-208l-31 -92c-14 -43 -34 -58 -84 -58h-115zM278 295h132l-36 119c-14 45 -29 118 -29 118h-2s-15 -73 -29 -118zM281 761l-118 150h157l81 -150h-120z
" />
    <glyph glyph-name="Aacute" unicode="&#xc1;" horiz-adv-x="688" 
d="M10 0v150h19c16 0 21 5 27 22l195 543h186l195 -543c6 -17 11 -22 27 -22h19v-150h-115c-50 0 -70 15 -84 58l-31 92h-208l-31 -92c-14 -43 -34 -58 -84 -58h-115zM278 295h132l-36 119c-14 45 -29 118 -29 118h-2s-15 -73 -29 -118zM281 761l81 150h157l-118 -150h-120z
" />
    <glyph glyph-name="Acircumflex" unicode="&#xc2;" horiz-adv-x="688" 
d="M10 0v150h19c16 0 21 5 27 22l195 543h186l195 -543c6 -17 11 -22 27 -22h19v-150h-115c-50 0 -70 15 -84 58l-31 92h-208l-31 -92c-14 -43 -34 -58 -84 -58h-115zM278 295h132l-36 119c-14 45 -29 118 -29 118h-2s-15 -73 -29 -118zM176 761l98 150h140l99 -150h-121
l-47 82h-2l-47 -82h-120z" />
    <glyph glyph-name="Atilde" unicode="&#xc3;" horiz-adv-x="688" 
d="M10 0v150h19c16 0 21 5 27 22l195 543h186l195 -543c6 -17 11 -22 27 -22h19v-150h-115c-50 0 -70 15 -84 58l-31 92h-208l-31 -92c-14 -43 -34 -58 -84 -58h-115zM278 295h132l-36 119c-14 45 -29 118 -29 118h-2s-15 -73 -29 -118zM143 761c0 101 44 153 131 153
c70 0 90 -60 130 -60c24 0 41 19 41 57h101c0 -101 -44 -153 -131 -153c-70 0 -90 60 -130 60c-24 0 -41 -19 -41 -57h-101z" />
    <glyph glyph-name="Adieresis" unicode="&#xc4;" horiz-adv-x="688" 
d="M10 0v150h19c16 0 21 5 27 22l195 543h186l195 -543c6 -17 11 -22 27 -22h19v-150h-115c-50 0 -70 15 -84 58l-31 92h-208l-31 -92c-14 -43 -34 -58 -84 -58h-115zM278 295h132l-36 119c-14 45 -29 118 -29 118h-2s-15 -73 -29 -118zM390 771v140h112v-140h-112zM187 771
v140h112v-140h-112z" />
    <glyph glyph-name="Aring" unicode="&#xc5;" horiz-adv-x="688" 
d="M10 0v150h19c16 0 21 5 27 22l195 543h186l195 -543c6 -17 11 -22 27 -22h19v-150h-115c-50 0 -70 15 -84 58l-31 92h-208l-31 -92c-14 -43 -34 -58 -84 -58h-115zM278 295h132l-36 119c-14 45 -29 118 -29 118h-2s-15 -73 -29 -118zM344 747c-49 0 -101 26 -101 85
s52 86 101 86s102 -27 102 -86s-53 -85 -102 -85zM344 797c21 0 37 14 37 35c0 22 -16 36 -37 36c-20 0 -36 -14 -36 -36c0 -21 15 -35 36 -35z" />
    <glyph glyph-name="AE" unicode="&#xc6;" horiz-adv-x="945" 
d="M10 0v150h19c16 0 20 5 27 22l235 543h538c51 0 73 -22 73 -73v-138h-160v39c0 14 -8 22 -22 22h-97v-130h204v-150h-204v-113c0 -14 8 -22 22 -22h99c14 0 22 8 22 22v39h160v-138c0 -51 -22 -73 -73 -73h-337c-51 0 -73 22 -73 73v212h-159l-85 -227
c-16 -42 -34 -58 -84 -58h-105zM341 435h102v130h-53z" />
    <glyph glyph-name="Ccedilla" unicode="&#xc7;" horiz-adv-x="720" 
d="M24 365c0 205 157 362 370 362c85 0 274 -33 274 -167v-94h-160v39c0 41 -64 57 -110 57c-104 0 -188 -67 -188 -197c0 -117 84 -212 189 -212c127 0 207 90 207 90l91 -127s-98 -118 -281 -127l-6 -25c40 -4 75 -27 75 -80c0 -72 -60 -94 -117 -94c-38 0 -71 9 -71 9v87
s23 -10 45 -10s38 7 38 23c0 17 -21 21 -41 21c-13 0 -26 -2 -26 -2l23 74c-192 25 -312 177 -312 373z" />
    <glyph glyph-name="Egrave" unicode="&#xc8;" horiz-adv-x="594" 
d="M93 73v492h-65v150h450c51 0 73 -22 73 -73v-138h-160v39c0 14 -8 22 -22 22h-97v-130h204v-150h-204v-113c0 -14 8 -22 22 -22h99c14 0 22 8 22 22v39h160v-138c0 -51 -22 -73 -73 -73h-336c-51 0 -73 22 -73 73zM236 761l-118 150h157l81 -150h-120z" />
    <glyph glyph-name="Eacute" unicode="&#xc9;" horiz-adv-x="594" 
d="M93 73v492h-65v150h450c51 0 73 -22 73 -73v-138h-160v39c0 14 -8 22 -22 22h-97v-130h204v-150h-204v-113c0 -14 8 -22 22 -22h99c14 0 22 8 22 22v39h160v-138c0 -51 -22 -73 -73 -73h-336c-51 0 -73 22 -73 73zM236 761l81 150h157l-118 -150h-120z" />
    <glyph glyph-name="Ecircumflex" unicode="&#xca;" horiz-adv-x="594" 
d="M93 73v492h-65v150h450c51 0 73 -22 73 -73v-138h-160v39c0 14 -8 22 -22 22h-97v-130h204v-150h-204v-113c0 -14 8 -22 22 -22h99c14 0 22 8 22 22v39h160v-138c0 -51 -22 -73 -73 -73h-336c-51 0 -73 22 -73 73zM131 761l98 150h140l99 -150h-121l-47 82h-2l-47 -82
h-120z" />
    <glyph glyph-name="Edieresis" unicode="&#xcb;" horiz-adv-x="594" 
d="M93 73v492h-65v150h450c51 0 73 -22 73 -73v-138h-160v39c0 14 -8 22 -22 22h-97v-130h204v-150h-204v-113c0 -14 8 -22 22 -22h99c14 0 22 8 22 22v39h160v-138c0 -51 -22 -73 -73 -73h-336c-51 0 -73 22 -73 73zM345 771v140h112v-140h-112zM142 771v140h112v-140h-112
z" />
    <glyph glyph-name="Igrave" unicode="&#xcc;" horiz-adv-x="381" 
d="M31 0v150h75v415h-75v150h319v-150h-75v-415h75v-150h-319zM127 761l-118 150h157l81 -150h-120z" />
    <glyph glyph-name="Iacute" unicode="&#xcd;" horiz-adv-x="381" 
d="M31 0v150h75v415h-75v150h319v-150h-75v-415h75v-150h-319zM127 761l81 150h157l-118 -150h-120z" />
    <glyph glyph-name="Icircumflex" unicode="&#xce;" horiz-adv-x="381" 
d="M31 0v150h75v415h-75v150h319v-150h-75v-415h75v-150h-319zM22 761l98 150h140l99 -150h-121l-47 82h-2l-47 -82h-120z" />
    <glyph glyph-name="Idieresis" unicode="&#xcf;" horiz-adv-x="381" 
d="M31 0v150h75v415h-75v150h319v-150h-75v-415h75v-150h-319zM236 771v140h112v-140h-112zM33 771v140h112v-140h-112z" />
    <glyph glyph-name="Eth" unicode="&#xd0;" horiz-adv-x="715" 
d="M93 73v211h-47v140h47v141h-65v150h294c225 0 369 -131 369 -356s-144 -359 -369 -359h-156c-51 0 -73 22 -73 73zM272 172c0 -14 8 -22 22 -22h21c118 0 190 72 190 209c0 136 -75 206 -190 206h-43v-141h90v-140h-90v-112z" />
    <glyph glyph-name="Ntilde" unicode="&#xd1;" horiz-adv-x="778" 
d="M28 0v150h43c14 0 22 8 22 22v543h161l198 -307c30 -46 60 -107 60 -107h2s-8 62 -8 107v234c0 51 22 73 73 73h171v-150h-43c-14 0 -22 -8 -22 -22v-543h-160l-199 306c-30 45 -60 107 -60 107h-2s8 -62 8 -107v-233c0 -51 -22 -73 -73 -73h-171zM195 761
c0 101 44 153 131 153c70 0 90 -60 130 -60c24 0 41 19 41 57h101c0 -101 -44 -153 -131 -153c-70 0 -90 60 -130 60c-24 0 -41 -19 -41 -57h-101z" />
    <glyph glyph-name="Ograve" unicode="&#xd2;" horiz-adv-x="796" 
d="M24 362c0 205 158 365 374 365s374 -160 374 -365c0 -210 -158 -374 -374 -374s-374 164 -374 374zM210 362c0 -119 84 -209 188 -209s188 90 188 209c0 114 -84 200 -188 200s-188 -86 -188 -200zM333 761l-118 150h157l81 -150h-120z" />
    <glyph glyph-name="Oacute" unicode="&#xd3;" horiz-adv-x="796" 
d="M24 362c0 205 158 365 374 365s374 -160 374 -365c0 -210 -158 -374 -374 -374s-374 164 -374 374zM210 362c0 -119 84 -209 188 -209s188 90 188 209c0 114 -84 200 -188 200s-188 -86 -188 -200zM333 761l81 150h157l-118 -150h-120z" />
    <glyph glyph-name="Ocircumflex" unicode="&#xd4;" horiz-adv-x="796" 
d="M24 362c0 205 158 365 374 365s374 -160 374 -365c0 -210 -158 -374 -374 -374s-374 164 -374 374zM210 362c0 -119 84 -209 188 -209s188 90 188 209c0 114 -84 200 -188 200s-188 -86 -188 -200zM228 761l98 150h140l99 -150h-121l-47 82h-2l-47 -82h-120z" />
    <glyph glyph-name="Otilde" unicode="&#xd5;" horiz-adv-x="796" 
d="M24 362c0 205 158 365 374 365s374 -160 374 -365c0 -210 -158 -374 -374 -374s-374 164 -374 374zM210 362c0 -119 84 -209 188 -209s188 90 188 209c0 114 -84 200 -188 200s-188 -86 -188 -200zM195 761c0 101 44 153 131 153c70 0 90 -60 130 -60c24 0 41 19 41 57
h101c0 -101 -44 -153 -131 -153c-70 0 -90 60 -130 60c-24 0 -41 -19 -41 -57h-101z" />
    <glyph glyph-name="Odieresis" unicode="&#xd6;" horiz-adv-x="796" 
d="M24 362c0 205 158 365 374 365s374 -160 374 -365c0 -210 -158 -374 -374 -374s-374 164 -374 374zM210 362c0 -119 84 -209 188 -209s188 90 188 209c0 114 -84 200 -188 200s-188 -86 -188 -200zM442 771v140h112v-140h-112zM239 771v140h112v-140h-112z" />
    <glyph glyph-name="multiply" unicode="&#xd7;" 
d="M44 92l182 195l-182 196l92 92l179 -192l180 192l92 -92l-183 -196l183 -195l-92 -92l-180 192l-179 -192z" />
    <glyph glyph-name="Oslash" unicode="&#xd8;" horiz-adv-x="796" 
d="M103 20l43 60c-76 68 -122 168 -122 282c0 205 158 365 374 365c68 0 131 -16 184 -45l44 61l70 -47l-44 -61c75 -67 120 -164 120 -273c0 -210 -158 -374 -374 -374c-67 0 -129 16 -182 44l-43 -60zM253 227l228 315c-25 13 -53 20 -83 20c-104 0 -188 -86 -188 -200
c0 -52 16 -99 43 -135zM317 172c25 -13 52 -19 81 -19c104 0 188 90 188 209c0 48 -15 91 -41 125z" />
    <glyph glyph-name="Ugrave" unicode="&#xd9;" horiz-adv-x="758" 
d="M85 263v280c0 14 -8 22 -22 22h-43v150h171c51 0 73 -22 73 -73v-374c0 -75 47 -115 115 -115s115 40 115 115v374c0 51 22 73 73 73h171v-150h-43c-14 0 -22 -8 -22 -22v-280c0 -161 -116 -275 -293 -275c-179 0 -295 114 -295 275zM316 761l-118 150h157l81 -150h-120z
" />
    <glyph glyph-name="Uacute" unicode="&#xda;" horiz-adv-x="758" 
d="M85 263v280c0 14 -8 22 -22 22h-43v150h171c51 0 73 -22 73 -73v-374c0 -75 47 -115 115 -115s115 40 115 115v374c0 51 22 73 73 73h171v-150h-43c-14 0 -22 -8 -22 -22v-280c0 -161 -116 -275 -293 -275c-179 0 -295 114 -295 275zM316 761l81 150h157l-118 -150h-120z
" />
    <glyph glyph-name="Ucircumflex" unicode="&#xdb;" horiz-adv-x="758" 
d="M85 263v280c0 14 -8 22 -22 22h-43v150h171c51 0 73 -22 73 -73v-374c0 -75 47 -115 115 -115s115 40 115 115v374c0 51 22 73 73 73h171v-150h-43c-14 0 -22 -8 -22 -22v-280c0 -161 -116 -275 -293 -275c-179 0 -295 114 -295 275zM211 761l98 150h140l99 -150h-121
l-47 82h-2l-47 -82h-120z" />
    <glyph glyph-name="Udieresis" unicode="&#xdc;" horiz-adv-x="758" 
d="M85 263v280c0 14 -8 22 -22 22h-43v150h171c51 0 73 -22 73 -73v-374c0 -75 47 -115 115 -115s115 40 115 115v374c0 51 22 73 73 73h171v-150h-43c-14 0 -22 -8 -22 -22v-280c0 -161 -116 -275 -293 -275c-179 0 -295 114 -295 275zM425 771v140h112v-140h-112zM222 771
v140h112v-140h-112z" />
    <glyph glyph-name="Yacute" unicode="&#xdd;" horiz-adv-x="633" 
d="M227 0v313l-152 230c-13 20 -14 22 -36 22h-29v150h98c44 0 68 -7 92 -48l73 -123c27 -46 43 -80 43 -80h2s16 34 43 80l72 123c24 41 48 48 92 48h98v-150h-29c-22 0 -23 -2 -36 -22l-152 -230v-313h-179zM254 761l81 150h157l-118 -150h-120z" />
    <glyph glyph-name="Thorn" unicode="&#xde;" 
d="M93 0v543c0 14 -8 22 -22 22h-43v150h171c51 0 73 -22 73 -73v-33h103c139 0 233 -102 233 -246s-94 -248 -233 -248h-103v-115h-179zM272 265h67c58 0 86 41 86 98s-28 96 -83 96h-70v-194z" />
    <glyph glyph-name="germandbls" unicode="&#xdf;" 
d="M17 0v145h30c14 0 22 8 22 22v360c0 132 125 200 255 200c121 0 231 -77 231 -193c0 -81 -72 -105 -72 -160c0 -50 134 -81 134 -211c0 -117 -92 -175 -194 -175c-96 0 -141 29 -141 29l31 134s39 -19 81 -19c26 0 50 9 50 42c0 47 -135 82 -135 196c0 74 72 108 72 160
c0 31 -23 53 -62 53c-41 0 -77 -16 -77 -68v-442c0 -51 -22 -73 -73 -73h-152z" />
    <glyph glyph-name="agrave" unicode="&#xe0;" horiz-adv-x="584" 
d="M28 154c0 153 219 170 299 170h7v6c0 49 -23 67 -66 67c-22 0 -45 -5 -45 -25v-23h-160v57c0 115 146 121 205 121c180 0 239 -92 239 -210v-150c0 -14 8 -22 22 -22h38v-145h-150c-50 0 -68 31 -68 54v9h-2s-36 -75 -144 -75c-96 0 -175 64 -175 166zM202 163
c0 -24 15 -43 49 -43c45 0 85 49 85 91v8h-16c-55 0 -118 -15 -118 -56zM217 565l-118 150h157l81 -150h-120z" />
    <glyph glyph-name="aacute" unicode="&#xe1;" horiz-adv-x="584" 
d="M28 154c0 153 219 170 299 170h7v6c0 49 -23 67 -66 67c-22 0 -45 -5 -45 -25v-23h-160v57c0 115 146 121 205 121c180 0 239 -92 239 -210v-150c0 -14 8 -22 22 -22h38v-145h-150c-50 0 -68 31 -68 54v9h-2s-36 -75 -144 -75c-96 0 -175 64 -175 166zM202 163
c0 -24 15 -43 49 -43c45 0 85 49 85 91v8h-16c-55 0 -118 -15 -118 -56zM217 565l81 150h157l-118 -150h-120z" />
    <glyph glyph-name="acircumflex" unicode="&#xe2;" horiz-adv-x="584" 
d="M28 154c0 153 219 170 299 170h7v6c0 49 -23 67 -66 67c-22 0 -45 -5 -45 -25v-23h-160v57c0 115 146 121 205 121c180 0 239 -92 239 -210v-150c0 -14 8 -22 22 -22h38v-145h-150c-50 0 -68 31 -68 54v9h-2s-36 -75 -144 -75c-96 0 -175 64 -175 166zM202 163
c0 -24 15 -43 49 -43c45 0 85 49 85 91v8h-16c-55 0 -118 -15 -118 -56zM112 565l98 150h140l99 -150h-121l-47 82h-2l-47 -82h-120z" />
    <glyph glyph-name="atilde" unicode="&#xe3;" horiz-adv-x="584" 
d="M28 154c0 153 219 170 299 170h7v6c0 49 -23 67 -66 67c-22 0 -45 -5 -45 -25v-23h-160v57c0 115 146 121 205 121c180 0 239 -92 239 -210v-150c0 -14 8 -22 22 -22h38v-145h-150c-50 0 -68 31 -68 54v9h-2s-36 -75 -144 -75c-96 0 -175 64 -175 166zM202 163
c0 -24 15 -43 49 -43c45 0 85 49 85 91v8h-16c-55 0 -118 -15 -118 -56zM79 565c0 101 44 153 131 153c70 0 90 -60 130 -60c24 0 41 19 41 57h101c0 -101 -44 -153 -131 -153c-70 0 -90 60 -130 60c-24 0 -41 -19 -41 -57h-101z" />
    <glyph glyph-name="adieresis" unicode="&#xe4;" horiz-adv-x="584" 
d="M28 154c0 153 219 170 299 170h7v6c0 49 -23 67 -66 67c-22 0 -45 -5 -45 -25v-23h-160v57c0 115 146 121 205 121c180 0 239 -92 239 -210v-150c0 -14 8 -22 22 -22h38v-145h-150c-50 0 -68 31 -68 54v9h-2s-36 -75 -144 -75c-96 0 -175 64 -175 166zM202 163
c0 -24 15 -43 49 -43c45 0 85 49 85 91v8h-16c-55 0 -118 -15 -118 -56zM326 575v140h112v-140h-112zM123 575v140h112v-140h-112z" />
    <glyph glyph-name="aring" unicode="&#xe5;" horiz-adv-x="584" 
d="M28 154c0 153 219 170 299 170h7v6c0 49 -23 67 -66 67c-22 0 -45 -5 -45 -25v-23h-160v57c0 115 146 121 205 121c180 0 239 -92 239 -210v-150c0 -14 8 -22 22 -22h38v-145h-150c-50 0 -68 31 -68 54v9h-2s-36 -75 -144 -75c-96 0 -175 64 -175 166zM202 163
c0 -24 15 -43 49 -43c45 0 85 49 85 91v8h-16c-55 0 -118 -15 -118 -56zM280 551c-49 0 -101 26 -101 85s52 86 101 86s102 -27 102 -86s-53 -85 -102 -85zM280 601c21 0 37 14 37 35c0 22 -16 36 -37 36c-20 0 -36 -14 -36 -36c0 -21 15 -35 36 -35z" />
    <glyph glyph-name="ae" unicode="&#xe6;" horiz-adv-x="862" 
d="M29 154c0 153 219 172 302 172h4v8c0 49 -29 63 -67 63c-22 0 -45 -5 -45 -25v-23h-160v57c0 103 118 121 205 121c80 0 131 -19 167 -51h2c39 32 88 51 154 51c133 0 215 -85 234 -202c3 -17 4 -34 4 -52c0 -17 -4 -52 -4 -52h-325c13 -65 65 -89 120 -89
c74 0 137 54 137 54l69 -116s-83 -82 -220 -82c-99 0 -162 35 -207 90h-2c-13 -23 -71 -89 -193 -89c-96 0 -175 64 -175 165zM505 326h147c0 32 -23 71 -61 71c-50 0 -75 -33 -86 -71zM203 163c0 -24 15 -43 51 -43c47 0 84 50 84 92v9h-17c-55 0 -118 -17 -118 -58z" />
    <glyph glyph-name="ccedilla" unicode="&#xe7;" horiz-adv-x="546" 
d="M25 258c0 136 96 269 291 269c72 0 190 -28 190 -121v-71h-150v27c0 16 -19 22 -40 22c-73 0 -117 -55 -117 -124c0 -88 66 -123 130 -123c74 0 142 67 142 67l69 -116s-79 -97 -221 -100l-6 -24c40 -4 75 -27 75 -80c0 -72 -60 -94 -117 -94c-38 0 -71 9 -71 9v87
s23 -10 45 -10s38 7 38 23c0 17 -21 21 -41 21c-13 0 -26 -2 -26 -2l24 78c-139 28 -215 139 -215 262z" />
    <glyph glyph-name="egrave" unicode="&#xe8;" horiz-adv-x="564" 
d="M25 258c0 151 102 269 268 269c152 0 238 -106 238 -249c0 -17 -4 -52 -4 -52h-325c13 -65 65 -94 120 -94c74 0 137 54 137 54l69 -116s-83 -82 -220 -82c-184 0 -283 133 -283 270zM207 331h147c0 32 -25 66 -61 66c-50 0 -75 -28 -86 -66zM226 565l-118 150h157
l81 -150h-120z" />
    <glyph glyph-name="eacute" unicode="&#xe9;" horiz-adv-x="564" 
d="M25 258c0 151 102 269 268 269c152 0 238 -106 238 -249c0 -17 -4 -52 -4 -52h-325c13 -65 65 -94 120 -94c74 0 137 54 137 54l69 -116s-83 -82 -220 -82c-184 0 -283 133 -283 270zM207 331h147c0 32 -25 66 -61 66c-50 0 -75 -28 -86 -66zM226 565l81 150h157
l-118 -150h-120z" />
    <glyph glyph-name="ecircumflex" unicode="&#xea;" horiz-adv-x="564" 
d="M25 258c0 151 102 269 268 269c152 0 238 -106 238 -249c0 -17 -4 -52 -4 -52h-325c13 -65 65 -94 120 -94c74 0 137 54 137 54l69 -116s-83 -82 -220 -82c-184 0 -283 133 -283 270zM207 331h147c0 32 -25 66 -61 66c-50 0 -75 -28 -86 -66zM121 565l98 150h140l99 -150
h-121l-47 82h-2l-47 -82h-120z" />
    <glyph glyph-name="edieresis" unicode="&#xeb;" horiz-adv-x="564" 
d="M25 258c0 151 102 269 268 269c152 0 238 -106 238 -249c0 -17 -4 -52 -4 -52h-325c13 -65 65 -94 120 -94c74 0 137 54 137 54l69 -116s-83 -82 -220 -82c-184 0 -283 133 -283 270zM207 331h147c0 32 -25 66 -61 66c-50 0 -75 -28 -86 -66zM335 575v140h112v-140h-112z
M132 575v140h112v-140h-112z" />
    <glyph glyph-name="igrave" unicode="&#xec;" horiz-adv-x="341" 
d="M84 73v275c0 14 -8 22 -22 22h-38v145h160c51 0 73 -22 73 -73v-275c0 -14 8 -22 22 -22h38v-145h-160c-51 0 -73 22 -73 73zM99 565l-118 150h157l81 -150h-120z" />
    <glyph glyph-name="iacute" unicode="&#xed;" horiz-adv-x="341" 
d="M84 73v275c0 14 -8 22 -22 22h-38v145h160c51 0 73 -22 73 -73v-275c0 -14 8 -22 22 -22h38v-145h-160c-51 0 -73 22 -73 73zM99 565l81 150h157l-118 -150h-120z" />
    <glyph glyph-name="icircumflex" unicode="&#xee;" horiz-adv-x="341" 
d="M84 73v275c0 14 -8 22 -22 22h-38v145h160c51 0 73 -22 73 -73v-275c0 -14 8 -22 22 -22h38v-145h-160c-51 0 -73 22 -73 73zM-6 565l98 150h140l99 -150h-121l-47 82h-2l-47 -82h-120z" />
    <glyph glyph-name="idieresis" unicode="&#xef;" horiz-adv-x="341" 
d="M84 73v275c0 14 -8 22 -22 22h-38v145h160c51 0 73 -22 73 -73v-275c0 -14 8 -22 22 -22h38v-145h-160c-51 0 -73 22 -73 73zM193 575v140h112v-140h-112zM15 575v140h112v-140h-112z" />
    <glyph glyph-name="eth" unicode="&#xf0;" horiz-adv-x="601" 
d="M39 241c0 116 87 223 231 223c39 0 69 -9 69 -9h2c-14 21 -40 46 -70 63l-192 -79v95l92 39c-33 14 -68 25 -95 30l48 135c86 -18 165 -48 232 -89l161 67v-95l-81 -34c79 -76 127 -177 127 -304c0 -138 -69 -295 -270 -295c-162 0 -254 123 -254 253zM213 236
c0 -53 22 -104 83 -104c69 0 93 61 93 118c0 48 -30 82 -83 82c-63 0 -93 -45 -93 -96z" />
    <glyph glyph-name="ntilde" unicode="&#xf1;" horiz-adv-x="671" 
d="M79 0v348c0 14 -8 22 -22 22h-38v145h154c47 0 72 -23 72 -58v-7c0 -5 -1 -12 -1 -12h2c24 40 72 89 163 89c104 0 185 -48 185 -193v-167c0 -14 8 -22 22 -22h38v-145h-160c-51 0 -73 22 -73 73v229c0 48 -19 68 -57 68c-54 0 -87 -30 -102 -74c-7 -20 -10 -43 -10 -68
v-228h-173zM138 565c0 101 44 153 131 153c70 0 90 -60 130 -60c24 0 41 19 41 57h101c0 -101 -44 -153 -131 -153c-70 0 -90 60 -130 60c-24 0 -41 -19 -41 -57h-101z" />
    <glyph glyph-name="ograve" unicode="&#xf2;" horiz-adv-x="632" 
d="M25 256c0 162 129 271 290 271c163 0 292 -109 292 -271c0 -161 -129 -268 -291 -268s-291 107 -291 268zM199 256c0 -77 54 -124 117 -124s117 47 117 124c0 78 -54 127 -117 127s-117 -49 -117 -127zM253 565l-118 150h157l81 -150h-120z" />
    <glyph glyph-name="oacute" unicode="&#xf3;" horiz-adv-x="632" 
d="M25 256c0 162 129 271 290 271c163 0 292 -109 292 -271c0 -161 -129 -268 -291 -268s-291 107 -291 268zM199 256c0 -77 54 -124 117 -124s117 47 117 124c0 78 -54 127 -117 127s-117 -49 -117 -127zM253 565l81 150h157l-118 -150h-120z" />
    <glyph glyph-name="ocircumflex" unicode="&#xf4;" horiz-adv-x="632" 
d="M25 256c0 162 129 271 290 271c163 0 292 -109 292 -271c0 -161 -129 -268 -291 -268s-291 107 -291 268zM199 256c0 -77 54 -124 117 -124s117 47 117 124c0 78 -54 127 -117 127s-117 -49 -117 -127zM148 565l98 150h140l99 -150h-121l-47 82h-2l-47 -82h-120z" />
    <glyph glyph-name="otilde" unicode="&#xf5;" horiz-adv-x="632" 
d="M25 256c0 162 129 271 290 271c163 0 292 -109 292 -271c0 -161 -129 -268 -291 -268s-291 107 -291 268zM199 256c0 -77 54 -124 117 -124s117 47 117 124c0 78 -54 127 -117 127s-117 -49 -117 -127zM115 565c0 101 44 153 131 153c70 0 90 -60 130 -60
c24 0 41 19 41 57h101c0 -101 -44 -153 -131 -153c-70 0 -90 60 -130 60c-24 0 -41 -19 -41 -57h-101z" />
    <glyph glyph-name="odieresis" unicode="&#xf6;" horiz-adv-x="632" 
d="M25 256c0 162 129 271 290 271c163 0 292 -109 292 -271c0 -161 -129 -268 -291 -268s-291 107 -291 268zM199 256c0 -77 54 -124 117 -124s117 47 117 124c0 78 -54 127 -117 127s-117 -49 -117 -127zM362 575v140h112v-140h-112zM159 575v140h112v-140h-112z" />
    <glyph glyph-name="divide" unicode="&#xf7;" 
d="M242 440v135h146v-135h-146zM42 222v130h546v-130h-546zM242 0v135h146v-135h-146z" />
    <glyph glyph-name="oslash" unicode="&#xf8;" horiz-adv-x="632" 
d="M84 -4l39 54c-60 47 -98 119 -98 206c0 162 129 271 290 271c48 0 93 -10 132 -27l43 59l66 -45l-41 -56c57 -48 92 -118 92 -202c0 -161 -129 -268 -291 -268c-44 0 -86 8 -123 22l-43 -60zM219 183l138 192c-13 5 -27 8 -41 8c-63 0 -117 -49 -117 -127
c0 -29 7 -53 20 -73zM284 136c10 -3 21 -4 32 -4c63 0 117 47 117 124c0 25 -6 47 -16 65z" />
    <glyph glyph-name="ugrave" unicode="&#xf9;" horiz-adv-x="666" 
d="M77 181v167c0 14 -8 22 -22 22h-38v145h160c51 0 73 -22 73 -73v-229c0 -48 19 -68 55 -68c74 0 109 65 109 142v228h173v-348c0 -14 8 -22 22 -22h38v-145h-153c-47 0 -73 23 -73 58v7c0 5 1 12 1 12h-2c-28 -55 -91 -89 -160 -89c-102 0 -183 48 -183 193zM264 565
l-118 150h157l81 -150h-120z" />
    <glyph glyph-name="uacute" unicode="&#xfa;" horiz-adv-x="666" 
d="M77 181v167c0 14 -8 22 -22 22h-38v145h160c51 0 73 -22 73 -73v-229c0 -48 19 -68 55 -68c74 0 109 65 109 142v228h173v-348c0 -14 8 -22 22 -22h38v-145h-153c-47 0 -73 23 -73 58v7c0 5 1 12 1 12h-2c-28 -55 -91 -89 -160 -89c-102 0 -183 48 -183 193zM264 565
l81 150h157l-118 -150h-120z" />
    <glyph glyph-name="ucircumflex" unicode="&#xfb;" horiz-adv-x="666" 
d="M77 181v167c0 14 -8 22 -22 22h-38v145h160c51 0 73 -22 73 -73v-229c0 -48 19 -68 55 -68c74 0 109 65 109 142v228h173v-348c0 -14 8 -22 22 -22h38v-145h-153c-47 0 -73 23 -73 58v7c0 5 1 12 1 12h-2c-28 -55 -91 -89 -160 -89c-102 0 -183 48 -183 193zM159 565
l98 150h140l99 -150h-121l-47 82h-2l-47 -82h-120z" />
    <glyph glyph-name="udieresis" unicode="&#xfc;" horiz-adv-x="666" 
d="M77 181v167c0 14 -8 22 -22 22h-38v145h160c51 0 73 -22 73 -73v-229c0 -48 19 -68 55 -68c74 0 109 65 109 142v228h173v-348c0 -14 8 -22 22 -22h38v-145h-153c-47 0 -73 23 -73 58v7c0 5 1 12 1 12h-2c-28 -55 -91 -89 -160 -89c-102 0 -183 48 -183 193zM373 575v140
h112v-140h-112zM170 575v140h112v-140h-112z" />
    <glyph glyph-name="yacute" unicode="&#xfd;" horiz-adv-x="565" 
d="M58 -33c0 0 30 -33 71 -33c28 0 60 8 77 51l6 15l-163 354c-6 13 -10 16 -22 16h-19v145h126c29 0 50 -15 60 -42l76 -208c10 -28 19 -80 19 -80h2s9 52 17 80l57 208c7 27 34 42 61 42h129v-145h-19c-12 0 -19 -3 -24 -16l-156 -409c-44 -114 -133 -155 -215 -155
c-89 0 -145 55 -145 55zM224 565l81 150h157l-118 -150h-120z" />
    <glyph glyph-name="thorn" unicode="&#xfe;" horiz-adv-x="645" 
d="M77 -200v748c0 14 -8 22 -22 22h-38v145h160c51 0 73 -22 73 -73v-119c0 -26 -2 -44 -2 -44h2c31 31 72 48 134 48c142 0 236 -117 236 -269s-94 -270 -236 -270c-97 0 -134 48 -134 48h-2s2 -18 2 -44v-192h-173zM245 257c0 -95 46 -125 104 -125c60 0 97 58 97 126
s-37 125 -97 125c-58 0 -104 -31 -104 -126z" />
    <glyph glyph-name="ydieresis" unicode="&#xff;" horiz-adv-x="565" 
d="M58 -33c0 0 30 -33 71 -33c28 0 60 8 77 51l6 15l-163 354c-6 13 -10 16 -22 16h-19v145h126c29 0 50 -15 60 -42l76 -208c10 -28 19 -80 19 -80h2s9 52 17 80l57 208c7 27 34 42 61 42h129v-145h-19c-12 0 -19 -3 -24 -16l-156 -409c-44 -114 -133 -155 -215 -155
c-89 0 -145 55 -145 55zM333 575v140h112v-140h-112zM130 575v140h112v-140h-112z" />
    <glyph glyph-name="Amacron" unicode="&#x100;" horiz-adv-x="688" 
d="M10 0v150h19c16 0 21 5 27 22l195 543h186l195 -543c6 -17 11 -22 27 -22h19v-150h-115c-50 0 -70 15 -84 58l-31 92h-208l-31 -92c-14 -43 -34 -58 -84 -58h-115zM278 295h132l-36 119c-14 45 -29 118 -29 118h-2s-15 -73 -29 -118zM207 782v107h275v-107h-275z" />
    <glyph glyph-name="amacron" unicode="&#x101;" horiz-adv-x="584" 
d="M28 154c0 153 219 170 299 170h7v6c0 49 -23 67 -66 67c-22 0 -45 -5 -45 -25v-23h-160v57c0 115 146 121 205 121c180 0 239 -92 239 -210v-150c0 -14 8 -22 22 -22h38v-145h-150c-50 0 -68 31 -68 54v9h-2s-36 -75 -144 -75c-96 0 -175 64 -175 166zM202 163
c0 -24 15 -43 49 -43c45 0 85 49 85 91v8h-16c-55 0 -118 -15 -118 -56zM143 586v107h275v-107h-275z" />
    <glyph glyph-name="Abreve" unicode="&#x102;" horiz-adv-x="688" 
d="M10 0v150h19c16 0 21 5 27 22l195 543h186l195 -543c6 -17 11 -22 27 -22h19v-150h-115c-50 0 -70 15 -84 58l-31 92h-208l-31 -92c-14 -43 -34 -58 -84 -58h-115zM278 295h132l-36 119c-14 45 -29 118 -29 118h-2s-15 -73 -29 -118zM344 756c-81 0 -166 52 -166 145v10
h104v-11c0 -40 33 -58 62 -58s62 18 62 58v11h104v-10c0 -93 -85 -145 -166 -145z" />
    <glyph glyph-name="abreve" unicode="&#x103;" horiz-adv-x="584" 
d="M28 154c0 153 219 170 299 170h7v6c0 49 -23 67 -66 67c-22 0 -45 -5 -45 -25v-23h-160v57c0 115 146 121 205 121c180 0 239 -92 239 -210v-150c0 -14 8 -22 22 -22h38v-145h-150c-50 0 -68 31 -68 54v9h-2s-36 -75 -144 -75c-96 0 -175 64 -175 166zM202 163
c0 -24 15 -43 49 -43c45 0 85 49 85 91v8h-16c-55 0 -118 -15 -118 -56zM280 560c-81 0 -166 52 -166 145v10h104v-11c0 -40 33 -58 62 -58s62 18 62 58v11h104v-10c0 -93 -85 -145 -166 -145z" />
    <glyph glyph-name="Aogonek" unicode="&#x104;" horiz-adv-x="688" 
d="M10 0v150h19c16 0 21 5 27 22l195 543h186l195 -543c6 -17 11 -22 27 -22h19v-150c-17 -16 -42 -42 -42 -61c0 -22 38 -25 38 -25l-42 -124s-133 13 -133 99c0 50 35 86 65 110v2c-52 0 -71 14 -85 57l-31 92h-208l-31 -92c-14 -43 -34 -58 -84 -58h-115zM278 295h132
l-36 119c-14 45 -29 118 -29 118h-2s-15 -73 -29 -118z" />
    <glyph glyph-name="aogonek" unicode="&#x105;" horiz-adv-x="584" 
d="M28 154c0 153 219 170 302 170h4v6c0 49 -23 67 -66 67c-22 0 -45 -5 -45 -25v-23h-160v57c0 114 145 121 205 121c180 0 239 -92 239 -210v-150c0 -14 8 -22 22 -22h38v-145c-17 -16 -42 -42 -42 -61c0 -22 38 -25 38 -25l-42 -124s-133 13 -133 99c0 50 36 85 66 109v2
h-37c-48 0 -69 31 -69 50v4c0 4 1 9 1 9h-2s-23 -48 -88 -67c-16 -5 -34 -8 -56 -8c-96 0 -175 64 -175 166zM202 163c0 -24 15 -43 49 -43c45 0 85 49 85 91v8h-16c-55 0 -118 -15 -118 -56z" />
    <glyph glyph-name="Cacute" unicode="&#x106;" horiz-adv-x="720" 
d="M24 365c0 205 157 362 370 362c85 0 274 -33 274 -167v-94h-160v39c0 41 -64 57 -110 57c-104 0 -188 -67 -188 -197c0 -117 87 -212 192 -212c125 0 204 91 204 91l91 -128s-108 -128 -298 -128c-226 0 -375 162 -375 377zM326 761l81 150h157l-118 -150h-120z" />
    <glyph glyph-name="cacute" unicode="&#x107;" horiz-adv-x="546" 
d="M25 258c0 136 96 269 291 269c72 0 190 -28 190 -121v-71h-150v27c0 16 -19 22 -40 22c-73 0 -117 -55 -117 -124c0 -88 66 -123 130 -123c74 0 142 67 142 67l69 -116s-81 -100 -228 -100c-184 0 -287 128 -287 270zM229 565l81 150h157l-118 -150h-120z" />
    <glyph glyph-name="Ccircumflex" unicode="&#x108;" horiz-adv-x="720" 
d="M24 365c0 205 157 362 370 362c85 0 274 -33 274 -167v-94h-160v39c0 41 -64 57 -110 57c-104 0 -188 -67 -188 -197c0 -117 87 -212 192 -212c125 0 204 91 204 91l91 -128s-108 -128 -298 -128c-226 0 -375 162 -375 377zM221 761l98 150h140l99 -150h-121l-47 82h-2
l-47 -82h-120z" />
    <glyph glyph-name="ccircumflex" unicode="&#x109;" horiz-adv-x="546" 
d="M25 258c0 136 96 269 291 269c72 0 190 -28 190 -121v-71h-150v27c0 16 -19 22 -40 22c-73 0 -117 -55 -117 -124c0 -88 66 -123 130 -123c74 0 142 67 142 67l69 -116s-81 -100 -228 -100c-184 0 -287 128 -287 270zM124 565l98 150h140l99 -150h-121l-47 82h-2l-47 -82
h-120z" />
    <glyph glyph-name="Cdotaccent" unicode="&#x10a;" horiz-adv-x="720" 
d="M24 365c0 205 157 362 370 362c85 0 274 -33 274 -167v-94h-160v39c0 41 -64 57 -110 57c-104 0 -188 -67 -188 -197c0 -117 87 -212 192 -212c125 0 204 91 204 91l91 -128s-108 -128 -298 -128c-226 0 -375 162 -375 377zM317 771v140h145v-140h-145z" />
    <glyph glyph-name="cdotaccent" unicode="&#x10b;" horiz-adv-x="546" 
d="M25 258c0 136 96 269 291 269c72 0 190 -28 190 -121v-71h-150v27c0 16 -19 22 -40 22c-73 0 -117 -55 -117 -124c0 -88 66 -123 130 -123c74 0 142 67 142 67l69 -116s-81 -100 -228 -100c-184 0 -287 128 -287 270zM220 575v140h145v-140h-145z" />
    <glyph glyph-name="Ccaron" unicode="&#x10c;" horiz-adv-x="720" 
d="M24 365c0 205 157 362 370 362c85 0 274 -33 274 -167v-94h-160v39c0 41 -64 57 -110 57c-104 0 -188 -67 -188 -197c0 -117 87 -212 192 -212c125 0 204 91 204 91l91 -128s-108 -128 -298 -128c-226 0 -375 162 -375 377zM319 761l-98 150h120l47 -82h2l47 82h121
l-99 -150h-140z" />
    <glyph glyph-name="ccaron" unicode="&#x10d;" horiz-adv-x="546" 
d="M25 258c0 136 96 269 291 269c72 0 190 -28 190 -121v-71h-150v27c0 16 -19 22 -40 22c-73 0 -117 -55 -117 -124c0 -88 66 -123 130 -123c74 0 142 67 142 67l69 -116s-81 -100 -228 -100c-184 0 -287 128 -287 270zM222 565l-98 150h120l47 -82h2l47 82h121l-99 -150
h-140z" />
    <glyph glyph-name="Dcaron" unicode="&#x10e;" horiz-adv-x="715" 
d="M93 73v492h-65v150h294c225 0 369 -131 369 -356s-144 -359 -369 -359h-156c-51 0 -73 22 -73 73zM272 172c0 -14 8 -22 22 -22h21c118 0 190 72 190 209c0 136 -75 206 -190 206h-43v-393zM254 761l-98 150h120l47 -82h2l47 82h121l-99 -150h-140z" />
    <glyph glyph-name="dcaron" unicode="&#x10f;" horiz-adv-x="762" 
d="M25 258c0 163 98 269 235 269c104 0 135 -36 135 -36h2s-1 10 -1 23v34c0 14 -8 22 -22 22h-38v145h160c51 0 73 -22 73 -73v-475c0 -14 8 -22 22 -22h38v-145h-154c-49 0 -67 25 -67 49v9h-2s-43 -70 -149 -70c-140 0 -232 110 -232 270zM300 131c52 0 101 38 101 127
c0 62 -33 123 -101 123c-54 0 -101 -44 -101 -123c0 -77 41 -127 101 -127zM604 715h122c5 -19 7 -36 7 -53c0 -33 -9 -62 -28 -98h-109c12 33 20 60 20 88c0 19 -3 39 -12 63z" />
    <glyph glyph-name="Dcroat" unicode="&#x110;" horiz-adv-x="715" 
d="M93 73v211h-47v140h47v141h-65v150h294c225 0 369 -131 369 -356s-144 -359 -369 -359h-156c-51 0 -73 22 -73 73zM272 172c0 -14 8 -22 22 -22h21c118 0 190 72 190 209c0 136 -75 206 -190 206h-43v-141h90v-140h-90v-112z" />
    <glyph glyph-name="dcroat" unicode="&#x111;" horiz-adv-x="651" 
d="M257 -12c-140 0 -232 110 -232 270c0 163 98 269 235 269c104 0 135 -36 135 -36h2s-1 10 -1 23v40h-123v95h123v66h173v-66h69v-95h-69v-387c0 -14 8 -22 22 -22h38v-145h-154c-49 0 -67 25 -67 49v9h-2s-43 -70 -149 -70zM300 131c52 0 101 38 101 127
c0 62 -33 123 -101 123c-54 0 -101 -44 -101 -123c0 -77 41 -127 101 -127z" />
    <glyph glyph-name="Emacron" unicode="&#x112;" horiz-adv-x="594" 
d="M93 73v492h-65v150h450c51 0 73 -22 73 -73v-138h-160v39c0 14 -8 22 -22 22h-97v-130h204v-150h-204v-113c0 -14 8 -22 22 -22h99c14 0 22 8 22 22v39h160v-138c0 -51 -22 -73 -73 -73h-336c-51 0 -73 22 -73 73zM162 782v107h275v-107h-275z" />
    <glyph glyph-name="emacron" unicode="&#x113;" horiz-adv-x="564" 
d="M25 258c0 151 102 269 268 269c152 0 238 -106 238 -249c0 -17 -4 -52 -4 -52h-325c13 -65 65 -94 120 -94c74 0 137 54 137 54l69 -116s-83 -82 -220 -82c-184 0 -283 133 -283 270zM207 331h147c0 32 -25 66 -61 66c-50 0 -75 -28 -86 -66zM152 586v107h275v-107h-275z
" />
    <glyph glyph-name="Ebreve" unicode="&#x114;" horiz-adv-x="594" 
d="M93 73v492h-65v150h450c51 0 73 -22 73 -73v-138h-160v39c0 14 -8 22 -22 22h-97v-130h204v-150h-204v-113c0 -14 8 -22 22 -22h99c14 0 22 8 22 22v39h160v-138c0 -51 -22 -73 -73 -73h-336c-51 0 -73 22 -73 73zM299 756c-81 0 -166 52 -166 145v10h104v-11
c0 -40 33 -58 62 -58s62 18 62 58v11h104v-10c0 -93 -85 -145 -166 -145z" />
    <glyph glyph-name="ebreve" unicode="&#x115;" horiz-adv-x="564" 
d="M25 258c0 151 102 269 268 269c152 0 238 -106 238 -249c0 -17 -4 -52 -4 -52h-325c13 -65 65 -94 120 -94c74 0 137 54 137 54l69 -116s-83 -82 -220 -82c-184 0 -283 133 -283 270zM207 331h147c0 32 -25 66 -61 66c-50 0 -75 -28 -86 -66zM289 560
c-81 0 -166 52 -166 145v10h104v-11c0 -40 33 -58 62 -58s62 18 62 58v11h104v-10c0 -93 -85 -145 -166 -145z" />
    <glyph glyph-name="Edotaccent" unicode="&#x116;" horiz-adv-x="594" 
d="M93 73v492h-65v150h450c51 0 73 -22 73 -73v-138h-160v39c0 14 -8 22 -22 22h-97v-130h204v-150h-204v-113c0 -14 8 -22 22 -22h99c14 0 22 8 22 22v39h160v-138c0 -51 -22 -73 -73 -73h-336c-51 0 -73 22 -73 73zM227 771v140h145v-140h-145z" />
    <glyph glyph-name="edotaccent" unicode="&#x117;" horiz-adv-x="564" 
d="M25 258c0 151 102 269 268 269c152 0 238 -106 238 -249c0 -17 -4 -52 -4 -52h-325c13 -65 65 -94 120 -94c74 0 137 54 137 54l69 -116s-83 -82 -220 -82c-184 0 -283 133 -283 270zM207 331h147c0 32 -25 66 -61 66c-50 0 -75 -28 -86 -66zM217 575v140h145v-140h-145z
" />
    <glyph glyph-name="Eogonek" unicode="&#x118;" horiz-adv-x="594" 
d="M93 73v492h-65v150h450c51 0 73 -22 73 -73v-138h-160v39c0 14 -8 22 -22 22h-97v-130h204v-150h-204v-113c0 -14 8 -22 22 -22h99c14 0 22 8 22 22v39h160v-138c0 -29 -7 -47 -29 -67c-24 -21 -49 -48 -49 -67c0 -22 38 -25 38 -25l-42 -124s-133 13 -133 99
c0 50 34 85 64 109v2h-258c-51 0 -73 22 -73 73z" />
    <glyph glyph-name="eogonek" unicode="&#x119;" horiz-adv-x="564" 
d="M25 258c0 151 102 269 268 269c152 0 238 -106 238 -249c0 -17 -4 -52 -4 -52h-325c13 -65 65 -94 120 -94c74 0 137 54 137 54l69 -116c-31 -32 -106 -75 -106 -131c0 -22 38 -25 38 -25l-42 -124s-133 13 -133 99c0 44 31 76 61 100v2c-13 -2 -24 -3 -38 -3
c-184 0 -283 133 -283 270zM207 331h147c-2 33 -23 66 -61 66c-50 0 -75 -28 -86 -66z" />
    <glyph glyph-name="Ecaron" unicode="&#x11a;" horiz-adv-x="594" 
d="M93 73v492h-65v150h450c51 0 73 -22 73 -73v-138h-160v39c0 14 -8 22 -22 22h-97v-130h204v-150h-204v-113c0 -14 8 -22 22 -22h99c14 0 22 8 22 22v39h160v-138c0 -51 -22 -73 -73 -73h-336c-51 0 -73 22 -73 73zM229 761l-98 150h120l47 -82h2l47 82h121l-99 -150h-140
z" />
    <glyph glyph-name="ecaron" unicode="&#x11b;" horiz-adv-x="564" 
d="M25 258c0 151 102 269 268 269c152 0 238 -106 238 -249c0 -17 -4 -52 -4 -52h-325c13 -65 65 -94 120 -94c74 0 137 54 137 54l69 -116s-83 -82 -220 -82c-184 0 -283 133 -283 270zM207 331h147c0 32 -25 66 -61 66c-50 0 -75 -28 -86 -66zM219 565l-98 150h120l47 -82
h2l47 82h121l-99 -150h-140z" />
    <glyph glyph-name="Gcircumflex" unicode="&#x11c;" horiz-adv-x="752" 
d="M24 364c0 205 157 363 370 363c183 0 269 -93 269 -93l-100 -127s-71 57 -165 57c-95 0 -188 -74 -188 -199c0 -141 95 -212 197 -212c94 0 148 52 148 52v27c0 14 -8 22 -22 22h-43v150h151c51 0 73 -22 73 -73v-331h-150v20c0 15 1 30 1 30h-2s-71 -62 -193 -62
c-180 0 -346 132 -346 376zM221 761l98 150h140l99 -150h-121l-47 82h-2l-47 -82h-120z" />
    <glyph glyph-name="gcircumflex" unicode="&#x11d;" horiz-adv-x="637" 
d="M25 274c0 131 75 253 231 253c105 0 149 -60 149 -60h2v7c0 14 16 41 55 41h156v-145h-36c-13 0 -22 -7 -22 -19v-304c0 -188 -150 -257 -291 -257c-69 0 -145 20 -195 46l50 135s63 -33 144 -33c62 0 119 23 119 99v8c0 6 1 19 1 19h-2c-30 -33 -69 -49 -129 -49
c-155 0 -232 127 -232 259zM298 159c45 0 93 23 93 113c0 91 -48 111 -100 111c-61 0 -92 -44 -92 -103c0 -64 30 -121 99 -121zM162 565l98 150h140l99 -150h-121l-47 82h-2l-47 -82h-120z" />
    <glyph glyph-name="Gbreve" unicode="&#x11e;" horiz-adv-x="752" 
d="M24 364c0 205 157 363 370 363c183 0 269 -93 269 -93l-100 -127s-71 57 -165 57c-95 0 -188 -74 -188 -199c0 -141 95 -212 197 -212c94 0 148 52 148 52v27c0 14 -8 22 -22 22h-43v150h151c51 0 73 -22 73 -73v-331h-150v20c0 15 1 30 1 30h-2s-71 -62 -193 -62
c-180 0 -346 132 -346 376zM389 756c-81 0 -166 52 -166 145v10h104v-11c0 -40 33 -58 62 -58s62 18 62 58v11h104v-10c0 -93 -85 -145 -166 -145z" />
    <glyph glyph-name="gbreve" unicode="&#x11f;" horiz-adv-x="637" 
d="M25 274c0 131 75 253 231 253c105 0 149 -60 149 -60h2v7c0 14 16 41 55 41h156v-145h-36c-13 0 -22 -7 -22 -19v-304c0 -188 -150 -257 -291 -257c-69 0 -145 20 -195 46l50 135s63 -33 144 -33c62 0 119 23 119 99v8c0 6 1 19 1 19h-2c-30 -33 -69 -49 -129 -49
c-155 0 -232 127 -232 259zM298 159c45 0 93 23 93 113c0 91 -48 111 -100 111c-61 0 -92 -44 -92 -103c0 -64 30 -121 99 -121zM330 560c-81 0 -166 52 -166 145v10h104v-11c0 -40 33 -58 62 -58s62 18 62 58v11h104v-10c0 -93 -85 -145 -166 -145z" />
    <glyph glyph-name="Gdotaccent" unicode="&#x120;" horiz-adv-x="752" 
d="M24 364c0 205 157 363 370 363c183 0 269 -93 269 -93l-100 -127s-71 57 -165 57c-95 0 -188 -74 -188 -199c0 -141 95 -212 197 -212c94 0 148 52 148 52v27c0 14 -8 22 -22 22h-43v150h151c51 0 73 -22 73 -73v-331h-150v20c0 15 1 30 1 30h-2s-71 -62 -193 -62
c-180 0 -346 132 -346 376zM317 771v140h145v-140h-145z" />
    <glyph glyph-name="gdotaccent" unicode="&#x121;" horiz-adv-x="637" 
d="M25 274c0 131 75 253 231 253c105 0 149 -60 149 -60h2v7c0 14 16 41 55 41h156v-145h-36c-13 0 -22 -7 -22 -19v-304c0 -188 -150 -257 -291 -257c-69 0 -145 20 -195 46l50 135s63 -33 144 -33c62 0 119 23 119 99v8c0 6 1 19 1 19h-2c-30 -33 -69 -49 -129 -49
c-155 0 -232 127 -232 259zM298 159c45 0 93 23 93 113c0 91 -48 111 -100 111c-61 0 -92 -44 -92 -103c0 -64 30 -121 99 -121zM258 575v140h145v-140h-145z" />
    <glyph glyph-name="Gcommaaccent" unicode="&#x122;" horiz-adv-x="752" 
d="M24 364c0 205 157 363 370 363c183 0 269 -93 269 -93l-100 -127s-71 57 -165 57c-95 0 -188 -74 -188 -199c0 -141 95 -212 197 -212c94 0 148 52 148 52v27c0 14 -8 22 -22 22h-43v150h151c51 0 73 -22 73 -73v-331h-150v20c0 15 1 30 1 30h-2s-71 -62 -193 -62
c-180 0 -346 132 -346 376zM325 -49h122c5 -19 7 -36 7 -53c0 -33 -9 -62 -28 -98h-109c12 33 20 60 20 88c0 19 -3 39 -12 63z" />
    <glyph glyph-name="gcommaaccent" unicode="&#x123;" horiz-adv-x="637" 
d="M25 274c0 131 75 253 231 253c105 0 149 -60 149 -60h2v7c0 14 16 41 55 41h156v-145h-36c-13 0 -22 -7 -22 -19v-304c0 -188 -150 -257 -291 -257c-69 0 -145 20 -195 46l50 135s63 -33 144 -33c62 0 119 23 119 99v8c0 6 1 19 1 19h-2c-30 -33 -69 -49 -129 -49
c-155 0 -232 127 -232 259zM298 159c45 0 93 23 93 113c0 91 -48 111 -100 111c-61 0 -92 -44 -92 -103c0 -64 30 -121 99 -121zM371 564h-122c-5 19 -7 36 -7 53c0 33 9 62 28 98h109c-12 -33 -20 -60 -20 -88c0 -19 3 -39 12 -63z" />
    <glyph glyph-name="Hcircumflex" unicode="&#x124;" horiz-adv-x="786" 
d="M93 0v543c0 14 -8 22 -22 22h-43v150h171c51 0 73 -22 73 -73v-213h242v213c0 51 22 73 73 73h171v-150h-43c-14 0 -22 -8 -22 -22v-543h-179v280h-242v-280h-179zM226 761l98 150h140l99 -150h-121l-47 82h-2l-47 -82h-120z" />
    <glyph glyph-name="hcircumflex" unicode="&#x125;" horiz-adv-x="667" 
d="M75 0v548c0 14 -8 22 -22 22h-38v145h160c51 0 73 -22 73 -73v-153c0 -26 -2 -44 -2 -44h2c29 51 89 82 157 82c104 0 185 -48 185 -193v-167c0 -14 8 -22 22 -22h38v-145h-160c-51 0 -73 22 -73 73v229c0 48 -19 68 -57 68c-53 0 -88 -31 -103 -76c-7 -20 -9 -42 -9 -66
v-228h-173zM168 761l98 150h140l99 -150h-121l-47 82h-2l-47 -82h-120z" />
    <glyph glyph-name="Hbar" unicode="&#x126;" horiz-adv-x="786" 
d="M93 0v517h-66v107h66v91h179v-91h242v91h179v-91h65v-107h-65v-517h-179v280h-242v-280h-179zM272 429h242v88h-242v-88z" />
    <glyph glyph-name="hbar" unicode="&#x127;" horiz-adv-x="667" 
d="M75 0v554h-69v95h69v66h173v-66h123v-95h-123v-65c0 -26 -2 -44 -2 -44h2s41 82 157 82c104 0 185 -48 185 -193v-167c0 -14 8 -22 22 -22h38v-145h-160c-51 0 -73 22 -73 73v229c0 48 -19 68 -57 68c-78 0 -112 -64 -112 -142v-228h-173z" />
    <glyph glyph-name="Itilde" unicode="&#x128;" horiz-adv-x="381" 
d="M31 0v150h75v415h-75v150h319v-150h-75v-415h75v-150h-319zM-11 761c0 101 44 153 131 153c70 0 90 -60 130 -60c24 0 41 19 41 57h101c0 -101 -44 -153 -131 -153c-70 0 -90 60 -130 60c-24 0 -41 -19 -41 -57h-101z" />
    <glyph glyph-name="itilde" unicode="&#x129;" horiz-adv-x="341" 
d="M84 73v275c0 14 -8 22 -22 22h-38v145h160c51 0 73 -22 73 -73v-275c0 -14 8 -22 22 -22h38v-145h-160c-51 0 -73 22 -73 73zM-19 565c0 101 34 153 117 153c60 0 84 -54 112 -54c21 0 33 13 33 51h101c0 -101 -34 -153 -117 -153c-60 0 -84 54 -112 54
c-21 0 -33 -13 -33 -51h-101z" />
    <glyph glyph-name="Imacron" unicode="&#x12a;" horiz-adv-x="381" 
d="M31 0v150h75v415h-75v150h319v-150h-75v-415h75v-150h-319zM53 782v107h275v-107h-275z" />
    <glyph glyph-name="imacron" unicode="&#x12b;" horiz-adv-x="341" 
d="M84 73v275c0 14 -8 22 -22 22h-38v145h160c51 0 73 -22 73 -73v-275c0 -14 8 -22 22 -22h38v-145h-160c-51 0 -73 22 -73 73zM25 586v107h275v-107h-275z" />
    <glyph glyph-name="Ibreve" unicode="&#x12c;" horiz-adv-x="381" 
d="M31 0v150h75v415h-75v150h319v-150h-75v-415h75v-150h-319zM190 756c-81 0 -166 52 -166 145v10h104v-11c0 -40 33 -58 62 -58s62 18 62 58v11h104v-10c0 -93 -85 -145 -166 -145z" />
    <glyph glyph-name="ibreve" unicode="&#x12d;" horiz-adv-x="341" 
d="M84 73v275c0 14 -8 22 -22 22h-38v145h160c51 0 73 -22 73 -73v-275c0 -14 8 -22 22 -22h38v-145h-160c-51 0 -73 22 -73 73zM162 560c-81 0 -166 52 -166 145v10h104v-11c0 -40 33 -58 62 -58s62 18 62 58v11h104v-10c0 -93 -85 -145 -166 -145z" />
    <glyph glyph-name="Iogonek" unicode="&#x12e;" horiz-adv-x="381" 
d="M31 0v150h75v415h-75v150h319v-150h-75v-415h75v-150c-17 -16 -42 -42 -42 -61c0 -22 38 -25 38 -25l-42 -124s-133 13 -133 99c0 50 34 85 64 109v2h-204z" />
    <glyph glyph-name="iogonek" unicode="&#x12f;" horiz-adv-x="337" 
d="M95 575v140h145v-140h-145zM22 515h160c51 0 73 -22 73 -73v-275c0 -14 8 -22 22 -22h38v-145c-17 -16 -42 -42 -42 -61c0 -22 38 -25 38 -25l-42 -124s-133 13 -133 99c0 50 34 85 64 109v2h-45c-45 0 -73 22 -73 73v275c0 14 -8 22 -22 22h-38v145z" />
    <glyph glyph-name="Idotaccent" unicode="&#x130;" horiz-adv-x="381" 
d="M31 0v150h75v415h-75v150h319v-150h-75v-415h75v-150h-319zM117 771v140h145v-140h-145z" />
    <glyph glyph-name="dotlessi" unicode="&#x131;" horiz-adv-x="341" 
d="M84 73v275c0 14 -8 22 -22 22h-38v145h160c51 0 73 -22 73 -73v-275c0 -14 8 -22 22 -22h38v-145h-160c-51 0 -73 22 -73 73z" />
    <glyph glyph-name="IJ" unicode="&#x132;" horiz-adv-x="781" 
d="M423 -4v158c42 0 116 24 116 116v273c0 14 -8 22 -22 22h-94v150h222c51 0 73 -22 73 -73v-374c0 -227 -163 -272 -295 -272zM31 0v150h75v415h-75v150h319v-150h-75v-415h75v-150h-319z" />
    <glyph glyph-name="ij" unicode="&#x133;" horiz-adv-x="661" 
d="M95 575v140h145v-140h-145zM82 73v275c0 14 -8 22 -22 22h-38v145h160c51 0 73 -22 73 -73v-275c0 -14 8 -22 22 -22h38v-145h-160c-51 0 -73 22 -73 73zM435 575v140h145v-140h-145zM309 -61c0 0 9 -1 22 -1c34 0 93 8 93 66v344c0 14 -8 22 -22 22h-38v145h160
c51 0 73 -22 73 -73v-455c0 -173 -162 -195 -242 -195c-28 0 -46 3 -46 3v144z" />
    <glyph glyph-name="Jcircumflex" unicode="&#x134;" horiz-adv-x="566" 
d="M16 220v52h179v-33c0 -66 31 -86 66 -86c37 0 63 24 63 76v314c0 14 -8 22 -22 22h-170v150h298c51 0 73 -22 73 -73v-422c0 -157 -122 -232 -244 -232s-243 77 -243 232zM143 761l98 150h140l99 -150h-121l-47 82h-2l-47 -82h-120z" />
    <glyph glyph-name="jcircumflex" unicode="&#x135;" horiz-adv-x="329" 
d="M-19 565l99 150h140l98 -150h-120l-48 83l-48 -83h-121zM-18 -65c0 0 9 -1 22 -1c34 0 93 8 93 66v353c0 20 -10 22 -30 22h-30v140h155c50 0 73 -8 73 -58v-470c0 -173 -157 -195 -237 -195c-28 0 -46 3 -46 3v140z" />
    <glyph glyph-name="Kcommaaccent" unicode="&#x136;" horiz-adv-x="669" 
d="M93 0v543c0 14 -8 22 -22 22h-43v150h171c51 0 73 -22 73 -73v-203h24c25 0 43 0 55 22l121 254h195l-143 -289c-24 -49 -53 -62 -53 -62v-2s30 -7 55 -57l65 -132c10 -21 29 -23 49 -23h19v-150h-105c-50 0 -79 8 -101 53l-107 214c-12 23 -33 23 -60 23h-14v-290h-179z
M298 -49h122c5 -19 7 -36 7 -53c0 -33 -9 -62 -28 -98h-109c12 33 20 60 20 88c0 19 -3 39 -12 63z" />
    <glyph glyph-name="kcommaaccent" unicode="&#x137;" horiz-adv-x="597" 
d="M75 0v548c0 14 -8 22 -22 22h-38v145h160c51 0 73 -7 73 -58v-312h27c15 0 32 0 41 16l84 154h188l-117 -198c-19 -33 -38 -43 -38 -43v-2s21 -8 39 -43l33 -67c7 -14 18 -17 38 -17h40v-145h-131c-37 0 -57 6 -74 39l-74 144c-9 17 -28 17 -41 17h-15v-200h-173z
M261 -49h122c5 -19 7 -36 7 -53c0 -33 -9 -62 -28 -98h-109c12 33 20 60 20 88c0 19 -3 39 -12 63z" />
    <glyph glyph-name="kgreenlandic" unicode="&#x138;" horiz-adv-x="597" 
d="M75 0v348c0 14 -8 22 -22 22h-38v145h160c51 0 73 -7 73 -58v-126h27c14 0 33 0 41 16l84 168h185l-117 -208c-19 -33 -38 -43 -38 -43v-2s21 -7 39 -43l28 -57c7 -14 18 -17 38 -17h44v-145h-135c-37 0 -57 6 -74 39l-66 130c-9 17 -28 17 -41 17h-15v-186h-173z" />
    <glyph glyph-name="Lacute" unicode="&#x139;" horiz-adv-x="580" 
d="M93 73v470c0 14 -8 22 -22 22h-43v150h171c51 0 73 -22 73 -73v-470c0 -14 8 -22 22 -22h94c14 0 22 8 22 22v39h160v-138c0 -51 -22 -73 -73 -73h-331c-51 0 -73 22 -73 73zM140 761l81 150h157l-118 -150h-120z" />
    <glyph glyph-name="lacute" unicode="&#x13a;" horiz-adv-x="328" 
d="M75 73v475c0 14 -8 22 -22 22h-38v145h160c51 0 73 -22 73 -73v-475c0 -14 8 -22 22 -22h38v-145h-160c-51 0 -73 22 -73 73zM78 761l81 150h157l-118 -150h-120z" />
    <glyph glyph-name="Lcommaaccent" unicode="&#x13b;" horiz-adv-x="580" 
d="M93 73v470c0 14 -8 22 -22 22h-43v150h171c51 0 73 -22 73 -73v-470c0 -14 8 -22 22 -22h94c14 0 22 8 22 22v39h160v-138c0 -51 -22 -73 -73 -73h-331c-51 0 -73 22 -73 73zM264 -49h122c5 -19 7 -36 7 -53c0 -33 -9 -62 -28 -98h-109c12 33 20 60 20 88
c0 19 -3 39 -12 63z" />
    <glyph glyph-name="lcommaaccent" unicode="&#x13c;" horiz-adv-x="328" 
d="M75 73v475c0 14 -8 22 -22 22h-38v145h160c51 0 73 -22 73 -73v-475c0 -14 8 -22 22 -22h38v-145h-160c-51 0 -73 22 -73 73zM108 -49h122c5 -19 7 -36 7 -53c0 -33 -9 -62 -28 -98h-109c12 33 20 60 20 88c0 19 -3 39 -12 63z" />
    <glyph glyph-name="Lcaron" unicode="&#x13d;" horiz-adv-x="580" 
d="M93 73v470c0 14 -8 22 -22 22h-43v150h171c51 0 73 -22 73 -73v-470c0 -14 8 -22 22 -22h94c14 0 22 8 22 22v39h160v-138c0 -51 -22 -73 -73 -73h-331c-51 0 -73 22 -73 73zM339 715h122c5 -19 7 -36 7 -53c0 -33 -9 -62 -28 -98h-109c12 33 20 60 20 88
c0 19 -3 39 -12 63z" />
    <glyph glyph-name="lcaron" unicode="&#x13e;" horiz-adv-x="448" 
d="M75 73v475c0 14 -8 22 -22 22h-38v145h160c51 0 73 -22 73 -73v-475c0 -14 8 -22 22 -22h38v-145h-160c-51 0 -73 22 -73 73zM290 715h122c5 -19 7 -36 7 -53c0 -33 -9 -62 -28 -98h-109c12 33 20 60 20 88c0 19 -3 39 -12 63z" />
    <glyph glyph-name="Ldot" unicode="&#x13f;" horiz-adv-x="580" 
d="M93 73v470c0 14 -8 22 -22 22h-43v150h171c51 0 73 -22 73 -73v-470c0 -14 8 -22 22 -22h94c14 0 22 8 22 22v39h160v-138c0 -51 -22 -73 -73 -73h-331c-51 0 -73 22 -73 73zM352 315v164h158v-164h-158z" />
    <glyph glyph-name="ldot" unicode="&#x140;" horiz-adv-x="488" 
d="M75 73v475c0 14 -8 22 -22 22h-38v145h160c51 0 73 -22 73 -73v-475c0 -14 8 -22 22 -22h38v-145h-160c-51 0 -73 22 -73 73zM325 315v164h158v-164h-158z" />
    <glyph glyph-name="Lslash" unicode="&#x141;" horiz-adv-x="580" 
d="M93 73v137l-61 -35v166l61 35v167c0 14 -8 22 -22 22h-43v150h171c51 0 73 -22 73 -73v-164l88 51v-166l-88 -51v-140c0 -14 8 -22 22 -22h94c14 0 22 8 22 22v39h160v-138c0 -51 -22 -73 -73 -73h-331c-51 0 -73 22 -73 73z" />
    <glyph glyph-name="lslash" unicode="&#x142;" horiz-adv-x="332" 
d="M77 73v157l-51 -29v168l51 29v150c0 14 -8 22 -22 22h-38v145h160c51 0 73 -22 73 -73v-146l64 36v-165l-64 -37v-163c0 -14 8 -22 22 -22h38v-145h-160c-51 0 -73 22 -73 73z" />
    <glyph glyph-name="Nacute" unicode="&#x143;" horiz-adv-x="778" 
d="M28 0v150h43c14 0 22 8 22 22v543h161l198 -307c30 -46 60 -107 60 -107h2s-8 62 -8 107v234c0 51 22 73 73 73h171v-150h-43c-14 0 -22 -8 -22 -22v-543h-160l-199 306c-30 45 -60 107 -60 107h-2s8 -62 8 -107v-233c0 -51 -22 -73 -73 -73h-171zM333 761l81 150h157
l-118 -150h-120z" />
    <glyph glyph-name="nacute" unicode="&#x144;" horiz-adv-x="671" 
d="M79 0v348c0 14 -8 22 -22 22h-38v145h154c47 0 72 -23 72 -58v-7c0 -5 -1 -12 -1 -12h2c24 40 72 89 163 89c104 0 185 -48 185 -193v-167c0 -14 8 -22 22 -22h38v-145h-160c-51 0 -73 22 -73 73v229c0 48 -19 68 -57 68c-54 0 -87 -30 -102 -74c-7 -20 -10 -43 -10 -68
v-228h-173zM276 565l81 150h157l-118 -150h-120z" />
    <glyph glyph-name="Ncommaaccent" unicode="&#x145;" horiz-adv-x="778" 
d="M28 0v150h43c14 0 22 8 22 22v543h161l198 -307c30 -46 60 -107 60 -107h2s-8 62 -8 107v234c0 51 22 73 73 73h171v-150h-43c-14 0 -22 -8 -22 -22v-543h-160l-199 306c-30 45 -60 107 -60 107h-2s8 -62 8 -107v-233c0 -51 -22 -73 -73 -73h-171zM328 -49h122
c5 -19 7 -36 7 -53c0 -33 -9 -62 -28 -98h-109c12 33 20 60 20 88c0 19 -3 39 -12 63z" />
    <glyph glyph-name="ncommaaccent" unicode="&#x146;" horiz-adv-x="671" 
d="M79 0v348c0 14 -8 22 -22 22h-38v145h154c47 0 72 -23 72 -58v-7c0 -5 -1 -12 -1 -12h2c24 40 72 89 163 89c104 0 185 -48 185 -193v-167c0 -14 8 -22 22 -22h38v-145h-160c-51 0 -73 22 -73 73v229c0 48 -19 68 -57 68c-54 0 -87 -30 -102 -74c-7 -20 -10 -43 -10 -68
v-228h-173zM275 -49h122c5 -19 7 -36 7 -53c0 -33 -9 -62 -28 -98h-109c12 33 20 60 20 88c0 19 -3 39 -12 63z" />
    <glyph glyph-name="Ncaron" unicode="&#x147;" horiz-adv-x="778" 
d="M28 0v150h43c14 0 22 8 22 22v543h161l198 -307c30 -46 60 -107 60 -107h2s-8 62 -8 107v234c0 51 22 73 73 73h171v-150h-43c-14 0 -22 -8 -22 -22v-543h-160l-199 306c-30 45 -60 107 -60 107h-2s8 -62 8 -107v-233c0 -51 -22 -73 -73 -73h-171zM326 761l-98 150h120
l47 -82h2l47 82h121l-99 -150h-140z" />
    <glyph glyph-name="ncaron" unicode="&#x148;" horiz-adv-x="671" 
d="M79 0v348c0 14 -8 22 -22 22h-38v145h154c47 0 72 -23 72 -58v-7c0 -5 -1 -12 -1 -12h2c24 40 72 89 163 89c104 0 185 -48 185 -193v-167c0 -14 8 -22 22 -22h38v-145h-160c-51 0 -73 22 -73 73v229c0 48 -19 68 -57 68c-54 0 -87 -30 -102 -74c-7 -20 -10 -43 -10 -68
v-228h-173zM269 565l-98 150h120l47 -82h2l47 82h121l-99 -150h-140z" />
    <glyph glyph-name="napostrophe" unicode="&#x149;" horiz-adv-x="710" 
d="M118 0v348c0 14 -8 22 -22 22h-38v145h154c47 0 72 -23 72 -58v-7c0 -5 -1 -12 -1 -12h2c24 40 72 89 163 89c104 0 185 -48 185 -193v-167c0 -14 8 -22 22 -22h38v-145h-160c-51 0 -73 22 -73 73v229c0 48 -19 68 -57 68c-54 0 -87 -30 -102 -74c-7 -20 -10 -43 -10 -68
v-228h-173zM-17 715h122c5 -19 7 -36 7 -53c0 -33 -9 -62 -28 -98h-109c12 33 20 60 20 88c0 19 -3 39 -12 63z" />
    <glyph glyph-name="Eng" unicode="&#x14a;" horiz-adv-x="778" 
d="M28 0v150h43c14 0 22 8 22 22v543h161l198 -307c30 -46 60 -107 60 -107h2s-8 62 -8 107v234c0 51 22 73 73 73h171v-150h-43c-14 0 -22 -8 -22 -22v-476c0 -227 -163 -272 -295 -272v158c32 0 116 23 116 72v8l-180 273c-30 45 -60 107 -60 107h-2s8 -62 8 -107v-233
c0 -51 -22 -73 -73 -73h-171z" />
    <glyph glyph-name="eng" unicode="&#x14b;" horiz-adv-x="666" 
d="M79 0v348c0 14 -8 22 -22 22h-38v145h154c47 0 72 -23 72 -58v-7c0 -5 -1 -12 -1 -12h2c24 40 72 89 163 89c104 0 185 -48 185 -193v-347c0 -173 -162 -195 -242 -195c-28 0 -46 3 -46 3v144s9 -1 22 -1c34 0 93 8 93 66v298c0 48 -19 68 -57 68c-53 0 -88 -31 -103 -76
c-7 -20 -9 -42 -9 -66v-228h-173z" />
    <glyph glyph-name="Omacron" unicode="&#x14c;" horiz-adv-x="796" 
d="M24 362c0 205 158 365 374 365s374 -160 374 -365c0 -210 -158 -374 -374 -374s-374 164 -374 374zM210 362c0 -119 84 -209 188 -209s188 90 188 209c0 114 -84 200 -188 200s-188 -86 -188 -200zM259 782v107h275v-107h-275z" />
    <glyph glyph-name="omacron" unicode="&#x14d;" horiz-adv-x="632" 
d="M25 256c0 162 129 271 290 271c163 0 292 -109 292 -271c0 -161 -129 -268 -291 -268s-291 107 -291 268zM199 256c0 -77 54 -124 117 -124s117 47 117 124c0 78 -54 127 -117 127s-117 -49 -117 -127zM179 586v107h275v-107h-275z" />
    <glyph glyph-name="Obreve" unicode="&#x14e;" horiz-adv-x="796" 
d="M24 362c0 205 158 365 374 365s374 -160 374 -365c0 -210 -158 -374 -374 -374s-374 164 -374 374zM210 362c0 -119 84 -209 188 -209s188 90 188 209c0 114 -84 200 -188 200s-188 -86 -188 -200zM396 756c-81 0 -166 52 -166 145v10h104v-11c0 -40 33 -58 62 -58
s62 18 62 58v11h104v-10c0 -93 -85 -145 -166 -145z" />
    <glyph glyph-name="obreve" unicode="&#x14f;" horiz-adv-x="632" 
d="M25 256c0 162 129 271 290 271c163 0 292 -109 292 -271c0 -161 -129 -268 -291 -268s-291 107 -291 268zM199 256c0 -77 54 -124 117 -124s117 47 117 124c0 78 -54 127 -117 127s-117 -49 -117 -127zM316 560c-81 0 -166 52 -166 145v10h104v-11c0 -40 33 -58 62 -58
s62 18 62 58v11h104v-10c0 -93 -85 -145 -166 -145z" />
    <glyph glyph-name="Ohungarumlaut" unicode="&#x150;" horiz-adv-x="796" 
d="M24 362c0 205 158 365 374 365s374 -160 374 -365c0 -210 -158 -374 -374 -374s-374 164 -374 374zM210 362c0 -119 84 -209 188 -209s188 90 188 209c0 114 -84 200 -188 200s-188 -86 -188 -200zM428 761l81 150h157l-118 -150h-120zM225 761l77 150h133l-79 -150h-131
z" />
    <glyph glyph-name="ohungarumlaut" unicode="&#x151;" horiz-adv-x="632" 
d="M25 256c0 162 129 271 290 271c163 0 292 -109 292 -271c0 -161 -129 -268 -291 -268s-291 107 -291 268zM199 256c0 -77 54 -124 117 -124s117 47 117 124c0 78 -54 127 -117 127s-117 -49 -117 -127zM348 565l81 150h157l-118 -150h-120zM145 565l77 150h133l-79 -150
h-131z" />
    <glyph glyph-name="OE" unicode="&#x152;" horiz-adv-x="981" 
d="M24 359c0 205 167 364 369 364c77 0 97 -8 147 -8h325c51 0 73 -22 73 -73v-138h-160v39c0 14 -8 22 -22 22h-97v-130h204v-150h-204v-135h121c14 0 22 8 22 22v39h160v-138c0 -51 -22 -73 -73 -73h-349c-50 0 -70 -8 -147 -8c-202 0 -369 162 -369 367zM210 359
c0 -117 78 -202 183 -202c51 0 68 1 87 6v387c-21 6 -37 8 -87 8c-105 0 -183 -83 -183 -199z" />
    <glyph glyph-name="oe" unicode="&#x153;" horiz-adv-x="982" 
d="M25 256c0 162 129 271 290 271c100 0 156 -34 204 -80h2c41 45 90 80 190 80c152 0 238 -106 238 -249c0 -17 -4 -52 -4 -52h-325c13 -65 65 -94 120 -94c74 0 137 54 137 54l69 -116s-83 -82 -220 -82c-107 0 -159 39 -201 85h-2c-48 -48 -105 -85 -207 -85
c-162 0 -291 107 -291 268zM625 331h147c-3 32 -21 66 -61 66c-50 0 -75 -28 -86 -66zM199 256c0 -77 54 -124 117 -124s117 47 117 124c0 78 -54 127 -117 127s-117 -49 -117 -127z" />
    <glyph glyph-name="Racute" unicode="&#x154;" horiz-adv-x="653" 
d="M93 0v565h-65v150h334c139 0 236 -81 236 -225c0 -143 -105 -186 -105 -186v-2s28 -12 44 -43l45 -86c11 -21 29 -23 49 -23h12v-150h-98c-50 0 -78 9 -101 53l-84 161c-12 22 -27 27 -64 27h-24v-241h-179zM272 391h62c53 0 81 31 81 88s-28 86 -78 86h-65v-174z
M235 761l81 150h157l-118 -150h-120z" />
    <glyph glyph-name="racute" unicode="&#x155;" horiz-adv-x="444" 
d="M79 0v348c0 14 -8 22 -22 22h-38v145h153c47 0 73 -19 73 -66v-27c0 -16 -2 -26 -2 -26h2c22 70 87 128 164 128c10 0 20 -2 20 -2v-170s-14 3 -35 3c-41 0 -108 -13 -133 -90c-6 -19 -9 -42 -9 -70v-195h-173zM172 565l81 150h157l-118 -150h-120z" />
    <glyph glyph-name="Rcommaaccent" unicode="&#x156;" horiz-adv-x="653" 
d="M93 0v565h-65v150h334c139 0 236 -81 236 -225c0 -143 -105 -186 -105 -186v-2s28 -12 44 -43l45 -86c11 -21 29 -23 49 -23h12v-150h-98c-50 0 -78 9 -101 53l-84 161c-12 22 -27 27 -64 27h-24v-241h-179zM272 391h62c53 0 81 31 81 88s-28 86 -78 86h-65v-174z
M306 -49h122c5 -19 7 -36 7 -53c0 -33 -9 -62 -28 -98h-109c12 33 20 60 20 88c0 19 -3 39 -12 63z" />
    <glyph glyph-name="rcommaaccent" unicode="&#x157;" horiz-adv-x="444" 
d="M79 0v348c0 14 -8 22 -22 22h-38v145h153c47 0 73 -19 73 -66v-27c0 -16 -2 -26 -2 -26h2c22 70 87 128 164 128c10 0 20 -2 20 -2v-170s-14 3 -35 3c-41 0 -108 -13 -133 -90c-6 -19 -9 -42 -9 -70v-195h-173zM110 -49h122c5 -19 7 -36 7 -53c0 -33 -9 -62 -28 -98h-109
c12 33 20 60 20 88c0 19 -3 39 -12 63z" />
    <glyph glyph-name="Rcaron" unicode="&#x158;" horiz-adv-x="653" 
d="M93 0v565h-65v150h334c139 0 236 -81 236 -225c0 -143 -105 -186 -105 -186v-2s28 -12 44 -43l45 -86c11 -21 29 -23 49 -23h12v-150h-98c-50 0 -78 9 -101 53l-84 161c-12 22 -27 27 -64 27h-24v-241h-179zM272 391h62c53 0 81 31 81 88s-28 86 -78 86h-65v-174z
M228 761l-98 150h120l47 -82h2l47 82h121l-99 -150h-140z" />
    <glyph glyph-name="rcaron" unicode="&#x159;" horiz-adv-x="444" 
d="M79 0v348c0 14 -8 22 -22 22h-38v145h153c47 0 73 -19 73 -66v-27c0 -16 -2 -26 -2 -26h2c22 70 87 128 164 128c10 0 20 -2 20 -2v-170s-14 3 -35 3c-41 0 -108 -13 -133 -90c-6 -19 -9 -42 -9 -70v-195h-173zM165 565l-98 150h120l47 -82h2l47 82h121l-99 -150h-140z
" />
    <glyph glyph-name="Sacute" unicode="&#x15a;" horiz-adv-x="573" 
d="M28 106l99 125s74 -84 164 -84c36 0 72 13 72 53c0 79 -324 88 -324 312c0 129 113 215 255 215c95 0 228 -46 228 -155v-78h-160v31c0 26 -37 42 -70 42c-36 0 -73 -15 -73 -48c0 -87 324 -75 324 -310c0 -119 -93 -221 -254 -221c-168 0 -261 118 -261 118zM232 761
l81 150h157l-118 -150h-120z" />
    <glyph glyph-name="sacute" unicode="&#x15b;" horiz-adv-x="491" 
d="M21 82l77 111s72 -74 151 -74c25 0 39 7 39 25c0 43 -258 57 -258 224c0 111 103 159 212 159c84 0 200 -24 200 -117v-61h-150v25c0 14 -22 24 -47 24c-24 0 -46 -8 -46 -24c0 -53 261 -46 261 -219c0 -104 -91 -167 -211 -167c-148 0 -228 94 -228 94zM178 565l81 150
h157l-118 -150h-120z" />
    <glyph glyph-name="Scircumflex" unicode="&#x15c;" horiz-adv-x="573" 
d="M28 106l99 125s74 -84 164 -84c36 0 72 13 72 53c0 79 -324 88 -324 312c0 129 113 215 255 215c95 0 228 -46 228 -155v-78h-160v31c0 26 -37 42 -70 42c-36 0 -73 -15 -73 -48c0 -87 324 -75 324 -310c0 -119 -93 -221 -254 -221c-168 0 -261 118 -261 118zM127 761
l98 150h140l99 -150h-121l-47 82h-2l-47 -82h-120z" />
    <glyph glyph-name="scircumflex" unicode="&#x15d;" horiz-adv-x="491" 
d="M21 82l77 111s72 -74 151 -74c25 0 39 7 39 25c0 43 -258 57 -258 224c0 111 103 159 212 159c84 0 200 -24 200 -117v-61h-150v25c0 14 -22 24 -47 24c-24 0 -46 -8 -46 -24c0 -53 261 -46 261 -219c0 -104 -91 -167 -211 -167c-148 0 -228 94 -228 94zM73 565l98 150
h140l99 -150h-121l-47 82h-2l-47 -82h-120z" />
    <glyph glyph-name="Scedilla" unicode="&#x15e;" horiz-adv-x="573" 
d="M28 106l99 125s74 -84 164 -84c36 0 72 13 72 53c0 79 -324 88 -324 312c0 129 113 215 255 215c95 0 228 -46 228 -155v-78h-160v31c0 26 -37 42 -70 42c-36 0 -73 -15 -73 -48c0 -87 324 -75 324 -310c0 -111 -81 -207 -221 -219l-6 -26c40 -4 75 -27 75 -80
c0 -72 -60 -94 -117 -94c-38 0 -71 9 -71 9v87s23 -10 45 -10s38 7 38 23c0 17 -21 21 -41 21c-13 0 -26 -2 -26 -2l23 74c-138 18 -214 114 -214 114z" />
    <glyph glyph-name="scedilla" unicode="&#x15f;" horiz-adv-x="491" 
d="M21 82l77 111s72 -74 151 -74c25 0 39 7 39 25c0 43 -258 57 -258 224c0 111 103 159 212 159c84 0 200 -24 200 -117v-61h-150v25c0 14 -22 24 -47 24c-24 0 -46 -8 -46 -24c0 -53 261 -46 261 -219c0 -99 -82 -160 -192 -166l-6 -25c40 -4 75 -27 75 -80
c0 -72 -60 -94 -117 -94c-38 0 -71 9 -71 9v87s23 -10 45 -10s38 7 38 23c0 17 -21 21 -41 21c-13 0 -26 -2 -26 -2l23 75c-109 20 -167 89 -167 89z" />
    <glyph glyph-name="Scaron" unicode="&#x160;" horiz-adv-x="573" 
d="M28 106l99 125s74 -84 164 -84c36 0 72 13 72 53c0 79 -324 88 -324 312c0 129 113 215 255 215c95 0 228 -46 228 -155v-78h-160v31c0 26 -37 42 -70 42c-36 0 -73 -15 -73 -48c0 -87 324 -75 324 -310c0 -119 -93 -221 -254 -221c-168 0 -261 118 -261 118zM225 761
l-98 150h120l47 -82h2l47 82h121l-99 -150h-140z" />
    <glyph glyph-name="scaron" unicode="&#x161;" horiz-adv-x="491" 
d="M21 82l77 111s72 -74 151 -74c25 0 39 7 39 25c0 43 -258 57 -258 224c0 111 103 159 212 159c84 0 200 -24 200 -117v-61h-150v25c0 14 -22 24 -47 24c-24 0 -46 -8 -46 -24c0 -53 261 -46 261 -219c0 -104 -91 -167 -211 -167c-148 0 -228 94 -228 94zM171 565l-98 150
h120l47 -82h2l47 82h121l-99 -150h-140z" />
    <glyph glyph-name="Tcommaaccent" unicode="&#x162;" horiz-adv-x="679" 
d="M250 0v565h-58c-14 0 -22 -8 -22 -22v-39h-155v142c0 51 18 69 69 69h511c51 0 69 -18 69 -69v-142h-155v39c0 14 -8 22 -22 22h-58v-565h-52l-9 -36c40 -4 75 -27 75 -80c0 -70 -59 -94 -117 -94c-38 0 -71 9 -71 9v87s23 -10 45 -10s38 7 38 23c0 17 -21 21 -41 21
c-13 0 -26 -2 -26 -2l26 82h-47z" />
    <glyph glyph-name="tcommaaccent" unicode="&#x163;" horiz-adv-x="397" 
d="M79 190v190h-66v135h71v139h168v-139h108v-135h-108v-167c0 -58 59 -66 92 -66c14 0 23 1 23 1v-150s-19 -3 -47 -3c-18 0 -40 1 -63 5l-8 -36c40 -4 75 -27 75 -80c0 -72 -60 -94 -117 -94c-38 0 -71 9 -71 9v87s23 -10 45 -10s38 7 38 23c0 17 -21 21 -41 21
c-13 0 -26 -2 -26 -2l32 102c-57 25 -105 75 -105 170z" />
    <glyph glyph-name="Tcaron" unicode="&#x164;" horiz-adv-x="679" 
d="M250 0v565h-58c-14 0 -22 -8 -22 -22v-39h-155v142c0 51 18 69 69 69h511c51 0 69 -18 69 -69v-142h-155v39c0 14 -8 22 -22 22h-58v-565h-179zM269 761l-98 150h120l47 -82h2l47 82h121l-99 -150h-140z" />
    <glyph glyph-name="tcaron" unicode="&#x165;" horiz-adv-x="463" 
d="M84 190v190h-66v135h71v139h168v-139h108v-135h-108v-167c0 -58 59 -66 92 -66c14 0 23 1 23 1v-150s-19 -3 -47 -3c-82 0 -241 22 -241 195zM305 715h122c5 -19 7 -36 7 -53c0 -33 -9 -62 -28 -98h-109c12 33 20 60 20 88c0 19 -3 39 -12 63z" />
    <glyph glyph-name="Tbar" unicode="&#x166;" horiz-adv-x="679" 
d="M250 0v272h-138v127h138v166h-58c-14 0 -22 -8 -22 -22v-39h-155v142c0 51 18 69 69 69h511c51 0 69 -18 69 -69v-142h-155v39c0 14 -8 22 -22 22h-58v-166h148v-127h-148v-272h-179z" />
    <glyph glyph-name="tbar" unicode="&#x167;" horiz-adv-x="397" 
d="M79 190v19h-66v107h66v64h-66v135h71v139h168v-139h108v-135h-108v-64h108v-107h-108v-3c0 -50 59 -59 92 -59c14 0 23 1 23 1v-150s-19 -3 -47 -3c-82 0 -241 22 -241 195z" />
    <glyph glyph-name="Utilde" unicode="&#x168;" horiz-adv-x="758" 
d="M85 263v280c0 14 -8 22 -22 22h-43v150h171c51 0 73 -22 73 -73v-374c0 -75 47 -115 115 -115s115 40 115 115v374c0 51 22 73 73 73h171v-150h-43c-14 0 -22 -8 -22 -22v-280c0 -161 -116 -275 -293 -275c-179 0 -295 114 -295 275zM178 761c0 101 44 153 131 153
c70 0 90 -60 130 -60c24 0 41 19 41 57h101c0 -101 -44 -153 -131 -153c-70 0 -90 60 -130 60c-24 0 -41 -19 -41 -57h-101z" />
    <glyph glyph-name="utilde" unicode="&#x169;" horiz-adv-x="666" 
d="M77 181v167c0 14 -8 22 -22 22h-38v145h160c51 0 73 -22 73 -73v-229c0 -48 19 -68 55 -68c74 0 109 65 109 142v228h173v-348c0 -14 8 -22 22 -22h38v-145h-153c-47 0 -73 23 -73 58v7c0 5 1 12 1 12h-2c-28 -55 -91 -89 -160 -89c-102 0 -183 48 -183 193zM126 565
c0 101 44 153 131 153c70 0 90 -60 130 -60c24 0 41 19 41 57h101c0 -101 -44 -153 -131 -153c-70 0 -90 60 -130 60c-24 0 -41 -19 -41 -57h-101z" />
    <glyph glyph-name="Umacron" unicode="&#x16a;" horiz-adv-x="758" 
d="M85 263v280c0 14 -8 22 -22 22h-43v150h171c51 0 73 -22 73 -73v-374c0 -75 47 -115 115 -115s115 40 115 115v374c0 51 22 73 73 73h171v-150h-43c-14 0 -22 -8 -22 -22v-280c0 -161 -116 -275 -293 -275c-179 0 -295 114 -295 275zM242 782v107h275v-107h-275z" />
    <glyph glyph-name="umacron" unicode="&#x16b;" horiz-adv-x="666" 
d="M77 181v167c0 14 -8 22 -22 22h-38v145h160c51 0 73 -22 73 -73v-229c0 -48 19 -68 55 -68c74 0 109 65 109 142v228h173v-348c0 -14 8 -22 22 -22h38v-145h-153c-47 0 -73 23 -73 58v7c0 5 1 12 1 12h-2c-28 -55 -91 -89 -160 -89c-102 0 -183 48 -183 193zM190 586v107
h275v-107h-275z" />
    <glyph glyph-name="Ubreve" unicode="&#x16c;" horiz-adv-x="758" 
d="M85 263v280c0 14 -8 22 -22 22h-43v150h171c51 0 73 -22 73 -73v-374c0 -75 47 -115 115 -115s115 40 115 115v374c0 51 22 73 73 73h171v-150h-43c-14 0 -22 -8 -22 -22v-280c0 -161 -116 -275 -293 -275c-179 0 -295 114 -295 275zM379 756c-81 0 -166 52 -166 145v10
h104v-11c0 -40 33 -58 62 -58s62 18 62 58v11h104v-10c0 -93 -85 -145 -166 -145z" />
    <glyph glyph-name="ubreve" unicode="&#x16d;" horiz-adv-x="666" 
d="M77 181v167c0 14 -8 22 -22 22h-38v145h160c51 0 73 -22 73 -73v-229c0 -48 19 -68 55 -68c74 0 109 65 109 142v228h173v-348c0 -14 8 -22 22 -22h38v-145h-153c-47 0 -73 23 -73 58v7c0 5 1 12 1 12h-2c-28 -55 -91 -89 -160 -89c-102 0 -183 48 -183 193zM327 560
c-81 0 -166 52 -166 145v10h104v-11c0 -40 33 -58 62 -58s62 18 62 58v11h104v-10c0 -93 -85 -145 -166 -145z" />
    <glyph glyph-name="Uring" unicode="&#x16e;" horiz-adv-x="758" 
d="M85 263v280c0 14 -8 22 -22 22h-43v150h171c51 0 73 -22 73 -73v-374c0 -75 47 -115 115 -115s115 40 115 115v374c0 51 22 73 73 73h171v-150h-43c-14 0 -22 -8 -22 -22v-280c0 -161 -116 -275 -293 -275c-179 0 -295 114 -295 275zM379 747c-49 0 -101 26 -101 85
s52 86 101 86s102 -27 102 -86s-53 -85 -102 -85zM379 797c21 0 37 14 37 35c0 22 -16 36 -37 36c-20 0 -36 -14 -36 -36c0 -21 15 -35 36 -35z" />
    <glyph glyph-name="uring" unicode="&#x16f;" horiz-adv-x="666" 
d="M77 181v167c0 14 -8 22 -22 22h-38v145h160c51 0 73 -22 73 -73v-229c0 -48 19 -68 55 -68c74 0 109 65 109 142v228h173v-348c0 -14 8 -22 22 -22h38v-145h-153c-47 0 -73 23 -73 58v7c0 5 1 12 1 12h-2c-28 -55 -91 -89 -160 -89c-102 0 -183 48 -183 193zM327 551
c-49 0 -101 26 -101 85s52 86 101 86s102 -27 102 -86s-53 -85 -102 -85zM327 601c21 0 37 14 37 35c0 22 -16 36 -37 36c-20 0 -36 -14 -36 -36c0 -21 15 -35 36 -35z" />
    <glyph glyph-name="Uhungarumlaut" unicode="&#x170;" horiz-adv-x="758" 
d="M85 263v280c0 14 -8 22 -22 22h-43v150h171c51 0 73 -22 73 -73v-374c0 -75 47 -115 115 -115s115 40 115 115v374c0 51 22 73 73 73h171v-150h-43c-14 0 -22 -8 -22 -22v-280c0 -161 -116 -275 -293 -275c-179 0 -295 114 -295 275zM411 761l81 150h157l-118 -150h-120z
M208 761l77 150h133l-79 -150h-131z" />
    <glyph glyph-name="uhungarumlaut" unicode="&#x171;" horiz-adv-x="666" 
d="M77 181v167c0 14 -8 22 -22 22h-38v145h160c51 0 73 -22 73 -73v-229c0 -48 19 -68 55 -68c74 0 109 65 109 142v228h173v-348c0 -14 8 -22 22 -22h38v-145h-153c-47 0 -73 23 -73 58v7c0 5 1 12 1 12h-2c-28 -55 -91 -89 -160 -89c-102 0 -183 48 -183 193zM359 565
l81 150h157l-118 -150h-120zM156 565l77 150h133l-79 -150h-131z" />
    <glyph glyph-name="Uogonek" unicode="&#x172;" horiz-adv-x="758" 
d="M85 263v280c0 14 -8 22 -22 22h-43v150h171c51 0 73 -22 73 -73v-374c0 -75 47 -115 115 -115s115 40 115 115v374c0 51 22 73 73 73h171v-150h-43c-14 0 -22 -8 -22 -22v-280c0 -112 -51 -190 -150 -248c-29 -17 -61 -54 -61 -76s38 -25 38 -25l-42 -124
s-133 13 -133 99c0 42 27 80 56 101v2s-13 -1 -23 -1c-162 0 -273 119 -273 272z" />
    <glyph glyph-name="uogonek" unicode="&#x173;" horiz-adv-x="666" 
d="M260 -12c-102 0 -183 48 -183 193v167c0 14 -8 22 -22 22h-38v145h160c51 0 73 -22 73 -73v-229c0 -48 19 -68 55 -68c74 0 109 65 109 142v228h173v-348c0 -14 8 -22 22 -22h38v-145c-17 -16 -42 -42 -42 -61c0 -22 38 -25 38 -25l-42 -124s-133 13 -133 99
c0 50 34 85 66 109v2h-41c-47 0 -72 23 -72 58v7c0 5 1 12 1 12h-3s-40 -89 -159 -89z" />
    <glyph glyph-name="Wcircumflex" unicode="&#x174;" horiz-adv-x="1028" 
d="M204 0l-136 543c-4 17 -12 22 -28 22h-25v150h128c49 0 80 -14 89 -58l79 -374c9 -44 9 -75 9 -75h2s1 31 12 75l109 431h143l108 -431c11 -44 12 -75 12 -75h2s0 31 9 75l79 374c9 44 39 58 89 58h128v-150h-25c-16 0 -24 -5 -28 -22l-136 -543h-205l-90 333
c-13 46 -14 76 -14 76h-2s-1 -30 -14 -76l-90 -333h-205zM346 761l98 150h140l99 -150h-121l-47 82h-2l-47 -82h-120z" />
    <glyph glyph-name="wcircumflex" unicode="&#x175;" horiz-adv-x="836" 
d="M151 0l-104 354c-4 13 -10 16 -22 16h-15v145h128c38 0 60 -15 67 -49l52 -255c6 -28 6 -54 6 -54h2s2 26 9 54l71 302h148l71 -302c7 -28 8 -54 8 -54h2s0 26 6 54l52 255c7 34 28 49 66 49h128v-145h-15c-12 0 -17 -3 -22 -16l-104 -354h-197l-58 238
c-7 28 -10 55 -10 55h-2s-3 -27 -10 -55l-58 -238h-199zM251 565l98 150h140l99 -150h-121l-47 82h-2l-47 -82h-120z" />
    <glyph glyph-name="Ycircumflex" unicode="&#x176;" horiz-adv-x="633" 
d="M227 0v313l-152 230c-13 20 -14 22 -36 22h-29v150h98c44 0 68 -7 92 -48l73 -123c27 -46 43 -80 43 -80h2s16 34 43 80l72 123c24 41 48 48 92 48h98v-150h-29c-22 0 -23 -2 -36 -22l-152 -230v-313h-179zM149 761l98 150h140l99 -150h-121l-47 82h-2l-47 -82h-120z" />
    <glyph glyph-name="ycircumflex" unicode="&#x177;" horiz-adv-x="565" 
d="M58 -33c0 0 30 -33 71 -33c28 0 60 8 77 51l6 15l-163 354c-6 13 -10 16 -22 16h-19v145h126c29 0 50 -15 60 -42l76 -208c10 -28 19 -80 19 -80h2s9 52 17 80l57 208c7 27 34 42 61 42h129v-145h-19c-12 0 -19 -3 -24 -16l-156 -409c-44 -114 -133 -155 -215 -155
c-89 0 -145 55 -145 55zM119 565l98 150h140l99 -150h-121l-47 82h-2l-47 -82h-120z" />
    <glyph glyph-name="Ydieresis" unicode="&#x178;" horiz-adv-x="633" 
d="M227 0v313l-152 230c-13 20 -14 22 -36 22h-29v150h98c44 0 68 -7 92 -48l73 -123c27 -46 43 -80 43 -80h2s16 34 43 80l72 123c24 41 48 48 92 48h98v-150h-29c-22 0 -23 -2 -36 -22l-152 -230v-313h-179zM363 771v140h112v-140h-112zM160 771v140h112v-140h-112z" />
    <glyph glyph-name="Zacute" unicode="&#x179;" horiz-adv-x="599" 
d="M16 0v110l273 391c31 44 55 65 55 65v2s-23 -3 -55 -3h-88c-14 0 -22 -8 -22 -22v-39h-160v138c0 51 22 73 73 73h475v-108l-274 -393c-31 -44 -55 -65 -55 -65v-2s23 3 55 3h108c14 0 22 8 22 22v39h160v-138c0 -51 -22 -73 -73 -73h-494zM243 761l81 150h157l-118 -150
h-120z" />
    <glyph glyph-name="zacute" unicode="&#x17a;" horiz-adv-x="521" 
d="M17 0v86l198 237c26 32 45 47 45 47v2s-13 -2 -45 -2h-19c-14 0 -22 -8 -22 -22v-21h-155v115c0 51 22 73 73 73h394v-87l-197 -237c-25 -31 -46 -47 -46 -47v-2s13 3 46 3h38c14 0 22 8 22 22v21h155v-115c0 -51 -22 -73 -73 -73h-414zM203 565l81 150h157l-118 -150
h-120z" />
    <glyph glyph-name="Zdotaccent" unicode="&#x17b;" horiz-adv-x="599" 
d="M16 0v110l273 391c31 44 55 65 55 65v2s-23 -3 -55 -3h-88c-14 0 -22 -8 -22 -22v-39h-160v138c0 51 22 73 73 73h475v-108l-274 -393c-31 -44 -55 -65 -55 -65v-2s23 3 55 3h108c14 0 22 8 22 22v39h160v-138c0 -51 -22 -73 -73 -73h-494zM234 771v140h145v-140h-145z
" />
    <glyph glyph-name="zdotaccent" unicode="&#x17c;" horiz-adv-x="521" 
d="M17 0v86l198 237c26 32 45 47 45 47v2s-13 -2 -45 -2h-19c-14 0 -22 -8 -22 -22v-21h-155v115c0 51 22 73 73 73h394v-87l-197 -237c-25 -31 -46 -47 -46 -47v-2s13 3 46 3h38c14 0 22 8 22 22v21h155v-115c0 -51 -22 -73 -73 -73h-414zM194 575v140h145v-140h-145z" />
    <glyph glyph-name="Zcaron" unicode="&#x17d;" horiz-adv-x="599" 
d="M16 0v110l273 391c31 44 55 65 55 65v2s-23 -3 -55 -3h-88c-14 0 -22 -8 -22 -22v-39h-160v138c0 51 22 73 73 73h475v-108l-274 -393c-31 -44 -55 -65 -55 -65v-2s23 3 55 3h108c14 0 22 8 22 22v39h160v-138c0 -51 -22 -73 -73 -73h-494zM236 761l-98 150h120l47 -82h2
l47 82h121l-99 -150h-140z" />
    <glyph glyph-name="zcaron" unicode="&#x17e;" horiz-adv-x="521" 
d="M17 0v86l198 237c26 32 45 47 45 47v2s-13 -2 -45 -2h-19c-14 0 -22 -8 -22 -22v-21h-155v115c0 51 22 73 73 73h394v-87l-197 -237c-25 -31 -46 -47 -46 -47v-2s13 3 46 3h38c14 0 22 8 22 22v21h155v-115c0 -51 -22 -73 -73 -73h-414zM196 565l-98 150h120l47 -82h2
l47 82h121l-99 -150h-140z" />
    <glyph glyph-name="longs" unicode="&#x17f;" horiz-adv-x="377" 
d="M79 0v380h-63v135h63v12c0 169 153 192 236 192c31 0 52 -3 52 -3v-146s-12 2 -28 2c-34 0 -87 -9 -87 -53v-519h-173z" />
    <glyph glyph-name="florin" unicode="&#x192;" horiz-adv-x="397" 
d="M-1 -56c-31 0 -52 3 -52 3l13 146s11 -2 27 -2c33 0 87 9 92 64l13 155h-62v135h74l8 82c16 169 167 192 252 192c31 0 52 -3 52 -3l-13 -146s-11 2 -27 2c-34 0 -88 -9 -93 -64l-6 -63h95v-135h-107l-15 -174c-15 -169 -168 -192 -251 -192z" />
    <glyph glyph-name="Scommaaccent" unicode="&#x218;" horiz-adv-x="573" 
d="M28 106l99 125s74 -84 164 -84c36 0 72 13 72 53c0 79 -324 88 -324 312c0 129 113 215 255 215c95 0 228 -46 228 -155v-78h-160v31c0 26 -37 42 -70 42c-36 0 -73 -15 -73 -48c0 -87 324 -75 324 -310c0 -119 -93 -221 -254 -221c-168 0 -261 118 -261 118zM225 -49
h122c5 -19 7 -36 7 -53c0 -33 -9 -62 -28 -98h-109c12 33 20 60 20 88c0 19 -3 39 -12 63z" />
    <glyph glyph-name="scommaaccent" unicode="&#x219;" horiz-adv-x="491" 
d="M21 82l77 111s72 -74 151 -74c25 0 39 7 39 25c0 43 -258 57 -258 224c0 111 103 159 212 159c84 0 200 -24 200 -117v-61h-150v25c0 14 -22 24 -47 24c-24 0 -46 -8 -46 -24c0 -53 261 -46 261 -219c0 -104 -91 -167 -211 -167c-148 0 -228 94 -228 94zM178 -49h122
c5 -19 7 -36 7 -53c0 -33 -9 -62 -28 -98h-109c12 33 20 60 20 88c0 19 -3 39 -12 63z" />
    <glyph glyph-name="uni021A" unicode="&#x21a;" horiz-adv-x="679" 
d="M250 0v565h-58c-14 0 -22 -8 -22 -22v-39h-155v142c0 51 18 69 69 69h511c51 0 69 -18 69 -69v-142h-155v39c0 14 -8 22 -22 22h-58v-565h-179zM269 -49h122c5 -19 7 -36 7 -53c0 -33 -9 -62 -28 -98h-109c12 33 20 60 20 88c0 19 -3 39 -12 63z" />
    <glyph glyph-name="uni021B" unicode="&#x21b;" horiz-adv-x="397" 
d="M79 190v190h-66v135h71v139h168v-139h108v-135h-108v-167c0 -58 59 -66 92 -66c14 0 23 1 23 1v-150s-19 -3 -47 -3c-82 0 -241 22 -241 195zM152 -49h122c5 -19 7 -36 7 -53c0 -33 -9 -62 -28 -98h-109c12 33 20 60 20 88c0 19 -3 39 -12 63z" />
    <glyph glyph-name="circumflex" unicode="&#x2c6;" horiz-adv-x="525" 
d="M95 761l98 150h140l99 -150h-121l-47 82h-2l-47 -82h-120z" />
    <glyph glyph-name="caron" unicode="&#x2c7;" horiz-adv-x="525" 
d="M192 761l-98 150h120l47 -82h2l47 82h121l-99 -150h-140z" />
    <glyph glyph-name="breve" unicode="&#x2d8;" horiz-adv-x="543" 
d="M271 756c-81 0 -166 52 -166 145v10h104v-11c0 -40 33 -58 62 -58s62 18 62 58v11h104v-10c0 -93 -85 -145 -166 -145z" />
    <glyph glyph-name="dotaccent" unicode="&#x2d9;" horiz-adv-x="343" 
d="M99 771v140h145v-140h-145z" />
    <glyph glyph-name="ring" unicode="&#x2da;" horiz-adv-x="391" 
d="M195 747c-49 0 -101 26 -101 85s52 86 101 86s102 -27 102 -86s-53 -85 -102 -85zM195 797c21 0 37 14 37 35c0 22 -16 36 -37 36c-20 0 -36 -14 -36 -36c0 -21 15 -35 36 -35z" />
    <glyph glyph-name="ogonek" unicode="&#x2db;" horiz-adv-x="407" 
d="M116 -111c0 71 84 125 84 125h110s-57 -49 -57 -75c0 -22 38 -25 38 -25l-42 -124s-133 13 -133 99z" />
    <glyph glyph-name="tilde" unicode="&#x2dc;" horiz-adv-x="592" 
d="M101 761c0 101 44 153 131 153c70 0 90 -60 130 -60c24 0 41 19 41 57h101c0 -101 -44 -153 -131 -153c-70 0 -90 60 -130 60c-24 0 -41 -19 -41 -57h-101z" />
    <glyph glyph-name="hungarumlaut" unicode="&#x2dd;" horiz-adv-x="587" 
d="M287 761l81 150h157l-118 -150h-120zM84 761l77 150h133l-79 -150h-131z" />
    <glyph glyph-name="germandbls.case" unicode="&#x1e9e;" horiz-adv-x="689" 
d="M20 0v150h43c14 0 22 8 22 22v308c0 141 96 235 241 235h296v-120l-92 -148c-9 -15 -20 -29 -20 -29v-2l9 -2c89 -20 133 -115 133 -196c0 -124 -104 -218 -231 -218h-93v150h80c44 0 64 34 64 68c0 33 -19 66 -64 66h-80v120l53 97c26 48 45 65 45 65v2s-9 -3 -45 -3
h-54c-37 0 -63 -35 -63 -81v-411c0 -51 -22 -73 -73 -73h-171z" />
    <glyph glyph-name="endash" unicode="&#x2013;" horiz-adv-x="680" 
d="M42 222v130h596v-130h-596z" />
    <glyph glyph-name="emdash" unicode="&#x2014;" horiz-adv-x="880" 
d="M42 222v130h796v-130h-796z" />
    <glyph glyph-name="quoteleft" unicode="&#x2018;" horiz-adv-x="271" 
d="M35 475l89 255h112l-54 -255h-147z" />
    <glyph glyph-name="quoteright" unicode="&#x2019;" horiz-adv-x="271" 
d="M35 475l54 255h147l-89 -255h-112z" />
    <glyph glyph-name="quotesinglbase" unicode="&#x201a;" horiz-adv-x="271" 
d="M89 166h147l-89 -255h-112z" />
    <glyph glyph-name="quotedblleft" unicode="&#x201c;" horiz-adv-x="463" 
d="M227 475l89 255h112l-54 -255h-147zM35 475l89 255h112l-54 -255h-147z" />
    <glyph glyph-name="quotedblright" unicode="&#x201d;" horiz-adv-x="463" 
d="M227 475l54 255h147l-89 -255h-112zM35 475l54 255h147l-89 -255h-112z" />
    <glyph glyph-name="quotedblbase" unicode="&#x201e;" horiz-adv-x="463" 
d="M227 -89l54 255h147l-89 -255h-112zM89 166h147l-89 -255h-112z" />
    <glyph glyph-name="dagger" unicode="&#x2020;" horiz-adv-x="476" 
d="M155 -50v435h-130v130h130v200h165v-200h131v-130h-131v-435h-165z" />
    <glyph glyph-name="daggerdbl" unicode="&#x2021;" horiz-adv-x="476" 
d="M155 -50v200h-130v130h130v105h-130v130h130v200h165v-200h131v-130h-131v-105h131v-130h-131v-200h-165z" />
    <glyph glyph-name="bullet" unicode="&#x2022;" horiz-adv-x="492" 
d="M246 105c-103 0 -186 83 -186 186s83 186 186 186s186 -83 186 -186s-83 -186 -186 -186z" />
    <glyph glyph-name="ellipsis" unicode="&#x2026;" horiz-adv-x="1132" 
d="M811 0v164h158v-164h-158zM487 0v164h158v-164h-158zM163 0v164h158v-164h-158z" />
    <glyph glyph-name="perthousand" unicode="&#x2030;" horiz-adv-x="1260" 
d="M231 382c-101 0 -181 76 -181 172c0 94 80 173 181 173c100 0 181 -79 181 -173c0 -96 -81 -172 -181 -172zM90 0l552 715h152l-552 -715h-152zM231 502c30 0 55 23 55 53c0 28 -25 52 -55 52s-55 -24 -55 -52c0 -30 25 -53 55 -53zM879 160c0 94 80 173 181 173
c100 0 181 -79 181 -173c0 -96 -81 -172 -181 -172c-101 0 -181 76 -181 172zM477 160c0 94 80 173 181 173c100 0 181 -79 181 -173c0 -96 -81 -172 -181 -172c-101 0 -181 76 -181 172zM1005 161c0 -30 25 -53 55 -53s55 23 55 53c0 28 -25 52 -55 52s-55 -24 -55 -52z
M603 161c0 -30 25 -53 55 -53s55 23 55 53c0 28 -25 52 -55 52s-55 -24 -55 -52z" />
    <glyph glyph-name="guilsinglleft" unicode="&#x2039;" horiz-adv-x="431" 
d="M216 77l-164 205l164 206h158l-164 -206l164 -205h-158z" />
    <glyph glyph-name="guilsinglright" unicode="&#x203a;" horiz-adv-x="431" 
d="M52 77l164 205l-164 206h158l164 -206l-164 -205h-158z" />
    <glyph glyph-name="fraction" unicode="&#x2044;" horiz-adv-x="424" 
d="M18 0l261 715h127l-261 -715h-127z" />
    <glyph glyph-name="Euro" unicode="&#x20ac;" 
d="M37 237v96h66s-2 16 -2 26c0 6 1 22 1 22h-65v96h82c46 147 182 250 347 250c54 0 105 -14 105 -14l-43 -158s-33 10 -67 10c-69 0 -124 -32 -154 -88h206l-20 -96h-209s-1 -13 -1 -19c0 -10 3 -29 3 -29h197l-20 -96h-145c32 -53 89 -84 151 -84c53 0 100 17 100 17
l30 -160s-57 -22 -133 -22c-172 0 -299 101 -345 249h-84z" />
    <glyph glyph-name="trademark" unicode="&#x2122;" horiz-adv-x="1002" 
d="M434 268v109h20c5 0 8 2 8 7l27 331h118l73 -175c6 -15 13 -44 13 -44h2s7 29 13 44l73 175h118l27 -331c0 -5 3 -7 8 -7h21v-109h-100c-36 0 -50 6 -52 44l-8 130c-1 15 1 32 1 32h-2l-51 -125h-98l-51 125h-2s2 -17 1 -32l-8 -130c-2 -38 -16 -44 -52 -44h-99zM169 268
v338h-30c-4 0 -6 -2 -6 -6v-29h-106v100c0 34 10 44 48 44h313c37 0 47 -10 47 -44v-100h-102v29c0 4 -2 6 -6 6h-32v-338h-126z" />
    <glyph glyph-name="minus" unicode="&#x2212;" 
d="M42 222v130h546v-130h-546z" />
    <glyph glyph-name="infinity" unicode="&#x221e;" horiz-adv-x="531" 
d="M266 143c-113 0 -206 93 -206 206c0 114 93 205 206 205c114 0 205 -91 205 -205c0 -113 -91 -206 -205 -206z" />
    <glyph glyph-name="approxequal" unicode="&#x2248;" 
d="M115 322l-63 99c41 41 100 81 165 81c94 0 127 -70 198 -70c38 0 77 25 102 54l63 -99c-40 -40 -99 -81 -165 -81c-94 0 -127 70 -198 70c-39 0 -76 -26 -102 -54zM115 93l-63 99c41 41 100 81 165 81c94 0 127 -70 198 -70c38 0 77 25 102 54l63 -99
c-40 -40 -99 -81 -165 -81c-94 0 -127 70 -198 70c-39 0 -76 -26 -102 -54z" />
    <glyph glyph-name="notequal" unicode="&#x2260;" 
d="M112 47l38 60h-88v130h171l64 100h-235v130h319l69 108l76 -49l-38 -59h80v-130h-163l-64 -100h227v-130h-310l-68 -107z" />
    <glyph glyph-name="lessequal" unicode="&#x2264;" 
d="M59 234v107l504 223v-145l-330 -131v-2l330 -130v-145zM62 -70h501v-130h-501v130z" />
    <glyph glyph-name="greaterequal" unicode="&#x2265;" 
d="M67 11v145l330 130v2l-330 131v145l504 -223v-107zM68 -70h501v-130h-501v130z" />
    <glyph glyph-name="T.R" horiz-adv-x="660" 
d="M261 0v565h-64c-20 0 -22 -12 -22 -22v-37h-160v143c0 46 14 66 64 66h551v-150h-190v-565h-179z" />
    <glyph glyph-name="T.L" horiz-adv-x="660" 
d="M220 0v565h-190v150h551c50 0 64 -20 64 -66v-143h-160v37c0 10 -2 22 -22 22h-64v-565h-179z" />
    <glyph glyph-name="T.cut_mid" horiz-adv-x="660" 
d="M240 0v565h-210v150h600v-150h-211v-565h-179z" />
    <glyph glyph-name="commaaccent" horiz-adv-x="335" 
d="M115 -49h122c5 -19 7 -36 7 -53c0 -33 -9 -62 -28 -98h-109c12 33 20 60 20 88c0 19 -3 39 -12 63z" />
    <glyph glyph-name="apple" horiz-adv-x="1130" 
d="M42 128v278l126 71v151l265 142l134 -71l132 71l265 -142v-151l124 -71v-278l-124 -72v-152l-265 -141l-132 71l-134 -71l-265 141v152zM94 142l114 -64v-139l238 -126l121 66l118 -66l238 126v139l114 64v249l-114 66v136l-238 126l-118 -64l-121 64l-238 -126v-136
l-114 -66v-249zM143 154v225l99 58v123l215 114l110 -59l107 59l214 -114v-123l100 -58v-225l-100 -60v-121l-214 -114l-107 58l-110 -58l-215 114v121zM426 0h129v171h176v108h-176v128h85c15 0 16 -7 16 -21v-21h115v102c0 33 -10 48 -47 48h-346v-108h48v-407z" />
    <glyph glyph-name="zero.tnum" horiz-adv-x="600" 
d="M300 -12c-203 0 -269 166 -269 371s66 368 269 368s269 -163 269 -368s-66 -371 -269 -371zM300 148c69 0 89 94 89 211c0 116 -20 208 -89 208s-89 -92 -89 -208c0 -117 20 -211 89 -211z" />
    <glyph glyph-name="one.tnum" horiz-adv-x="600" 
d="M81 0v150h150v298c0 27 1 55 1 55h-2s-9 -20 -28 -38l-43 -39l-101 108l193 181h159v-565h151v-150h-480z" />
    <glyph glyph-name="two.tnum" horiz-adv-x="600" 
d="M31 113c0 255 327 247 327 392c0 40 -31 60 -71 60c-45 0 -67 -23 -67 -41v-29h-160v84c0 99 128 148 234 148c117 0 244 -70 244 -219c0 -235 -320 -264 -320 -343c0 -12 8 -15 30 -15h139c14 0 22 8 22 22v39h160v-138c0 -51 -22 -73 -73 -73h-384
c-74 0 -81 33 -81 113z" />
    <glyph glyph-name="three.tnum" horiz-adv-x="600" 
d="M34 89l84 135s67 -71 167 -71c59 0 92 31 92 71c0 38 -40 69 -105 69h-51l-35 85l79 123c29 46 56 67 56 67v2s-23 -5 -68 -5h-15c-14 0 -22 -8 -22 -22v-39h-160v138c0 51 13 73 64 73h410v-109l-129 -173c102 -23 157 -111 157 -206c0 -117 -88 -239 -270 -239
c-166 0 -254 101 -254 101z" />
    <glyph glyph-name="four.tnum" horiz-adv-x="600" 
d="M12 168v111l256 436h217v-397h106v-150h-106v-168h-179v168h-294zM309 318v125c0 39 6 85 6 85h-2s-18 -44 -35 -74l-50 -89c-17 -30 -34 -48 -34 -48v-2s29 3 65 3h50z" />
    <glyph glyph-name="five.tnum" horiz-adv-x="600" 
d="M33 84l82 138s69 -69 167 -69c62 0 95 40 95 83c0 65 -64 87 -131 87c-76 0 -132 -27 -132 -27l-54 30l22 316c4 51 22 73 73 73h286c51 0 73 -22 73 -73v-138h-160v39c0 14 -8 22 -22 22h-70c-14 0 -21 -8 -22 -22l-3 -49c-1 -14 -3 -28 -3 -28h2s25 4 51 4
c179 0 271 -105 271 -237c0 -123 -91 -246 -276 -246c-158 0 -249 97 -249 97z" />
    <glyph glyph-name="six.tnum" horiz-adv-x="600" 
d="M323 -12c-144 0 -290 107 -290 337c0 196 119 402 341 402c100 0 158 -31 158 -31l-47 -150s-47 21 -98 21c-82 0 -130 -52 -152 -118h2c17 12 62 25 96 25c149 0 234 -122 234 -245c0 -121 -89 -241 -244 -241zM215 290c0 -85 58 -142 108 -142c44 0 72 38 72 80
c0 51 -31 105 -108 105c-38 0 -72 -10 -72 -43z" />
    <glyph glyph-name="seven.tnum" horiz-adv-x="600" 
d="M45 0l283 501c27 48 46 65 46 65v2s-10 -3 -46 -3h-107c-14 0 -22 -8 -22 -22v-39h-160v138c0 51 13 73 64 73h466v-122l-330 -593h-194z" />
    <glyph glyph-name="eight.tnum" horiz-adv-x="600" 
d="M33 211c0 101 95 169 95 169v2s-64 48 -64 139c0 105 84 206 239 206c143 0 239 -90 239 -205c0 -93 -64 -151 -64 -151v-2c59 -41 87 -102 87 -163c0 -109 -97 -218 -267 -218c-156 0 -265 99 -265 223zM300 451c8 -4 26 -12 35 -12c20 0 37 34 37 70s-28 58 -69 58
c-43 0 -68 -24 -68 -50c0 -29 27 -49 65 -66zM211 223c0 -44 34 -75 87 -75c52 0 87 28 87 67c0 32 -33 52 -77 72c-30 14 -41 20 -50 20c-21 0 -47 -42 -47 -84z" />
    <glyph glyph-name="nine.tnum" horiz-adv-x="600" 
d="M68 19l47 150s47 -21 98 -21c82 0 130 52 152 118h-2c-16 -12 -62 -25 -96 -25c-149 0 -234 122 -234 245c0 121 89 241 244 241c144 0 290 -107 290 -337c0 -196 -119 -402 -341 -402c-100 0 -158 31 -158 31zM313 382c38 0 72 10 72 43c0 85 -58 142 -108 142
c-44 0 -72 -38 -72 -80c0 -51 31 -105 108 -105z" />
    <glyph glyph-name="T_h" horiz-adv-x="1228" 
d="M270 0v565h-78c-14 0 -22 -8 -22 -22v-39h-155v142c0 51 18 69 69 69h652c51 0 73 -22 73 -73v-153c0 -26 -2 -44 -2 -44h2s41 82 157 82c104 0 185 -48 185 -193v-167c0 -14 8 -22 22 -22h38v-145h-160c-51 0 -73 22 -73 73v229c0 48 -19 68 -57 68
c-78 0 -112 -64 -112 -142v-228h-173v543c0 14 -8 22 -22 22h-165v-565h-179z" />
    <glyph glyph-name="T.alt" horiz-adv-x="666" 
d="M264 0v565h-72c-14 0 -22 -8 -22 -22v-39h-155v142c0 51 18 69 69 69h567v-150h-208v-565h-179z" />
    <glyph glyph-name="Tcommaaccent.alt" horiz-adv-x="666" 
d="M15 504v142c0 51 18 69 69 69h567v-150h-208v-565h-52l-9 -36c40 -4 75 -27 75 -80c0 -72 -60 -94 -117 -94c-38 0 -71 9 -71 9v87s23 -10 45 -10s38 7 38 23c0 17 -21 21 -41 21c-13 0 -26 -2 -26 -2l26 82h-47v565h-72c-14 0 -22 -8 -22 -22v-39h-155z" />
    <glyph glyph-name="Tcaron.alt" horiz-adv-x="666" 
d="M285 761l-98 150h120l47 -82h2l47 82h121l-99 -150h-140zM264 0v565h-72c-14 0 -22 -8 -22 -22v-39h-155v142c0 51 18 69 69 69h567v-150h-208v-565h-179z" />
    <glyph glyph-name="Tbar.alt" horiz-adv-x="666" 
d="M264 0v272h-128v127h128v166h-72c-14 0 -22 -8 -22 -22v-39h-155v142c0 51 18 69 69 69h567v-150h-208v-166h138v-127h-138v-272h-179z" />
    <glyph glyph-name="uni021A.alt" horiz-adv-x="666" 
d="M264 0v565h-72c-14 0 -22 -8 -22 -22v-39h-155v142c0 51 18 69 69 69h567v-150h-208v-565h-179zM283 -49h122c5 -19 7 -36 7 -53c0 -33 -9 -62 -28 -98h-109c12 33 20 60 20 88c0 19 -3 39 -12 63z" />
    <glyph glyph-name="hyphen.case" horiz-adv-x="430" 
d="M58 272v150h314v-150h-314z" />
    <glyph glyph-name="parenleft.case" horiz-adv-x="385" 
d="M77 351c0 155 41 310 125 429h143c-78 -130 -115 -273 -115 -417c0 -147 39 -295 115 -428h-143c-85 114 -125 264 -125 416z" />
    <glyph glyph-name="parenright.case" horiz-adv-x="385" 
d="M40 -65c76 133 115 281 115 428c0 144 -37 287 -115 417h143c84 -119 125 -274 125 -429c0 -152 -40 -302 -125 -416h-143z" />
    <glyph glyph-name="bracketleft.case" horiz-adv-x="390" 
d="M85 8v699c0 51 22 73 73 73h173v-120h-80c-14 0 -22 -8 -22 -22v-561c0 -14 8 -22 22 -22h80v-120h-173c-51 0 -73 22 -73 73z" />
    <glyph glyph-name="bracketright.case" horiz-adv-x="390" 
d="M59 55h80c14 0 22 8 22 22v561c0 14 -8 22 -22 22h-80v120h173c51 0 73 -22 73 -73v-699c0 -51 -22 -73 -73 -73h-173v120z" />
    <glyph glyph-name="braceleft.case" horiz-adv-x="372" 
d="M102 92v98c0 96 -85 96 -85 96v150s85 0 85 99v88c0 143 129 162 199 162c25 0 43 -2 43 -2v-124s-11 2 -25 2c-29 0 -73 -8 -73 -54v-117c0 -102 -84 -127 -84 -127v-2s84 -21 84 -126v-127c0 -46 44 -54 73 -54c14 0 25 2 25 2v-124s-18 -2 -43 -2
c-70 0 -199 19 -199 162z" />
    <glyph glyph-name="braceright.case" horiz-adv-x="372" 
d="M28 56c0 0 11 -2 25 -2c29 0 73 8 73 54v127c0 105 84 126 84 126v2s-84 25 -84 127v117c0 46 -44 54 -73 54c-14 0 -25 -2 -25 -2v124s18 2 43 2c70 0 199 -19 199 -162v-88c0 -99 85 -99 85 -99v-150s-85 0 -85 -96v-98c0 -143 -129 -162 -199 -162c-25 0 -43 2 -43 2
v124z" />
    <glyph glyph-name="at.case" horiz-adv-x="843" 
d="M35 355c0 211 168 376 393 376c221 0 298 -110 298 -240v-198h74v-119h-283c-150 0 -227 91 -227 182c0 88 74 176 227 176h49c0 43 -73 64 -135 64c-130 0 -227 -120 -227 -241c0 -127 88 -239 252 -239v-130c-262 0 -421 163 -421 369zM461 360c0 -37 22 -67 66 -67h39
v134h-37c-46 0 -68 -31 -68 -67z" />
    <glyph glyph-name="guillemotleft.case" horiz-adv-x="686" 
d="M312 342l164 206h158l-164 -206l164 -205h-158zM216 137l-164 205l164 206h158l-164 -206l164 -205h-158z" />
    <glyph glyph-name="guillemotright.case" horiz-adv-x="686" 
d="M312 137l164 205l-164 206h158l164 -206l-164 -205h-158zM52 137l164 205l-164 206h158l164 -206l-164 -205h-158z" />
    <glyph glyph-name="guilsinglleft.case" horiz-adv-x="431" 
d="M216 137l-164 205l164 206h158l-164 -206l164 -205h-158z" />
    <glyph glyph-name="guilsinglright.case" horiz-adv-x="431" 
d="M52 137l164 205l-164 206h158l164 -206l-164 -205h-158z" />
    <glyph glyph-name="endash.case" horiz-adv-x="680" 
d="M42 282v130h596v-130h-596z" />
    <glyph glyph-name="emdash.case" horiz-adv-x="880" 
d="M42 282v130h796v-130h-796z" />
    <glyph glyph-name="periodcentered.case" horiz-adv-x="304" 
d="M73 263v164h158v-164h-158z" />
    <glyph glyph-name="questiondown.case" horiz-adv-x="511" 
d="M210 565v150h158v-150h-158zM35 184c0 164 171 188 171 277v33h166v-47c0 -135 -157 -159 -157 -243c0 -34 33 -59 71 -59c48 0 95 43 95 43l96 -117s-75 -83 -209 -83c-112 0 -233 67 -233 196z" />
    <glyph glyph-name="exclamdown.case" horiz-adv-x="360" 
d="M101 565v150h158v-150h-158zM90 0l16 494h148l16 -494h-180z" />
    <glyph glyph-name="bullet.case" horiz-adv-x="492" 
d="M246 170c-103 0 -186 83 -186 186s83 186 186 186s186 -83 186 -186s-83 -186 -186 -186z" />
    </font>
</defs>
</svg>
