<?xml version="1.0" standalone="no"?>
<!DOCTYPE svg PUBLIC "-//W3C//DTD SVG 1.1//EN" "http://www.w3.org/Graphics/SVG/1.1/DTD/svg11.dtd" >
<svg xmlns="http://www.w3.org/2000/svg">
<metadata></metadata>
<defs>
<font id="aachen_btroman" horiz-adv-x="1241" >
<font-face units-per-em="2048" ascent="1638" descent="-410" />
<missing-glyph horiz-adv-x="621" />
<glyph horiz-adv-x="2048" />
<glyph horiz-adv-x="2048" />
<glyph unicode="&#xd;" horiz-adv-x="621" />
<glyph unicode=" "  horiz-adv-x="621" />
<glyph unicode="&#x09;" horiz-adv-x="621" />
<glyph unicode="&#xa0;" horiz-adv-x="621" />
<glyph unicode="!" horiz-adv-x="621" d="M119 1364q0 88 50.5 138t139.5 50q90 0 141.5 -50t51.5 -138q0 -15 -2 -39.5t-6 -54.5l-99 -789h-172l-96 789q-4 30 -6 54.5t-2 39.5zM137 154q0 69 51 120.5t121 51.5q72 0 122 -50t50 -122q0 -71 -50.5 -121.5t-121.5 -50.5q-69 0 -120.5 51t-51.5 121z" />
<glyph unicode="&#x22;" horiz-adv-x="678" d="M80 879v559h192v-559h-192zM406 879v559h192v-559h-192z" />
<glyph unicode="#" horiz-adv-x="1575" d="M45 406l76 200h282l86 242h-299l74 201h297l148 415h221l-146 -415h242l148 415h221l-148 -415h283l-74 -201h-280l-84 -242h290l-71 -200h-291l-148 -416h-221l148 416h-244l-149 -416h-220l146 416h-287zM621 604h251l86 244h-249z" />
<glyph unicode="$" d="M111 1110q0 173 93 281.5t275 148.5v105h293v-105q102 -21 187.5 -58.5t162.5 -95.5v-358h-336v27q0 98 -41.5 149t-121.5 51q-76 0 -122 -38.5t-46 -102.5q0 -60 50.5 -100.5t231.5 -102.5q241 -82 326.5 -183.5t85.5 -281.5q0 -185 -100 -307.5t-277 -154.5v-101h-293 v99q-107 20 -199 61.5t-165 101.5v381h344v-30q0 -111 43.5 -163t134.5 -52q71 0 115.5 44t44.5 115q0 69 -47 116t-164 91q-26 10 -78 29q-177 63 -252 121q-76 59 -110.5 133.5t-34.5 179.5z" />
<glyph unicode="%" horiz-adv-x="1612" d="M55 1096v145q0 159 67 220t245 61q177 0 245 -62t68 -219v-145q0 -157 -68.5 -219t-244.5 -62q-177 0 -244.5 60.5t-67.5 220.5zM238 0l876 1522h256l-876 -1522h-256zM283 1059q0 -62 20.5 -90.5t65.5 -28.5q44 0 65 28.5t21 90.5v219q0 61 -21 90t-65 29t-65 -29 t-21 -90v-219zM928 279v145q0 157 69 220t244 63q176 0 244.5 -62.5t68.5 -220.5v-145q0 -156 -67 -217.5t-246 -61.5q-178 0 -245.5 61.5t-67.5 217.5zM1157 244q0 -62 20.5 -91.5t63.5 -29.5q44 0 65 29.5t21 91.5v217q0 63 -20.5 92t-65.5 29q-44 0 -64 -28.5t-20 -92.5 v-217z" />
<glyph unicode="&#x26;" horiz-adv-x="1282" d="M96 453q0 149 59 240.5t177 123.5q-108 50 -161.5 131t-53.5 195q0 190 133 298.5t366 108.5q131 0 261 -36.5t251 -108.5v-262h-335q-5 46 -45.5 75t-100.5 29q-78 0 -122 -42.5t-44 -119.5q0 -78 51 -114.5t162 -36.5h111v53h323v-53h60v-246h-60v-688h-516 q-284 0 -400 104t-116 349zM455 508q0 -103 50 -146t177 -43h123v369h-143q-115 0 -161 -41.5t-46 -138.5z" />
<glyph unicode="'" horiz-adv-x="352" d="M80 879v559h192v-559h-192z" />
<glyph unicode="(" horiz-adv-x="793" d="M121 655q0 265 108 508t334 488l162 -111q-129 -201 -197.5 -429t-68.5 -456t68.5 -455t197.5 -429l-162 -111q-225 242 -333.5 486.5t-108.5 508.5z" />
<glyph unicode=")" horiz-adv-x="793" d="M68 -229q128 199 196 426t68 458q0 232 -68 459.5t-196 425.5l159 111q227 -246 336 -489.5t109 -506.5t-109 -507.5t-336 -487.5z" />
<glyph unicode="*" horiz-adv-x="854" d="M86 1102l184 106l-184 107l68 129l194 -103v211h154v-211l188 103l76 -129l-191 -107l191 -106l-76 -127l-188 104v-215h-154v215l-194 -104z" />
<glyph unicode="+" horiz-adv-x="1706" d="M254 512v199h498v510h202v-510h498v-199h-498v-512h-202v512h-498z" />
<glyph unicode="," horiz-adv-x="621" d="M154 156q0 64 45.5 107.5t111.5 43.5q71 0 116.5 -49t45.5 -127q0 -91 -61.5 -177t-171.5 -147l-52 78q43 31 68 60t33 57q-66 12 -100.5 52t-34.5 102z" />
<glyph unicode="-" horiz-adv-x="782" d="M117 453v245h549v-245h-549z" />
<glyph unicode="." horiz-adv-x="621" d="M147 143q0 66 49 115t115 49q68 0 115 -48t47 -116q0 -67 -47.5 -114t-114.5 -47q-65 0 -114.5 48.5t-49.5 112.5z" />
<glyph unicode="/" horiz-adv-x="664" d="M-96 -190l536 1712h271l-537 -1712h-270z" />
<glyph unicode="0" d="M111 512v500q0 178 18.5 256.5t63.5 136.5q59 76 163 111.5t265 35.5t264.5 -35.5t163.5 -111.5q45 -58 64.5 -138t19.5 -255v-500q0 -179 -19.5 -258.5t-64.5 -136.5q-60 -76 -163.5 -112t-264.5 -36t-265 36t-163 112q-45 56 -63.5 133t-18.5 262zM461 498 q0 -121 37.5 -172.5t122.5 -51.5t123 52t38 172v526q0 119 -38 170t-123 51t-122.5 -51t-37.5 -170v-526z" />
<glyph unicode="1" d="M371 0v256q45 10 61.5 37.5t16.5 120.5v704q0 93 -16.5 120.5t-61.5 37.5v246h428v-1108q0 -95 16 -121.5t59 -36.5v-256h-503z" />
<glyph unicode="2" d="M102 0v356q0 113 34.5 183t133.5 147l389 305q60 46 84.5 82.5t24.5 77.5q0 63 -36.5 98t-102.5 35q-78 0 -122 -44.5t-44 -123.5v-112h-334v409q93 65 226 102t272 37q264 0 386 -96.5t122 -306.5q0 -128 -46 -215t-196 -205l-334 -264q-59 -47 -77.5 -80t-18.5 -78v-12 h149q93 0 125.5 27t32.5 116v47h373v-485h-1041z" />
<glyph unicode="3" d="M94 109v362h346v-12q0 -90 42 -136.5t124 -46.5q77 0 117.5 46.5t40.5 134.5q0 101 -46.5 143.5t-164.5 42.5h-191v258h203q98 0 150.5 45.5t52.5 128.5q0 82 -46 127t-128 45q-71 0 -109 -44.5t-43 -131.5h-331v346q108 66 238 100.5t269 34.5q241 0 368.5 -107.5 t127.5 -309.5q0 -139 -64.5 -224.5t-197.5 -122.5q137 -20 205.5 -112t68.5 -254q0 -225 -132 -339t-392 -114q-128 0 -258 36t-250 104z" />
<glyph unicode="4" d="M51 406v325l527 791h438v-828h100v-288h-100v-21q0 -68 16 -94.5t60 -34.5v-256h-488v256q43 8 59.5 34.5t16.5 94.5v21h-629zM367 694h313v480z" />
<glyph unicode="5" d="M115 109v391h346v-8q0 -115 42.5 -167.5t135.5 -52.5q88 0 126 54.5t38 183.5q0 122 -38 175.5t-122 53.5q-49 0 -85 -16.5t-66 -52.5h-377v852h999v-410h-327q-7 68 -37 92.5t-123 24.5h-164v-275q72 27 134 39.5t126 12.5q225 0 328.5 -123t103.5 -396 q0 -271 -122.5 -395.5t-387.5 -124.5q-154 0 -290 36.5t-240 105.5z" />
<glyph unicode="6" d="M102 403v705q0 229 121.5 336.5t378.5 107.5q129 0 257.5 -29.5t254.5 -88.5v-347l-334 1q-2 91 -40.5 132.5t-121.5 41.5q-95 0 -132 -47.5t-37 -190.5v-147q66 39 141 59t160 20q93 0 165 -25.5t123 -76.5q56 -56 79.5 -133t23.5 -234q0 -289 -120 -403.5t-411 -114.5 q-267 0 -387.5 103t-120.5 331zM449 473q0 -108 39 -158.5t122 -50.5t123.5 51.5t40.5 157.5q0 97 -41.5 147t-122.5 50q-80 0 -120.5 -49.5t-40.5 -147.5z" />
<glyph unicode="7" d="M100 1010v512h1047v-260l-541 -1262h-377l529 1229h-96q-151 0 -192.5 -40.5t-41.5 -160.5v-18h-328z" />
<glyph unicode="8" d="M78 424q0 139 53 228t164 136q-106 44 -152.5 121t-46.5 211q0 212 133 321t392 109q257 0 390.5 -109.5t133.5 -320.5q0 -134 -46.5 -211t-152.5 -121q111 -47 164 -136t53 -228q0 -230 -133.5 -342.5t-408.5 -112.5t-409 112.5t-134 342.5zM446 467q0 -102 45.5 -156.5 t129.5 -54.5q83 0 128.5 55t45.5 156q0 100 -45.5 154.5t-128.5 54.5q-85 0 -130 -54t-45 -155zM461 1081q0 -82 42 -128t118 -46q75 0 117 45.5t42 126.5t-42.5 126.5t-116.5 45.5q-75 0 -117.5 -45t-42.5 -125z" />
<glyph unicode="9" d="M102 1034q0 189 32.5 277t109.5 145q63 48 160.5 72t226.5 24q267 0 387.5 -102.5t120.5 -331.5v-704q0 -229 -121 -337t-377 -108q-128 0 -257 29t-249 84v324l326 -1q3 -71 44 -108t118 -37q95 0 132.5 48t37.5 190v125q-57 -36 -125 -55t-142 -19q-224 0 -324 113 t-100 372zM467 1049q0 -116 39.5 -170t124.5 -54q82 0 122 52t40 157q0 117 -38.5 168t-123.5 51q-84 0 -124 -49.5t-40 -154.5z" />
<glyph unicode=":" horiz-adv-x="621" d="M147 143q0 66 49 115t115 49q68 0 115 -48t47 -116q0 -67 -47.5 -114t-114.5 -47q-65 0 -114.5 48.5t-49.5 112.5zM147 754q0 65 49 113t115 48q68 0 115 -47t47 -114q0 -68 -48 -116t-114 -48q-64 0 -114 49.5t-50 114.5z" />
<glyph unicode=";" horiz-adv-x="621" d="M147 754q0 65 49 113t115 48q68 0 115 -47t47 -114q0 -68 -48 -116t-114 -48q-64 0 -114 49.5t-50 114.5zM154 156q0 64 45.5 107.5t111.5 43.5q71 0 116.5 -49t45.5 -127q0 -91 -61.5 -177t-171.5 -147l-52 78q43 31 68 60t33 57q-66 12 -100.5 52t-34.5 102z" />
<glyph unicode="&#x3c;" horiz-adv-x="1706" d="M264 512v199l1178 483v-219l-893 -365l893 -364v-219z" />
<glyph unicode="=" horiz-adv-x="1706" d="M254 297v199h1198v-199h-1198zM254 727v199h1198v-199h-1198z" />
<glyph unicode="&#x3e;" horiz-adv-x="1706" d="M264 27v219l895 364l-895 365v219l1178 -483v-199z" />
<glyph unicode="?" horiz-adv-x="1139" d="M84 1063v348q96 70 217.5 105.5t261.5 35.5q257 0 385.5 -104.5t128.5 -314.5q0 -246 -270 -420l-5 -3q-13 -8 -41 -26q-155 -96 -155 -188v-17h-336v105q0 101 28.5 154.5t113.5 115.5q47 35 133 90q182 118 182 205q0 65 -42 99t-122 34q-72 0 -110.5 -46t-38.5 -132 v-41h-330zM264 154q0 69 51 120.5t121 51.5q72 0 122 -50t50 -122t-51 -122t-121 -50q-69 0 -120.5 51t-51.5 121z" />
<glyph unicode="@" horiz-adv-x="2048" d="M90 520q0 167 52.5 318.5t154.5 275.5q148 181 356 274t463 93q169 0 317.5 -45.5t258.5 -128.5q135 -105 201.5 -239.5t66.5 -303.5q0 -165 -65.5 -304.5t-188.5 -238.5q-70 -56 -152.5 -85.5t-171.5 -29.5q-106 0 -159.5 42t-55.5 124q-55 -84 -127 -123.5t-170 -39.5 q-158 0 -240.5 86t-82.5 254q0 239 139.5 401t343.5 162q80 0 139 -33t97 -98l53 98h178l-147 -598q-3 -11 -5 -22.5t-2 -18.5q0 -35 24 -52.5t71 -17.5q39 0 81.5 20t79.5 56q86 80 130.5 187t44.5 235q0 240 -185.5 394.5t-478.5 154.5q-141 0 -262.5 -34t-220.5 -101 q-170 -114 -261.5 -285t-91.5 -375q0 -307 207 -490.5t553 -183.5q162 0 316.5 49t287.5 142l82 -117q-153 -115 -324.5 -173t-357.5 -58q-192 0 -353 48.5t-286 143.5q-155 121 -232 279t-77 358zM760 444q0 -92 40.5 -140t117.5 -48q83 0 151.5 63t93.5 164l54 217 q-13 81 -57.5 123.5t-117.5 42.5q-114 0 -198 -124t-84 -298z" />
<glyph unicode="A" horiz-adv-x="1223" d="M47 0v256q36 11 55.5 41.5t36.5 118.5l215 1106h523l237 -1131q15 -69 34 -96.5t54 -38.5v-256h-518v256q35 3 55.5 22t20.5 50q0 8 -1 19.5t-3 24.5l-13 64h-294l-13 -58q-2 -16 -3 -26.5t-1 -19.5q0 -38 19.5 -56t62.5 -20v-256h-467zM487 653h207l-104 582z" />
<glyph unicode="B" horiz-adv-x="1319" d="M102 0v256q45 10 61.5 37.5t16.5 120.5v704q0 93 -16.5 120.5t-61.5 37.5v246h586q267 0 388.5 -99t121.5 -315q0 -127 -55 -212.5t-158 -119.5q121 -37 179.5 -126.5t58.5 -237.5q0 -220 -118.5 -316t-397.5 -96h-605zM532 297h154q102 0 146.5 42t44.5 138t-47 139 t-152 43h-146v-362zM532 920h136q100 0 142 34.5t42 112.5q0 87 -42 124.5t-142 37.5h-136v-309z" />
<glyph unicode="C" horiz-adv-x="1237" d="M109 512v498q0 165 13.5 237t45.5 125q56 93 165 136.5t288 43.5q125 0 248 -28t243 -84v-430h-332v30q0 104 -39.5 154.5t-119.5 50.5q-86 0 -124 -52t-38 -171v-522q0 -120 38 -172t124 -52q84 0 121.5 51.5t37.5 172.5v108h332v-522q-110 -57 -236.5 -87t-254.5 -30 q-162 0 -266.5 36t-164.5 112q-44 56 -62.5 135t-18.5 260z" />
<glyph unicode="D" horiz-adv-x="1305" d="M102 0v256q45 10 61.5 37.5t16.5 120.5v704q0 93 -16.5 120.5t-61.5 37.5v246h506q338 0 463 -123.5t125 -450.5v-364q0 -344 -119 -464t-469 -120h-506zM532 305h103q125 0 167 41t42 172v459q0 152 -40.5 199t-150.5 47h-20l-101 -2v-916z" />
<glyph unicode="E" horiz-adv-x="1262" d="M102 0v256q45 10 61.5 37.5t16.5 120.5v704q0 93 -16.5 120.5t-61.5 37.5v246h1072v-465h-330v16q0 88 -40 123t-142 35h-130v-318h416v-256h-416v-366h154q89 0 123.5 34.5t34.5 129.5v55h330v-510h-1072z" />
<glyph unicode="F" horiz-adv-x="1208" d="M102 0v256q45 10 61.5 37.5t16.5 120.5v704q0 93 -16.5 120.5t-61.5 37.5v246h1045v-467h-309v14q0 86 -38 121t-132 35h-136v-310h396v-256h-396v-245q0 -91 17.5 -122.5t60.5 -35.5v-256h-508z" />
<glyph unicode="G" horiz-adv-x="1237" d="M109 512v498q0 165 13.5 237t45.5 125q56 93 165 136.5t288 43.5q125 0 248 -28t243 -84v-404h-332v8q0 102 -39.5 151.5t-119.5 49.5q-86 0 -124 -52t-38 -171v-522q0 -120 38 -172t124 -52q84 0 121.5 51.5t37.5 172.5v53h-141v244h473v-684q-106 -71 -231 -107.5 t-260 -36.5q-162 0 -266.5 36t-164.5 112q-44 57 -62.5 136.5t-18.5 258.5z" />
<glyph unicode="H" horiz-adv-x="1389" d="M102 0v256q45 10 61.5 37.5t16.5 120.5v704q0 93 -16.5 120.5t-61.5 37.5v246h506v-246q-43 -10 -59.5 -37t-16.5 -121v-203h324v203q0 95 -16 121.5t-60 36.5v246h506v-246q-44 -10 -61 -38t-17 -120v-704q0 -93 16.5 -120.5t61.5 -37.5v-256h-506v256q44 10 60 36.5 t16 121.5v243h-324v-243q0 -95 16 -121.5t60 -36.5v-256h-506z" />
<glyph unicode="I" horiz-adv-x="725" d="M109 0v256q44 10 60.5 37.5t16.5 120.5v704q0 93 -16.5 120.5t-60.5 37.5v246h505v-246q-43 -10 -59 -37t-16 -121v-704q0 -95 16 -121.5t59 -36.5v-256h-505z" />
<glyph unicode="J" horiz-adv-x="743" d="M66 6v225q8 -1 16 -1.5t24 -0.5q66 0 92.5 38t26.5 147v704q0 95 -16 121.5t-59 36.5v246h505v-246q-44 -10 -60.5 -38t-16.5 -120v-624q0 -185 -8 -252t-27 -107q-40 -83 -111.5 -123.5t-177.5 -40.5q-48 0 -95.5 9t-92.5 26z" />
<glyph unicode="K" horiz-adv-x="1255" d="M102 0v256q45 10 61.5 37.5t16.5 120.5v704q0 93 -16.5 120.5t-61.5 37.5v246h502v-246q-44 -10 -60 -36.5t-16 -121.5v-260l191 289q25 36 36 74t11 102v27v172h428v-246q-34 -9 -60.5 -30t-50.5 -58l-227 -344l287 -514q23 -40 41.5 -54t48.5 -20v-256h-467v197 q0 58 -9.5 101t-29.5 79l-199 360v-323q0 -95 16 -121.5t60 -36.5v-256h-502z" />
<glyph unicode="L" horiz-adv-x="1180" d="M102 0v256q45 10 61.5 37.5t16.5 120.5v704q0 93 -16.5 120.5t-61.5 37.5v246h506v-246q-43 -10 -59.5 -37t-16.5 -121v-829h115q102 0 140 42t38 191v168h305v-690h-1028z" />
<glyph unicode="M" horiz-adv-x="1671" d="M98 0v256q43 0 62.5 32.5t19.5 102.5v733q0 73 -18.5 106t-63.5 44v248h541l197 -867l188 867h549v-248q-47 -12 -64.5 -38t-17.5 -118v-690q0 -101 17.5 -133t64.5 -39v-256h-500v256q43 8 59.5 41t16.5 131v717l-268 -1145h-144l-276 1169v-768q0 -84 16 -111t62 -34 v-256h-441z" />
<glyph unicode="N" horiz-adv-x="1374" d="M102 0l1 256q44 6 60.5 35t16.5 119v735q0 67 -17 94t-60 37l-1 246h398l383 -856v456q0 81 -18.5 113.5t-63.5 40.5v246h483v-246q-47 -14 -64.5 -43t-17.5 -127v-1106h-319l-383 864v-454q0 -85 17 -116t62 -38l1 -256h-478z" />
<glyph unicode="O" horiz-adv-x="1239" d="M109 512v498q0 185 18.5 262t62.5 133q60 75 164.5 111t266.5 36q160 0 263 -35.5t165 -111.5q44 -56 62.5 -135.5t18.5 -259.5v-498q0 -181 -18.5 -260t-62.5 -135q-62 -76 -165 -112t-263 -36q-162 0 -266.5 36t-164.5 112q-44 56 -62.5 132.5t-18.5 262.5zM459 500 q0 -120 38 -172t124 -52q84 0 121.5 51.5t37.5 172.5v522q0 120 -37.5 171.5t-121.5 51.5q-86 0 -124 -52t-38 -171v-522z" />
<glyph unicode="P" horiz-adv-x="1255" d="M102 0v256q45 10 61.5 37.5t16.5 120.5v704q0 93 -16.5 120.5t-61.5 37.5v246h603q266 0 380.5 -113t114.5 -377q0 -324 -108 -442.5t-387 -118.5h-173v-57q0 -95 16 -121.5t60 -36.5v-256h-506zM532 799h132q113 0 150.5 41t37.5 153q0 118 -39 161.5t-147 43.5h-134 v-399z" />
<glyph unicode="Q" horiz-adv-x="1239" d="M109 512v498q0 185 18.5 262t62.5 133q60 75 164.5 111t266.5 36q160 0 263 -35.5t165 -111.5q44 -56 62.5 -135.5t18.5 -259.5v-498q0 -175 -17.5 -256t-59.5 -135q21 -22 46.5 -39t55.5 -31l-129 -223q-73 26 -140 63t-130 86q-51 -4 -80.5 -6t-54.5 -2 q-162 0 -266.5 36t-164.5 112q-44 56 -62.5 133t-18.5 262zM459 500q0 -120 38 -172t124 -52q84 0 121.5 51.5t37.5 172.5v522q0 120 -37.5 171.5t-121.5 51.5q-86 0 -124 -52t-38 -171v-522z" />
<glyph unicode="R" horiz-adv-x="1327" d="M102 0v256q45 10 61.5 37.5t16.5 120.5v704q0 93 -16.5 120.5t-61.5 37.5v246h598q263 0 382.5 -105t119.5 -334q0 -141 -59 -231t-172 -121q109 -25 151.5 -77t42.5 -162v-82q0 -85 14.5 -115.5t51.5 -38.5v-256h-377q-16 35 -23.5 79.5t-7.5 143.5v195 q0 113 -37.5 150.5t-144.5 37.5h-109v-192q0 -95 16 -121.5t60 -36.5v-256h-506zM532 874h138q97 0 141.5 43t44.5 136q0 94 -44.5 139t-137.5 45h-142v-363z" />
<glyph unicode="S" horiz-adv-x="1233" d="M102 1110q0 205 138.5 323.5t375.5 118.5q139 0 262.5 -41t235.5 -125v-358h-336v27q0 98 -42 149t-122 51q-75 0 -120 -38.5t-45 -102.5q0 -60 50.5 -100.5t231.5 -102.5q238 -81 324 -182t86 -283q0 -217 -138.5 -347t-373.5 -130q-149 0 -281.5 45t-238.5 131v381h342 v-30q0 -111 43.5 -163t134.5 -52q71 0 115 44t44 115q0 69 -46.5 116t-163.5 91q-26 10 -75 28q-178 64 -253 122q-77 60 -112.5 134.5t-35.5 178.5z" />
<glyph unicode="T" horiz-adv-x="1313" d="M57 905v617h1196v-617h-280v154q0 92 -33 132t-108 42l-1 -819q0 -95 16 -121.5t60 -36.5v-256h-506v256q45 10 61.5 37.5t16.5 120.5v819q-74 -2 -106.5 -42.5t-32.5 -131.5v-154h-283z" />
<glyph unicode="U" horiz-adv-x="1327" d="M94 1276v246h510v-246q-43 -15 -60.5 -49t-17.5 -135v-590q0 -120 38 -173t122 -53t125 54.5t41 165.5v639q0 67 -18 98t-62 43v246h461v-246q-46 -10 -64 -41.5t-18 -120.5v-631q0 -147 -21.5 -224t-72.5 -138q-62 -73 -160 -112.5t-219 -39.5q-268 0 -384 123.5 t-116 415.5v614q0 81 -17 108.5t-67 45.5z" />
<glyph unicode="V" horiz-adv-x="1219" d="M33 1276v246h526v-246q-42 -9 -60 -28t-18 -54q0 -13 1.5 -24.5t4.5 -24.5l166 -856l152 846q2 11 3 24t1 33q0 38 -18 57t-62 27v246h467v-246q-34 -14 -54 -45t-32 -88l-223 -1143h-525l-235 1141q-14 68 -34 94.5t-60 40.5z" />
<glyph unicode="W" horiz-adv-x="1741" d="M18 1274v248h504v-248q-36 -4 -50.5 -20.5t-14.5 -55.5q0 -15 1 -31t3 -32l117 -707l184 1094h268l201 -1088l90 686q1 13 4.5 39.5t3.5 34.5q0 34 -14.5 51.5t-50.5 28.5v248h440v-248q-38 -16 -57 -44.5t-31 -109.5l-178 -1120h-412l-156 834l-133 -834h-418l-210 1136 q-12 62 -33 94t-58 44z" />
<glyph unicode="X" horiz-adv-x="1178" d="M55 0v256q23 12 39.5 29.5t34.5 50.5l256 467l-223 389q-18 34 -35.5 51.5t-42.5 30.5v248h428v-152q0 -43 7.5 -74t25.5 -65l84 -164l86 162q16 31 23 62.5t7 78.5v16v136h367v-248q-24 -10 -43.5 -29.5t-34.5 -48.5l-223 -432l231 -408q26 -45 46 -66t47 -34v-256h-455 v193q0 44 -9.5 83.5t-29.5 77.5l-82 162l-88 -164q-21 -40 -31 -78t-10 -102v-172h-375z" />
<glyph unicode="Y" horiz-adv-x="1128" d="M23 1276v246h446v-187q0 -58 7 -93.5t22 -67.5l102 -211l100 202q17 34 25 74t8 96v187h391v-246q-22 -7 -41.5 -28t-40.5 -60l-292 -586v-199q0 -84 16.5 -112t60.5 -35v-256h-508l1 256q43 9 61 41.5t18 101.5v185l-295 602q-20 41 -39.5 62.5t-41.5 27.5z" />
<glyph unicode="Z" horiz-adv-x="1233" d="M92 0v223l606 1010h-98q-134 0 -172.5 -34t-38.5 -130v-57h-278v510h1013v-228l-587 -993h108q105 0 143.5 32.5t38.5 117.5v51h306v-502h-1041z" />
<glyph unicode="[" horiz-adv-x="793" d="M184 -207v1729h518v-109h-227v-1511h227v-109h-518z" />
<glyph unicode="\" horiz-adv-x="664" d="M-47 1522h270l537 -1712h-271z" />
<glyph unicode="]" horiz-adv-x="793" d="M90 -98h227v1511h-227v109h518v-1729h-518v109z" />
<glyph unicode="^" horiz-adv-x="2048" d="M416 899l481 561h252l481 -561h-235l-371 371l-373 -371h-235z" />
<glyph unicode="_" horiz-adv-x="1024" d="M0 -279h1024v-204h-1024v204z" />
<glyph unicode="`" horiz-adv-x="1024" d="M219 1620h258l197 -371h-142z" />
<glyph unicode="a" horiz-adv-x="1133" d="M72 291q0 147 111 238t493 210v64q0 65 -27 95t-86 30q-58 0 -86 -32t-28 -97v-35h-314v258q112 57 225 87t220 30q218 0 313.5 -88t95.5 -289v-373q0 -95 15.5 -124.5t58.5 -37.5v-227h-375v117q-71 -66 -155.5 -100.5t-172.5 -34.5q-133 0 -210.5 83t-77.5 226z M406 315q0 -41 24 -65.5t66 -24.5q41 0 88 28.5t92 80.5v192q-168 -67 -219 -109.5t-51 -101.5z" />
<glyph unicode="b" horiz-adv-x="1184" d="M68 1298v224h391v-465q66 38 134.5 58t135.5 20q184 0 269 -93.5t85 -296.5v-339q0 -214 -118 -319t-359 -105q-115 0 -233 36t-236 107v1034q0 70 -15 96t-54 43zM459 272q29 -23 67.5 -36t79.5 -13q82 0 118 47t36 158v264q0 106 -36.5 153.5t-117.5 47.5 q-36 0 -73 -13t-74 -38v-570z" />
<glyph unicode="c" horiz-adv-x="1075" d="M100 379v360q0 206 105.5 303t329.5 97q113 0 224.5 -30.5t217.5 -90.5v-316h-291v35q0 90 -33 132t-102 42q-71 0 -103 -44.5t-32 -143.5v-326q0 -100 31.5 -143t103.5 -43t103.5 42t31.5 144v66h291v-361q-88 -57 -199 -88.5t-227 -31.5q-237 0 -344 93.5t-107 303.5z " />
<glyph unicode="d" horiz-adv-x="1186" d="M100 387v361q0 91 8.5 138.5t26.5 84.5q37 77 112 117t183 40q66 0 134.5 -18.5t144.5 -56.5v90q0 85 -15 113t-55 38v228h383v-1155q0 -84 14.5 -107.5t53.5 -36.5v-223h-381v70q-70 -41 -140 -61.5t-139 -20.5q-173 0 -251.5 93.5t-78.5 305.5zM422 430 q0 -115 33.5 -161t113.5 -46q37 0 71 13t69 40v568q-43 22 -79.5 32.5t-70.5 10.5q-74 0 -105.5 -50.5t-31.5 -179.5v-227z" />
<glyph unicode="e" horiz-adv-x="1081" d="M100 379v360q0 211 107.5 305.5t343.5 94.5q232 0 338 -95.5t106 -304.5v-245h-579v-97q0 -100 31.5 -143t103.5 -43q67 0 101 40t34 120v6h309v-266q-96 -63 -210 -96t-234 -33q-237 0 -344 93.5t-107 303.5zM416 692h270v45q0 90 -33 132t-102 42q-71 0 -103 -44.5 t-32 -143.5v-31z" />
<glyph unicode="f" horiz-adv-x="705" d="M115 0v227q38 12 52.5 37t14.5 98v510h-67v246h67v96q0 157 82.5 238.5t239.5 81.5q33 0 69 -4.5t74 -14.5v-223h-14h-19q-59 0 -88.5 -32t-29.5 -97v-45h129v-246h-129v-507q0 -73 15 -100.5t54 -37.5v-227h-450z" />
<glyph unicode="g" horiz-adv-x="1176" d="M100 414v26v291q0 212 78.5 307t251.5 95q67 0 136 -21t143 -63v69h381v-223q-39 -13 -53.5 -36.5t-14.5 -106.5v-691q0 -139 -15.5 -206t-52.5 -119q-55 -76 -147 -115t-217 -39q-119 0 -228.5 28t-214.5 85v264h302v-6q0 -66 34 -102.5t95 -36.5q68 0 99.5 39.5 t31.5 128.5v98q-77 -39 -145.5 -57.5t-137.5 -18.5q-94 0 -163 32.5t-111 96.5q-28 43 -40 100t-12 181zM422 475q0 -128 31.5 -178.5t105.5 -50.5q33 0 68.5 10.5t81.5 34.5v551q-35 27 -69 40t-71 13q-80 0 -113.5 -46t-33.5 -161v-213z" />
<glyph unicode="h" horiz-adv-x="1204" d="M92 0v227q39 6 54.5 40.5t15.5 129.5v758q0 77 -14.5 102.5t-55.5 40.5v224h381v-473q64 37 128 56t124 19q181 0 258.5 -89t77.5 -306v-346q0 -94 16 -123.5t57 -32.5l1 -227h-355q-17 48 -24.5 118t-7.5 220v350q0 113 -33 160t-109 47q-32 0 -65.5 -13.5t-67.5 -39.5 v-463q0 -85 15 -113t55 -39v-227h-451z" />
<glyph unicode="i" horiz-adv-x="633" d="M96 0v227q39 6 54.5 40.5t15.5 129.5v355q0 77 -14.5 102.5t-55.5 40.5v223h383v-739q0 -88 14.5 -115t53.5 -37v-227h-451zM129 1352q0 73 51.5 125.5t124.5 52.5q74 0 126 -52.5t52 -125.5t-53 -124.5t-125 -51.5q-71 0 -123.5 52.5t-52.5 123.5z" />
<glyph unicode="j" horiz-adv-x="629" d="M51 -174h4q64 0 87.5 37.5t23.5 181.5v707q0 77 -14.5 102.5t-55.5 40.5v223h383v-1022q0 -323 -67 -417.5t-238 -94.5q-27 0 -56.5 3t-66.5 10v229zM129 1352q0 73 51.5 125.5t124.5 52.5q74 0 126 -52.5t52 -125.5t-53 -124.5t-125 -51.5q-71 0 -123.5 52.5 t-52.5 123.5z" />
<glyph unicode="k" horiz-adv-x="1116" d="M92 0v229q39 6 54.5 39.5t15.5 128.5v758q0 77 -14.5 102.5t-55.5 40.5v224h381v-822l135 187q24 32 34.5 66t10.5 77v88h404l-1 -225q-34 -7 -65 -26t-59 -52l-150 -168l189 -332q21 -38 47.5 -58.5t64.5 -29.5v-227h-272q-28 26 -52.5 58.5t-53.5 84.5l-232 422v-186 q0 -84 14.5 -111.5t55.5 -38.5v-229h-451z" />
<glyph unicode="l" horiz-adv-x="633" d="M96 0v227q39 6 54.5 40.5t15.5 129.5v752q0 77 -14.5 102.5t-55.5 40.5v224h383v-1137q0 -88 14.5 -115t53.5 -37v-227h-451z" />
<glyph unicode="m" horiz-adv-x="1778" d="M94 0v227q39 7 53.5 38.5t14.5 131.5v367q0 70 -14.5 93t-53.5 38v223h377v-69q65 37 127.5 56t120.5 19q95 0 162 -27t116 -85q74 56 155 84t165 28q168 0 242.5 -90.5t74.5 -302.5v-350q0 -90 16 -120.5t58 -33.5v-227h-352q-17 43 -24 107.5t-7 230.5v350 q0 113 -32.5 160t-106.5 47q-31 0 -64 -13t-71 -40v-461q0 -90 15.5 -120t57.5 -34v-227h-350q-18 46 -25.5 115.5t-7.5 222.5v350q0 113 -32 160t-107 47q-32 0 -64.5 -13t-66.5 -40v-463q0 -88 14.5 -115t53.5 -37v-227h-445z" />
<glyph unicode="n" horiz-adv-x="1204" d="M92 0v227q39 6 54.5 40.5t15.5 129.5v355q0 77 -14.5 102.5t-55.5 40.5v223h381v-69q64 37 128 56t124 19q181 0 258.5 -88.5t77.5 -304.5v-348q0 -94 16 -123.5t57 -32.5l1 -227h-355q-17 48 -24.5 118t-7.5 220v350q0 113 -33 160t-109 47q-32 0 -65.5 -13.5 t-67.5 -39.5v-463q0 -85 15 -113t55 -39v-227h-451z" />
<glyph unicode="o" horiz-adv-x="1100" d="M100 379v360q0 211 107.5 305.5t343.5 94.5t342 -94.5t106 -305.5v-360q0 -210 -106 -303.5t-342 -93.5q-237 0 -344 93.5t-107 303.5zM422 397q0 -100 30 -143t99 -43q67 0 97 43t30 143v326q0 101 -30 144.5t-97 43.5q-68 0 -98.5 -44t-30.5 -144v-326z" />
<glyph unicode="p" horiz-adv-x="1186" d="M92 -397l1 227q39 6 54 39.5t15 128.5v754q0 77 -14.5 102.5t-55.5 40.5v223h381v-69q73 42 142.5 63t136.5 21q173 0 252 -95t79 -307v-305q0 -245 -76 -340.5t-255 -95.5q-67 0 -135 18.5t-144 57.5v-84q0 -86 15 -114t55 -38v-227h-451zM473 276q45 -23 82 -34t70 -11 q74 0 105.5 50.5t31.5 179.5v227q0 115 -34 161t-114 46q-36 0 -71.5 -13.5t-69.5 -39.5v-566z" />
<glyph unicode="q" horiz-adv-x="1180" d="M100 426v305q0 212 78.5 307t251.5 95q67 0 136 -21t143 -63v69h313v-1120q0 -97 15 -130t52 -38l1 -227h-451v227q40 10 55 38t15 114v84q-76 -39 -144.5 -57.5t-134.5 -18.5q-179 0 -254.5 94.5t-75.5 341.5zM422 461q0 -129 31.5 -179.5t105.5 -50.5q33 0 68.5 11 t81.5 34v566q-35 27 -69 40t-71 13q-80 0 -113.5 -46t-33.5 -161v-227z" />
<glyph unicode="r" horiz-adv-x="723" d="M92 0v227q39 6 54.5 40.5t15.5 129.5v355q0 77 -14.5 102.5t-55.5 40.5v223h367v-92q34 48 79.5 72t100.5 24q15 0 42 -3q3 -1 5 -1v-327q-4 0 -12 1q-28 3 -39 3q-85 0 -123.5 -52.5t-38.5 -167.5v-196q0 -85 15 -113t55 -39v-227h-451z" />
<glyph unicode="s" horiz-adv-x="1028" d="M78 791q0 159 117 253.5t315 94.5q106 0 213.5 -25t210.5 -74v-282h-291v6q0 69 -30 105t-89 36q-49 0 -77.5 -28.5t-28.5 -77.5q0 -83 192 -137q76 -21 119 -35q132 -44 185 -112.5t53 -192.5q0 -165 -104 -252.5t-300 -87.5q-124 0 -242.5 21.5t-238.5 66.5v302h311 q0 -82 27.5 -119.5t87.5 -37.5q50 0 79 28t29 76q0 47 -31 76.5t-107 52.5q-24 8 -70 21q-131 36 -195 74q-71 41 -103 100t-32 148z" />
<glyph unicode="t" horiz-adv-x="678" d="M82 872v246h57v207l314 96v-303h133v-246h-133v-438q0 -119 25.5 -161t92.5 -42h15v-227q-41 -12 -78.5 -18t-69.5 -6q-161 0 -230 91.5t-69 338.5v462h-57z" />
<glyph unicode="u" horiz-adv-x="1204" d="M90 891v227h332q18 -47 25.5 -116t7.5 -220v-352q0 -110 32.5 -158.5t104.5 -48.5q33 0 67 14t70 42v460q0 85 -14.5 113.5t-55.5 38.5v227h381v-749q0 -82 15 -107t55 -39v-223h-381v72q-66 -39 -129.5 -58.5t-122.5 -19.5q-181 0 -258.5 89t-77.5 306v340 q0 86 -11.5 120t-39.5 42z" />
<glyph unicode="v" horiz-adv-x="1071" d="M31 895v223h434v-223q-25 -9 -36 -24t-11 -40q0 -11 1.5 -21.5t4.5 -20.5l131 -465l119 481q2 8 3 15.5t1 17.5q0 22 -8.5 33.5t-32.5 23.5v223h403v-223q-27 -11 -43 -30t-30 -66l-226 -799h-399l-246 805q-12 39 -26.5 58.5t-38.5 31.5z" />
<glyph unicode="w" horiz-adv-x="1511" d="M12 895v223h437v-223q-26 -6 -36 -18.5t-10 -38.5q0 -21 0.5 -29t2.5 -15l90 -391l178 715h196l166 -715l90 387q3 10 5 23.5t2 26.5q0 20 -9.5 33t-29.5 22v223h399v-223q-26 -8 -45 -31t-29 -60l-219 -804h-303l-141 604l-140 -604h-299l-231 791q-12 44 -28 65.5 t-46 38.5z" />
<glyph unicode="x" horiz-adv-x="1006" d="M35 0v227q29 8 58 41q5 6 7 8l240 281l-225 281q-23 27 -37 40.5t-22 16.5l-1 223h381v-104q0 -58 6 -82t19 -43l80 -115l80 115q14 21 21 45.5t7 64.5v119h312v-223q-16 -6 -29.5 -16t-32.5 -31l-219 -252l231 -313q25 -32 39.5 -42t32.5 -14v-227h-387v109 q0 61 -9.5 93.5t-31.5 63.5l-74 107l-73 -105q-22 -29 -31.5 -59t-9.5 -88v-121h-332z" />
<glyph unicode="y" horiz-adv-x="1049" d="M23 895v223h438v-223q-21 -6 -31 -20t-10 -37q0 -10 1.5 -21t4.5 -24l119 -496l106 495q3 10 4.5 21.5t1.5 22.5q0 22 -9 35.5t-32 23.5v223h412v-223q-27 -10 -43 -31t-29 -69l-206 -750q-76 -278 -167.5 -369.5t-254.5 -91.5q-26 0 -51 3t-54 10v243h8q58 0 89 22.5 t53 80.5l-275 843q-16 51 -34 77t-41 32z" />
<glyph unicode="z" horiz-adv-x="1042" d="M61 0v221l529 678h-76q-119 0 -152 -29.5t-34 -115.5h-267v364h916v-198l-541 -699h94q107 0 145 35t38 131h264v-387h-916z" />
<glyph unicode="{" horiz-adv-x="1024" d="M158 426v209q7 0 21 -1t20 -1q120 0 171.5 58t51.5 196v250q0 143 23.5 201t80.5 92q47 25 114 37t167 12q12 0 37 -1t39 -1v-209q-9 0 -25 1t-22 1q-101 0 -136.5 -38.5t-35.5 -162.5v-240q0 -148 -45 -210t-162 -89q117 -27 162 -88t45 -209v-241q0 -123 35 -161 t137 -38q6 0 22 1t25 1v-209q-14 0 -39 -1t-37 -1q-100 0 -167 12t-114 37q-57 34 -80.5 91.5t-23.5 199.5v252q0 137 -51 194.5t-172 57.5q-6 0 -20 -1t-21 -1z" />
<glyph unicode="|" horiz-adv-x="1024" d="M410 -483v2048h206v-2048h-206z" />
<glyph unicode="}" horiz-adv-x="1024" d="M143 -205q9 0 25 -1t22 -1q101 0 136.5 38.5t35.5 160.5v239q0 150 45 211.5t162 87.5q-117 27 -162 89t-45 210v242q0 122 -35.5 160.5t-136.5 38.5q-6 0 -22 -1t-25 -1v209h68q110 0 177 -12t112 -38q57 -32 80.5 -91.5t23.5 -198.5v-252q0 -137 51 -194.5t172 -57.5 q6 0 20 1t21 1v-209h-37q-125 0 -176 -56t-51 -194v-252q0 -143 -23.5 -201t-80.5 -90q-47 -25 -114 -37t-167 -12q-12 0 -37 1t-39 1v209z" />
<glyph unicode="~" horiz-adv-x="1706" d="M178 418v221q107 72 204 107.5t183 35.5q117 0 291 -58q3 -1 4 -1q18 -6 55 -19q155 -55 240 -55t175 37t200 117v-221q-104 -71 -196.5 -104.5t-182.5 -33.5q-46 0 -92 8t-92 23q-24 8 -71 25q-219 75 -333 75q-85 0 -177.5 -37.5t-207.5 -119.5z" />
<glyph unicode="&#xa0;" />
<glyph unicode="&#xa1;" horiz-adv-x="621" d="M119 170q0 18 2 42t6 52l96 789h172l99 -789q3 -29 5.5 -54.5t2.5 -39.5q0 -88 -51.5 -138t-141.5 -50q-89 0 -139.5 50t-50.5 138zM137 1380q0 71 51 121.5t121 50.5q69 0 120.5 -51.5t51.5 -120.5t-51 -121.5t-121 -52.5q-72 0 -122 51t-50 123z" />
<glyph unicode="&#xa2;" d="M201 555v358q0 176 69.5 265.5t229.5 119.5v172h291v-172q74 -13 144.5 -39t141.5 -67v-315h-291v36q0 89 -32.5 130.5t-102.5 41.5t-102.5 -44.5t-32.5 -143.5v-324q0 -100 32 -144t103 -44q73 0 104 42t31 144v66h291v-361q-63 -42 -134 -69t-152 -39v-207h-291v207 q-160 32 -229.5 121.5t-69.5 265.5z" />
<glyph unicode="&#xa3;" d="M82 651v260h80v154q0 238 133 362.5t387 124.5q125 0 241 -36t224 -109v-367h-309v25q0 89 -43 133.5t-127 44.5q-88 0 -129 -45t-41 -141v-146h428v-260h-428v-362h149q102 0 138 31.5t36 115.5h326v-436h-1063v256q45 10 61.5 37.5t16.5 120.5v237h-80z" />
<glyph unicode="&#xa4;" d="M68 438l202 205q-38 54 -56.5 113.5t-18.5 128.5q0 67 18.5 127.5t56.5 113.5l-202 205l104 107l205 -203q54 39 114 58.5t130 19.5t131.5 -19.5t115.5 -58.5l203 203l105 -107l-203 -205q38 -53 57 -113.5t19 -127.5t-19 -127t-57 -115l203 -205l-105 -104l-203 203 q-54 -40 -115 -59t-130 -19q-72 0 -132.5 19t-113.5 59l-205 -203zM346 885q0 -114 81 -194.5t196 -80.5q113 0 194.5 80.5t81.5 194.5q0 112 -81.5 194t-194.5 82t-195 -82t-82 -194z" />
<glyph unicode="&#xa5;" d="M37 545v131h358l-82 172h-276v131h207l-94 207q-20 39 -40 61.5t-42 28.5v246h444v-207q0 -37 7 -71t22 -70l104 -256l100 247q16 38 23.5 72t7.5 76v22v187h391v-246q-21 -7 -39.5 -27t-40.5 -61l-106 -209h197v-131h-263l-84 -172h347v-131h-385v-142q0 -84 16.5 -112 t60.5 -35v-256h-505v256q42 9 59.5 41t17.5 102v146h-405z" />
<glyph unicode="&#xa6;" horiz-adv-x="1024" d="M410 -350v758h206v-758h-206zM410 674v758h206v-758h-206z" />
<glyph unicode="&#xa7;" horiz-adv-x="1024" d="M43 674q0 98 38.5 163.5t121.5 108.5q-59 40 -89 105t-30 149q0 166 113 259t315 93q104 0 208 -32t189 -90v-232h-272v19q0 70 -31 107.5t-90 37.5q-66 0 -103.5 -37.5t-37.5 -103.5q0 -113 225 -192q78 -28 123 -46q138 -56 201 -135t63 -197q0 -96 -40 -163t-122 -107 q61 -41 91 -107t30 -159q0 -155 -115 -249.5t-307 -94.5q-117 0 -226 32t-198 93v231h273v-25q0 -70 33.5 -105.5t101.5 -35.5q65 0 106 38t41 97q0 121 -223 200q-80 28 -125 46q-138 56 -201 135t-63 197zM268 721q0 -99 236 -183q100 -35 160 -59q42 32 60.5 63.5 t18.5 71.5q0 90 -226 173q-108 40 -171 67q-38 -23 -58 -57t-20 -76z" />
<glyph unicode="&#xa8;" horiz-adv-x="1024" d="M195 1432q0 55 40 96t95 41q57 0 97 -40.5t40 -96.5t-40.5 -96t-96.5 -40q-54 0 -94.5 41t-40.5 95zM557 1434q0 55 39.5 95t95.5 40q57 0 97 -39.5t40 -95.5q0 -57 -40.5 -97.5t-96.5 -40.5q-55 0 -95 41t-40 97z" />
<glyph unicode="&#xa9;" horiz-adv-x="1706" d="M111 733q0 149 56 284.5t163 244.5q105 106 238 161.5t284 55.5q152 0 287.5 -56t242.5 -163q105 -105 160 -240.5t55 -286.5q0 -152 -54.5 -284t-160.5 -236q-111 -108 -248 -165.5t-282 -57.5q-147 0 -280.5 56.5t-241.5 164.5q-107 106 -163 240.5t-56 281.5zM233 735 q0 -125 47 -237t136 -201q88 -88 201 -135t237 -47t237.5 47t204.5 137q88 86 133.5 197t45.5 239q0 126 -46.5 238.5t-134.5 200.5q-89 89 -201 135.5t-239 46.5q-128 0 -239.5 -46t-198.5 -134q-89 -90 -136 -203.5t-47 -237.5zM453 729q0 206 109.5 328.5t293.5 122.5 q152 0 250.5 -78t105.5 -205h-188q-8 70 -53 108.5t-119 38.5q-91 0 -143 -81.5t-52 -227.5q0 -147 52 -224t151 -77q73 0 117 42t53 119l193 1q-8 -139 -109 -223t-260 -84q-186 0 -293.5 118t-107.5 322z" />
<glyph unicode="&#xaa;" horiz-adv-x="850" d="M53 942q0 104 83.5 168t371.5 147v43q0 47 -20.5 68t-65.5 21q-43 0 -64.5 -23t-21.5 -68v-24h-234v180q82 40 166.5 61t165.5 21q164 0 235.5 -61.5t71.5 -202.5v-260q0 -65 12 -86.5t43 -26.5l1 -160h-281v82q-53 -45 -116.5 -69.5t-129.5 -24.5q-99 0 -158 58t-59 157 zM305 961q0 -29 18.5 -46.5t49.5 -17.5q29 0 64.5 20t70.5 56v135q-123 -45 -163 -75.5t-40 -71.5z" />
<glyph unicode="&#xab;" horiz-adv-x="967" d="M115 578l149 374h217l-143 -374l143 -375h-217zM502 578l151 374h217l-145 -374l145 -375h-217z" />
<glyph unicode="&#xac;" horiz-adv-x="1706" d="M254 668v196h1198v-502h-199v306h-999z" />
<glyph unicode="&#xad;" horiz-adv-x="782" d="M117 453v245h549v-245h-549z" />
<glyph unicode="&#xae;" horiz-adv-x="1706" d="M111 733q0 102 27 198.5t81 188.5q101 170 267 264.5t366 94.5q154 0 290.5 -57.5t243.5 -166.5q103 -104 157 -238t54 -284q0 -152 -56 -287.5t-163 -238.5q-107 -105 -243.5 -161t-282.5 -56q-149 0 -285 58t-243 167q-104 105 -158.5 238.5t-54.5 279.5zM233 735 q0 -124 46 -235.5t133 -198.5q89 -91 203 -139.5t237 -48.5q120 0 233.5 47t206.5 135q87 84 135 196t48 232q0 133 -44.5 245t-132.5 201q-90 93 -202.5 140t-241.5 47q-127 0 -236 -44.5t-196 -131.5q-91 -91 -140 -206.5t-49 -238.5zM545 336v825h323q176 0 264.5 -59.5 t88.5 -177.5q0 -82 -48 -140t-133 -79l185 -369h-224l-157 338h-99v-338h-200zM745 795h99q88 0 129 28t41 88q0 63 -44 93t-136 30h-89v-239z" />
<glyph unicode="&#xaf;" horiz-adv-x="1024" d="M225 1354v155h574v-155h-574z" />
<glyph unicode="&#xb0;" horiz-adv-x="674" d="M35 1159q0 127 88.5 216t214.5 89t214.5 -89.5t88.5 -215.5q0 -125 -89 -214t-216 -89q-126 0 -213.5 88t-87.5 215zM162 1161q0 -74 51 -125t125 -51q72 0 123 52t51 124t-51 123t-123 51q-73 0 -124.5 -51t-51.5 -123z" />
<glyph unicode="&#xb1;" horiz-adv-x="1706" d="M254 -2v199h1198v-199h-1198zM254 698v199h498v326h202v-326h498v-199h-498v-325h-202v325h-498z" />
<glyph unicode="&#xb2;" horiz-adv-x="819" d="M68 608v213q0 68 22.5 110t87.5 89l258 182q40 30 56 51.5t16 44.5q0 38 -24.5 59t-67.5 21q-52 0 -81.5 -26.5t-29.5 -73.5v-68h-219v246q61 39 148.5 61.5t179.5 22.5q173 0 254.5 -58.5t81.5 -183.5q0 -76 -30 -128t-130 -123l-221 -160q-39 -27 -51.5 -47t-12.5 -47 v-9h98q61 0 83 16.5t22 69.5v29h246v-291h-686z" />
<glyph unicode="&#xb3;" horiz-adv-x="819" d="M61 674v217h230v-8q0 -54 27.5 -81.5t80.5 -27.5q52 0 78.5 27.5t26.5 81.5q0 60 -31 85t-108 25h-125v156h133q64 0 99.5 27.5t35.5 76.5t-31 76t-86 27q-46 0 -70.5 -26.5t-27.5 -77.5l-219 -1v207q71 40 157 61t177 21q159 0 243 -64.5t84 -187.5q0 -83 -42.5 -134 t-129.5 -73q90 -12 135 -67t45 -152q0 -135 -87 -203.5t-259 -68.5q-83 0 -169 21.5t-167 62.5z" />
<glyph unicode="&#xb4;" horiz-adv-x="1024" d="M350 1249l197 371h258l-313 -371h-142z" />
<glyph unicode="&#xb5;" horiz-adv-x="1249" d="M-63 -438l268 1530h289l-76 -435q-15 -80 -23 -151.5t-8 -116.5q0 -93 42 -138.5t128 -45.5q100 0 155.5 82t92.5 291l90 514h289l-193 -1092h-268l18 117q-42 -78 -93.5 -114t-121.5 -36q-67 0 -119 29.5t-94 91.5l-90 -526h-286z" />
<glyph unicode="&#xb6;" horiz-adv-x="1024" d="M41 1130q0 158 107 253.5t284 95.5h551v-111h-113v-1368h-151v1368h-158v-1368h-153v784q-167 6 -267 101t-100 245z" />
<glyph unicode="&#xb7;" horiz-adv-x="621" d="M147 764q0 66 49 115t115 49q68 0 115 -48t47 -116q0 -67 -47.5 -114.5t-114.5 -47.5q-65 0 -114.5 49t-49.5 113z" />
<glyph unicode="&#xb8;" horiz-adv-x="1024" d="M283 -309q84 -22 148 -32.5t108 -10.5q51 0 75.5 18t24.5 55q0 38 -27.5 54t-91.5 16q-21 0 -34.5 -0.5t-24.5 -1.5l2 211h100v-90h15q117 0 176 -48t59 -143q0 -100 -66 -150t-198 -50q-48 0 -116.5 11t-149.5 32v129z" />
<glyph unicode="&#xb9;" horiz-adv-x="819" d="M244 608v154q30 6 40.5 22t10.5 72v424q0 55 -11 71.5t-40 22.5v148h282v-666q0 -56 11 -72t41 -22v-154h-334z" />
<glyph unicode="&#xba;" horiz-adv-x="825" d="M76 1006v251q0 147 80 213t258 66q176 0 256 -66t80 -213v-251q0 -148 -79.5 -213.5t-256.5 -65.5q-179 0 -258.5 66t-79.5 213zM317 1018q0 -71 22.5 -101t74.5 -30q50 0 72 30t22 101v227q0 71 -22.5 102t-71.5 31q-51 0 -74 -30.5t-23 -102.5v-227z" />
<glyph unicode="&#xbb;" horiz-adv-x="967" d="M98 203l144 375l-144 374h215l152 -374l-152 -375h-215zM485 203l146 375l-146 374h217l152 -374l-152 -375h-217z" />
<glyph unicode="&#xbc;" horiz-adv-x="1991" d="M231 670l1 143q27 5 38 20t11 68v395q0 52 -10.5 67t-39.5 21v138h271v-621q0 -53 10 -68t37 -20v-143h-318zM428 0l879 1522h256l-877 -1522h-258zM1241 227v183l332 442h274v-463h64v-162h-64v-12q0 -38 11 -52.5t38 -19.5v-143h-307v143q27 5 37 19.5t10 52.5v12h-395 zM1440 389h196v268z" />
<glyph unicode="&#xbd;" horiz-adv-x="1991" d="M231 670l1 143q27 5 38 20t11 68v395q0 52 -10.5 67t-39.5 21v138h271v-621q0 -53 10 -68t37 -20v-143h-318zM428 0l879 1522h256l-877 -1522h-258zM1274 0v199q0 63 21 102t83 84l246 170q38 26 53 46t15 44q0 36 -23 55t-65 19q-49 0 -77 -25.5t-28 -68.5v-64h-209v230 q58 36 142 56.5t172 20.5q166 0 242.5 -54t76.5 -171q0 -71 -29 -120.5t-122 -114.5l-211 -148q-37 -25 -49.5 -44t-12.5 -44v-6h94q60 0 80.5 15t20.5 65v26h235v-272h-655z" />
<glyph unicode="&#xbe;" horiz-adv-x="1991" d="M59 731v203h217v-8q0 -50 26.5 -75.5t78.5 -25.5q49 0 74.5 26t25.5 75q0 57 -29 80.5t-104 23.5h-119v144h127q61 0 94 25.5t33 72.5q0 45 -28.5 70.5t-79.5 25.5q-45 0 -69 -24.5t-28 -73.5h-208v194q66 36 148.5 55t170.5 19q152 0 232.5 -60t80.5 -173 q0 -78 -41 -125.5t-124 -67.5q87 -12 130.5 -64t43.5 -143q0 -124 -84 -188t-248 -64q-83 0 -165 20t-155 58zM428 0l879 1522h256l-877 -1522h-258zM1241 227v183l332 442h274v-463h64v-162h-64v-12q0 -38 11 -52.5t38 -19.5v-143h-307v143q27 5 37 19.5t10 52.5v12h-395z M1440 389h196v268z" />
<glyph unicode="&#xbf;" horiz-adv-x="1139" d="M82 401q0 137 47.5 222.5t226.5 199.5q15 10 43 27q154 96 154 188v17h338v-105q0 -99 -28 -152.5t-113 -117.5q-48 -36 -135 -91q-183 -117 -183 -204q0 -61 41.5 -97t112.5 -36q80 0 121 45t41 133v43h329v-350q-96 -70 -217.5 -105.5t-263.5 -35.5 q-257 0 -385.5 104.5t-128.5 314.5zM551 1380q0 73 50.5 123.5t121.5 50.5q68 0 121 -52.5t53 -121.5t-51.5 -120.5t-122.5 -51.5q-72 0 -122 50t-50 122z" />
<glyph unicode="&#xc0;" horiz-adv-x="1223" d="M47 0v256q36 11 55.5 41.5t36.5 118.5l215 1106h523l237 -1131q15 -69 34 -96.5t54 -38.5v-256h-518v256q35 3 55.5 22t20.5 50q0 8 -1 19.5t-3 24.5l-13 64h-294l-13 -58q-2 -16 -3 -26.5t-1 -19.5q0 -38 19.5 -56t62.5 -20v-256h-467zM319 2036h258l197 -371h-142z M487 653h207l-104 582z" />
<glyph unicode="&#xc1;" horiz-adv-x="1223" d="M47 0v256q36 11 55.5 41.5t36.5 118.5l215 1106h523l237 -1131q15 -69 34 -96.5t54 -38.5v-256h-518v256q35 3 55.5 22t20.5 50q0 8 -1 19.5t-3 24.5l-13 64h-294l-13 -58q-2 -16 -3 -26.5t-1 -19.5q0 -38 19.5 -56t62.5 -20v-256h-467zM450 1665l197 371h258l-313 -371 h-142zM487 653h207l-104 582z" />
<glyph unicode="&#xc2;" horiz-adv-x="1223" d="M47 0v256q36 11 55.5 41.5t36.5 118.5l215 1106h523l237 -1131q15 -69 34 -96.5t54 -38.5v-256h-518v256q35 3 55.5 22t20.5 50q0 8 -1 19.5t-3 24.5l-13 64h-294l-13 -58q-2 -16 -3 -26.5t-1 -19.5q0 -38 19.5 -56t62.5 -20v-256h-467zM297 1665l196 371h238l196 -371 h-141l-174 217l-176 -217h-139zM487 653h207l-104 582z" />
<glyph unicode="&#xc3;" horiz-adv-x="1223" d="M47 0v256q36 11 55.5 41.5t36.5 118.5l215 1106h523l237 -1131q15 -69 34 -96.5t54 -38.5v-256h-518v256q35 3 55.5 22t20.5 50q0 8 -1 19.5t-3 24.5l-13 64h-294l-13 -58q-2 -16 -3 -26.5t-1 -19.5q0 -38 19.5 -56t62.5 -20v-256h-467zM295 1712q24 122 74 179t130 57 q18 0 40 -3.5t46 -10.5l93 -25q1 0 4 -1q32 -7 51 -7q32 0 52.5 20t33.5 66h110q-28 -126 -78.5 -185t-129.5 -59q-21 0 -39 2.5t-35 7.5l-88 27q-16 5 -32 7.5t-34 2.5q-34 0 -55 -18.5t-33 -59.5h-110zM487 653h207l-104 582z" />
<glyph unicode="&#xc4;" horiz-adv-x="1223" d="M47 0v256q36 11 55.5 41.5t36.5 118.5l215 1106h523l237 -1131q15 -69 34 -96.5t54 -38.5v-256h-518v256q35 3 55.5 22t20.5 50q0 8 -1 19.5t-3 24.5l-13 64h-294l-13 -58q-2 -16 -3 -26.5t-1 -19.5q0 -38 19.5 -56t62.5 -20v-256h-467zM295 1848q0 55 40 96t95 41 q57 0 97 -40.5t40 -96.5t-40.5 -96t-96.5 -40q-54 0 -94.5 41t-40.5 95zM487 653h207l-104 582zM657 1850q0 55 39.5 95t95.5 40q57 0 97 -39.5t40 -95.5q0 -57 -40.5 -97.5t-96.5 -40.5q-55 0 -95 41t-40 97z" />
<glyph unicode="&#xc5;" horiz-adv-x="1223" d="M47 0v256q36 11 55.5 41.5t36.5 118.5l215 1106h97q-51 38 -77 87.5t-26 106.5q0 104 78 180t186 76q112 0 189.5 -77t77.5 -189q0 -54 -25.5 -101t-73.5 -83h97l237 -1131q15 -69 34 -96.5t54 -38.5v-256h-518v256q35 3 55.5 22t20.5 50q0 8 -1 19.5t-3 24.5l-13 64 h-294l-13 -58q-2 -16 -3 -26.5t-1 -19.5q0 -38 19.5 -56t62.5 -20v-256h-467zM487 653h207l-104 582zM492 1706q0 -52 35 -86.5t87 -34.5q51 0 86 35t35 86t-35 87t-86 36t-86.5 -35.5t-35.5 -87.5z" />
<glyph unicode="&#xc6;" horiz-adv-x="1858" d="M25 0v256q33 9 59.5 41.5t50.5 95.5l453 1129h1186v-465h-326v16q0 88 -39.5 123t-140.5 35h-127v-318h411v-256h-411v-366h131q105 0 140.5 32t35.5 132v55h326v-510h-1053v256q41 8 57.5 36t16.5 93v37h-326l-25 -55q-8 -21 -11 -35t-3 -29q0 -19 13.5 -32t35.5 -15 v-256h-454zM549 647h246v684z" />
<glyph unicode="&#xc7;" horiz-adv-x="1237" d="M109 512v498q0 165 13.5 237t45.5 125q56 93 165 136.5t288 43.5q125 0 248 -28t243 -84v-430h-332v30q0 104 -39.5 154.5t-119.5 50.5q-86 0 -124 -52t-38 -171v-522q0 -120 38 -172t124 -52q84 0 121.5 51.5t37.5 172.5v108h332v-522q-110 -57 -236.5 -87t-254.5 -30 q-162 0 -266.5 36t-164.5 112q-44 56 -62.5 135t-18.5 260zM389 -309q84 -22 148 -32.5t108 -10.5q51 0 75.5 18t24.5 55q0 38 -27.5 54t-91.5 16q-21 0 -34.5 -0.5t-24.5 -1.5l2 211h100v-90h15q117 0 176 -48t59 -143q0 -100 -66 -150t-198 -50q-48 0 -116.5 11t-149.5 32 v129z" />
<glyph unicode="&#xc8;" horiz-adv-x="1262" d="M102 0v256q45 10 61.5 37.5t16.5 120.5v704q0 93 -16.5 120.5t-61.5 37.5v246h1072v-465h-330v16q0 88 -40 123t-142 35h-130v-318h416v-256h-416v-366h154q89 0 123.5 34.5t34.5 129.5v55h330v-510h-1072zM338 2036h258l197 -371h-142z" />
<glyph unicode="&#xc9;" horiz-adv-x="1262" d="M102 0v256q45 10 61.5 37.5t16.5 120.5v704q0 93 -16.5 120.5t-61.5 37.5v246h1072v-465h-330v16q0 88 -40 123t-142 35h-130v-318h416v-256h-416v-366h154q89 0 123.5 34.5t34.5 129.5v55h330v-510h-1072zM469 1665l197 371h258l-313 -371h-142z" />
<glyph unicode="&#xca;" horiz-adv-x="1262" d="M102 0v256q45 10 61.5 37.5t16.5 120.5v704q0 93 -16.5 120.5t-61.5 37.5v246h1072v-465h-330v16q0 88 -40 123t-142 35h-130v-318h416v-256h-416v-366h154q89 0 123.5 34.5t34.5 129.5v55h330v-510h-1072zM316 1665l196 371h238l196 -371h-141l-174 217l-176 -217h-139z " />
<glyph unicode="&#xcb;" horiz-adv-x="1262" d="M102 0v256q45 10 61.5 37.5t16.5 120.5v704q0 93 -16.5 120.5t-61.5 37.5v246h1072v-465h-330v16q0 88 -40 123t-142 35h-130v-318h416v-256h-416v-366h154q89 0 123.5 34.5t34.5 129.5v55h330v-510h-1072zM314 1848q0 55 40 96t95 41q57 0 97 -40.5t40 -96.5t-40.5 -96 t-96.5 -40q-54 0 -94.5 41t-40.5 95zM676 1850q0 55 39.5 95t95.5 40q57 0 97 -39.5t40 -95.5q0 -57 -40.5 -97.5t-96.5 -40.5q-55 0 -95 41t-40 97z" />
<glyph unicode="&#xcc;" horiz-adv-x="725" d="M69 2036h258l197 -371h-142zM109 0v256q44 10 60.5 37.5t16.5 120.5v704q0 93 -16.5 120.5t-60.5 37.5v246h505v-246q-43 -10 -59 -37t-16 -121v-704q0 -95 16 -121.5t59 -36.5v-256h-505z" />
<glyph unicode="&#xcd;" horiz-adv-x="725" d="M109 0v256q44 10 60.5 37.5t16.5 120.5v704q0 93 -16.5 120.5t-60.5 37.5v246h505v-246q-43 -10 -59 -37t-16 -121v-704q0 -95 16 -121.5t59 -36.5v-256h-505zM200 1665l197 371h258l-313 -371h-142z" />
<glyph unicode="&#xce;" horiz-adv-x="725" d="M47 1665l196 371h238l196 -371h-141l-174 217l-176 -217h-139zM109 0v256q44 10 60.5 37.5t16.5 120.5v704q0 93 -16.5 120.5t-60.5 37.5v246h505v-246q-43 -10 -59 -37t-16 -121v-704q0 -95 16 -121.5t59 -36.5v-256h-505z" />
<glyph unicode="&#xcf;" horiz-adv-x="725" d="M45 1848q0 55 40 96t95 41q57 0 97 -40.5t40 -96.5t-40.5 -96t-96.5 -40q-54 0 -94.5 41t-40.5 95zM109 0v256q44 10 60.5 37.5t16.5 120.5v704q0 93 -16.5 120.5t-60.5 37.5v246h505v-246q-43 -10 -59 -37t-16 -121v-704q0 -95 16 -121.5t59 -36.5v-256h-505zM407 1850 q0 55 39.5 95t95.5 40q57 0 97 -39.5t40 -95.5q0 -57 -40.5 -97.5t-96.5 -40.5q-55 0 -95 41t-40 97z" />
<glyph unicode="&#xd0;" horiz-adv-x="1352" d="M47 676v213h180v229q0 95 -16 121.5t-59 36.5v246h505q338 0 462 -123.5t124 -450.5v-364q0 -344 -118 -464t-468 -120h-505v256q43 10 59 36.5t16 121.5v262h-180zM580 305h104q125 0 166 40.5t41 172.5v459q0 153 -40 199.5t-149 46.5h-20l-102 -2v-332h155v-213h-155 v-371z" />
<glyph unicode="&#xd1;" horiz-adv-x="1374" d="M102 0l1 256q44 6 60.5 35t16.5 119v735q0 67 -17 94t-60 37l-1 246h398l383 -856v456q0 81 -18.5 113.5t-63.5 40.5v246h483v-246q-47 -14 -64.5 -43t-17.5 -127v-1106h-319l-383 864v-454q0 -85 17 -116t62 -38l1 -256h-478zM371 1712q24 122 74 179t130 57 q18 0 40 -3.5t46 -10.5l93 -25q1 0 4 -1q32 -7 51 -7q32 0 52.5 20t33.5 66h110q-28 -126 -78.5 -185t-129.5 -59q-21 0 -39 2.5t-35 7.5l-88 27q-16 5 -32 7.5t-34 2.5q-34 0 -55 -18.5t-33 -59.5h-110z" />
<glyph unicode="&#xd2;" horiz-adv-x="1239" d="M109 512v498q0 185 18.5 262t62.5 133q60 75 164.5 111t266.5 36q160 0 263 -35.5t165 -111.5q44 -56 62.5 -135.5t18.5 -259.5v-498q0 -181 -18.5 -260t-62.5 -135q-62 -76 -165 -112t-263 -36q-162 0 -266.5 36t-164.5 112q-44 56 -62.5 132.5t-18.5 262.5zM328 2036 h258l197 -371h-142zM459 500q0 -120 38 -172t124 -52q84 0 121.5 51.5t37.5 172.5v522q0 120 -37.5 171.5t-121.5 51.5q-86 0 -124 -52t-38 -171v-522z" />
<glyph unicode="&#xd3;" horiz-adv-x="1239" d="M109 512v498q0 185 18.5 262t62.5 133q60 75 164.5 111t266.5 36q160 0 263 -35.5t165 -111.5q44 -56 62.5 -135.5t18.5 -259.5v-498q0 -181 -18.5 -260t-62.5 -135q-62 -76 -165 -112t-263 -36q-162 0 -266.5 36t-164.5 112q-44 56 -62.5 132.5t-18.5 262.5zM459 500 q0 -120 38 -172t124 -52q84 0 121.5 51.5t37.5 172.5v522q0 120 -37.5 171.5t-121.5 51.5q-86 0 -124 -52t-38 -171v-522zM459 1665l197 371h258l-313 -371h-142z" />
<glyph unicode="&#xd4;" horiz-adv-x="1239" d="M109 512v498q0 185 18.5 262t62.5 133q60 75 164.5 111t266.5 36q160 0 263 -35.5t165 -111.5q44 -56 62.5 -135.5t18.5 -259.5v-498q0 -181 -18.5 -260t-62.5 -135q-62 -76 -165 -112t-263 -36q-162 0 -266.5 36t-164.5 112q-44 56 -62.5 132.5t-18.5 262.5zM306 1665 l196 371h238l196 -371h-141l-174 217l-176 -217h-139zM459 500q0 -120 38 -172t124 -52q84 0 121.5 51.5t37.5 172.5v522q0 120 -37.5 171.5t-121.5 51.5q-86 0 -124 -52t-38 -171v-522z" />
<glyph unicode="&#xd5;" horiz-adv-x="1239" d="M109 512v498q0 185 18.5 262t62.5 133q60 75 164.5 111t266.5 36q160 0 263 -35.5t165 -111.5q44 -56 62.5 -135.5t18.5 -259.5v-498q0 -181 -18.5 -260t-62.5 -135q-62 -76 -165 -112t-263 -36q-162 0 -266.5 36t-164.5 112q-44 56 -62.5 132.5t-18.5 262.5zM304 1712 q24 122 74 179t130 57q18 0 40 -3.5t46 -10.5l93 -25q1 0 4 -1q32 -7 51 -7q32 0 52.5 20t33.5 66h110q-28 -126 -78.5 -185t-129.5 -59q-21 0 -39 2.5t-35 7.5l-88 27q-16 5 -32 7.5t-34 2.5q-34 0 -55 -18.5t-33 -59.5h-110zM459 500q0 -120 38 -172t124 -52 q84 0 121.5 51.5t37.5 172.5v522q0 120 -37.5 171.5t-121.5 51.5q-86 0 -124 -52t-38 -171v-522z" />
<glyph unicode="&#xd6;" horiz-adv-x="1239" d="M109 512v498q0 185 18.5 262t62.5 133q60 75 164.5 111t266.5 36q160 0 263 -35.5t165 -111.5q44 -56 62.5 -135.5t18.5 -259.5v-498q0 -181 -18.5 -260t-62.5 -135q-62 -76 -165 -112t-263 -36q-162 0 -266.5 36t-164.5 112q-44 56 -62.5 132.5t-18.5 262.5zM304 1848 q0 55 40 96t95 41q57 0 97 -40.5t40 -96.5t-40.5 -96t-96.5 -40q-54 0 -94.5 41t-40.5 95zM459 500q0 -120 38 -172t124 -52q84 0 121.5 51.5t37.5 172.5v522q0 120 -37.5 171.5t-121.5 51.5q-86 0 -124 -52t-38 -171v-522zM666 1850q0 55 39.5 95t95.5 40q57 0 97 -39.5 t40 -95.5q0 -57 -40.5 -97.5t-96.5 -40.5q-55 0 -95 41t-40 97z" />
<glyph unicode="&#xd7;" horiz-adv-x="1706" d="M276 160l451 450l-451 453l140 139l450 -450l451 450l141 -139l-450 -453l450 -450l-141 -140l-451 451l-450 -451z" />
<glyph unicode="&#xd8;" horiz-adv-x="1239" d="M96 -8l76 153q-34 51 -48.5 127.5t-14.5 239.5v498q0 185 18.5 262t62.5 133q60 75 164.5 111t266.5 36q68 0 122 -5.5t97 -16.5l55 121l248 -125l-72 -156q32 -50 45.5 -123.5t13.5 -236.5v-498q0 -159 -13.5 -234t-45.5 -128q-56 -94 -164 -137.5t-286 -43.5 q-70 0 -125 6t-101 19l-55 -123zM459 500q0 -120 38 -172t124 -52q84 0 121.5 51.5t37.5 172.5v522q0 120 -37.5 171.5t-121.5 51.5q-86 0 -124 -52t-38 -171v-522z" />
<glyph unicode="&#xd9;" horiz-adv-x="1327" d="M94 1276v246h510v-246q-43 -15 -60.5 -49t-17.5 -135v-590q0 -120 38 -173t122 -53t125 54.5t41 165.5v639q0 67 -18 98t-62 43v246h461v-246q-46 -10 -64 -41.5t-18 -120.5v-631q0 -147 -21.5 -224t-72.5 -138q-62 -73 -160 -112.5t-219 -39.5q-268 0 -384 123.5 t-116 415.5v614q0 81 -17 108.5t-67 45.5zM371 2036h258l197 -371h-142z" />
<glyph unicode="&#xda;" horiz-adv-x="1327" d="M94 1276v246h510v-246q-43 -15 -60.5 -49t-17.5 -135v-590q0 -120 38 -173t122 -53t125 54.5t41 165.5v639q0 67 -18 98t-62 43v246h461v-246q-46 -10 -64 -41.5t-18 -120.5v-631q0 -147 -21.5 -224t-72.5 -138q-62 -73 -160 -112.5t-219 -39.5q-268 0 -384 123.5 t-116 415.5v614q0 81 -17 108.5t-67 45.5zM502 1665l197 371h258l-313 -371h-142z" />
<glyph unicode="&#xdb;" horiz-adv-x="1327" d="M94 1276v246h510v-246q-43 -15 -60.5 -49t-17.5 -135v-590q0 -120 38 -173t122 -53t125 54.5t41 165.5v639q0 67 -18 98t-62 43v246h461v-246q-46 -10 -64 -41.5t-18 -120.5v-631q0 -147 -21.5 -224t-72.5 -138q-62 -73 -160 -112.5t-219 -39.5q-268 0 -384 123.5 t-116 415.5v614q0 81 -17 108.5t-67 45.5zM349 1665l196 371h238l196 -371h-141l-174 217l-176 -217h-139z" />
<glyph unicode="&#xdc;" horiz-adv-x="1327" d="M94 1276v246h510v-246q-43 -15 -60.5 -49t-17.5 -135v-590q0 -120 38 -173t122 -53t125 54.5t41 165.5v639q0 67 -18 98t-62 43v246h461v-246q-46 -10 -64 -41.5t-18 -120.5v-631q0 -147 -21.5 -224t-72.5 -138q-62 -73 -160 -112.5t-219 -39.5q-268 0 -384 123.5 t-116 415.5v614q0 81 -17 108.5t-67 45.5zM347 1848q0 55 40 96t95 41q57 0 97 -40.5t40 -96.5t-40.5 -96t-96.5 -40q-54 0 -94.5 41t-40.5 95zM709 1850q0 55 39.5 95t95.5 40q57 0 97 -39.5t40 -95.5q0 -57 -40.5 -97.5t-96.5 -40.5q-55 0 -95 41t-40 97z" />
<glyph unicode="&#xdd;" horiz-adv-x="1128" d="M23 1276v246h446v-187q0 -58 7 -93.5t22 -67.5l102 -211l100 202q17 34 25 74t8 96v187h391v-246q-22 -7 -41.5 -28t-40.5 -60l-292 -586v-199q0 -84 16.5 -112t60.5 -35v-256h-508l1 256q43 9 61 41.5t18 101.5v185l-295 602q-20 41 -39.5 62.5t-41.5 27.5zM403 1665 l197 371h258l-313 -371h-142z" />
<glyph unicode="&#xde;" horiz-adv-x="1190" d="M102 0v256q45 10 61.5 37.5t16.5 120.5v704q0 93 -16.5 120.5t-61.5 37.5v246h506v-191q-43 -6 -59.5 -26t-16.5 -66h158q246 0 351.5 -95.5t105.5 -318.5q0 -277 -98.5 -378t-358.5 -101h-158v-20q0 -69 16.5 -96t59.5 -35v-195h-506zM532 625h121q104 0 138 34.5 t34 131.5q0 99 -35.5 136.5t-134.5 37.5h-123v-340z" />
<glyph unicode="&#xdf;" horiz-adv-x="1112" d="M63 0v227q41 19 57.5 51.5t16.5 100.5v682q0 136 13.5 202.5t44.5 114.5q48 77 149.5 117.5t247.5 40.5q221 0 322.5 -90t101.5 -285q0 -138 -48.5 -209.5t-160.5 -101.5q116 -32 166.5 -105t50.5 -210v-179q0 -193 -76.5 -274.5t-255.5 -81.5h-133v227h27q65 0 88.5 32 t23.5 128v174q0 88 -32 126t-106 42l-1 194q80 6 111.5 47t31.5 152q0 97 -30.5 141t-98.5 44q-66 0 -94 -39t-28 -144v-1124h-388z" />
<glyph unicode="&#xe0;" horiz-adv-x="1133" d="M72 291q0 147 111 238t493 210v64q0 65 -27 95t-86 30q-58 0 -86 -32t-28 -97v-35h-314v258q112 57 225 87t220 30q218 0 313.5 -88t95.5 -289v-373q0 -95 15.5 -124.5t58.5 -37.5v-227h-375v117q-71 -66 -155.5 -100.5t-172.5 -34.5q-133 0 -210.5 83t-77.5 226z M274 1620h258l197 -371h-142zM406 315q0 -41 24 -65.5t66 -24.5q41 0 88 28.5t92 80.5v192q-168 -67 -219 -109.5t-51 -101.5z" />
<glyph unicode="&#xe1;" horiz-adv-x="1133" d="M72 291q0 147 111 238t493 210v64q0 65 -27 95t-86 30q-58 0 -86 -32t-28 -97v-35h-314v258q112 57 225 87t220 30q218 0 313.5 -88t95.5 -289v-373q0 -95 15.5 -124.5t58.5 -37.5v-227h-375v117q-71 -66 -155.5 -100.5t-172.5 -34.5q-133 0 -210.5 83t-77.5 226z M405 1249l197 371h258l-313 -371h-142zM406 315q0 -41 24 -65.5t66 -24.5q41 0 88 28.5t92 80.5v192q-168 -67 -219 -109.5t-51 -101.5z" />
<glyph unicode="&#xe2;" horiz-adv-x="1133" d="M72 291q0 147 111 238t493 210v64q0 65 -27 95t-86 30q-58 0 -86 -32t-28 -97v-35h-314v258q112 57 225 87t220 30q218 0 313.5 -88t95.5 -289v-373q0 -95 15.5 -124.5t58.5 -37.5v-227h-375v117q-71 -66 -155.5 -100.5t-172.5 -34.5q-133 0 -210.5 83t-77.5 226z M252 1249l196 371h238l196 -371h-141l-174 217l-176 -217h-139zM406 315q0 -41 24 -65.5t66 -24.5q41 0 88 28.5t92 80.5v192q-168 -67 -219 -109.5t-51 -101.5z" />
<glyph unicode="&#xe3;" horiz-adv-x="1133" d="M72 291q0 147 111 238t493 210v64q0 65 -27 95t-86 30q-58 0 -86 -32t-28 -97v-35h-314v258q112 57 225 87t220 30q218 0 313.5 -88t95.5 -289v-373q0 -95 15.5 -124.5t58.5 -37.5v-227h-375v117q-71 -66 -155.5 -100.5t-172.5 -34.5q-133 0 -210.5 83t-77.5 226z M250 1296q24 122 74 179t130 57q18 0 40 -3.5t46 -10.5l93 -25q1 0 4 -1q32 -7 51 -7q32 0 52.5 20t33.5 66h110q-28 -126 -78.5 -185t-129.5 -59q-21 0 -39 2.5t-35 7.5l-88 27q-16 5 -32 7.5t-34 2.5q-34 0 -55 -18.5t-33 -59.5h-110zM406 315q0 -41 24 -65.5t66 -24.5 q41 0 88 28.5t92 80.5v192q-168 -67 -219 -109.5t-51 -101.5z" />
<glyph unicode="&#xe4;" horiz-adv-x="1133" d="M72 291q0 147 111 238t493 210v64q0 65 -27 95t-86 30q-58 0 -86 -32t-28 -97v-35h-314v258q112 57 225 87t220 30q218 0 313.5 -88t95.5 -289v-373q0 -95 15.5 -124.5t58.5 -37.5v-227h-375v117q-71 -66 -155.5 -100.5t-172.5 -34.5q-133 0 -210.5 83t-77.5 226z M250 1432q0 55 40 96t95 41q57 0 97 -40.5t40 -96.5t-40.5 -96t-96.5 -40q-54 0 -94.5 41t-40.5 95zM406 315q0 -41 24 -65.5t66 -24.5q41 0 88 28.5t92 80.5v192q-168 -67 -219 -109.5t-51 -101.5zM612 1434q0 55 39.5 95t95.5 40q57 0 97 -39.5t40 -95.5 q0 -57 -40.5 -97.5t-96.5 -40.5q-55 0 -95 41t-40 97z" />
<glyph unicode="&#xe5;" horiz-adv-x="1133" d="M72 291q0 147 111 238t493 210v64q0 65 -27 95t-86 30q-58 0 -86 -32t-28 -97v-35h-314v258q112 57 225 87t220 30q218 0 313.5 -88t95.5 -289v-373q0 -95 15.5 -124.5t58.5 -37.5v-227h-375v117q-71 -66 -155.5 -100.5t-172.5 -34.5q-133 0 -210.5 83t-77.5 226z M301 1470q0 111 77 189t187 78q111 0 188.5 -78t77.5 -189t-77 -188.5t-189 -77.5q-111 0 -187.5 77t-76.5 189zM406 315q0 -41 24 -65.5t66 -24.5q41 0 88 28.5t92 80.5v192q-168 -67 -219 -109.5t-51 -101.5zM444 1470q0 -52 34.5 -87t86.5 -35q51 0 87 36t36 86 q0 51 -36 86t-87 35t-86 -34.5t-35 -86.5z" />
<glyph unicode="&#xe6;" horiz-adv-x="1653" d="M72 291q0 147 111 238t493 210v64q0 65 -27 95t-86 30q-58 0 -86 -32t-28 -97v-35h-314v258q112 58 220.5 87.5t213.5 29.5q81 0 147.5 -18.5t123.5 -55.5q59 36 130.5 55t149.5 19q233 0 340 -96t107 -304v-245h-582v-97q0 -100 31.5 -143t103.5 -43q68 0 102.5 40 t34.5 120v6h310v-266q-97 -63 -211.5 -96t-235.5 -33q-138 0 -235 41.5t-152 123.5q-93 -82 -186.5 -123.5t-186.5 -41.5q-133 0 -210.5 83t-77.5 226zM406 315q0 -41 24 -65.5t66 -24.5q40 0 86 27.5t94 81.5v192q-168 -67 -219 -109.5t-51 -101.5zM985 692h272v45 q0 89 -33.5 131.5t-103.5 42.5t-102.5 -44.5t-32.5 -143.5v-31z" />
<glyph unicode="&#xe7;" horiz-adv-x="1075" d="M100 379v360q0 206 105.5 303t329.5 97q113 0 224.5 -30.5t217.5 -90.5v-316h-291v35q0 90 -33 132t-102 42q-71 0 -103 -44.5t-32 -143.5v-326q0 -100 31.5 -143t103.5 -43t103.5 42t31.5 144v66h291v-361q-88 -57 -199 -88.5t-227 -31.5q-237 0 -344 93.5t-107 303.5z M310 -309q84 -22 148 -32.5t108 -10.5q51 0 75.5 18t24.5 55q0 38 -27.5 54t-91.5 16q-21 0 -34.5 -0.5t-24.5 -1.5l2 211h100v-90h15q117 0 176 -48t59 -143q0 -100 -66 -150t-198 -50q-48 0 -116.5 11t-149.5 32v129z" />
<glyph unicode="&#xe8;" horiz-adv-x="1081" d="M100 379v360q0 211 107.5 305.5t343.5 94.5q232 0 338 -95.5t106 -304.5v-245h-579v-97q0 -100 31.5 -143t103.5 -43q67 0 101 40t34 120v6h309v-266q-96 -63 -210 -96t-234 -33q-237 0 -344 93.5t-107 303.5zM248 1620h258l197 -371h-142zM416 692h270v45q0 90 -33 132 t-102 42q-71 0 -103 -44.5t-32 -143.5v-31z" />
<glyph unicode="&#xe9;" horiz-adv-x="1081" d="M100 379v360q0 211 107.5 305.5t343.5 94.5q232 0 338 -95.5t106 -304.5v-245h-579v-97q0 -100 31.5 -143t103.5 -43q67 0 101 40t34 120v6h309v-266q-96 -63 -210 -96t-234 -33q-237 0 -344 93.5t-107 303.5zM379 1249l197 371h258l-313 -371h-142zM416 692h270v45 q0 90 -33 132t-102 42q-71 0 -103 -44.5t-32 -143.5v-31z" />
<glyph unicode="&#xea;" horiz-adv-x="1081" d="M100 379v360q0 211 107.5 305.5t343.5 94.5q232 0 338 -95.5t106 -304.5v-245h-579v-97q0 -100 31.5 -143t103.5 -43q67 0 101 40t34 120v6h309v-266q-96 -63 -210 -96t-234 -33q-237 0 -344 93.5t-107 303.5zM226 1249l196 371h238l196 -371h-141l-174 217l-176 -217 h-139zM416 692h270v45q0 90 -33 132t-102 42q-71 0 -103 -44.5t-32 -143.5v-31z" />
<glyph unicode="&#xeb;" horiz-adv-x="1081" d="M100 379v360q0 211 107.5 305.5t343.5 94.5q232 0 338 -95.5t106 -304.5v-245h-579v-97q0 -100 31.5 -143t103.5 -43q67 0 101 40t34 120v6h309v-266q-96 -63 -210 -96t-234 -33q-237 0 -344 93.5t-107 303.5zM224 1432q0 55 40 96t95 41q57 0 97 -40.5t40 -96.5 t-40.5 -96t-96.5 -40q-54 0 -94.5 41t-40.5 95zM416 692h270v45q0 90 -33 132t-102 42q-71 0 -103 -44.5t-32 -143.5v-31zM586 1434q0 55 39.5 95t95.5 40q57 0 97 -39.5t40 -95.5q0 -57 -40.5 -97.5t-96.5 -40.5q-55 0 -95 41t-40 97z" />
<glyph unicode="&#xec;" horiz-adv-x="633" d="M24 1620h258l197 -371h-142zM96 0v227q39 6 54.5 40.5t15.5 129.5v355q0 77 -14.5 102.5t-55.5 40.5v223h383v-739q0 -88 14.5 -115t53.5 -37v-227h-451z" />
<glyph unicode="&#xed;" horiz-adv-x="633" d="M96 0v227q39 6 54.5 40.5t15.5 129.5v355q0 77 -14.5 102.5t-55.5 40.5v223h383v-739q0 -88 14.5 -115t53.5 -37v-227h-451zM155 1249l197 371h258l-313 -371h-142z" />
<glyph unicode="&#xee;" horiz-adv-x="633" d="M2 1249l196 371h238l196 -371h-141l-174 217l-176 -217h-139zM96 0v227q39 6 54.5 40.5t15.5 129.5v355q0 77 -14.5 102.5t-55.5 40.5v223h383v-739q0 -88 14.5 -115t53.5 -37v-227h-451z" />
<glyph unicode="&#xef;" horiz-adv-x="633" d="M0 1432q0 55 40 96t95 41q57 0 97 -40.5t40 -96.5t-40.5 -96t-96.5 -40q-54 0 -94.5 41t-40.5 95zM96 0v227q39 6 54.5 40.5t15.5 129.5v355q0 77 -14.5 102.5t-55.5 40.5v223h383v-739q0 -88 14.5 -115t53.5 -37v-227h-451zM362 1434q0 55 39.5 95t95.5 40 q57 0 97 -39.5t40 -95.5q0 -57 -40.5 -97.5t-96.5 -40.5q-55 0 -95 41t-40 97z" />
<glyph unicode="&#xf0;" horiz-adv-x="1100" d="M100 360v340q0 202 108 290.5t355 88.5h19q-32 45 -64.5 87.5t-64.5 82.5l-297 -121l-54 119l267 109q-57 65 -97.5 110t-81.5 86h283q5 -4 15 -13q69 -62 98 -89l252 100l53 -123l-203 -86q173 -189 242 -334.5t69 -306.5v-340q0 -199 -106 -288.5t-342 -89.5 q-237 0 -344 89.5t-107 288.5zM416 377q0 -96 31.5 -137t103.5 -41t103.5 40.5t31.5 137.5v309q0 96 -31.5 137t-103.5 41q-71 0 -103 -42t-32 -136v-309z" />
<glyph unicode="&#xf1;" horiz-adv-x="1204" d="M92 0v227q39 6 54.5 40.5t15.5 129.5v355q0 77 -14.5 102.5t-55.5 40.5v223h381v-69q64 37 128 56t124 19q181 0 258.5 -88.5t77.5 -304.5v-348q0 -94 16 -123.5t57 -32.5l1 -227h-355q-17 48 -24.5 118t-7.5 220v350q0 113 -33 160t-109 47q-32 0 -65.5 -13.5 t-67.5 -39.5v-463q0 -85 15 -113t55 -39v-227h-451zM285 1296q24 122 74 179t130 57q18 0 40 -3.5t46 -10.5l93 -25q1 0 4 -1q32 -7 51 -7q32 0 52.5 20t33.5 66h110q-28 -126 -78.5 -185t-129.5 -59q-21 0 -39 2.5t-35 7.5l-88 27q-16 5 -32 7.5t-34 2.5q-34 0 -55 -18.5 t-33 -59.5h-110z" />
<glyph unicode="&#xf2;" horiz-adv-x="1100" d="M100 379v360q0 211 107.5 305.5t343.5 94.5t342 -94.5t106 -305.5v-360q0 -210 -106 -303.5t-342 -93.5q-237 0 -344 93.5t-107 303.5zM258 1620h258l197 -371h-142zM422 397q0 -100 30 -143t99 -43q67 0 97 43t30 143v326q0 101 -30 144.5t-97 43.5q-68 0 -98.5 -44 t-30.5 -144v-326z" />
<glyph unicode="&#xf3;" horiz-adv-x="1100" d="M100 379v360q0 211 107.5 305.5t343.5 94.5t342 -94.5t106 -305.5v-360q0 -210 -106 -303.5t-342 -93.5q-237 0 -344 93.5t-107 303.5zM389 1249l197 371h258l-313 -371h-142zM422 397q0 -100 30 -143t99 -43q67 0 97 43t30 143v326q0 101 -30 144.5t-97 43.5 q-68 0 -98.5 -44t-30.5 -144v-326z" />
<glyph unicode="&#xf4;" horiz-adv-x="1100" d="M100 379v360q0 211 107.5 305.5t343.5 94.5t342 -94.5t106 -305.5v-360q0 -210 -106 -303.5t-342 -93.5q-237 0 -344 93.5t-107 303.5zM236 1249l196 371h238l196 -371h-141l-174 217l-176 -217h-139zM422 397q0 -100 30 -143t99 -43q67 0 97 43t30 143v326 q0 101 -30 144.5t-97 43.5q-68 0 -98.5 -44t-30.5 -144v-326z" />
<glyph unicode="&#xf5;" horiz-adv-x="1100" d="M100 379v360q0 211 107.5 305.5t343.5 94.5t342 -94.5t106 -305.5v-360q0 -210 -106 -303.5t-342 -93.5q-237 0 -344 93.5t-107 303.5zM234 1296q24 122 74 179t130 57q18 0 40 -3.5t46 -10.5l93 -25q1 0 4 -1q32 -7 51 -7q32 0 52.5 20t33.5 66h110q-28 -126 -78.5 -185 t-129.5 -59q-21 0 -39 2.5t-35 7.5l-88 27q-16 5 -32 7.5t-34 2.5q-34 0 -55 -18.5t-33 -59.5h-110zM422 397q0 -100 30 -143t99 -43q67 0 97 43t30 143v326q0 101 -30 144.5t-97 43.5q-68 0 -98.5 -44t-30.5 -144v-326z" />
<glyph unicode="&#xf6;" horiz-adv-x="1100" d="M100 379v360q0 211 107.5 305.5t343.5 94.5t342 -94.5t106 -305.5v-360q0 -210 -106 -303.5t-342 -93.5q-237 0 -344 93.5t-107 303.5zM234 1432q0 55 40 96t95 41q57 0 97 -40.5t40 -96.5t-40.5 -96t-96.5 -40q-54 0 -94.5 41t-40.5 95zM422 397q0 -100 30 -143t99 -43 q67 0 97 43t30 143v326q0 101 -30 144.5t-97 43.5q-68 0 -98.5 -44t-30.5 -144v-326zM596 1434q0 55 39.5 95t95.5 40q57 0 97 -39.5t40 -95.5q0 -57 -40.5 -97.5t-96.5 -40.5q-55 0 -95 41t-40 97z" />
<glyph unicode="&#xf7;" horiz-adv-x="1706" d="M254 512v199h1198v-199h-1198zM702 217q0 63 44.5 107.5t107.5 44.5q62 0 107 -45t45 -107q0 -61 -45 -105t-107 -44q-63 0 -107.5 43t-44.5 106zM702 1004q0 63 44.5 107t107.5 44q62 0 107 -44.5t45 -106.5q0 -63 -44.5 -107.5t-107.5 -44.5t-107.5 44.5t-44.5 107.5z " />
<glyph unicode="&#xf8;" horiz-adv-x="1100" d="M100 379v360q0 211 107.5 305.5t343.5 94.5q45 0 84.5 -4t77.5 -13l47 92l217 -100l-53 -102q38 -36 56.5 -102.5t18.5 -170.5v-360q0 -210 -106 -303.5t-342 -93.5q-48 0 -89 4t-79 12l-47 -98l-211 108l49 101q-37 36 -55.5 104t-18.5 166zM416 397q0 -100 31.5 -143 t103.5 -43t103.5 42t31.5 144v326q0 101 -32 144.5t-103 43.5t-103 -44.5t-32 -143.5v-326z" />
<glyph unicode="&#xf9;" horiz-adv-x="1204" d="M90 891v227h332q18 -47 25.5 -116t7.5 -220v-352q0 -110 32.5 -158.5t104.5 -48.5q33 0 67 14t70 42v460q0 85 -14.5 113.5t-55.5 38.5v227h381v-749q0 -82 15 -107t55 -39v-223h-381v72q-66 -39 -129.5 -58.5t-122.5 -19.5q-181 0 -258.5 89t-77.5 306v340 q0 86 -11.5 120t-39.5 42zM309 1620h258l197 -371h-142z" />
<glyph unicode="&#xfa;" horiz-adv-x="1204" d="M90 891v227h332q18 -47 25.5 -116t7.5 -220v-352q0 -110 32.5 -158.5t104.5 -48.5q33 0 67 14t70 42v460q0 85 -14.5 113.5t-55.5 38.5v227h381v-749q0 -82 15 -107t55 -39v-223h-381v72q-66 -39 -129.5 -58.5t-122.5 -19.5q-181 0 -258.5 89t-77.5 306v340 q0 86 -11.5 120t-39.5 42zM440 1249l197 371h258l-313 -371h-142z" />
<glyph unicode="&#xfb;" horiz-adv-x="1204" d="M90 891v227h332q18 -47 25.5 -116t7.5 -220v-352q0 -110 32.5 -158.5t104.5 -48.5q33 0 67 14t70 42v460q0 85 -14.5 113.5t-55.5 38.5v227h381v-749q0 -82 15 -107t55 -39v-223h-381v72q-66 -39 -129.5 -58.5t-122.5 -19.5q-181 0 -258.5 89t-77.5 306v340 q0 86 -11.5 120t-39.5 42zM287 1249l196 371h238l196 -371h-141l-174 217l-176 -217h-139z" />
<glyph unicode="&#xfc;" horiz-adv-x="1204" d="M90 891v227h332q18 -47 25.5 -116t7.5 -220v-352q0 -110 32.5 -158.5t104.5 -48.5q33 0 67 14t70 42v460q0 85 -14.5 113.5t-55.5 38.5v227h381v-749q0 -82 15 -107t55 -39v-223h-381v72q-66 -39 -129.5 -58.5t-122.5 -19.5q-181 0 -258.5 89t-77.5 306v340 q0 86 -11.5 120t-39.5 42zM285 1432q0 55 40 96t95 41q57 0 97 -40.5t40 -96.5t-40.5 -96t-96.5 -40q-54 0 -94.5 41t-40.5 95zM647 1434q0 55 39.5 95t95.5 40q57 0 97 -39.5t40 -95.5q0 -57 -40.5 -97.5t-96.5 -40.5q-55 0 -95 41t-40 97z" />
<glyph unicode="&#xfd;" horiz-adv-x="1049" d="M23 895v223h438v-223q-21 -6 -31 -20t-10 -37q0 -10 1.5 -21t4.5 -24l119 -496l106 495q3 10 4.5 21.5t1.5 22.5q0 22 -9 35.5t-32 23.5v223h412v-223q-27 -10 -43 -31t-29 -69l-206 -750q-76 -278 -167.5 -369.5t-254.5 -91.5q-26 0 -51 3t-54 10v243h8q58 0 89 22.5 t53 80.5l-275 843q-16 51 -34 77t-41 32zM362 1249l197 371h258l-313 -371h-142z" />
<glyph unicode="&#xfe;" horiz-adv-x="1176" d="M84 -170q39 6 53.5 38.5t14.5 129.5v1157q0 80 -14.5 104.5t-53.5 38.5v224h381v-473q74 42 142 63t134 21q174 0 253 -95t79 -307v-305q0 -245 -76 -340.5t-256 -95.5q-65 0 -132.5 18.5t-143.5 57.5v-84q0 -88 14 -115t53 -37v-227h-448v227zM465 276q45 -23 81 -34 t68 -11q75 0 106.5 50.5t31.5 179.5v227q0 115 -34 161t-114 46q-36 0 -70.5 -13t-68.5 -40v-566z" />
<glyph unicode="&#xff;" horiz-adv-x="1049" d="M23 895v223h438v-223q-21 -6 -31 -20t-10 -37q0 -10 1.5 -21t4.5 -24l119 -496l106 495q3 10 4.5 21.5t1.5 22.5q0 22 -9 35.5t-32 23.5v223h412v-223q-27 -10 -43 -31t-29 -69l-206 -750q-76 -278 -167.5 -369.5t-254.5 -91.5q-26 0 -51 3t-54 10v243h8q58 0 89 22.5 t53 80.5l-275 843q-16 51 -34 77t-41 32zM207 1432q0 55 40 96t95 41q57 0 97 -40.5t40 -96.5t-40.5 -96t-96.5 -40q-54 0 -94.5 41t-40.5 95zM569 1434q0 55 39.5 95t95.5 40q57 0 97 -39.5t40 -95.5q0 -57 -40.5 -97.5t-96.5 -40.5q-55 0 -95 41t-40 97z" />
<glyph unicode="&#x152;" horiz-adv-x="1853" d="M109 512v498q0 165 13.5 237t45.5 125q56 93 165 136.5t288 43.5q55 0 114.5 -7.5t124.5 -22.5h905v-465h-327v14q0 89 -40.5 124.5t-144.5 35.5h-129v-318h418v-256h-418v-366h127q112 0 149.5 32.5t37.5 131.5v55h327v-510h-903q-65 -15 -125 -23t-116 -8 q-162 0 -266.5 36t-164.5 112q-44 57 -62.5 136.5t-18.5 258.5zM459 500q0 -120 38 -172t124 -52q84 0 121.5 51.5t37.5 172.5v522q0 120 -37.5 171.5t-121.5 51.5q-86 0 -124 -52t-38 -171v-522z" />
<glyph unicode="&#x153;" horiz-adv-x="1667" d="M100 379v360q0 211 107.5 305.5t343.5 94.5q86 0 157 -19.5t134 -60.5q65 40 138 60t157 20q231 0 337.5 -95.5t106.5 -304.5v-245h-580v-97q0 -100 32 -143t104 -43q67 0 101 40t34 120v6h309v-266q-97 -63 -210.5 -96t-233.5 -33q-94 0 -167 20t-126 61 q-68 -40 -142.5 -60.5t-150.5 -20.5q-237 0 -344 93.5t-107 303.5zM416 397q0 -100 31.5 -143t103.5 -43t103.5 42t31.5 144v326q0 101 -32 144.5t-103 43.5t-103 -44.5t-32 -143.5v-326zM1001 692h271v45q0 90 -33 132t-102 42q-71 0 -103.5 -44.5t-32.5 -143.5v-31z" />
<glyph unicode="&#x178;" horiz-adv-x="1128" d="M23 1276v246h446v-187q0 -58 7 -93.5t22 -67.5l102 -211l100 202q17 34 25 74t8 96v187h391v-246q-22 -7 -41.5 -28t-40.5 -60l-292 -586v-199q0 -84 16.5 -112t60.5 -35v-256h-508l1 256q43 9 61 41.5t18 101.5v185l-295 602q-20 41 -39.5 62.5t-41.5 27.5zM248 1848 q0 55 40 96t95 41q57 0 97 -40.5t40 -96.5t-40.5 -96t-96.5 -40q-54 0 -94.5 41t-40.5 95zM610 1850q0 55 39.5 95t95.5 40q57 0 97 -39.5t40 -95.5q0 -57 -40.5 -97.5t-96.5 -40.5q-55 0 -95 41t-40 97z" />
<glyph unicode="&#x2c6;" horiz-adv-x="1024" d="M197 1249l196 371h238l196 -371h-141l-174 217l-176 -217h-139z" />
<glyph unicode="&#x2dc;" horiz-adv-x="1024" d="M195 1296q24 122 74 179t130 57q18 0 40 -3.5t46 -10.5l93 -25q1 0 4 -1q32 -7 51 -7q32 0 52.5 20t33.5 66h110q-28 -126 -78.5 -185t-129.5 -59q-21 0 -39 2.5t-35 7.5l-88 27q-16 5 -32 7.5t-34 2.5q-34 0 -55 -18.5t-33 -59.5h-110z" />
<glyph unicode="&#x2000;" horiz-adv-x="1018" />
<glyph unicode="&#x2001;" horiz-adv-x="2036" />
<glyph unicode="&#x2002;" horiz-adv-x="1018" />
<glyph unicode="&#x2003;" horiz-adv-x="2036" />
<glyph unicode="&#x2004;" horiz-adv-x="678" />
<glyph unicode="&#x2005;" horiz-adv-x="509" />
<glyph unicode="&#x2006;" horiz-adv-x="339" />
<glyph unicode="&#x2007;" horiz-adv-x="339" />
<glyph unicode="&#x2008;" horiz-adv-x="254" />
<glyph unicode="&#x2009;" horiz-adv-x="407" />
<glyph unicode="&#x200a;" horiz-adv-x="113" />
<glyph unicode="&#x2010;" horiz-adv-x="782" d="M117 453v245h549v-245h-549z" />
<glyph unicode="&#x2011;" horiz-adv-x="782" d="M117 453v245h549v-245h-549z" />
<glyph unicode="&#x2012;" horiz-adv-x="782" d="M117 453v245h549v-245h-549z" />
<glyph unicode="&#x2013;" horiz-adv-x="1024" d="M0 475v203h1024v-203h-1024z" />
<glyph unicode="&#x2014;" horiz-adv-x="2048" d="M0 475v203h2048v-203h-2048z" />
<glyph unicode="&#x2018;" horiz-adv-x="555" d="M133 1253q0 81 49.5 159.5t139.5 139.5l55 -63q-36 -27 -58.5 -58.5t-31.5 -68.5q66 0 104.5 -37t38.5 -98q0 -59 -42 -99.5t-103 -40.5q-68 0 -110 46t-42 120z" />
<glyph unicode="&#x2019;" horiz-adv-x="555" d="M133 1413q0 60 42 99.5t104 39.5q67 0 109 -45.5t42 -120.5q0 -80 -49.5 -158.5t-138.5 -140.5l-56 64q36 27 58.5 58.5t31.5 68.5q-65 0 -104 37t-39 98z" />
<glyph unicode="&#x201a;" horiz-adv-x="555" d="M164 141q0 60 41.5 100t103.5 40q68 0 110 -45.5t42 -120.5q0 -81 -49.5 -159.5t-139.5 -139.5l-55 63q35 27 58 58.5t32 68.5q-66 0 -104.5 37t-38.5 98z" />
<glyph unicode="&#x201c;" horiz-adv-x="934" d="M133 1253q0 81 49.5 159.5t139.5 139.5l55 -63q-37 -27 -60 -59.5t-32 -67.5q66 0 105.5 -37t39.5 -98q0 -59 -42 -99.5t-103 -40.5q-68 0 -110 46t-42 120zM512 1253q0 81 49.5 159.5t138.5 139.5l56 -63q-38 -30 -59.5 -60.5t-30.5 -66.5q65 0 104 -37t39 -98 q0 -59 -42 -99.5t-103 -40.5q-68 0 -110 46t-42 120z" />
<glyph unicode="&#x201d;" horiz-adv-x="934" d="M131 1413q0 60 42 99.5t103 39.5q68 0 110 -45.5t42 -120.5q0 -80 -49.5 -158.5t-138.5 -140.5l-54 64q36 27 58.5 58.5t31.5 68.5q-66 0 -105.5 37t-39.5 98zM512 1413q0 60 41.5 99.5t103.5 39.5q68 0 110 -45.5t42 -120.5q0 -80 -49.5 -158.5t-138.5 -140.5l-56 64 q36 27 58.5 58.5t31.5 68.5q-65 0 -104 37t-39 98z" />
<glyph unicode="&#x201e;" horiz-adv-x="934" d="M164 141q0 60 41.5 100t103.5 40q68 0 110 -45.5t42 -120.5q0 -81 -49.5 -159.5t-139.5 -139.5l-55 63q35 27 58 58.5t32 68.5q-66 0 -104.5 37t-38.5 98zM543 141q0 60 41.5 100t103.5 40q68 0 110 -45.5t42 -120.5q0 -81 -49.5 -159.5t-139.5 -139.5l-55 63 q35 27 57.5 58.5t32.5 68.5q-66 0 -104.5 37t-38.5 98z" />
<glyph unicode="&#x2022;" horiz-adv-x="1208" d="M307 762q0 123 87 209t210 86q122 0 208.5 -86.5t86.5 -208.5t-87.5 -209.5t-209.5 -87.5q-123 0 -209 87t-86 210z" />
<glyph unicode="&#x2026;" horiz-adv-x="2048" d="M178 143q0 66 49 115t115 49q68 0 115 -48t47 -116q0 -67 -47.5 -114t-114.5 -47q-65 0 -114.5 48.5t-49.5 112.5zM860 143q0 66 49 115t115 49q68 0 115 -48t47 -116q0 -67 -47.5 -114t-114.5 -47q-65 0 -114.5 48.5t-49.5 112.5zM1544 143q0 66 49 115t115 49 q68 0 115 -48t47 -116q0 -67 -47.5 -114t-114.5 -47q-65 0 -114.5 48.5t-49.5 112.5z" />
<glyph unicode="&#x202f;" horiz-adv-x="407" />
<glyph unicode="&#x2039;" horiz-adv-x="578" d="M115 578l149 374h217l-143 -374l143 -375h-217z" />
<glyph unicode="&#x203a;" horiz-adv-x="578" d="M98 203l144 375l-144 374h215l152 -374l-152 -375h-215z" />
<glyph unicode="&#x205f;" horiz-adv-x="509" />
<glyph unicode="&#x2122;" horiz-adv-x="1706" d="M207 1350v112h485v-112h-168v-435h-149v435h-168zM803 915v547h196l127 -332l123 332h197v-547h-135v410l-154 -410h-61l-158 410v-410h-135z" />
<glyph unicode="&#x25fc;" horiz-adv-x="1120" d="M0 0v1120h1120v-1120h-1120z" />
</font>
</defs>
</svg>
