<?xml version="1.0" standalone="no"?>
<!DOCTYPE svg PUBLIC "-//W3C//DTD SVG 1.1//EN" "http://www.w3.org/Graphics/SVG/1.1/DTD/svg11.dtd" >
<svg xmlns="http://www.w3.org/2000/svg">
<metadata></metadata>
<defs>
<font id="bodoni_mtcondensed" horiz-adv-x="692" >
<font-face units-per-em="2048" ascent="1638" descent="-410" />
<missing-glyph horiz-adv-x="395" />
<glyph horiz-adv-x="2048" />
<glyph horiz-adv-x="2048" />
<glyph unicode="&#xd;" horiz-adv-x="395" />
<glyph unicode=" "  horiz-adv-x="395" />
<glyph unicode="&#x09;" horiz-adv-x="395" />
<glyph unicode="&#xa0;" horiz-adv-x="395" />
<glyph unicode="!" horiz-adv-x="381" d="M78 98q0 46 33.5 79.5t78.5 33.5q46 0 79.5 -33.5t33.5 -79.5t-33.5 -79t-79.5 -33q-45 0 -78.5 33t-33.5 79zM84 1151q0 80 29.5 123t76.5 43q49 0 78 -43.5t29 -122.5q0 -80 -35 -254q-46 -230 -55 -512h-33q-8 270 -55 512q-35 174 -35 254z" />
<glyph unicode="&#x22;" horiz-adv-x="836" d="M139 1204q0 49 30 82t75 33q44 0 74 -33t30 -82q0 -17 -14 -110l-68 -441h-45q-82 534 -82 551zM487 1204q0 49 30.5 82t74.5 33t74 -33t30 -82q0 -17 -14 -110l-68 -441h-45q-82 534 -82 551z" />
<glyph unicode="#" horiz-adv-x="1081" d="M90 356v123h176l45 371h-221v123h236l49 403h123l-49 -403h258l49 403h123l-50 -403h162v-123h-176l-45 -371h221v-123h-235l-49 -401h-123l49 401h-258l-49 -401h-123l49 401h-162zM389 479h258l45 371h-258z" />
<glyph unicode="$" d="M70 252q0 38 26.5 66t63.5 28q32 0 51.5 -21t19.5 -55q0 -50 -57 -82q-27 -13 -27 -26q0 -35 35.5 -76t93.5 -59v594q-117 112 -161.5 196t-44.5 195q0 104 55 181t151 110v32h35v-22q33 4 51 4q20 0 29 -2v20h35v-26q87 -20 138.5 -81t51.5 -132q0 -34 -21.5 -58 t-51.5 -24q-60 0 -60 67q0 44 33 66q21 13 21 27q0 28 -29 59.5t-82 44.5v-588q115 -109 159 -190.5t44 -180.5q0 -120 -53 -206.5t-150 -114.5v-176h-35v168q-32 -4 -49 -4q-21 0 -31 2v-166h-35v172q-93 23 -149.5 97t-56.5 161zM190 1069q0 -115 86 -223v416 q-86 -57 -86 -193zM311 18q10 -2 31 -2q27 0 49 9v481q-54 60 -80 80v-568zM311 807q17 -19 60 -62q2 -2 9 -8t11 -12v559q-7 2 -29 2q-29 0 -51 -8v-471zM426 43q82 58 82 199q0 113 -82 221v-420z" />
<glyph unicode="%" horiz-adv-x="1122" d="M70 979q0 146 68.5 243t162.5 97t162.5 -97.5t68.5 -242.5t-68.5 -242.5t-162.5 -97.5t-162.5 97.5t-68.5 242.5zM190 -29l701 1348h41l-701 -1348h-41zM215 979q0 -179 20 -244t66 -65t66 65t20 244t-20 244t-66 65t-66 -65t-20 -244zM590 311q0 146 68.5 243t162.5 97 q95 0 163.5 -95.5t68.5 -240.5t-69 -244.5t-163 -99.5t-162.5 97.5t-68.5 242.5zM737 311q0 -179 20.5 -244t65.5 -65q46 0 66 65t20 244q0 180 -20 245t-66 65q-45 0 -65.5 -65t-20.5 -245z" />
<glyph unicode="&#x26;" horiz-adv-x="922" d="M43 406q0 230 233 358q-69 174 -69 262q0 128 67 209.5t179 81.5q96 0 161.5 -65t65.5 -156q0 -96 -56 -161t-182 -128l244 -551q70 185 70 393q0 40 -18 47.5t-54 8.5v30h211v-30h-25q-36 0 -49 -22t-24 -95q-40 -258 -92 -371l79 -182h90v-33h-262l-28 66 q-96 -74 -203 -74q-144 0 -241 130t-97 282zM178 557q0 -128 67 -262.5t124.5 -184t105.5 -49.5q42 0 96 35l-280 637q-113 -66 -113 -176zM340 1110q0 -75 88 -270q63 36 96 90.5t33 152.5q0 97 -27 146t-81 49q-51 0 -80 -45t-29 -123z" />
<glyph unicode="'" horiz-adv-x="487" d="M139 1204q0 49 30 82t75 33q44 0 74 -33t30 -82q0 -17 -14 -110l-68 -441h-45q-82 534 -82 551z" />
<glyph unicode="(" horiz-adv-x="451" d="M92 383q0 246 86.5 486.5t251.5 430.5v-40q-82 -138 -128 -348.5t-46 -430.5v-196q0 -222 46.5 -433t127.5 -344v-40q-164 189 -251 429t-87 486z" />
<glyph unicode=")" horiz-adv-x="451" d="M20 -492q82 136 128.5 346.5t46.5 430.5v196q0 222 -47 433.5t-128 345.5v40q165 -190 251.5 -430.5t86.5 -486.5t-86.5 -486t-251.5 -429v40z" />
<glyph unicode="*" d="M53 1077q0 34 21 57t53 23q27 0 47 -11.5t53 -43.5q57 -55 103 -72q0 49 -35 127q-27 56 -27 80q0 80 78 80t78 -80q0 -24 -27 -80q-35 -78 -35 -127q46 17 103 72q34 32 53.5 43.5t46.5 11.5q32 0 53 -23t21 -57q0 -76 -96 -76q-25 0 -58 5q-41 4 -59 4q-27 0 -51 -6 q25 -36 98 -74q53 -28 72.5 -50t19.5 -55t-23 -55t-59 -22q-69 0 -92 120q-15 81 -45 119q-29 -38 -45 -119q-23 -120 -92 -120q-35 0 -58.5 22t-23.5 55t19.5 55t72.5 50q73 38 98 74q-24 6 -51 6l-116 -9q-97 0 -97 76z" />
<glyph unicode="+" horiz-adv-x="1366" d="M137 596v131h477v479h131v-479h482v-131h-482v-475h-131v475h-477z" />
<glyph unicode="," horiz-adv-x="381" d="M74 90q0 50 33 85.5t79 35.5q56 0 91.5 -46.5t35.5 -119.5q0 -179 -172 -285l-18 25q73 48 111 103.5t38 103.5q0 33 -20 33q-10 0 -23 -13q-28 -28 -59 -28q-40 0 -68 31t-28 75z" />
<glyph unicode="-" horiz-adv-x="406" d="M37 379v143h332v-143h-332z" />
<glyph unicode="." horiz-adv-x="381" d="M78 98q0 46 33.5 79.5t78.5 33.5q46 0 79.5 -33.5t33.5 -79.5t-33.5 -79t-79.5 -33q-45 0 -78.5 33t-33.5 79z" />
<glyph unicode="/" horiz-adv-x="686" d="M121 -410l346 1710h96l-346 -1710h-96z" />
<glyph unicode="0" d="M68 649q0 322 71 495t207 173t207.5 -173t71.5 -495q0 -321 -71.5 -493t-207.5 -172t-207 172t-71 493zM233 260q0 -246 113 -246t113 246v780q0 246 -113 246t-113 -246v-780z" />
<glyph unicode="1" d="M147 1255v31h62q56 0 109 9l96 18h26v-1282h138v-31h-428v31h135v1224h-138z" />
<glyph unicode="2" d="M61 0v88q237 355 288 440.5t85.5 194.5t34.5 242q0 169 -33 242t-125 73q-56 0 -113 -50.5t-57 -109.5q0 -23 33 -26q100 -12 100 -99q0 -40 -27.5 -69t-66.5 -29q-48 0 -79 34.5t-31 88.5q0 127 78.5 212t203.5 85q134 0 208.5 -93.5t74.5 -244.5q0 -241 -232 -496 q-143 -156 -256 -327h345q63 0 86 29t28 96h31l-29 -281h-547z" />
<glyph unicode="3" d="M63 215q0 48 28 80.5t69 32.5q44 0 71 -26.5t27 -68.5q0 -56 -63 -94q-29 -18 -29 -28q0 -30 41.5 -60.5t93.5 -30.5q96 0 131 69.5t35 217.5q0 377 -227 377h-50v31h29q223 0 223 266q0 156 -30 228.5t-111 72.5q-46 0 -84.5 -30t-38.5 -58q0 -10 25 -23q33 -19 45 -37 t12 -51q0 -40 -25.5 -65t-66.5 -25t-67.5 28t-26.5 71q0 86 71 155.5t195 69.5q121 0 192.5 -82.5t71.5 -208.5q0 -122 -70 -207t-206 -117v-4q138 -16 221.5 -117t83.5 -237q0 -157 -87 -257.5t-227 -100.5q-115 0 -185.5 69.5t-70.5 159.5z" />
<glyph unicode="4" d="M18 326v30l455 957h43v-957h111v115h30v-260h-30v115h-111v-295h131v-31h-418v31h131v295h-342zM53 356h307v637h-4z" />
<glyph unicode="5" d="M63 213q0 51 28 83t71 32t70.5 -25.5t27.5 -64.5q0 -64 -63 -99q-29 -15 -29 -28q0 -27 39 -57.5t80 -30.5q180 0 180 321q0 216 -42 307.5t-140 91.5q-43 0 -88 -26q-18 -10 -33 -10q-12 0 -12 16l14 508q0 39 24 39h295q95 0 97 49h30q-5 -205 -129 -205h-288l-7 -362 q56 32 144 32q128 0 214.5 -108.5t86.5 -278.5q0 -184 -93.5 -297.5t-240.5 -113.5q-97 0 -166.5 72.5t-69.5 154.5z" />
<glyph unicode="6" d="M68 518q0 302 117.5 516t342.5 285v-33q-268 -132 -290 -575l4 -4q70 84 151 84q96 0 168 -106.5t72 -264.5q0 -186 -81 -310t-200 -124q-125 0 -204.5 146.5t-79.5 385.5zM233 168q0 -63 36 -107.5t83 -44.5q48 0 81.5 43t33.5 109v436q0 61 -25 100t-69 39 q-57 0 -98.5 -44t-41.5 -115v-416z" />
<glyph unicode="7" d="M55 983l66 315h553v-30l-84 -187q-42 -95 -92 -218.5t-85.5 -220t-56 -170.5t-20.5 -118q0 -66 24 -137q31 -92 31 -131q0 -44 -27.5 -73t-68.5 -29q-48 0 -75 32.5t-27 89.5q0 117 93 342l289 695h-352q-67 0 -88 -33.5t-47 -126.5h-33z" />
<glyph unicode="8" d="M66 342q0 229 210 334q-188 101 -188 323q0 134 76 226t182 92q105 0 181.5 -92.5t76.5 -225.5q0 -222 -188 -323q211 -105 211 -334q0 -149 -84 -252.5t-197 -103.5q-112 0 -196 103.5t-84 252.5zM229 246q0 -117 27 -173.5t90 -56.5t90 56.5t27 173.5v184 q0 117 -27 173t-90 56t-90 -56t-27 -173v-184zM238 893q0 -116 26.5 -159.5t81.5 -43.5q62 0 85.5 49.5t23.5 153.5v192q0 106 -24 153.5t-85 47.5q-59 0 -83.5 -48.5t-24.5 -152.5v-192z" />
<glyph unicode="9" d="M59 883q0 184 80 309t201 125q125 0 205 -147t80 -386q0 -301 -118 -515t-343 -285v32q268 133 291 576l-4 4q-70 -84 -152 -84q-96 0 -168 106.5t-72 264.5zM225 698q0 -60 25 -99.5t69 -39.5q58 0 99 44.5t41 115.5v416q0 63 -36 107t-83 44t-81 -43t-34 -108v-437z " />
<glyph unicode=":" horiz-adv-x="381" d="M78 98q0 46 33.5 79.5t78.5 33.5q46 0 79.5 -33.5t33.5 -79.5t-33.5 -79t-79.5 -33q-45 0 -78.5 33t-33.5 79zM78 786q0 47 33 80t79 33t79.5 -33.5t33.5 -79.5q0 -45 -33.5 -78.5t-79.5 -33.5q-45 0 -78.5 33.5t-33.5 78.5z" />
<glyph unicode=";" horiz-adv-x="381" d="M74 90q0 50 33 85.5t79 35.5q56 0 91.5 -46.5t35.5 -119.5q0 -179 -172 -285l-18 25q73 48 111 103.5t38 103.5q0 33 -20 33q-10 0 -23 -13q-28 -28 -59 -28q-40 0 -68 31t-28 75zM78 786q0 47 33 80t79 33t79.5 -33.5t33.5 -79.5q0 -45 -33.5 -78.5t-79.5 -33.5 q-45 0 -78.5 33.5t-33.5 78.5z" />
<glyph unicode="&#x3c;" horiz-adv-x="1366" d="M141 604v119l1084 457v-144l-908 -372l908 -375v-142z" />
<glyph unicode="=" horiz-adv-x="1366" d="M139 367v131h1088v-131h-1088zM139 834v133h1088v-133h-1088z" />
<glyph unicode="&#x3e;" horiz-adv-x="1366" d="M139 147v142l910 373l-910 374v144l1086 -459v-117z" />
<glyph unicode="?" horiz-adv-x="643" d="M59 1083q0 92 72 164t182 72q132 0 211.5 -88t79.5 -219q0 -107 -46 -184t-169 -175q-96 -77 -117 -266h-30v68q0 164 25 242.5t95 146.5q115 114 115 227q0 96 -49.5 156.5t-134.5 60.5q-60 0 -110 -38t-50 -76q0 -13 31 -19q78 -18 78 -90q0 -38 -24 -63t-60 -25 q-42 0 -70.5 30.5t-28.5 75.5zM145 98q0 46 33.5 79.5t79.5 33.5t79.5 -33.5t33.5 -79.5t-33.5 -79t-79.5 -33t-79.5 33t-33.5 79z" />
<glyph unicode="@" horiz-adv-x="1346" d="M74 618q0 296 198.5 498.5t477.5 202.5q235 0 372.5 -141t137.5 -351q0 -194 -113.5 -348.5t-282.5 -154.5q-49 0 -78.5 26t-29.5 72q0 49 14 102l-4 2q-156 -202 -279 -202q-58 0 -93.5 50t-35.5 113q0 106 64 226.5t158 199t172 78.5q98 0 122 -100h3l22 80l113 14 l-118 -395q-34 -112 -34 -162q0 -18 12.5 -35.5t40.5 -17.5q109 0 210.5 136t101.5 320q0 188 -123.5 322.5t-345.5 134.5q-266 0 -440.5 -207t-174.5 -481q0 -257 158.5 -420.5t400.5 -163.5q191 0 355 108t229 300h31q-69 -209 -241 -323.5t-378 -114.5 q-265 0 -443.5 179.5t-178.5 452.5zM471 510q0 -39 23.5 -69.5t58.5 -30.5q70 0 151 87t112.5 191t31.5 166q0 43 -24 72.5t-62 29.5q-94 0 -192.5 -168.5t-98.5 -277.5z" />
<glyph unicode="A" horiz-adv-x="766" d="M0 0v31h27q75 0 96 104l239 1186h39l283 -1290h82v-31h-338v31h84l-72 334h-235q-51 -252 -51 -273q0 -61 65 -61h47v-31h-266zM211 395h223l-115 539z" />
<glyph unicode="B" horiz-adv-x="737" d="M43 0v31h88v1241h-88v31h385q102 0 165.5 -89t63.5 -235q0 -114 -48.5 -197t-131.5 -114v-4q96 -28 144.5 -109.5t48.5 -216.5q0 -156 -60.5 -247t-160.5 -91h-406zM301 31h86q96 0 96 125v364q0 131 -98 131h-84v-620zM301 682h76q98 0 98 100v363q0 68 -19.5 97.5 t-64.5 29.5h-90v-590z" />
<glyph unicode="C" horiz-adv-x="602" d="M68 668q0 311 70 481t235 170q67 0 116 -74q28 27 41 58h31v-316h-31q-33 156 -70 229.5t-87 73.5q-52 0 -85.5 -57.5t-33.5 -153.5v-862q0 -89 34.5 -146t88.5 -57q67 0 104.5 83t63.5 265h30v-362h-30q-16 34 -41 59q-53 -73 -129 -73q-151 0 -229 174.5t-78 507.5z " />
<glyph unicode="D" horiz-adv-x="750" d="M43 0v31h88v1241h-88v31h344q166 0 230.5 -165t64.5 -503q0 -253 -32.5 -384t-101 -191t-181.5 -60h-324zM301 31h59q69 0 103.5 47.5t34.5 142.5v924q0 58 -32 92.5t-85 34.5h-80v-1241z" />
<glyph unicode="E" horiz-adv-x="705" d="M43 0v31h88v1241h-88v31h604v-287h-31q-16 131 -61.5 193.5t-128.5 62.5h-125v-561h86q58 0 95.5 38t37.5 95v51h31v-418h-29v12q0 86 -35.5 137.5t-93.5 51.5h-92v-647h102q96 0 145 75t75 234h30v-340h-610z" />
<glyph unicode="F" horiz-adv-x="680" d="M43 0v31h88v1241h-88v31h604v-287h-31q-16 131 -61.5 193.5t-128.5 62.5h-125v-561h88q58 0 94.5 38t36.5 95v51h31v-418h-29v12q0 86 -35.5 137.5t-93.5 51.5h-92v-647h100v-31h-358z" />
<glyph unicode="G" horiz-adv-x="752" d="M66 629q0 361 71.5 525.5t227.5 164.5q107 0 161 -74q28 27 41 58h31v-316h-31q-65 303 -184 303q-61 0 -96 -54t-35 -155v-870q0 -86 36 -141.5t95 -55.5q47 0 76.5 46t29.5 120v352h-88v31h344v-31h-88v-397q-37 -68 -111.5 -108.5t-156.5 -40.5q-157 0 -240 165.5 t-83 477.5z" />
<glyph unicode="H" horiz-adv-x="834" d="M43 0v31h88v1241h-88v31h330v-31h-72v-533h231v533h-71v31h330v-31h-89v-1241h89v-31h-330v31h71v678h-231v-678h72v-31h-330z" />
<glyph unicode="I" horiz-adv-x="432" d="M43 0v31h88v1241h-88v31h346v-31h-88v-1241h86v-31h-344z" />
<glyph unicode="J" horiz-adv-x="627" d="M14 -35q0 40 25.5 65t66.5 25q34 0 59 -25t25 -59q0 -49 -36 -80q-13 -9 -13 -14q0 -14 24.5 -28.5t53.5 -14.5q54 0 81.5 30.5t27.5 90.5l-2 49v1268h-88v31h346v-31h-88v-1069q0 -209 -65 -306.5t-218 -97.5q-90 0 -144.5 49.5t-54.5 116.5z" />
<glyph unicode="K" horiz-adv-x="834" d="M43 0v31h88v1241h-88v31h330v-31h-72v-592h4l327 522q9 14 9 37q0 33 -35 33h-31v31h211v-31q-44 0 -65 -21t-110 -158l-195 -305l348 -757h70v-31h-320v31h72l-281 620h-4v-620h72v-31h-330z" />
<glyph unicode="L" horiz-adv-x="621" d="M43 0v31h88v1241h-88v31h346v-31h-88v-1241h47q98 0 149.5 79.5t69.5 251.5h31l-4 -362h-551z" />
<glyph unicode="M" horiz-adv-x="944" d="M35 0v31q49 0 68.5 22.5t19.5 79.5v1139h-88v31h295l141 -828h4l141 828h287v-31h-90v-1241h88v-31h-346v31h88v1208h-4l-215 -1239h-39l-221 1266h-4v-1133q0 -57 19 -79.5t69 -22.5v-31h-213z" />
<glyph unicode="N" horiz-adv-x="834" d="M39 0v31q50 0 69 18.5t19 69.5v1153h-88v31h252l375 -1063h4v944q0 88 -86 88h-37v31h248v-31h-21q-67 0 -67 -53v-1219h-136l-403 1135h-4v-988q0 -116 78 -116h45v-31h-248z" />
<glyph unicode="O" horiz-adv-x="750" d="M68 668q0 311 70 481t235 170h6q154 0 228.5 -159t74.5 -492q0 -341 -77 -511.5t-230 -170.5q-151 0 -229 174.5t-78 507.5zM254 217q0 -90 34.5 -145.5t90.5 -55.5q51 0 84 55.5t33 145.5v879q0 87 -35 139.5t-88 52.5q-52 0 -85.5 -56.5t-33.5 -152.5v-862z" />
<glyph unicode="P" horiz-adv-x="729" d="M43 0v31h88v1241h-88v31h332q146 0 219.5 -84.5t73.5 -253.5q0 -175 -70.5 -262t-245.5 -87h-51v-585h88v-31h-346zM301 647h53q65 0 98 40.5t33 180.5v168q0 110 -14 161t-50.5 63t-119.5 12v-625z" />
<glyph unicode="Q" horiz-adv-x="750" d="M68 668q0 311 70 481t235 170h6q154 0 228.5 -159t74.5 -492q0 -293 -56 -460t-167 -208v-141q0 -135 104 -135q30 0 43 8v-35q-58 -21 -119 -21q-98 0 -147 60t-49 180v86q-112 46 -167.5 212.5t-55.5 453.5zM254 217q0 -90 34.5 -145.5t90.5 -55.5q51 0 84 55.5 t33 145.5v879q0 87 -35 139.5t-88 52.5q-52 0 -85.5 -56.5t-33.5 -152.5v-862z" />
<glyph unicode="R" horiz-adv-x="778" d="M43 0v31h88v1241h-88v31h377q119 0 182.5 -78.5t63.5 -220.5q0 -140 -46.5 -206.5t-146.5 -90.5v-5h16q72 0 117 -59.5t45 -159.5v-350q0 -67 39 -67q41 0 51 63l31 -6q-21 -133 -129 -133q-77 0 -119.5 62.5t-42.5 183.5v337q0 57 -24 86t-72 29h-84v-657h88v-31h-346z M301 719h82q44 0 72 36t28 93v258q0 83 -26 124.5t-78 41.5h-78v-553z" />
<glyph unicode="S" horiz-adv-x="694" d="M72 999q0 153 75 236.5t189 83.5q64 0 138 -46q34 -22 48 -22q37 0 37 45v7h31v-357h-31q-23 168 -82 255t-139 87q-53 0 -89 -47t-36 -123q0 -86 37 -159t141 -187q146 -159 204 -270t58 -221q0 -127 -78.5 -211t-218.5 -84q-77 0 -151 61q-29 25 -41 25q-52 0 -58 -72 h-30v406h30q22 -188 94 -289t158 -101q70 0 108 47t38 134q0 95 -50.5 189t-172.5 224q-110 117 -159.5 208.5t-49.5 180.5z" />
<glyph unicode="T" horiz-adv-x="752" d="M41 958v345h670v-345h-31q-15 166 -66 240t-153 74v-1241h88v-31h-346v31h88v1241q-103 0 -154 -74t-65 -240h-31z" />
<glyph unicode="U" horiz-adv-x="741" d="M31 1272v31h346v-31h-88v-1112q0 -61 35 -96t96 -35q75 0 117.5 57t42.5 162v956q0 30 -17.5 49t-46.5 19h-29v31h220v-31h-29q-29 0 -46.5 -19.5t-17.5 -48.5v-960q0 -129 -62 -193.5t-185 -64.5q-118 0 -183 78.5t-65 224.5v983h-88z" />
<glyph unicode="V" horiz-adv-x="766" d="M0 1272v31h338v-31h-84l192 -903l160 790q6 37 6 51q0 62 -65 62h-47v31h266v-31h-27q-75 0 -96 -105l-240 -1185h-38l-283 1290h-82z" />
<glyph unicode="W" horiz-adv-x="1114" d="M0 1272v31h807v-31h-27q-42 0 -63 -25.5t-40 -113.5l-40 -183l141 -600l176 809q7 25 7 51q0 62 -66 62h-16v31h235v-31h-27q-39 0 -61 -23t-35 -82l-260 -1185h-39l-139 589l-129 -589h-39l-303 1290h-82zM254 1272l217 -922l64 297l-146 625h-135zM561 1272l57 -244 q35 159 35 182q0 62 -65 62h-27z" />
<glyph unicode="X" horiz-adv-x="793" d="M20 1272v31h336v-31h-75l135 -408l128 345q3 8 3 28q0 35 -37 35h-37v31h229v-31q-48 0 -72 -9.5t-36 -31t-63 -157.5l-97 -263l258 -780h82v-31h-332v31h72l-174 524l-114 -306q-48 -128 -52 -143t-4 -26q0 -49 45 -49h33v-31h-215v31q74 0 100 70l189 507l-222 664h-80 z" />
<glyph unicode="Y" horiz-adv-x="778" d="M8 1272v31h352v-31h-88l185 -613h4l122 401q46 151 46 171q0 41 -47 41h-35v31h223v-31q-19 0 -34 -3t-27 -9.5t-22 -16.5t-17.5 -24.5t-14.5 -34.5l-180 -588v-565h88v-31h-346v31h88v559l-209 682h-88z" />
<glyph unicode="Z" horiz-adv-x="664" d="M41 0v31l430 1241h-102q-120 0 -183.5 -86t-83.5 -258h-30v375h579v-31l-430 -1241h70q138 0 213 96t106 276h31l-16 -403h-584z" />
<glyph unicode="[" horiz-adv-x="451" d="M113 -512v1806h288v-30h-133v-1745h133v-31h-288z" />
<glyph unicode="\" horiz-adv-x="686" d="M121 1300h96l346 -1710h-96z" />
<glyph unicode="]" horiz-adv-x="451" d="M49 -481h133v1745h-133v30h289v-1806h-289v31z" />
<glyph unicode="^" horiz-adv-x="1085" d="M98 668l424 716h41l424 -716h-121l-323 546l-324 -546h-121z" />
<glyph unicode="_" horiz-adv-x="1024" d="M-18 -156h1060v-98h-1060v98z" />
<glyph unicode="`" horiz-adv-x="682" d="M150 1317h196l49 -346h-33z" />
<glyph unicode="a" horiz-adv-x="625" d="M43 193q0 71 37 126t139 121q123 80 135 105v227q0 45 -26.5 70.5t-71.5 25.5q-30 0 -58 -14t-28 -27q0 -19 20 -30q43 -23 43 -70q0 -35 -22.5 -58.5t-56.5 -23.5q-39 0 -63.5 26.5t-24.5 65.5q0 62 63.5 112t153.5 50q93 0 160 -74.5t67 -189.5v-547q0 -45 29 -45 q39 0 39 107h30v-21q0 -67 -32.5 -104t-92.5 -37q-91 0 -116 92q-45 -92 -158 -92q-72 0 -119 56t-47 149zM207 137q0 -94 67 -94q28 0 54 34t26 87v338q-16 -19 -53 -45q-58 -42 -76 -79.5t-18 -94.5v-146z" />
<glyph unicode="b" horiz-adv-x="731" d="M37 0v31h86v1241h-86v31h242v-478q51 74 129 74q111 0 185.5 -128.5t74.5 -328.5t-74.5 -328t-185.5 -128q-78 0 -129 73v-59h-242zM279 158q0 -53 35.5 -93t72.5 -40q54 0 84.5 53t30.5 149v430q0 97 -30.5 150t-84.5 53q-37 0 -72.5 -40t-35.5 -93v-569z" />
<glyph unicode="c" horiz-adv-x="602" d="M63 446q0 215 75.5 334t209.5 119q79 0 129.5 -43.5t50.5 -120.5q0 -40 -24.5 -67t-61.5 -27q-28 0 -50.5 22t-22.5 52q0 29 16 51t39 27q29 5 29 20q0 19 -30 36t-75 17q-49 0 -84 -51t-35 -125v-473q0 -91 38 -144t95 -53q63 0 100 65t48 196h33q-13 -158 -57 -226.5 t-148 -68.5q-132 0 -203.5 120t-71.5 340z" />
<glyph unicode="d" horiz-adv-x="731" d="M63 442q0 200 75 328.5t186 128.5q78 0 129 -74v447h-86v31h241v-1272h86v-31h-241v59q-51 -73 -129 -73q-111 0 -186 128t-75 328zM229 227q0 -96 30.5 -149t84.5 -53q37 0 73 40t36 93v569q0 54 -36 93.5t-73 39.5q-54 0 -84.5 -53t-30.5 -150v-430z" />
<glyph unicode="e" horiz-adv-x="625" d="M63 446q0 220 67.5 336.5t197.5 116.5q118 0 177.5 -120t59.5 -359h-336v-203q0 -91 38 -144t95 -53q66 0 111 72t57 203h33q-13 -158 -67 -233.5t-158 -75.5q-132 0 -203.5 120t-71.5 340zM229 455h177v266q0 69 -21 108t-57 39q-46 0 -72.5 -48t-26.5 -128v-237z" />
<glyph unicode="f" horiz-adv-x="401" d="M37 0v31h86v821h-86v31h82q-13 119 -13 164q0 127 45 198.5t123 71.5q51 0 89 -40.5t38 -92.5q0 -34 -18.5 -57t-44.5 -23q-30 0 -50 22t-20 56q0 29 16.5 52t16.5 28q0 20 -35 20q-29 0 -50 -34.5t-21 -84.5q0 -158 67 -280h103v-31h-86v-821h86v-31h-328z" />
<glyph unicode="g" horiz-adv-x="707" d="M37 -262q0 99 160 192q-150 37 -150 168q0 156 162 168q-127 95 -127 297q0 146 71.5 241t182.5 95q99 0 168 -78q57 105 121 105q34 0 55.5 -23t21.5 -57t-16 -56t-41 -22q-47 0 -55 47q-5 29 -23 29q-15 0 -41 -49q64 -98 64 -232q0 -146 -71.5 -241t-182.5 -95 q-20 0 -38 4l-36 9h-12q-144 0 -144 -101q0 -67 123 -67l148 4h131q86 0 132 -54.5t46 -156.5q0 -129 -99 -214t-259 -85q-125 0 -208 49.5t-83 122.5zM139 -240q0 -74 52.5 -115.5t127.5 -41.5q133 0 222.5 63t89.5 156q0 44 -27.5 71t-77.5 27h-174q-91 0 -104 2 q-50 -31 -79.5 -75.5t-29.5 -86.5zM238 360q0 -40 30 -69t68 -29q37 0 67.5 30t30.5 73v397q0 43 -30 72.5t-68 29.5t-68 -27t-30 -67v-410z" />
<glyph unicode="h" horiz-adv-x="743" d="M37 0v31h86v1241h-86v31h242v-541q68 137 184 137q79 0 121.5 -54.5t42.5 -154.5v-659h86v-31h-297v31h55v700q0 51 -16 81t-43 30q-42 0 -87.5 -67t-45.5 -134v-610h55v-31h-297z" />
<glyph unicode="i" horiz-adv-x="395" d="M37 0v31h86v821h-86v31h242v-852h86v-31h-328zM113 1214q0 37 25.5 63t62.5 26q36 0 62 -26t26 -63q0 -36 -26 -62t-62 -26q-37 0 -62.5 26t-25.5 62z" />
<glyph unicode="j" horiz-adv-x="395" d="M0 -295q0 34 18.5 57t44.5 23q31 0 50.5 -22t19.5 -56q0 -30 -16.5 -52t-16.5 -28q0 -20 35 -20q29 0 50.5 34.5t21.5 84.5q0 148 -68 280q-16 29 -16 74v772h-86v31h242v-822q0 -17 3 -46q13 -115 13 -173q0 -127 -45 -198.5t-123 -71.5q-50 0 -88.5 40.5t-38.5 92.5z M113 1214q0 37 25.5 63t62.5 26q36 0 62 -26t26 -63q0 -36 -26 -62t-62 -26q-37 0 -62.5 26t-25.5 62z" />
<glyph unicode="k" horiz-adv-x="743" d="M37 0v31h86v1241h-86v31h242v-1272h55v-31h-297zM299 500l158 207q65 86 70 98t5 22q0 25 -32 25h-45v31h229v-31h-31q-43 0 -76 -42l-155 -206l242 -573h73v-31h-303v31h58z" />
<glyph unicode="l" horiz-adv-x="401" d="M37 0v31h86v1241h-86v31h242v-1272h86v-31h-328z" />
<glyph unicode="m" horiz-adv-x="1092" d="M37 0v31h86v817h-86v35h242v-119q68 137 184 137q133 0 158 -145q72 145 190 145q79 0 121.5 -54.5t42.5 -154.5v-661h86v-31h-297v31h55v702q0 51 -16 81t-43 30q-41 0 -87 -67t-46 -134v-612h55v-31h-266v31h55v702q0 51 -16 81t-43 30q-42 0 -87.5 -67t-45.5 -134 v-612h55v-31h-297z" />
<glyph unicode="n" horiz-adv-x="743" d="M37 0v31h86v821h-86v31h242v-121q68 137 184 137q79 0 121.5 -54.5t42.5 -154.5v-659h86v-31h-297v31h55v700q0 51 -16 81t-43 30q-42 0 -87.5 -67t-45.5 -134v-610h55v-31h-297z" />
<glyph unicode="o" horiz-adv-x="682" d="M63 455q0 211 72.5 327.5t208.5 116.5q131 0 202.5 -119t71.5 -325q0 -227 -70.5 -348t-205.5 -121t-207 122t-72 347zM229 207q0 -82 30.5 -136.5t80.5 -54.5q51 0 82 51.5t31 131.5v458q0 105 -28 158t-83 53q-51 0 -82 -54t-31 -142v-465z" />
<glyph unicode="p" horiz-adv-x="731" d="M37 -387h86v1239h-86v31h242v-58q51 74 129 74q111 0 185.5 -128.5t74.5 -328.5t-74.5 -328t-185.5 -128q-78 0 -129 73v-446h86v-31h-328v31zM279 158q0 -53 35.5 -93t72.5 -40q54 0 84.5 53t30.5 149v430q0 97 -30.5 150t-84.5 53q-37 0 -72.5 -40t-35.5 -93v-569z" />
<glyph unicode="q" horiz-adv-x="731" d="M63 442q0 200 75 328.5t186 128.5q78 0 129 -74v58h241v-31h-86v-1239h86v-31h-327v31h86v446q-51 -73 -129 -73q-111 0 -186 128t-75 328zM229 227q0 -96 30.5 -149t84.5 -53q37 0 73 40t36 93v569q0 54 -36 93.5t-73 39.5q-54 0 -84.5 -53t-30.5 -150v-430z" />
<glyph unicode="r" horiz-adv-x="543" d="M37 0v31h86v821h-86v31h242v-66h4q38 82 129 82q49 0 83.5 -33t34.5 -80q0 -37 -24 -63.5t-62 -26.5q-34 0 -56.5 22.5t-22.5 53.5q0 25 24 62q8 11 8 14q0 14 -16 14q-38 0 -70 -53t-32 -123v-655h86v-31h-328z" />
<glyph unicode="s" horiz-adv-x="553" d="M66 676q0 111 59.5 167t130.5 56q79 0 133 -35q18 -10 31 -10q22 0 22 29h31v-256h-31q-17 118 -66 179.5t-120 61.5q-44 0 -70 -30.5t-26 -77.5q0 -51 28 -92.5t129 -128.5q195 -168 195 -326q0 -120 -59.5 -173.5t-147.5 -53.5q-81 0 -137 32q-26 17 -43 17t-23 -35 h-30v301h30q17 -140 70.5 -212.5t128.5 -72.5q46 0 77.5 33t31.5 82q0 61 -40 118.5t-143 145.5q-161 140 -161 281z" />
<glyph unicode="t" horiz-adv-x="440" d="M27 852v31h104v245h156v-245h104v-31h-104v-770q0 -37 24 -37q56 0 78 135h33q-27 -196 -166 -196q-56 0 -90.5 38.5t-34.5 104.5v725h-104z" />
<glyph unicode="u" horiz-adv-x="743" d="M31 852v31h241v-729q0 -111 74 -111q43 0 81 47.5t38 112.5v649h-55v31h211v-852h86v-31h-242v90q-60 -104 -182 -104q-80 0 -123 54.5t-43 154.5v657h-86z" />
<glyph unicode="v" horiz-adv-x="657" d="M0 852v31h315v-31h-88l152 -559l81 306q38 142 41 156.5t3 30.5q0 26 -18.5 46t-43.5 20h-43v31h258v-31q-51 -3 -73.5 -23t-44.5 -104l-201 -741h-19l-247 868h-72z" />
<glyph unicode="w" horiz-adv-x="995" d="M0 852v31h315v-31h-88l152 -559l158 590h18l162 -590l81 306q38 142 41 156.5t3 30.5q0 27 -18.5 46.5t-43.5 19.5h-43v31h258v-31q-51 -3 -73.5 -23t-44.5 -104l-201 -741h-19l-163 575l-156 -575h-19l-247 868h-72z" />
<glyph unicode="x" horiz-adv-x="657" d="M20 0v31h35q45 0 87 87l132 277l-200 457h-54v31h265v-31h-56l127 -287q101 214 105 223.5t4 26.5q0 34 -72 37v31h221v-31h-20q-36 0 -60 -20.5t-42 -60.5l-117 -249l217 -491h53v-31h-264v31h55l-143 323l-86 -183q-35 -74 -35 -97q0 -43 47 -43h39v-31h-238z" />
<glyph unicode="y" horiz-adv-x="657" d="M0 852v31h315v-31h-88l152 -559l81 306q38 142 41 156.5t3 30.5q0 26 -18.5 46t-43.5 20h-43v31h258v-31q-51 -3 -73.5 -23t-44.5 -104l-263 -969q-50 -188 -153 -188q-46 0 -77.5 27.5t-31.5 70.5q0 40 23 64t61 24q32 0 51 -17.5t19 -45.5q0 -25 -11 -43q-3 -5 -3 -6 q0 -13 12 -13q13 0 33.5 37.5t39.5 108.5l68 254l-235 823h-72z" />
<glyph unicode="z" horiz-adv-x="618" d="M49 0l377 852h-86q-74 0 -131 -79.5t-84 -227.5h-35l6 338h494l-377 -852h98q85 0 149 94t85 242h33v-367h-529z" />
<glyph unicode="{" horiz-adv-x="655" d="M90 377v31q195 34 195 219q0 78 -23 159q-31 117 -31 183q0 153 86 239t265 86v-30q-193 -19 -193 -222q0 -72 25 -174q24 -105 24 -170q0 -108 -66.5 -187.5t-193.5 -115.5v-6q127 -36 193.5 -115t66.5 -188q0 -65 -24 -170q-25 -101 -25 -174q0 -202 193 -221v-31 q-173 0 -262 83.5t-89 242.5q0 65 31 182q23 93 23 160q0 185 -195 219z" />
<glyph unicode="|" horiz-adv-x="743" d="M326 -406v1702h92v-1702h-92z" />
<glyph unicode="}" horiz-adv-x="655" d="M74 -479q192 19 192 221q0 73 -24 174q-25 105 -25 170q0 109 67 188t193 115v6q-126 36 -193 115.5t-67 187.5q0 65 25 170q24 102 24 174q0 203 -192 222v30q172 0 261 -83.5t89 -241.5q0 -66 -31 -183q-22 -81 -22 -159q0 -185 194 -219v-31q-194 -34 -194 -219 q0 -78 22 -160q31 -117 31 -182q0 -153 -85.5 -239.5t-264.5 -86.5v31z" />
<glyph unicode="~" horiz-adv-x="1366" d="M147 518q10 151 79.5 219t160.5 68q101 0 381 -121q154 -66 219 -66q72 0 123 46t61 139h48q-5 -136 -76 -211.5t-172 -75.5q-56 0 -113 18.5t-262 102.5q-157 63 -217 63q-149 0 -184 -182h-48z" />
<glyph unicode="&#xa1;" horiz-adv-x="385" d="M78 786q0 46 33.5 79.5t78.5 33.5q46 0 79.5 -33.5t33.5 -79.5t-33.5 -79t-79.5 -33q-45 0 -78.5 33t-33.5 79zM84 -266q0 65 35 254q47 241 55 512h33q9 -282 55 -512q35 -175 35 -254q0 -80 -29 -124t-78 -44q-48 0 -77 44t-29 124z" />
<glyph unicode="&#xa2;" d="M109 446q0 215 75 334t209 119q49 0 92 -18l82 297h31l-86 -314q61 -45 61 -129q0 -40 -24.5 -67t-61.5 -27q-20 0 -34 10l-154 -557q39 -74 109 -74q125 0 147 261h33q-13 -158 -57 -226.5t-148 -68.5q-61 0 -107 24l-90 -323h-30l94 340q-141 106 -141 419zM274 217 q0 -44 9 -74l145 529q-14 21 -14 43q0 29 16 51t39 27q29 5 29 20q0 19 -29.5 36t-75.5 17q-48 0 -83.5 -51t-35.5 -125v-473z" />
<glyph unicode="&#xa3;" d="M39 582v30h145q-104 207 -104 338q0 160 83 264.5t218 104.5q112 0 183 -76t71 -180q0 -46 -26.5 -75.5t-67.5 -29.5q-39 0 -63.5 25t-24.5 64q0 40 24.5 64t65.5 24q35 0 35 20q0 35 -53 84t-126 49q-81 0 -131.5 -54t-50.5 -138q0 -60 15.5 -131.5t75.5 -210.5 q42 -96 57 -142h196v-30h-186q24 -91 24 -170q0 -126 -34 -234q90 -31 149 -31q120 0 133 117h31q-3 -138 -42.5 -207t-135.5 -69q-26 0 -58.5 14.5t-115.5 85.5q-61 -100 -148 -100q-52 0 -87.5 30.5t-35.5 79.5q0 55 39 88t103 33q45 0 118 -22q2 11 2 43q0 123 -116 342 h-162zM88 90q0 -32 24 -52t62 -20q77 0 121 95q-69 51 -123 51q-37 0 -60.5 -21t-23.5 -53z" />
<glyph unicode="&#xa4;" horiz-adv-x="1401" d="M195 264l127 127q-47 65 -69 119t-22 154q0 97 22 150.5t69 121.5l-127 125l90 90l127 -127q66 47 120 68.5t152 21.5t151.5 -21.5t120.5 -68.5l127 127l88 -90l-127 -127q47 -67 69 -120t22 -150q0 -100 -22 -153t-69 -120l127 -127l-88 -88l-127 125 q-66 -47 -120 -68.5t-152 -21.5q-100 0 -153.5 21.5t-118.5 68.5l-127 -125zM358 664q0 -135 96 -230.5t230 -95.5q133 0 228.5 95.5t95.5 230.5q0 133 -95.5 228t-228.5 95q-134 0 -230 -95t-96 -228z" />
<glyph unicode="&#xa5;" horiz-adv-x="778" d="M8 1272v31h352v-31h-88l97 -322h180q73 237 76.5 254t3.5 27q0 41 -47 41h-35v31h223v-31q-50 0 -75.5 -21.5t-38.5 -63.5l-72 -237h159v-30h-170l-92 -299h262v-31h-268v-559h88v-31h-346v31h88v559h-268v31h258l-92 299h-166v30h156l-97 322h-88zM379 920l78 -261h4 l80 261h-162z" />
<glyph unicode="&#xa6;" horiz-adv-x="743" d="M326 317h92v-723h-92v723zM326 573v723h92v-723h-92z" />
<glyph unicode="&#xa7;" horiz-adv-x="786" d="M82 422q0 100 40.5 171.5t129.5 143.5q-78 76 -113 138t-35 133q0 143 83 227t216 84q110 0 173 -64t63 -151q0 -42 -27 -70t-67 -28q-37 0 -61.5 24.5t-24.5 61.5q0 46 57 77q29 16 29 29q0 31 -40.5 60.5t-96.5 29.5q-81 0 -129 -55.5t-48 -151.5q0 -74 49.5 -137.5 t184.5 -179.5q117 -101 172.5 -173t68.5 -117.5t13 -100.5q0 -91 -37.5 -154.5t-124.5 -134.5q76 -76 113 -142t37 -155q0 -145 -85 -228t-233 -83q-95 0 -166 66.5t-71 148.5q0 41 27 69.5t67 28.5q37 0 62.5 -25t25.5 -61q0 -45 -60 -78q-28 -14 -28 -28q0 -28 46.5 -59.5 t92.5 -31.5q195 0 195 207q0 99 -51.5 166.5t-202.5 196.5q-125 107 -184.5 183.5t-59.5 162.5zM164 518q0 -51 51 -113t197 -188q76 -66 116 -106q109 89 109 165q0 82 -52.5 147t-205.5 200q-37 30 -98 88q-117 -95 -117 -193z" />
<glyph unicode="&#xa8;" horiz-adv-x="682" d="M88 1126q0 42 29.5 71.5t70.5 29.5q42 0 71.5 -29.5t29.5 -71.5q0 -41 -29.5 -70.5t-71.5 -29.5q-41 0 -70.5 29.5t-29.5 70.5zM391 1126q0 42 29.5 71.5t71.5 29.5q41 0 70.5 -29.5t29.5 -71.5q0 -41 -29.5 -70.5t-70.5 -29.5q-42 0 -71.5 29.5t-29.5 70.5z" />
<glyph unicode="&#xa9;" horiz-adv-x="1556" d="M70 678q0 191 95 355t259.5 258.5t353.5 94.5q292 0 500.5 -207.5t208.5 -500.5q0 -292 -208.5 -500.5t-500.5 -208.5t-500 208.5t-208 500.5zM131 678q0 -268 190 -457.5t457 -189.5q268 0 457.5 189.5t189.5 457.5q0 270 -190 458.5t-457 188.5q-266 0 -456.5 -189.5 t-190.5 -457.5zM319 672q0 191 141 327t359 136q46 0 77.5 -6t107.5 -31q20 -8 36 -8q32 0 50 45h38l21 -281h-39q-71 236 -303 236q-146 0 -234 -104.5t-88 -285.5q0 -196 85 -303.5t247 -107.5q196 0 311 162l37 -21q-137 -203 -383 -203q-200 0 -331.5 131.5 t-131.5 313.5z" />
<glyph unicode="&#xaa;" horiz-adv-x="436" d="M47 860q0 53 29 91t98 80q61 37 74 59v143q0 26 -18 42.5t-46 16.5q-19 0 -37 -9t-18 -17q0 -9 12 -17q29 -16 29 -45q0 -23 -15 -38t-36 -15q-25 0 -41.5 17t-16.5 42q0 42 41 74.5t101 32.5t103.5 -49t43.5 -123v-346q0 -31 21 -31q22 0 22 66h21v-15q0 -92 -82 -92 q-59 0 -76 61q-30 -61 -102 -61q-46 0 -76.5 36.5t-30.5 96.5zM154 829q0 -61 43 -61q18 0 34.5 22t16.5 58v207q-13 -16 -33 -31q-38 -28 -49.5 -52t-11.5 -63v-80z" />
<glyph unicode="&#xab;" horiz-adv-x="555" d="M37 395l127 353h123l-127 -353l127 -352h-123zM279 395l127 353h122l-127 -353l127 -352h-122z" />
<glyph unicode="&#xac;" horiz-adv-x="1366" d="M139 844v131h1088v-619h-131v488h-957z" />
<glyph unicode="&#xad;" horiz-adv-x="406" d="M37 379v143h332v-143h-332z" />
<glyph unicode="&#xae;" horiz-adv-x="1556" d="M70 678q0 191 95 355t259.5 258.5t353.5 94.5q292 0 500.5 -207.5t208.5 -500.5q0 -292 -208.5 -500.5t-500.5 -208.5t-500 208.5t-208 500.5zM131 678q0 -268 190 -457.5t457 -189.5q268 0 457.5 189.5t189.5 457.5q0 270 -190 458.5t-457 188.5q-266 0 -456.5 -189.5 t-190.5 -457.5zM375 248v35q72 0 88 26.5t16 110.5v522q0 85 -14 110.5t-80 26.5v35h387q135 0 216 -62.5t81 -160.5q0 -168 -223 -223q215 -304 245.5 -343t86.5 -42v-35h-185l-295 405h-75v-235q0 -84 6 -96t25 -25.5t87 -13.5v-35h-366zM623 696h30q116 0 185 46.5 t69 136.5q0 80 -55.5 135t-144.5 55q-43 0 -84 -14v-359z" />
<glyph unicode="&#xaf;" horiz-adv-x="1024" d="M-18 1456v98h1060v-98h-1060z" />
<glyph unicode="&#xb0;" horiz-adv-x="655" d="M72 1128q0 106 75 181t181 75q105 0 180.5 -75t75.5 -181q0 -105 -75.5 -180.5t-180.5 -75.5q-106 0 -181 75.5t-75 180.5zM133 1128q0 -79 57.5 -136.5t137.5 -57.5q79 0 136.5 57.5t57.5 136.5q0 80 -57 137.5t-137 57.5t-137.5 -57.5t-57.5 -137.5z" />
<glyph unicode="&#xb1;" horiz-adv-x="1366" d="M139 -45v131h1088v-131h-1088zM139 764v131h477v479h132v-479h479v-131h-479v-477h-132v477h-477z" />
<glyph unicode="&#xb2;" horiz-adv-x="682" d="M117 455v69q165 222 202 278.5t59.5 123.5t22.5 155q0 102 -22 149.5t-82 47.5q-41 0 -82 -31t-41 -65q0 -13 25 -17q71 -9 71 -63q0 -26 -20 -45t-47 -19q-35 0 -57.5 22.5t-22.5 57.5q0 83 56 138t147 55q97 0 153 -62t56 -157q0 -155 -173 -324q-96 -92 -184 -213h244 q45 0 62.5 19t21.5 63h29l-21 -182h-397z" />
<glyph unicode="&#xb3;" horiz-adv-x="625" d="M115 602q0 33 19.5 55.5t49.5 22.5q32 0 53 -19t21 -47q0 -43 -49 -61q-21 -8 -21 -18q0 -20 29 -37t68 -17q72 0 96.5 43.5t24.5 137.5q0 241 -164 241h-37v29h22q160 0 160 168q0 108 -23.5 149t-78.5 41q-34 0 -61 -17t-27 -34q0 -8 17 -15q23 -10 34.5 -24.5 t11.5 -32.5q0 -27 -19.5 -45t-50.5 -18q-29 0 -49 19.5t-20 47.5q0 58 53 103t139 45q89 0 146 -55.5t57 -135.5q0 -74 -54.5 -130.5t-156.5 -77.5v-5q103 -9 168.5 -76t65.5 -153q0 -99 -68 -166t-172 -67q-83 0 -133.5 45.5t-50.5 103.5z" />
<glyph unicode="&#xb4;" horiz-adv-x="682" d="M285 971l49 346h196l-213 -346h-32z" />
<glyph unicode="&#xb5;" horiz-adv-x="895" d="M66 -315q0 60 24 147q41 152 41 363v741h156v-746q0 -55 29 -88.5t73 -33.5q62 0 105 55.5t43 66.5v746h155v-729q0 -146 68 -146q69 0 76 164h43q-3 -254 -187 -254q-60 0 -101 42.5t-46 115.5q-29 -69 -87.5 -113.5t-117.5 -44.5q-111 0 -154 86q0 -129 31 -243 q21 -71 21 -125q0 -129 -88 -129q-84 0 -84 125z" />
<glyph unicode="&#xb6;" horiz-adv-x="928" d="M-12 967q0 166 115 270t335 104h496v-55h-133v-1743h-74v1743h-186v-1743h-74v1045q-279 7 -379 114t-100 265z" />
<glyph unicode="&#xb7;" horiz-adv-x="381" d="M78 694q0 46 33.5 79.5t78.5 33.5q46 0 79.5 -33.5t33.5 -79.5t-33 -79t-80 -33q-45 0 -78.5 33t-33.5 79z" />
<glyph unicode="&#xb8;" horiz-adv-x="682" d="M227 -326l9 29q38 -8 69 -8q96 0 96 76q0 47 -51 47l-39 -2q32 119 43 184h31q-7 -42 -20 -94q58 4 90 -30.5t32 -76.5q0 -58 -43.5 -99.5t-117.5 -41.5q-49 0 -99 16z" />
<glyph unicode="&#xb9;" horiz-adv-x="625" d="M164 1262v28h45q37 0 79 7l77 12h18v-826h98v-28h-315v28h96v779h-98z" />
<glyph unicode="&#xba;" horiz-adv-x="457" d="M61 1030q0 131 42.5 209t127.5 78q78 0 121 -77.5t43 -209.5q0 -145 -42.5 -224t-123.5 -79q-80 0 -124 79.5t-44 223.5zM170 877q0 -54 16 -89.5t41 -35.5q29 0 45.5 32.5t16.5 85.5v285q0 137 -60 137q-27 0 -43 -35.5t-16 -93.5v-286z" />
<glyph unicode="&#xbb;" horiz-adv-x="555" d="M25 43l127 352l-127 353h122l127 -353l-127 -352h-122zM266 43l127 352l-127 353h123l127 -353l-127 -352h-123z" />
<glyph unicode="&#xbc;" horiz-adv-x="1520" d="M164 1262v28h45q37 0 79 7l77 12h18v-826h98v-28h-315v28h96v779h-98zM356 -31l713 1350h73l-712 -1350h-74zM845 172v29l336 623h41v-623h80v74h28v-176h-28v73h-80v-174h94v-28h-309v28h94v174h-256zM880 201h221v406h-2z" />
<glyph unicode="&#xbd;" horiz-adv-x="1520" d="M164 1262v28h45q37 0 79 7l77 12h18v-826h98v-28h-315v28h96v779h-98zM356 -31l713 1350h73l-712 -1350h-74zM905 -31v69q165 222 202 278.5t59.5 123.5t22.5 155q0 102 -22 149.5t-82 47.5q-41 0 -82 -31t-41 -65q0 -13 25 -17q71 -9 71 -63q0 -26 -20 -45t-47 -19 q-35 0 -57.5 22.5t-22.5 57.5q0 83 56 138t147 55q97 0 153 -62t56 -157q0 -155 -173 -324q-96 -92 -184 -213h244q45 0 62.5 19t21.5 63h29l-21 -182h-397z" />
<glyph unicode="&#xbe;" horiz-adv-x="1520" d="M115 602q0 33 19.5 55.5t49.5 22.5q32 0 53 -19t21 -47q0 -43 -49 -61q-21 -8 -21 -18q0 -20 29 -37t68 -17q72 0 96.5 43.5t24.5 137.5q0 241 -164 241h-37v29h22q160 0 160 168q0 108 -23.5 149t-78.5 41q-34 0 -61 -17t-27 -34q0 -8 17 -15q23 -10 34.5 -24.5 t11.5 -32.5q0 -27 -19.5 -45t-50.5 -18q-29 0 -49 19.5t-20 47.5q0 58 53 103t139 45q89 0 146 -55.5t57 -135.5q0 -74 -54.5 -130.5t-156.5 -77.5v-5q103 -9 168.5 -76t65.5 -153q0 -99 -68 -166t-172 -67q-83 0 -133.5 45.5t-50.5 103.5zM356 -31l713 1350h73l-712 -1350 h-74zM846 171v29l336 623h41v-623h80v74h28v-176h-28v73h-80v-174h94v-28h-309v28h94v174h-256zM881 200h221v406h-2z" />
<glyph unicode="&#xbf;" horiz-adv-x="643" d="M39 -127q0 106 46 183.5t169 174.5q96 77 117 266h30v-67q0 -159 -24 -239.5t-96 -149.5q-115 -112 -115 -228q0 -95 49.5 -156t134.5 -61q60 0 110 38.5t50 76.5q0 13 -31 18q-78 18 -78 91q0 38 24 63t60 25q42 0 70.5 -30.5t28.5 -76.5q0 -89 -70 -162t-184 -73 q-132 0 -211.5 87.5t-79.5 219.5zM272 786q0 46 33.5 79.5t79.5 33.5t79.5 -33.5t33.5 -79.5t-33.5 -79t-79.5 -33t-79.5 33t-33.5 79z" />
<glyph unicode="&#xc0;" horiz-adv-x="766" d="M0 0v31h27q75 0 96 104l239 1186h39l283 -1290h82v-31h-338v31h84l-72 334h-235q-51 -252 -51 -273q0 -61 65 -61h47v-31h-266zM193 1732h196l49 -346h-33zM211 395h223l-115 539z" />
<glyph unicode="&#xc1;" horiz-adv-x="766" d="M0 0v31h27q75 0 96 104l239 1186h39l283 -1290h82v-31h-338v31h84l-72 334h-235q-51 -252 -51 -273q0 -61 65 -61h47v-31h-266zM211 395h223l-115 539zM328 1386l49 346h196l-213 -346h-32z" />
<glyph unicode="&#xc2;" horiz-adv-x="766" d="M0 0v31h27q75 0 96 104l239 1186h39l283 -1290h82v-31h-338v31h84l-72 334h-235q-51 -252 -51 -273q0 -61 65 -61h47v-31h-266zM154 1386l161 346h136l161 -346h-30l-199 198l-199 -198h-30zM211 395h223l-115 539z" />
<glyph unicode="&#xc3;" horiz-adv-x="766" d="M0 0v31h27q75 0 96 104l239 1186h39l283 -1290h82v-31h-338v31h84l-72 334h-235q-51 -252 -51 -273q0 -61 65 -61h47v-31h-266zM139 1442q4 106 42 163.5t102 57.5q48 0 137 -55q76 -47 110 -47q64 0 72 102h29q-4 -106 -42 -163.5t-102 -57.5q-48 0 -137 55 q-76 47 -110 47q-64 0 -72 -102h-29zM211 395h223l-115 539z" />
<glyph unicode="&#xc4;" horiz-adv-x="766" d="M0 0v31h27q75 0 96 104l239 1186h39l283 -1290h82v-31h-338v31h84l-72 334h-235q-51 -252 -51 -273q0 -61 65 -61h47v-31h-266zM131 1542q0 42 29.5 71.5t70.5 29.5q42 0 71.5 -29.5t29.5 -71.5q0 -41 -29.5 -70.5t-71.5 -29.5q-41 0 -70.5 29.5t-29.5 70.5zM211 395h223 l-115 539zM434 1542q0 42 29.5 71.5t71.5 29.5q41 0 70.5 -29.5t29.5 -71.5q0 -41 -29.5 -70.5t-70.5 -29.5q-42 0 -71.5 29.5t-29.5 70.5z" />
<glyph unicode="&#xc5;" horiz-adv-x="766" d="M0 0v31h27q75 0 96 104l239 1186h39l283 -1290h82v-31h-338v31h84l-72 334h-235q-51 -252 -51 -273q0 -61 65 -61h47v-31h-266zM211 395h223l-115 539zM211 1544q0 72 50.5 122t121.5 50q70 0 120 -50.5t50 -121.5q0 -69 -50 -120.5t-120 -51.5q-71 0 -121.5 51 t-50.5 121zM258 1544q0 -52 36.5 -88t88.5 -36q51 0 87 36.5t36 87.5q0 52 -36 88.5t-87 36.5q-52 0 -88.5 -36.5t-36.5 -88.5z" />
<glyph unicode="&#xc6;" horiz-adv-x="1024" d="M31 0v31q87 3 106 92l252 1149h-74v31h652v-287h-31q-16 131 -61.5 193.5t-129.5 62.5h-124v-561h86q58 0 95.5 38t37.5 95v51h30v-418h-28v12q0 86 -36 137.5t-93 51.5h-92v-647h102q96 0 144.5 75t74.5 234h31v-340h-611v31h89v329h-226q-45 -210 -47 -228t-2 -26 q0 -75 76 -75v-31h-221zM233 395h218v877h-25z" />
<glyph unicode="&#xc7;" horiz-adv-x="602" d="M68 668q0 311 70 481t235 170q67 0 116 -74q28 27 41 58h31v-316h-31q-33 156 -70 229.5t-87 73.5q-52 0 -85.5 -57.5t-33.5 -153.5v-862q0 -89 34.5 -146t88.5 -57q67 0 104.5 83t63.5 265h30v-362h-30q-16 34 -41 59q-46 -66 -119 -73l-18 -80q68 0 95 -35t27 -72 q0 -55 -41.5 -98t-119.5 -43q-49 0 -99 16l9 29q38 -8 69 -8q96 0 96 76q0 47 -51 47l-39 -2q30 111 41 170q-286 29 -286 682z" />
<glyph unicode="&#xc8;" horiz-adv-x="705" d="M43 0v31h88v1241h-88v31h604v-287h-31q-16 131 -61.5 193.5t-128.5 62.5h-125v-561h86q58 0 95.5 38t37.5 95v51h31v-418h-29v12q0 86 -35.5 137.5t-93.5 51.5h-92v-647h102q96 0 145 75t75 234h30v-340h-610zM193 1732h196l49 -346h-33z" />
<glyph unicode="&#xc9;" horiz-adv-x="705" d="M43 0v31h88v1241h-88v31h604v-287h-31q-16 131 -61.5 193.5t-128.5 62.5h-125v-561h86q58 0 95.5 38t37.5 95v51h31v-418h-29v12q0 86 -35.5 137.5t-93.5 51.5h-92v-647h102q96 0 145 75t75 234h30v-340h-610zM298 1386l49 346h196l-213 -346h-32z" />
<glyph unicode="&#xca;" horiz-adv-x="705" d="M43 0v31h88v1241h-88v31h604v-287h-31q-16 131 -61.5 193.5t-128.5 62.5h-125v-561h86q58 0 95.5 38t37.5 95v51h31v-418h-29v12q0 86 -35.5 137.5t-93.5 51.5h-92v-647h102q96 0 145 75t75 234h30v-340h-610zM143 1386l161 346h136l161 -346h-30l-199 198l-199 -198h-30 z" />
<glyph unicode="&#xcb;" horiz-adv-x="705" d="M43 0v31h88v1241h-88v31h604v-287h-31q-16 131 -61.5 193.5t-128.5 62.5h-125v-561h86q58 0 95.5 38t37.5 95v51h31v-418h-29v12q0 86 -35.5 137.5t-93.5 51.5h-92v-647h102q96 0 145 75t75 234h30v-340h-610zM100 1542q0 42 29.5 71.5t70.5 29.5q42 0 71.5 -29.5 t29.5 -71.5q0 -41 -29.5 -70.5t-71.5 -29.5q-41 0 -70.5 29.5t-29.5 70.5zM403 1542q0 42 29.5 71.5t71.5 29.5q41 0 70.5 -29.5t29.5 -71.5q0 -41 -29.5 -70.5t-70.5 -29.5q-42 0 -71.5 29.5t-29.5 70.5z" />
<glyph unicode="&#xcc;" horiz-adv-x="432" d="M25 1732h196l49 -346h-33zM43 0v31h88v1241h-88v31h346v-31h-88v-1241h86v-31h-344z" />
<glyph unicode="&#xcd;" horiz-adv-x="432" d="M43 0v31h88v1241h-88v31h346v-31h-88v-1241h86v-31h-344zM161 1386l49 346h196l-213 -346h-32z" />
<glyph unicode="&#xce;" horiz-adv-x="432" d="M-14 1386l161 346h136l161 -346h-30l-199 198l-199 -198h-30zM43 0v31h88v1241h-88v31h346v-31h-88v-1241h86v-31h-344z" />
<glyph unicode="&#xcf;" horiz-adv-x="432" d="M-37 1542q0 42 29.5 71.5t70.5 29.5q42 0 71.5 -29.5t29.5 -71.5q0 -41 -29.5 -70.5t-71.5 -29.5q-41 0 -70.5 29.5t-29.5 70.5zM43 0v31h88v1241h-88v31h346v-31h-88v-1241h86v-31h-344zM266 1542q0 42 29.5 71.5t71.5 29.5q41 0 70.5 -29.5t29.5 -71.5 q0 -41 -29.5 -70.5t-70.5 -29.5q-42 0 -71.5 29.5t-29.5 70.5z" />
<glyph unicode="&#xd0;" horiz-adv-x="750" d="M43 0v31h88v604h-88v37h88v600h-88v31h344q166 0 230.5 -165t64.5 -503q0 -253 -32.5 -384t-101 -191t-181.5 -60h-324zM301 31h59q138 0 138 190v924q0 58 -32 92.5t-85 34.5h-80v-600h88v-37h-88v-604z" />
<glyph unicode="&#xd1;" horiz-adv-x="834" d="M39 0v31q50 0 69 18.5t19 69.5v1153h-88v31h252l375 -1063h4v944q0 88 -86 88h-37v31h248v-31h-21q-67 0 -67 -53v-1219h-136l-403 1135h-4v-988q0 -116 78 -116h45v-31h-248zM172 1442q4 106 42 163.5t102 57.5q48 0 137 -55q76 -47 110 -47q64 0 72 102h29 q-4 -106 -42 -163.5t-102 -57.5q-48 0 -137 55q-76 47 -110 47q-64 0 -72 -102h-29z" />
<glyph unicode="&#xd2;" horiz-adv-x="750" d="M68 668q0 311 70 481t235 170h6q154 0 228.5 -159t74.5 -492q0 -341 -77 -511.5t-230 -170.5q-151 0 -229 174.5t-78 507.5zM185 1732h196l49 -346h-33zM254 217q0 -90 34.5 -145.5t90.5 -55.5q51 0 84 55.5t33 145.5v879q0 87 -35 139.5t-88 52.5q-52 0 -85.5 -56.5 t-33.5 -152.5v-862z" />
<glyph unicode="&#xd3;" horiz-adv-x="750" d="M68 668q0 311 70 481t235 170h6q154 0 228.5 -159t74.5 -492q0 -341 -77 -511.5t-230 -170.5q-151 0 -229 174.5t-78 507.5zM254 217q0 -90 34.5 -145.5t90.5 -55.5q51 0 84 55.5t33 145.5v879q0 87 -35 139.5t-88 52.5q-52 0 -85.5 -56.5t-33.5 -152.5v-862zM320 1386 l49 346h196l-213 -346h-32z" />
<glyph unicode="&#xd4;" horiz-adv-x="750" d="M68 668q0 311 70 481t235 170h6q154 0 228.5 -159t74.5 -492q0 -341 -77 -511.5t-230 -170.5q-151 0 -229 174.5t-78 507.5zM145 1386l161 346h136l161 -346h-30l-199 198l-199 -198h-30zM254 217q0 -90 34.5 -145.5t90.5 -55.5q51 0 84 55.5t33 145.5v879 q0 87 -35 139.5t-88 52.5q-52 0 -85.5 -56.5t-33.5 -152.5v-862z" />
<glyph unicode="&#xd5;" horiz-adv-x="750" d="M68 668q0 311 70 481t235 170h6q154 0 228.5 -159t74.5 -492q0 -341 -77 -511.5t-230 -170.5q-151 0 -229 174.5t-78 507.5zM131 1442q4 106 42 163.5t102 57.5q48 0 137 -55q76 -47 110 -47q64 0 72 102h29q-4 -106 -42 -163.5t-102 -57.5q-48 0 -137 55q-76 47 -110 47 q-64 0 -72 -102h-29zM254 217q0 -90 34.5 -145.5t90.5 -55.5q51 0 84 55.5t33 145.5v879q0 87 -35 139.5t-88 52.5q-52 0 -85.5 -56.5t-33.5 -152.5v-862z" />
<glyph unicode="&#xd6;" horiz-adv-x="750" d="M68 668q0 311 70 481t235 170h6q154 0 228.5 -159t74.5 -492q0 -341 -77 -511.5t-230 -170.5q-151 0 -229 174.5t-78 507.5zM123 1542q0 42 29.5 71.5t70.5 29.5q42 0 71.5 -29.5t29.5 -71.5q0 -41 -29.5 -70.5t-71.5 -29.5q-41 0 -70.5 29.5t-29.5 70.5zM254 217 q0 -90 34.5 -145.5t90.5 -55.5q51 0 84 55.5t33 145.5v879q0 87 -35 139.5t-88 52.5q-52 0 -85.5 -56.5t-33.5 -152.5v-862zM426 1542q0 42 29.5 71.5t71.5 29.5q41 0 70.5 -29.5t29.5 -71.5q0 -41 -29.5 -70.5t-70.5 -29.5q-42 0 -71.5 29.5t-29.5 70.5z" />
<glyph unicode="&#xd7;" horiz-adv-x="1366" d="M184 1071l92 92l408 -409l410 409l92 -94l-408 -407l404 -406l-92 -92l-406 405l-405 -405l-93 92l406 406z" />
<glyph unicode="&#xd8;" horiz-adv-x="750" d="M25 66l47 83q47 84 47 82q-51 169 -51 437q0 311 70 481t235 170h6q170 0 244 -195l71 129l31 -16q-88 -156 -88 -158l20 -87q9 -44 14.5 -95.5t8 -108.5t2.5 -120q0 -682 -307 -682q-163 0 -242 202q0 -1 -33 -59l-45 -80zM254 217q0 -90 34.5 -145.5t90.5 -55.5 q51 0 84 55.5t33 145.5v612l-242 -428v-184zM254 473l242 428v195q0 87 -35 139.5t-88 52.5q-52 0 -85.5 -56.5t-33.5 -152.5v-606z" />
<glyph unicode="&#xd9;" horiz-adv-x="741" d="M31 1272v31h346v-31h-88v-1112q0 -61 35 -96t96 -35q75 0 117.5 57t42.5 162v956q0 30 -17.5 49t-46.5 19h-29v31h220v-31h-29q-29 0 -46.5 -19.5t-17.5 -48.5v-960q0 -129 -62 -193.5t-185 -64.5q-118 0 -183 78.5t-65 224.5v983h-88zM181 1732h196l49 -346h-33z" />
<glyph unicode="&#xda;" horiz-adv-x="741" d="M31 1272v31h346v-31h-88v-1112q0 -61 35 -96t96 -35q75 0 117.5 57t42.5 162v956q0 30 -17.5 49t-46.5 19h-29v31h220v-31h-29q-29 0 -46.5 -19.5t-17.5 -48.5v-960q0 -129 -62 -193.5t-185 -64.5q-118 0 -183 78.5t-65 224.5v983h-88zM316 1386l49 346h196l-213 -346 h-32z" />
<glyph unicode="&#xdb;" horiz-adv-x="741" d="M31 1272v31h346v-31h-88v-1112q0 -61 35 -96t96 -35q75 0 117.5 57t42.5 162v956q0 30 -17.5 49t-46.5 19h-29v31h220v-31h-29q-29 0 -46.5 -19.5t-17.5 -48.5v-960q0 -129 -62 -193.5t-185 -64.5q-118 0 -183 78.5t-65 224.5v983h-88zM141 1386l161 346h136l161 -346 h-30l-199 198l-199 -198h-30z" />
<glyph unicode="&#xdc;" horiz-adv-x="741" d="M31 1272v31h346v-31h-88v-1112q0 -61 35 -96t96 -35q75 0 117.5 57t42.5 162v956q0 30 -17.5 49t-46.5 19h-29v31h220v-31h-29q-29 0 -46.5 -19.5t-17.5 -48.5v-960q0 -129 -62 -193.5t-185 -64.5q-118 0 -183 78.5t-65 224.5v983h-88zM119 1542q0 42 29.5 71.5 t70.5 29.5q42 0 71.5 -29.5t29.5 -71.5q0 -41 -29.5 -70.5t-71.5 -29.5q-41 0 -70.5 29.5t-29.5 70.5zM422 1542q0 42 29.5 71.5t71.5 29.5q41 0 70.5 -29.5t29.5 -71.5q0 -41 -29.5 -70.5t-70.5 -29.5q-42 0 -71.5 29.5t-29.5 70.5z" />
<glyph unicode="&#xdd;" horiz-adv-x="778" d="M8 1272v31h352v-31h-88l185 -613h4l122 401q46 151 46 171q0 41 -47 41h-35v31h223v-31q-19 0 -34 -3t-27 -9.5t-22 -16.5t-17.5 -24.5t-14.5 -34.5l-180 -588v-565h88v-31h-346v31h88v559l-209 682h-88zM335 1386l49 346h196l-213 -346h-32z" />
<glyph unicode="&#xde;" horiz-adv-x="729" d="M43 0v31h88v1241h-88v31h346v-31h-88v-281h74q293 0 293 -338q0 -187 -76 -267.5t-240 -80.5h-51v-274h88v-31h-346zM301 336h53q65 0 98 40.5t33 180.5v168q0 114 -15 163t-49.5 61t-119.5 12v-625z" />
<glyph unicode="&#xdf;" horiz-adv-x="770" d="M37 0v31h86v950q0 156 72 246t204 90q120 0 195.5 -70t75.5 -178q0 -83 -61.5 -151.5t-172.5 -94.5v-4q269 -77 269 -418q0 -193 -66 -304t-176 -111q-60 0 -97.5 42t-37.5 107q0 39 20.5 66.5t52.5 27.5q24 0 45 -17t21 -46q0 -36 -22.5 -56t-34.5 -20q-19 0 -19 -10 q0 -60 66 -60q82 0 82 197v338q0 105 -46 171.5t-137 74.5v30q80 4 116 55t36 183q0 119 -25 166t-82 47q-62 0 -92 -50t-30 -163v-1069h-242z" />
<glyph unicode="&#xe0;" horiz-adv-x="625" d="M43 193q0 71 37 126t139 121q123 80 135 105v227q0 45 -26.5 70.5t-71.5 25.5q-30 0 -58 -14t-28 -27q0 -19 20 -30q43 -23 43 -70q0 -35 -22.5 -58.5t-56.5 -23.5q-39 0 -63.5 26.5t-24.5 65.5q0 62 63.5 112t153.5 50q93 0 160 -74.5t67 -189.5v-547q0 -45 29 -45 q39 0 39 107h30v-21q0 -67 -32.5 -104t-92.5 -37q-91 0 -116 92q-45 -92 -158 -92q-72 0 -119 56t-47 149zM97 1317h196l49 -346h-33zM207 137q0 -94 67 -94q28 0 54 34t26 87v338q-16 -19 -53 -45q-58 -42 -76 -79.5t-18 -94.5v-146z" />
<glyph unicode="&#xe1;" horiz-adv-x="625" d="M43 193q0 71 37 126t139 121q123 80 135 105v227q0 45 -26.5 70.5t-71.5 25.5q-30 0 -58 -14t-28 -27q0 -19 20 -30q43 -23 43 -70q0 -35 -22.5 -58.5t-56.5 -23.5q-39 0 -63.5 26.5t-24.5 65.5q0 62 63.5 112t153.5 50q93 0 160 -74.5t67 -189.5v-547q0 -45 29 -45 q39 0 39 107h30v-21q0 -67 -32.5 -104t-92.5 -37q-91 0 -116 92q-45 -92 -158 -92q-72 0 -119 56t-47 149zM207 137q0 -94 67 -94q28 0 54 34t26 87v338q-16 -19 -53 -45q-58 -42 -76 -79.5t-18 -94.5v-146zM232 971l49 346h196l-213 -346h-32z" />
<glyph unicode="&#xe2;" horiz-adv-x="625" d="M43 193q0 71 37 126t139 121q123 80 135 105v227q0 45 -26.5 70.5t-71.5 25.5q-30 0 -58 -14t-28 -27q0 -19 20 -30q43 -23 43 -70q0 -35 -22.5 -58.5t-56.5 -23.5q-39 0 -63.5 26.5t-24.5 65.5q0 62 63.5 112t153.5 50q93 0 160 -74.5t67 -189.5v-547q0 -45 29 -45 q39 0 39 107h30v-21q0 -67 -32.5 -104t-92.5 -37q-91 0 -116 92q-45 -92 -158 -92q-72 0 -119 56t-47 149zM57 971l161 346h136l161 -346h-30l-199 198l-199 -198h-30zM207 137q0 -94 67 -94q28 0 54 34t26 87v338q-16 -19 -53 -45q-58 -42 -76 -79.5t-18 -94.5v-146z" />
<glyph unicode="&#xe3;" horiz-adv-x="625" d="M43 193q0 71 37 126t139 121q123 80 135 105v227q0 45 -26.5 70.5t-71.5 25.5q-30 0 -58 -14t-28 -27q0 -19 20 -30q43 -23 43 -70q0 -35 -22.5 -58.5t-56.5 -23.5q-39 0 -63.5 26.5t-24.5 65.5q0 62 63.5 112t153.5 50q93 0 160 -74.5t67 -189.5v-547q0 -45 29 -45 q39 0 39 107h30v-21q0 -67 -32.5 -104t-92.5 -37q-91 0 -116 92q-45 -92 -158 -92q-72 0 -119 56t-47 149zM43 1026q4 106 42 163.5t102 57.5q48 0 137 -55q76 -47 110 -47q64 0 72 102h29q-4 -106 -42 -163.5t-102 -57.5q-48 0 -137 55q-76 47 -110 47q-64 0 -72 -102h-29z M207 137q0 -94 67 -94q28 0 54 34t26 87v338q-16 -19 -53 -45q-58 -42 -76 -79.5t-18 -94.5v-146z" />
<glyph unicode="&#xe4;" horiz-adv-x="625" d="M35 1126q0 42 29.5 71.5t70.5 29.5q42 0 71.5 -29.5t29.5 -71.5q0 -41 -29.5 -70.5t-71.5 -29.5q-41 0 -70.5 29.5t-29.5 70.5zM43 193q0 71 37 126t139 121q123 80 135 105v227q0 45 -26.5 70.5t-71.5 25.5q-30 0 -58 -14t-28 -27q0 -19 20 -30q43 -23 43 -70 q0 -35 -22.5 -58.5t-56.5 -23.5q-39 0 -63.5 26.5t-24.5 65.5q0 62 63.5 112t153.5 50q93 0 160 -74.5t67 -189.5v-547q0 -45 29 -45q39 0 39 107h30v-21q0 -67 -32.5 -104t-92.5 -37q-91 0 -116 92q-45 -92 -158 -92q-72 0 -119 56t-47 149zM207 137q0 -94 67 -94 q28 0 54 34t26 87v338q-16 -19 -53 -45q-58 -42 -76 -79.5t-18 -94.5v-146zM338 1126q0 42 29.5 71.5t71.5 29.5q41 0 70.5 -29.5t29.5 -71.5q0 -41 -29.5 -70.5t-70.5 -29.5q-42 0 -71.5 29.5t-29.5 70.5z" />
<glyph unicode="&#xe5;" horiz-adv-x="625" d="M43 193q0 71 37 126t139 121q123 80 135 105v227q0 45 -26.5 70.5t-71.5 25.5q-30 0 -58 -14t-28 -27q0 -19 20 -30q43 -23 43 -70q0 -35 -22.5 -58.5t-56.5 -23.5q-39 0 -63.5 26.5t-24.5 65.5q0 62 63.5 112t153.5 50q93 0 160 -74.5t67 -189.5v-547q0 -45 29 -45 q39 0 39 107h30v-21q0 -67 -32.5 -104t-92.5 -37q-91 0 -116 92q-45 -92 -158 -92q-72 0 -119 56t-47 149zM115 1128q0 72 50.5 122t121.5 50q70 0 120 -50.5t50 -121.5q0 -69 -50 -120.5t-120 -51.5q-71 0 -121.5 51t-50.5 121zM162 1128q0 -52 36.5 -88t88.5 -36 q51 0 87 36.5t36 87.5q0 52 -36 88.5t-87 36.5q-52 0 -88.5 -36.5t-36.5 -88.5zM207 137q0 -94 67 -94q28 0 54 34t26 87v338q-16 -19 -53 -45q-58 -42 -76 -79.5t-18 -94.5v-146z" />
<glyph unicode="&#xe6;" horiz-adv-x="905" d="M43 193q0 71 37 126t139 121q123 80 135 105v227q0 45 -26.5 70.5t-71.5 25.5q-30 0 -58 -14t-28 -27q0 -19 20 -30q43 -23 43 -70q0 -35 -22.5 -58.5t-56.5 -23.5q-39 0 -63.5 26.5t-24.5 65.5q0 62 63.5 112t153.5 50q96 0 159 -78q62 78 166 78q238 0 238 -479h-336 v-203q0 -91 37.5 -144t95.5 -53q66 0 111 72t57 203h33q-14 -158 -68 -233.5t-158 -75.5q-158 0 -223 178q-23 -176 -186 -176q-72 0 -119 56t-47 149zM207 137q0 -94 67 -94q28 0 54 34t26 87v338q-16 -19 -53 -45q-58 -42 -76 -79.5t-18 -94.5v-146zM510 455h176v266 q0 69 -20.5 108t-57.5 39q-45 0 -71.5 -48t-26.5 -128v-237z" />
<glyph unicode="&#xe7;" horiz-adv-x="602" d="M63 446q0 215 75.5 334t209.5 119q79 0 129.5 -43.5t50.5 -120.5q0 -40 -24.5 -67t-61.5 -27q-28 0 -50.5 22t-22.5 52q0 29 16 51t39 27q29 5 29 20q0 19 -30 36t-75 17q-49 0 -84 -51t-35 -125v-473q0 -91 38 -144t95 -53q126 0 148 261h33q-14 -164 -58.5 -229.5 t-140.5 -65.5l-18 -80q68 0 95.5 -35t27.5 -72q0 -58 -43.5 -99.5t-118.5 -41.5q-49 0 -99 16l9 29q38 -8 69 -8q96 0 96 76q0 47 -51 47l-39 -2q30 113 41 172q-121 11 -185.5 130.5t-64.5 327.5z" />
<glyph unicode="&#xe8;" horiz-adv-x="625" d="M63 446q0 220 67.5 336.5t197.5 116.5q118 0 177.5 -120t59.5 -359h-336v-203q0 -91 38 -144t95 -53q66 0 111 72t57 203h33q-13 -158 -67 -233.5t-158 -75.5q-132 0 -203.5 120t-71.5 340zM150 1317h196l49 -346h-33zM229 455h177v266q0 69 -21 108t-57 39 q-46 0 -72.5 -48t-26.5 -128v-237z" />
<glyph unicode="&#xe9;" horiz-adv-x="625" d="M63 446q0 220 67.5 336.5t197.5 116.5q118 0 177.5 -120t59.5 -359h-336v-203q0 -91 38 -144t95 -53q66 0 111 72t57 203h33q-13 -158 -67 -233.5t-158 -75.5q-132 0 -203.5 120t-71.5 340zM229 455h177v266q0 69 -21 108t-57 39q-46 0 -72.5 -48t-26.5 -128v-237z M257 971l49 346h196l-213 -346h-32z" />
<glyph unicode="&#xea;" horiz-adv-x="625" d="M63 446q0 220 67.5 336.5t197.5 116.5q118 0 177.5 -120t59.5 -359h-336v-203q0 -91 38 -144t95 -53q66 0 111 72t57 203h33q-13 -158 -67 -233.5t-158 -75.5q-132 0 -203.5 120t-71.5 340zM82 971l161 346h136l161 -346h-30l-199 198l-199 -198h-30zM229 455h177v266 q0 69 -21 108t-57 39q-46 0 -72.5 -48t-26.5 -128v-237z" />
<glyph unicode="&#xeb;" horiz-adv-x="625" d="M59 1126q0 42 29.5 71.5t70.5 29.5q42 0 71.5 -29.5t29.5 -71.5q0 -41 -29.5 -70.5t-71.5 -29.5q-41 0 -70.5 29.5t-29.5 70.5zM63 446q0 220 67.5 336.5t197.5 116.5q118 0 177.5 -120t59.5 -359h-336v-203q0 -91 38 -144t95 -53q66 0 111 72t57 203h33 q-13 -158 -67 -233.5t-158 -75.5q-132 0 -203.5 120t-71.5 340zM229 455h177v266q0 69 -21 108t-57 39q-46 0 -72.5 -48t-26.5 -128v-237zM362 1126q0 42 29.5 71.5t71.5 29.5q41 0 70.5 -29.5t29.5 -71.5q0 -41 -29.5 -70.5t-70.5 -29.5q-42 0 -71.5 29.5t-29.5 70.5z" />
<glyph unicode="&#xec;" horiz-adv-x="395" d="M7 1317h196l49 -346h-33zM37 0v31h86v821h-86v31h242v-852h86v-31h-328z" />
<glyph unicode="&#xed;" horiz-adv-x="395" d="M37 0v31h86v821h-86v31h242v-852h86v-31h-328zM142 971l49 346h196l-213 -346h-32z" />
<glyph unicode="&#xee;" horiz-adv-x="395" d="M-33 971l161 346h136l161 -346h-30l-199 198l-199 -198h-30zM37 0v31h86v821h-86v31h242v-852h86v-31h-328z" />
<glyph unicode="&#xef;" horiz-adv-x="395" d="M-55 1126q0 42 29.5 71.5t70.5 29.5q42 0 71.5 -29.5t29.5 -71.5q0 -41 -29.5 -70.5t-71.5 -29.5q-41 0 -70.5 29.5t-29.5 70.5zM37 0v31h86v821h-86v31h242v-852h86v-31h-328zM248 1126q0 42 29.5 71.5t71.5 29.5q41 0 70.5 -29.5t29.5 -71.5q0 -41 -29.5 -70.5 t-70.5 -29.5q-42 0 -71.5 29.5t-29.5 70.5z" />
<glyph unicode="&#xf0;" horiz-adv-x="641" d="M63 455q0 200 65.5 322t195.5 122q38 0 77 -14q-18 171 -63 278l-158 -106l-18 24l162 109q-40 86 -111 123v30q91 -32 166 -116l156 104l18 -24l-154 -105q179 -229 179 -747q0 -224 -66.5 -346.5t-189.5 -122.5q-124 0 -191.5 123.5t-67.5 345.5zM229 207 q0 -83 25 -137t65 -54q43 0 68 51t25 132v458q0 211 -90 211q-43 0 -68 -53.5t-25 -142.5v-465z" />
<glyph unicode="&#xf1;" horiz-adv-x="743" d="M37 0v31h86v821h-86v31h242v-121q68 137 184 137q79 0 121.5 -54.5t42.5 -154.5v-659h86v-31h-297v31h55v700q0 51 -16 81t-43 30q-42 0 -87.5 -67t-45.5 -134v-610h55v-31h-297zM126 1026q4 106 42 163.5t102 57.5q48 0 137 -55q76 -47 110 -47q64 0 72 102h29 q-4 -106 -42 -163.5t-102 -57.5q-48 0 -137 55q-76 47 -110 47q-64 0 -72 -102h-29z" />
<glyph unicode="&#xf2;" horiz-adv-x="682" d="M63 455q0 211 72.5 327.5t208.5 116.5q131 0 202.5 -119t71.5 -325q0 -227 -70.5 -348t-205.5 -121t-207 122t-72 347zM150 1317h196l49 -346h-33zM229 207q0 -82 30.5 -136.5t80.5 -54.5q51 0 82 51.5t31 131.5v458q0 105 -28 158t-83 53q-51 0 -82 -54t-31 -142v-465z " />
<glyph unicode="&#xf3;" horiz-adv-x="682" d="M63 455q0 211 72.5 327.5t208.5 116.5q131 0 202.5 -119t71.5 -325q0 -227 -70.5 -348t-205.5 -121t-207 122t-72 347zM229 207q0 -82 30.5 -136.5t80.5 -54.5q51 0 82 51.5t31 131.5v458q0 105 -28 158t-83 53q-51 0 -82 -54t-31 -142v-465zM285 971l49 346h196 l-213 -346h-32z" />
<glyph unicode="&#xf4;" horiz-adv-x="682" d="M63 455q0 211 72.5 327.5t208.5 116.5q131 0 202.5 -119t71.5 -325q0 -227 -70.5 -348t-205.5 -121t-207 122t-72 347zM111 971l161 346h136l161 -346h-30l-199 198l-199 -198h-30zM229 207q0 -82 30.5 -136.5t80.5 -54.5q51 0 82 51.5t31 131.5v458q0 105 -28 158 t-83 53q-51 0 -82 -54t-31 -142v-465z" />
<glyph unicode="&#xf5;" horiz-adv-x="682" d="M63 455q0 211 72.5 327.5t208.5 116.5q131 0 202.5 -119t71.5 -325q0 -227 -70.5 -348t-205.5 -121t-207 122t-72 347zM96 1026q4 106 42 163.5t102 57.5q48 0 137 -55q76 -47 110 -47q64 0 72 102h29q-4 -106 -42 -163.5t-102 -57.5q-48 0 -137 55q-76 47 -110 47 q-64 0 -72 -102h-29zM229 207q0 -82 30.5 -136.5t80.5 -54.5q51 0 82 51.5t31 131.5v458q0 105 -28 158t-83 53q-51 0 -82 -54t-31 -142v-465z" />
<glyph unicode="&#xf6;" horiz-adv-x="682" d="M63 455q0 211 72.5 327.5t208.5 116.5q131 0 202.5 -119t71.5 -325q0 -227 -70.5 -348t-205.5 -121t-207 122t-72 347zM88 1126q0 42 29.5 71.5t70.5 29.5q42 0 71.5 -29.5t29.5 -71.5q0 -41 -29.5 -70.5t-71.5 -29.5q-41 0 -70.5 29.5t-29.5 70.5zM229 207 q0 -82 30.5 -136.5t80.5 -54.5q51 0 82 51.5t31 131.5v458q0 105 -28 158t-83 53q-51 0 -82 -54t-31 -142v-465zM391 1126q0 42 29.5 71.5t71.5 29.5q41 0 70.5 -29.5t29.5 -71.5q0 -41 -29.5 -70.5t-70.5 -29.5q-42 0 -71.5 29.5t-29.5 70.5z" />
<glyph unicode="&#xf7;" horiz-adv-x="1366" d="M139 598v127h1090v-127h-1090zM596 252q0 35 25.5 60.5t60.5 25.5t59.5 -25t24.5 -59q0 -36 -24.5 -61t-59.5 -25t-60.5 25t-25.5 59zM596 1080q0 37 26 60t60 23q33 0 57.5 -25t24.5 -59q0 -35 -24 -60.5t-58 -25.5q-35 0 -60.5 26t-25.5 61z" />
<glyph unicode="&#xf8;" horiz-adv-x="682" d="M29 4l90 135q-56 117 -56 316q0 211 72.5 327.5t208.5 116.5q130 0 203 -119l78 119l26 -18l-88 -131q55 -112 55 -295q0 -227 -70.5 -348t-205.5 -121q-132 0 -207 120l-80 -120zM229 207q0 -82 30.5 -136.5t80.5 -54.5q51 0 82 51.5t31 131.5v383l-224 -334v-41z M229 305l224 336v16q0 211 -111 211q-51 0 -82 -54t-31 -142v-367z" />
<glyph unicode="&#xf9;" horiz-adv-x="743" d="M31 852v31h241v-729q0 -111 74 -111q43 0 81 47.5t38 112.5v649h-55v31h211v-852h86v-31h-242v90q-60 -104 -182 -104q-80 0 -123 54.5t-43 154.5v657h-86zM181 1317h196l49 -346h-33z" />
<glyph unicode="&#xfa;" horiz-adv-x="743" d="M31 852v31h241v-729q0 -111 74 -111q43 0 81 47.5t38 112.5v649h-55v31h211v-852h86v-31h-242v90q-60 -104 -182 -104q-80 0 -123 54.5t-43 154.5v657h-86zM316 971l49 346h196l-213 -346h-32z" />
<glyph unicode="&#xfb;" horiz-adv-x="743" d="M31 852v31h241v-729q0 -111 74 -111q43 0 81 47.5t38 112.5v649h-55v31h211v-852h86v-31h-242v90q-60 -104 -182 -104q-80 0 -123 54.5t-43 154.5v657h-86zM141 971l161 346h136l161 -346h-30l-199 198l-199 -198h-30z" />
<glyph unicode="&#xfc;" horiz-adv-x="743" d="M31 852v31h241v-729q0 -111 74 -111q43 0 81 47.5t38 112.5v649h-55v31h211v-852h86v-31h-242v90q-60 -104 -182 -104q-80 0 -123 54.5t-43 154.5v657h-86zM119 1126q0 42 29.5 71.5t70.5 29.5q42 0 71.5 -29.5t29.5 -71.5q0 -41 -29.5 -70.5t-71.5 -29.5 q-41 0 -70.5 29.5t-29.5 70.5zM422 1126q0 42 29.5 71.5t71.5 29.5q41 0 70.5 -29.5t29.5 -71.5q0 -41 -29.5 -70.5t-70.5 -29.5q-42 0 -71.5 29.5t-29.5 70.5z" />
<glyph unicode="&#xfd;" horiz-adv-x="657" d="M0 852v31h315v-31h-88l152 -559l81 306q38 142 41 156.5t3 30.5q0 26 -18.5 46t-43.5 20h-43v31h258v-31q-51 -3 -73.5 -23t-44.5 -104l-263 -969q-50 -188 -153 -188q-46 0 -77.5 27.5t-31.5 70.5q0 40 23 64t61 24q32 0 51 -17.5t19 -45.5q0 -25 -11 -43q-3 -5 -3 -6 q0 -13 12 -13q13 0 33.5 37.5t39.5 108.5l68 254l-235 823h-72zM273 971l49 346h196l-213 -346h-32z" />
<glyph unicode="&#xfe;" horiz-adv-x="731" d="M37 -387h86v1659h-86v31h242v-478q51 74 129 74q111 0 185.5 -128.5t74.5 -328.5t-74.5 -328t-185.5 -128q-78 0 -129 73v-446h86v-31h-328v31zM279 158q0 -53 35.5 -93t72.5 -40q54 0 84.5 53t30.5 149v430q0 97 -30.5 150t-84.5 53q-37 0 -72.5 -40t-35.5 -93v-569z " />
<glyph unicode="&#xff;" horiz-adv-x="657" d="M0 852v31h315v-31h-88l152 -559l81 306q38 142 41 156.5t3 30.5q0 26 -18.5 46t-43.5 20h-43v31h258v-31q-51 -3 -73.5 -23t-44.5 -104l-263 -969q-50 -188 -153 -188q-46 0 -77.5 27.5t-31.5 70.5q0 40 23 64t61 24q32 0 51 -17.5t19 -45.5q0 -25 -11 -43q-3 -5 -3 -6 q0 -13 12 -13q13 0 33.5 37.5t39.5 108.5l68 254l-235 823h-72zM96 1126q0 42 29.5 71.5t70.5 29.5q42 0 71.5 -29.5t29.5 -71.5q0 -41 -29.5 -70.5t-71.5 -29.5q-41 0 -70.5 29.5t-29.5 70.5zM399 1126q0 42 29.5 71.5t71.5 29.5q41 0 70.5 -29.5t29.5 -71.5 q0 -41 -29.5 -70.5t-70.5 -29.5q-42 0 -71.5 29.5t-29.5 70.5z" />
<glyph unicode="&#x152;" horiz-adv-x="1073" d="M68 668q0 329 74.5 482t230.5 153h618v-287h-30q-17 131 -62 193.5t-129 62.5h-125v-561h86q58 0 95.5 38t37.5 95v51h31v-418h-29v12q0 86 -36 137.5t-93 51.5h-92v-647h103q95 0 144 75t75 234h30v-340h-622q-307 0 -307 668zM254 231q0 -90 34.5 -145t90.5 -55h96 v1241h-102q-52 0 -85.5 -57t-33.5 -152v-832z" />
<glyph unicode="&#x153;" horiz-adv-x="989" d="M63 455q0 200 65.5 322t195.5 122q105 0 170 -94q68 94 182 94q237 0 237 -479h-335v-203q0 -93 38 -145t95 -52q65 0 110.5 72t57.5 203h32q-13 -158 -67 -233.5t-158 -75.5q-118 0 -188 98q-66 -98 -176 -98q-124 0 -191.5 123.5t-67.5 345.5zM229 207q0 -83 25 -137 t65 -54q43 0 68 51t25 132v458q0 211 -90 211q-43 0 -68 -53.5t-25 -142.5v-465zM578 455h176v266q0 68 -20.5 107.5t-57.5 39.5q-46 0 -72 -48t-26 -128v-237z" />
<glyph unicode="&#x178;" horiz-adv-x="778" d="M8 1272v31h352v-31h-88l185 -613h4l122 401q46 151 46 171q0 41 -47 41h-35v31h223v-31q-19 0 -34 -3t-27 -9.5t-22 -16.5t-17.5 -24.5t-14.5 -34.5l-180 -588v-565h88v-31h-346v31h88v559l-209 682h-88zM153 1542q0 42 29.5 71.5t70.5 29.5q42 0 71.5 -29.5t29.5 -71.5 q0 -41 -29.5 -70.5t-71.5 -29.5q-41 0 -70.5 29.5t-29.5 70.5zM456 1542q0 42 29.5 71.5t71.5 29.5q41 0 70.5 -29.5t29.5 -71.5q0 -41 -29.5 -70.5t-70.5 -29.5q-42 0 -71.5 29.5t-29.5 70.5z" />
<glyph unicode="&#x2c6;" horiz-adv-x="682" d="M111 971l161 346h136l161 -346h-30l-199 198l-199 -198h-30z" />
<glyph unicode="&#x2dc;" horiz-adv-x="682" d="M96 1026q4 106 42 163.5t102 57.5q48 0 137 -55q76 -47 110 -47q64 0 72 102h29q-4 -106 -42 -163.5t-102 -57.5q-48 0 -137 55q-76 47 -110 47q-64 0 -72 -102h-29z" />
<glyph unicode="&#x2000;" horiz-adv-x="866" />
<glyph unicode="&#x2001;" horiz-adv-x="1732" />
<glyph unicode="&#x2002;" horiz-adv-x="866" />
<glyph unicode="&#x2003;" horiz-adv-x="1732" />
<glyph unicode="&#x2004;" horiz-adv-x="577" />
<glyph unicode="&#x2005;" horiz-adv-x="433" />
<glyph unicode="&#x2006;" horiz-adv-x="288" />
<glyph unicode="&#x2007;" horiz-adv-x="288" />
<glyph unicode="&#x2008;" horiz-adv-x="216" />
<glyph unicode="&#x2009;" horiz-adv-x="346" />
<glyph unicode="&#x200a;" horiz-adv-x="96" />
<glyph unicode="&#x2010;" horiz-adv-x="406" d="M37 379v143h332v-143h-332z" />
<glyph unicode="&#x2011;" horiz-adv-x="406" d="M37 379v143h332v-143h-332z" />
<glyph unicode="&#x2012;" horiz-adv-x="406" d="M37 379v143h332v-143h-332z" />
<glyph unicode="&#x2013;" horiz-adv-x="1024" d="M-10 434v156h1044v-156h-1044z" />
<glyph unicode="&#x2014;" horiz-adv-x="2048" d="M-10 434v156h2066v-156h-2066z" />
<glyph unicode="&#x2018;" horiz-adv-x="381" d="M68 1030q0 179 172 285l18 -25q-73 -48 -111 -103.5t-38 -103.5q0 -32 20 -32q10 0 23 12q28 29 59 29q40 0 68 -31.5t28 -75.5q0 -50 -33 -85.5t-79 -35.5q-56 0 -91.5 46.5t-35.5 119.5z" />
<glyph unicode="&#x2019;" horiz-adv-x="381" d="M74 1194q0 50 32.5 85.5t79.5 35.5q56 0 91.5 -46.5t35.5 -119.5q0 -179 -172 -285l-18 25q73 48 111 103.5t38 103.5q0 32 -20 32q-10 0 -23 -12q-28 -29 -59 -29q-40 0 -68 31.5t-28 75.5z" />
<glyph unicode="&#x201a;" horiz-adv-x="381" d="M74 90q0 50 33 85.5t79 35.5q56 0 91.5 -46.5t35.5 -119.5q0 -179 -172 -285l-18 25q73 48 111 103.5t38 103.5q0 33 -20 33q-10 0 -23 -13q-28 -28 -59 -28q-40 0 -68 31t-28 75z" />
<glyph unicode="&#x201c;" horiz-adv-x="721" d="M68 1030q0 179 172 285l18 -25q-73 -48 -111 -103.5t-38 -103.5q0 -32 20 -32q10 0 23 12q28 29 59 29q40 0 68 -31.5t28 -75.5q0 -50 -33 -85.5t-79 -35.5q-56 0 -91.5 46.5t-35.5 119.5zM408 1030q0 179 172 285l18 -25q-73 -48 -111 -103.5t-38 -103.5q0 -32 20 -32 q10 0 23 12q28 29 59 29q40 0 68 -31.5t28 -75.5q0 -50 -33 -85.5t-79 -35.5q-56 0 -91.5 46.5t-35.5 119.5z" />
<glyph unicode="&#x201d;" horiz-adv-x="721" d="M74 1194q0 50 32.5 85.5t79.5 35.5q56 0 91.5 -46.5t35.5 -119.5q0 -179 -172 -285l-18 25q73 48 111 103.5t38 103.5q0 32 -20 32q-10 0 -23 -12q-28 -29 -59 -29q-40 0 -68 31.5t-28 75.5zM414 1194q0 50 32.5 85.5t79.5 35.5q56 0 91.5 -46.5t35.5 -119.5 q0 -179 -172 -285l-18 25q72 48 110.5 103.5t38.5 103.5q0 32 -20 32q-10 0 -23 -12q-28 -29 -59 -29q-40 0 -68 31.5t-28 75.5z" />
<glyph unicode="&#x201e;" horiz-adv-x="721" d="M74 90q0 50 33 85.5t79 35.5q56 0 91.5 -46.5t35.5 -119.5q0 -179 -172 -285l-18 25q73 48 111 103.5t38 103.5q0 33 -20 33q-10 0 -23 -13q-28 -28 -59 -28q-40 0 -68 31t-28 75zM414 90q0 50 33 85.5t79 35.5q56 0 91.5 -46.5t35.5 -119.5q0 -179 -172 -285l-18 25 q72 48 110.5 103.5t38.5 103.5q0 33 -20 33q-10 0 -23 -13q-28 -28 -59 -28q-40 0 -68 31t-28 75z" />
<glyph unicode="&#x2022;" horiz-adv-x="649" d="M74 678q0 104 74 177t178 73q103 0 176 -73.5t73 -176.5q0 -104 -73 -178t-176 -74q-104 0 -178 74t-74 178z" />
<glyph unicode="&#x2026;" horiz-adv-x="1143" d="M78 98q0 46 33.5 79.5t78.5 33.5q46 0 79.5 -33.5t33.5 -79.5t-33.5 -79t-79.5 -33q-45 0 -78.5 33t-33.5 79zM459 98q0 46 33.5 79.5t78.5 33.5q46 0 79.5 -33.5t33.5 -79.5t-33.5 -79t-79.5 -33q-45 0 -78.5 33t-33.5 79zM840 98q0 46 33 79.5t79 33.5t79.5 -33.5 t33.5 -79.5t-33.5 -79t-79.5 -33t-79 33t-33 79z" />
<glyph unicode="&#x202f;" horiz-adv-x="346" />
<glyph unicode="&#x2039;" horiz-adv-x="313" d="M37 395l127 353h123l-127 -353l127 -352h-123z" />
<glyph unicode="&#x203a;" horiz-adv-x="313" d="M25 43l127 352l-127 353h122l127 -353l-127 -352h-122z" />
<glyph unicode="&#x205f;" horiz-adv-x="433" />
<glyph unicode="&#x20ac;" d="M37 598l20 35h88v78h-108l20 34h90q14 574 306 574q94 0 147 -61t53 -158q0 -36 -21 -61t-54 -25q-24 0 -41 19.5t-17 47.5q0 31 29 58q24 24 24 45q0 48 -30 76t-80 28q-72 0 -112 -59.5t-40 -169.5v-314h211l-20 -34h-191v-78h211l-20 -35h-191v-350q0 -120 41.5 -177 t102.5 -57q62 0 98.5 40.5t36.5 99.5q0 25 -30 59q-34 38 -34 70q0 25 19 44t49 19q72 0 72 -98q0 -108 -60 -186t-153 -78q-159 0 -230.5 146.5t-77.5 467.5h-108z" />
<glyph unicode="&#x2122;" horiz-adv-x="2007" d="M37 1141l22 200h727l23 -200h-35q-6 59 -45.5 100t-148.5 41h-74v-580q0 -81 18.5 -104.5t87.5 -28.5v-34h-374v34q58 6 79 22.5t21 108.5v582h-76q-92 0 -134.5 -30.5t-55.5 -110.5h-35zM879 535v34q73 2 92.5 26t19.5 105v467q0 86 -17 112t-95 26v36h284l275 -571 l264 571h278v-36q-73 -2 -91.5 -25.5t-18.5 -110.5v-467q0 -83 17.5 -105.5t92.5 -27.5v-34h-397v34q77 3 98 27.5t21 103.5v492h-4l-303 -657h-33l-303 649h-4v-482q0 -73 15 -103t79 -30h35v-34h-305z" />
<glyph unicode="&#x25fc;" horiz-adv-x="885" d="M0 0v885h885v-885h-885z" />
<glyph unicode="&#xfb01;" horiz-adv-x="791" d="M37 0v31h86v821h-86v31h86v98q0 143 87.5 239.5t229.5 96.5q98 0 171 -41.5t73 -104.5q0 -36 -25.5 -62t-62.5 -26t-62.5 24.5t-25.5 59.5q0 33 24 58q9 8 9 16q0 12 -24.5 26.5t-74.5 14.5q-72 0 -117.5 -59.5t-45.5 -153.5v-186h395v-852h86v-31h-328v31h86v821h-239 v-821h86v-31h-328z" />
<glyph unicode="&#xfb02;" horiz-adv-x="791" d="M37 0v31h86v821h-86v31h86v108q0 140 91.5 233t236.5 93q30 0 57 -5l55 -9h111v-1272h86v-31h-328v31h86v1093q-26 24 -26 64q0 26 20 55q6 9 6 19q0 20 -65 20q-75 0 -124.5 -57t-49.5 -146v-196h86v-31h-86v-821h86v-31h-328z" />
</font>
</defs>
</svg>
