<?xml version="1.0" standalone="no"?>
<!DOCTYPE svg PUBLIC "-//W3C//DTD SVG 1.1//EN" "http://www.w3.org/Graphics/SVG/1.1/DTD/svg11.dtd" >
<svg xmlns="http://www.w3.org/2000/svg">
<metadata></metadata>
<defs>
<font id="bradley_hand_itcregular" horiz-adv-x="819" >
<font-face units-per-em="2048" ascent="1638" descent="-410" />
<missing-glyph horiz-adv-x="522" />
<glyph horiz-adv-x="2048" />
<glyph horiz-adv-x="2048" />
<glyph unicode="&#xd;" horiz-adv-x="2048" />
<glyph unicode=" "  horiz-adv-x="522" />
<glyph unicode="&#x09;" horiz-adv-x="522" />
<glyph unicode="&#xa0;" horiz-adv-x="522" />
<glyph unicode="!" horiz-adv-x="604" d="M242 1075l2 41l22 -4l29 8l45 -16l10 -25l-8 -14q-2 -14 -14 -29l14 -55l-10 -18l8 -9l-4 -16l6 -12q-18 -3 -18 -19q0 -4 8 -39l-10 -28l14 -19q-13 -23 -14 -47l-9 -190l11 -19l-11 -47l11 -43l-11 -26l11 -21l-2 -22l2 -15l-11 -4q9 -19 9 -37q0 -16 -19 -18 q14 -15 14 -25q0 -18 -18 -18t-18 43v45q-8 63 -15 86l10 26l-10 29l10 74l-18 10l8 25l-4 26v19l8 4l-12 29l4 14v4q0 13 12 33l-8 18v29l-8 4l16 16l-12 33l8 31l-14 18l14 17l-4 30l4 21q-6 9 -6 16q0 6 6 21l-12 4v43zM250 45l8 31l16 16h5q3 0 8.5 6.5t9.5 10.5 q31 -13 37 -13h2q0 2 -6 8h4q4 0 24 -10q16 -24 23 -49q-6 -3 -6 -10q0 -8 6 -23l-25 -20l-28 8l-25 -10l-20 10h-21z" />
<glyph unicode="&#x22;" horiz-adv-x="580" d="M143 979v27q13 24 17 30l33 8q17 7 22 7q21 0 39 -35l-8 -37l10 -21l4 -30l-8 -31q-16 -35 -16 -61l6 -29q0 -1 -8.5 -25.5t-8.5 -62.5l4 -29l-12 -55l-14 -2l-19 12l4 49q0 8 -4 29q-10 17 -10 27v6q4 4 4 14l-2 12q0 7 2 9l-8 12l6 6l-8 16l6 19l-14 16l8 17l-14 14 l2 18l-4 19l6 14l-6 12l4 9zM313 928q0 32 15 51l-9 37q18 33 41 33q5 0 54 -13q16 -20 16 -30v-27l-12 -16l4 -9l-6 -12l6 -14l-4 -19l2 -18l-14 -14l8 -17l-15 -16l7 -19l-9 -16l6 -6l-6 -12q2 -2 2 -7q0 -3 -2 -8t-2 -8q0 -8 4 -12v-6q0 -10 -10 -27q-4 -21 -4 -29l4 -49 l-18 -12l-15 2l-12 55l4 29l-2 43l-14 45l6 29l-4 34q-21 45 -21 58z" />
<glyph unicode="#" horiz-adv-x="1266" d="M10 313h10q62 21 78 21l43 -10l37 4l66 -9l47 9l22 -4v8l15 27q8 14 12 44h6q-6 16 -6 23q0 11 10 41l17 8l-2 41l41 12q-17 20 -17 29q0 13 18.5 37.5t20.5 46.5l-37 2q-5 0 -35 -5.5t-51 -16.5q-7 18 -24 18l-35 -8l-29 10l-65 -6l-17 -8q-16 10 -33 22v23l-6 12h13 q61 21 77 21l43 -11l37 4l66 -8l49 8l35 -6l39 8l8 72l49 98v66l35 18l10 80q24 39 24.5 43t53.5 39l31 -31l-64 -157l-22 -39l-17 -60l-31 -73l-22 -8l6 -15l-10 -43l18 -6l29 6l25 -2q6 -6 14 -6q1 0 7 3t13 5q21 -8 29 -14q9 12 31 12q18 0 26 -8l133 12l9 80l49 98v66 l35 18l10 80q23 39 24 43t54 39l30 -31l-22 -65l-41 -92l-23 -39l-16 -60l-31 -73l-22 -8l6 -15l-10 -43l28 -4l17 4q4 0 12 -8l33 -2l33 2l28 -10l31 10q3 -12 17 -9q24 5 46 5q7 0 26 -3.5t30 -4.5q5 4 24 10q14 -4 39 -4l17 -25q-20 0 -33 -12l-16 10q-7 4 -39 6 q-17 -10 -21 -10q-7 0 -12 8l-19 -6l-22 10l-21 -14l-30 8l-78 -10l-23 8q-51 0 -84 -8l-11 -39q-3 -8 -10 -17l-18 -24l-4 -76l-13 -14q-5 -6 -19 -55l-21 -15l-2 -22l-27 -29l15 -12l-15 -16q30 3 44.5 -1t37.5 -4l11 2q10 0 18 -8l33 -2l33 4l28 -12l31 10q6 -10 10 -10 t25.5 4t43.5 0.5t40 -4.5q13 8 24 8l39 -4l19 -24h-19l-16 -13l-16 10q-7 5 -40 7q-13 -9 -20 -9q-8 0 -12 7l-19 -7l-20 13l-21 -15l-30 9l-82 -13l-19 9l-12 2q-22 0 -100 -17q-7 10 -19 10q-19 -36 -31 -73l-20 -17l-12 -49l-29 -69l-6 -46l-19 -38l-4 -58l-32 -51 l-27 -88l-4 -29q-2 -16 -10 -30l-21 -37l-24 10l20 63l-2 39q0 1 8 15.5t8 31.5l15 7l2 49l10 33l12 63q21 5 25 13.5t6 72.5l27 29l1 28q1 17 6 30l15 36l-4 20l29 39l-21 -2l-16 5q-17 5 -27 5l-90 -10l-33 8l-57 -18l-53 16h-19q-19 -34 -30 -71l-21 -17l-12 -49l-29 -69 l-8 -46l-16 -38l-4 -58l-33 -51l-27 -88l-4 -29q-2 -16 -10 -30l-21 -37l-24 10l20 63l-2 39q0 1 8 16t9 31l14 7l2 49l10 33l12 63q21 5 25 13.5t6 72.5l27 29l1 28q1 17 6 30l15 36l-4 20l31 43q-37 -1 -80 -20q-9 16 -24 16l-33 -8l-31 10l-66 -6l-14 -8q-19 10 -35 23 v22zM365 350l14 -12l-6 -6l18 4l45 -23l29 9l22 -5q12 -4 17 -4q8 0 20 6q15 -2 29 -14q6 12 29 12q20 0 28 -8l78 8l2 15l15 27q8 14 12 44h6q-6 13 -6 27q0 10 10 37l16 8l-2 41l41 12q-18 22 -18 33q0 10 20 34.5t21 51.5h-6l-12 -6q-8 -4 -48 -4l-39 10q-8 0 -49 -6 t-45 -6l-31 8l-61 -16l-27 8l-8 -28q-4 -13 -28 -46l-5 -76l-13 -14q-5 -6 -19 -55l-21 -15l-2 -22z" />
<glyph unicode="$" horiz-adv-x="1331" d="M-41 193q0 22 23 26l61 10l2 13l72 -9l33 9q6 -4 6 -11q0 -10 -21 -30l-74 -11l-10 -14q3 -12 30 -20t38 -13q24 11 43 11h20q23 0 33 -11l117 -8q19 8 39 8h12q20 15 63 15h19l65 2l66 16l-2 41l6 209l-10 10v35q-16 16 -29 16l-8 -2q-13 1 -25 1l-22 1q-8 0 -37 13 l-47 -13l-8 9l-66 24l-16 17l-41 10q-13 18 -37 37l-12 88q0 33 30 69h2q4 0 9 3.5t11.5 9t18 16t22 13.5t21.5 5l58 25l41 2l41 16h28l19 15l2 14l26 4l37 -4v14l-12 21q8 59 14 109l-14 32l22 39l-8 29v57l-8 49v27q6 2 14 2q7 0 7 -6q-11 20 -11 53t35 33q33 0 55 -39 l-18 -31l23 -20q-37 -10 -37 -33v-4l4 -55l-15 -39l11 -13l-4 -32l10 -21v-28l-17 -19l7 -45l-19 -39q12 -35 33 -35q4 0 14 4l78 31l-8 43l8 33l-8 61l8 31l-4 41l4 49l-12 58l22 8v51l4 37l-2 14l60 6l18 -24l-10 -27l4 -49l-18 -27l2 -32l-15 -19l15 -39q-19 -12 -19 -31 q0 -9 23 -67q-25 -20 -25 -60q0 -55 31 -55l78 17l76 8l38 -17h25l39 -10l53 -47l-6 -14q-41 -27 -63 -27q-15 0 -23 2q-23 22 -23 39q-17 -3 -24 -8l-12 18l-54 -8l-49 4l-10 -14l-29 14l-18 -4h-2q-8 0 -18 -39.5t-6.5 -63t3.5 -42.5v-15q0 -14 -4 -32.5t-4 -24.5 q0 -19 12 -41l-14 -35l4 -31l-8 -40l51 -13q21 0 41 6q21 -26 25.5 -29t11.5 -3q11 0 16 14l19 -8l26 4l3 -10h40l25 -19l27 6l22 -18l43 -6l4 -10l43 -52l4 -14l-10 -8l-14 -58q-67 -45 -107 -45h-8q-10 -1 -27 -9.5t-24 -8.5h-43l-37 -25l-10 7l-41 -15q-39 0 -62.5 -16.5 t-23.5 -40.5q0 -7 7 -39.5t7 -63.5q0 -18 -7 -58.5t-7 -59.5q0 -23 14 -45l-12 -5l8 -34l-10 -27l10 -29l-4 -22l4 -25l-10 -28q14 -27 14 -56v-22l-14 -10l18 -107l-22 -10l-8 26v23l-7 143l-8 60l4 45q2 10 2 28q0 27 -8 27l-4 -2l6 61l-10 56l18 43q0 24 -18 24 q-2 12 -2 31l2 16v37l2 21q0 17 -6 26l-25 9l-16 -15h-47l-35 -12l-8 -14l14 -15l-18 -22l14 -25q-3 -23 -16 -39l14 -39l-14 -92l6 -37l-10 -28l14 -27l-10 -61l10 -56l-10 -32l6 -25q14 -18 14 -41l-4 -29l16 -28q0 -19 -18 -19q-10 0 -12.5 28.5t-10.5 47.5l-9 24 q-5 12 -5 48l4 41v63l-12 35l-6 65q10 11 10 25l-4 21l-2 61l6 37l-10 51v72l-29 -4q-18 -7 -31 -7l-12 3q-7 0 -18.5 -6.5t-20.5 -6.5q-5 0 -28 10l-21 -10l-47 6l-70 -16l-82 12l-24 -2l-10 10l-23 -4l-39 4l-18 -8l-15 19h-41l-36 22l-19 -4l-14 19h-6q-27 0 -27 39z M291 631q0 -11 6.5 -27t10.5 -18t52 -6l15 -11l18 2l21 -20l65 -14l33 8l12 -8q28 0 76 -5l-4 105l12 14l-14 27l10 63l-4 68l-8 2q-16 0 -29 -16l-10 4l-17 -12q-8 -5 -57 -11l-10 -14h-39q-18 -16 -41 -19l-10 -20h-19q-52 -36 -60.5 -51t-8.5 -41zM633 209q0 -14 8 -23 l35 -2q25 8 45 13l53 20v27l-14 18l4 27l-6 28l10 23l6 74l-10 6l4 35l-33 -2l-12 10q-17 -3 -25 -8q-15 2 -51 16l-6 -41l6 -24l2 -82l-12 -62zM641 522q0 -4 6 -10l29 2l35 -10l28 8h29v35l4 57l-4 45l4 33l-8 43l8 41l-4 16l6 31q1 3 -7.5 18t-25.5 15q-11 0 -28 -15 q-42 -5 -48 -10.5t-6 -11.5v-8l3 -51l-15 -74l15 -96q-21 -36 -21 -52v-6zM811 291q4 -52 6.5 -59.5t11.5 -14.5q41 25 66 25q43 7 76.5 22t40.5 15q6 0 10 -5q73 19 93.5 26t27.5 24l8 18q-13 18 -23 39l-22 -6l-43 18h-27l-24 27h-49l-13 14l-47 -4l-37 16h-26l-6 3 q-19 -22 -19 -35l8 -58q-12 -14 -12 -49v-16z" />
<glyph unicode="%" horiz-adv-x="1407" d="M82 834v26q27 62 27 66v32q15 28 24 86q33 12 33 27q0 6 -4 14q32 24 43 55t19 34t32 38l-10 23l35 10q18 12 30 12q4 0 8 -2l103 -43q18 -57 41 -57l39 19l53 -13h70l51 -10l48 8q49 9 53.5 7.5t41 17t41.5 18.5h10q32 0 35 19l19 -4q65 20 65 55l37 14l-12 14q3 3 15 9 q55 30 95 75q8 15 19 15q28 0 35 -10l24 -39q-16 -35 -26 -64l-33 -12l-121 -90l-29 -43q-12 -36 -47 -47l-8 -41h-18l-11 -25l-18 -12l-3 -15q-1 -6 -34 -51v-24q0 -6 -18 -25.5t-29 -34.5l4 -14l-27 -18v-29l-34 -47v-23l-64 -69l-2 -29l-43 -62q-2 -12 -14 -63l-9 -2 l-45 -76q-6 -12 -6 -20t6 -8l-32 -33l-6 -37q-34 -54 -52 -121l-14 -6l-6 -39l-39 -98v-25l-29 -29l2 -28l-39 -88v-33l-10 -19q-4 -16 -16 -34l4 -29l-5 -16q-5 -17 -5 -27q0 -8 4 -20q10 -18 10 -39l-10 -31l4 -16l-10 -13l32 -71l-4 -27q12 -10 25 -51l33 -27 q6 -24 26 -33l66 -28l24 4q0 -15 19 -15l10 -8l18 8q9 -4 19 -4l59 2l23 -4q20 0 34 8.5t56 16.5q13 -10 22 -10q8 0 21 10l-4 -19l-35 -22h-68l-14 -6l-45 -4q-58 -18 -72 -15l-116 31q-46 29 -82 47l-6 25l-35 35l-4 22l-21 18q-15 53 -26 66l2 84l-7 39l13 27l-13 18 q16 110 30.5 131t14.5 61v13q9 9 20 40l9 27l41 88q6 13 6 23l-2 20l2 9h2q12 0 27 90l31 32l-6 21q33 54 47 90l10 2l43 88l29 68q37 33 43 53l18 61q17 29 18 48l41 43l19 73q23 9 52 73t60 101q0 11 -12 31q9 1 23 18t28 21q7 22 41 70q4 8 4 12q0 11 -16 20l-43 -18 q-29 -32 -47 -41q-12 12 -25 18q-35 -3 -45 -8q-21 -18 -26 -18q-2 0 -7.5 3t-11.5 3q-1 0 -25 -7t-34 -5l-66 12l-14 -8q-37 -6 -37 -19q0 -4 4.5 -14.5t48.5 -46.5l-2 -19q17 -12 17 -26q0 -12 -6 -25q10 -18 10 -32q0 -35 -19 -87l-25 -19q-12 -9 -38 -46l-23 -8l-14 -35 l-59 -16l-19 -19l-166 -14l-39 10l-53 45q-21 33 -45 57l6 33zM143 815l25 -57q44 -38 78 -37l65 2l37 -8q16 0 37.5 22.5t28.5 28.5h41q12 6 39 57q41 23 41 109q0 26 -23 37q4 5 4 18q0 16 -17 38t-33.5 48.5t-37.5 30t-43 24.5q-24 -8 -66 -8q-14 0 -20.5 11.5 t-11.5 11.5q-32 0 -41 -53l-19 -9l-20 -47l-6 -30q-24 -36 -41 -78l6 -15l-23 -37l9 -28zM719 113l8 18l-4 27q10 25 19.5 52t21.5 69t25.5 64.5t31.5 58t22.5 44t8.5 14.5t29 17v33l20 1q8 1 49 26h45l35 -11q17 -6 57 -8l6 -17q2 -5 29 -21.5t37 -35.5l45 -79l-2 -58 l4 -22q0 -15 -5 -27t-5 -14q0 -4 3 -13t3 -16q0 -20 -16 -33q4 -11 4 -16q0 -12 -7.5 -26t-21 -29.5t-26.5 -40.5q-33 -27 -33 -35v-2q-6 -16 -20 -20t-31 -23l-37 -19q-62 -47 -80 -47l-19 4l-45 -12l-59 8l-66 43l-18 70v49zM778 127q5 -162 80 -162q20 0 57 10 q29 15 33 15h13l114 86q3 14 17 25t14 16h2q5 0 18 23l13 24l14 84v18l6 41l-16 72l-27 43l-24 12q-11 25 -41 25l-25 -4l-18 6q-22 0 -45 -6l-7 -25q-26 0 -41.5 -4t-16.5 -12l-7 -31l-14 -10l-7 -31l-41 -43l-8 -43q-19 -15 -19.5 -18t-3.5 -28.5t-14 -31.5v-8l2 -23 q0 -12 -8 -20z" />
<glyph unicode="&#x26;" horiz-adv-x="1198" d="M0 -170q65 37 72 37q22 0 22 -14q0 -6 -61 -52q2 -18 28 -26l9 -19h22l6 -18l33 -14l23 -15l77 -24l11 -21q2 -8 16 -8q3 0 41 8l16 -12h33l25 -21h24l56 -20q3 -1 10 -4.5t12 -3.5l12 4q30 0 55 -13.5t29 -13.5q10 0 17 10q55 -9 76 -26l36 2l7 12q22 -14 43 -14 q17 0 36 14h37q17 17 41 21l21 20q10 10 18 33l33 12v21l25 34l-3 31l25 33l-6 12q15 16 22 57t7 54l-15 33l10 122l-4 25q0 38 -2 42l-22 48l18 39q0 12 -12 21.5t-23 9.5q-9 0 -20 -15l-25 -2q-15 -18 -41 -36l-43 -3l-88 -14l-16 -16h-14q-56 0 -101 -23l-18 8l-25 -14 l-8 12l-72 -18q-48 2 -71 12l-8 -6l-17 12l-2 -8l-33 25l-45 -10q-16 0 -20 10q-73 26 -112.5 72t-39.5 75v25l-10 14l4 12l-4 31l70 66q1 1 9 13t23 17q0 9 11.5 22t40.5 13l10 19h22l2 12l45 10q39 0 86 57l-49 52h-24l-37 18l-4 23q-12 1 -19 26t-22 39q12 0 16 15l-16 4 v28l-2 25q0 1 12 26t21 25h2v4q0 23 30 23l15 43l65 32q45 23 64 23h6q4 10 42 23l81 28l73 19l11 6l88 4q11 4 16 4q11 0 21 -8t22 -8q8 0 16 8l24 -12q13 -7 27 -8l38 -3l16 -24l41 -19l31 -40q6 -7 39 -25l-5 -11l11 -40q-4 -11 -15 -19l-28 8h-25l-8 37l-37 2l-6 41 q-11 1 -31 25l-18 4l-6 12l-80 10l-41 -4l-35 4l-33 -4l-16 10l-17 -14l-22 4q-6 0 -24 -7t-60 -11l-57 -29l-32 -21q-5 -3 -34 -8l-18 -26l-39 -17q0 -21 -2 -26l-23 4v-14l-29 -37l13 -56q-6 -15 -6 -28q0 -23 16 -35l76 -57l69 -11q23 0 62 -14l18 10l19 -2l22 10l15 -4 l43 4l14 -4q9 0 37 10l24 9q17 0 23 -19l29 -4l15 -11q7 -5 36 -9q-26 -41 -51 -41h-80q-11 -4 -19 -15l-18 13l-17 -4l-22 6l-98 -6l-11 -13h-24l-8 -6h-37l-27 -14l-33 -6l-43 -33l-61 -12l-105 -78q-17 -12 -19.5 -49.5t-21.5 -44.5l25 -78l35 -27l78 -12l12 -14 q24 10 39 10q10 0 26 -11.5t31 -11.5q13 13 31 13h18l21 -15h31l16 15l22 -4l19 8l18 -11q7 10 35 17l27 8h2q2 0 12 -4t19 -4q15 0 28 10q41 15 70 21.5t41 23.5l80 29q51 36 57 37l-6 73l24 -8l23 8h8q9 0 21 -8.5t37 -70.5l-27 -46l14 -32l-6 -19l4 -35l-4 -20l4 -20 l-16 -37q0 -16 31 -66l-19 -14l4 -47l-14 -19l6 -26l-6 -35l6 -35q0 -30 -14 -53q0 -23 -6.5 -44.5t-6.5 -27.5q0 -10 2 -16q-5 -10 -32 -37l2 -25l-66 -82q-28 -26 -47 -39q-63 -24 -78 -34l-49 8l-14 -8l-25 8l-16 -8l-6 10l-29 -8l-41 18l-14 -6l-23 12l-43 2l-65 13 l-33 -3l-41 17l-29 24l-110 29q-31 22 -82 25l-17 18l-26 8l-4 15l-35 4l-6 18l-54 21q-31 36 -47 45v26z" />
<glyph unicode="'" horiz-adv-x="410" d="M143 979v27q13 24 17 30l33 8q17 7 22 7q21 0 39 -35l-8 -37l10 -21l4 -30l-8 -31q-16 -35 -16 -61l6 -29q0 -1 -8.5 -25.5t-8.5 -62.5l4 -29l-12 -55l-14 -2l-19 12l4 49q0 8 -4 29q-10 17 -10 27v6q4 4 4 14l-2 12q0 7 2 9l-8 12l6 6l-8 16l6 19l-14 16l8 17l-14 14 l2 18l-4 19l6 14l-6 12l4 9z" />
<glyph unicode="(" d="M360 666l13 24l10 84h10l10 64l15 67l14 39l29 45q10 47 17 66.5t13 27.5l12 18q7 9 32 21q26 98 120 150l4 18l25 8q31 35 43 58l37 16l10 -2v-8q0 -20 -11.5 -29.5t-24.5 -22.5t-36 -32q-2 -20 -22 -29q-36 -21 -57 -69l-9 4l-4 -37q-42 -40 -52 -72.5t-22 -50 t-12 -23.5l4 -12l-22 -35l-2 -36l-27 -52v-26q-35 -105 -35 -207q0 -26 4 -51l-10 -21l8 -18l-8 -19l8 -28l-8 -56l19 -57l30 -168q3 -8 13 -8q-4 -12 -4 -29q0 -13 11 -23t11 -18q0 -2 -4 -10l18 -47l20 -21q11 -12 15 -22l10 -31q4 -14 11 -20l8 -9l24 -65h25v-8 q0 -28 19 -49l55 -66v-22q-13 -30 -70 -43l-18 6l-6 18l-15 14l-51 74l-39 76l-33 47l7 18l-31 66l-2 18l-13 9q2 7 -17.5 52t-24.5 84t-15 56q2 18 2 41q0 8 -12 21l-6 69v53l-8 46l8 20l-11 23q0 7 5.5 41.5t5.5 41.5z" />
<glyph unicode=")" d="M98 -266q0 18 16.5 35t55.5 51q3 19 28 33t52 65l8 -2l4 35q39 35 51.5 69.5t23.5 52.5t11 23l-2 13l23 34l2 37l26 51v25q35 124 35 213q0 26 -6 47l10 21l-6 18l6 18l-6 29l6 55l-16 60l-33 166q-3 8 -12 8q6 15 6 24q0 10 -25 43l4 13l-18 47l-28 32q-1 1 -7 20l-8 22 q0 15 -10 20l-8 8l-25 66h-27v8q0 26 -18 49l-53 66v22q13 31 67 43l19 -6l6 -18l16 -15l49 -73l39 -76l33 -47l-4 -19l29 -65l2 -19l12 -8q0 -14 16.5 -49.5t23 -80t19.5 -62.5l-4 -35q0 -16 15 -27l4 -69v-54l10 -45l-10 -20l10 -17v-6q0 -5 -6 -40.5t-4 -43.5l12 -49 l-12 -24l-8 -82h-13l-8 -64l-16 -67l-15 -39l-28 -45q-13 -58 -20 -74.5t-27 -46.5l-25 -13q-27 -101 -123 -149l-2 -16q-36 -11 -70 -66l-36 -18l-11 2v6z" />
<glyph unicode="*" horiz-adv-x="1090" d="M92 954q0 7 17 37h28l19 6l43 -2l10 -12l37 14h22l37 15q23 -4 27 -4q13 0 16 12l-49 43l-20 8l-7 23l-55 26v17l-8 18l27 14l20 -4q2 -10 31 -24l45 -33l71 -59l19 -25q35 6 35 33l-4 22q-4 25 -4 41l2 23q0 23 -15 49q7 19 23 35q-17 36 -17 51q0 6 5 30.5t18 24.5 l10 -2h23q8 -6 30 -57l-12 -43l2 -33l-6 -6v-23l-4 -18l8 -51l-10 -29l6 -14v-19l25 -14l12 20l14 5l6 26l30 18t36 56q30 16 53 16h6q0 23 19 23h4q0 20 18 20q7 0 43 -16q0 -4 -33 -37l-55 -55l-23 -11q-25 -12 -77 -69h37l26 8l15 -8q15 6 34 6q20 0 41 -6l25 8h70l12 -4 l12 10h41l25 8l35 -12l2 -6q0 -8 -27 -8h-16q-17 0 -44 -4l-22 -4l-72 -2l-16 -9h-125l-16 -10q-6 -4 -64 -8q-10 -7 -10 -18q0 -16 20 -33v-6l70 -33l31 -23l24 -6q94 -65 140 -65h8q0 -18 83 -53q31 -13 34 -21q26 0 36 -19l-43 9l-18 12l-35 10q-63 29 -88 35l-4 8 l-43 10l-129 74l-61 28q-9 5 -37 7l-11 16l-28 -12q-4 -20 -4 -33q0 -16 8 -51l-10 -16l10 -23l-8 -18q6 -16 6 -35q0 -13 -2 -21q10 -12 10 -28v-56l10 -57q0 -18 -20 -18q-5 0 -11.5 7.5t-7.5 10.5l-14 98l-8 80l4 39l-5 49q-5 60 -28 60q-10 0 -18 -8l-41 -33l-39 -23 l-15 -24l-32 -25q-15 -12 -51 -53q-19 -4 -20 -5t-17 -20q-22 -37 -70 -69q-10 4 -10 20q0 21 37 47l6 21l63 39q16 19 35 22q8 25 14 33t26 20.5t28 22t30 22.5v11l39 18l9 29q-19 39 -39 45q-36 -10 -84 -12l-33 -2q-14 0 -70 -17l-33 8q-34 -14 -38 -14q-17 0 -17 14z " />
<glyph unicode="+" horiz-adv-x="1706" d="M254 571v80h559v570h80v-570h559v-80h-559v-571h-80v571h-559z" />
<glyph unicode="," horiz-adv-x="510" d="M2 -252q2 32 4 43l8 10q3 34 31 47q0 2 9.5 15t15.5 33l2 -7q8 6 8 13v6l16 16l-2 17q13 5 25 24q14 29 35 37v14l14 4q0 60 22 80l15 -6l-4 33l8 33q9 37 47 37q39 0 57 -27l23 -6l4 -49l-18 -35l-29 -17l-14 -24l-31 -31l-10 -18l-33 -23l-68 -80l-43 -24 q-12 -49 -47 -60q-15 -46 -27 -53z" />
<glyph unicode="-" horiz-adv-x="698" d="M82 426v31l14 2l8 20l21 -16l18 -2l25 16q11 -2 20 -12q7 -2 19 -2q20 0 22 12l35 -10l31 2q-6 -6 -6 -10q0 -8 8 -8q2 0 10 4l6 10l19 -6l33 4q4 2 10 2q10 0 20 -10l31 -7l20 9q21 -11 37 -11q20 0 43 11l21 -11h43q16 0 26 -14l-22 -29l-39 9l-84 -21l-65 10l-9 -8 l-35 -2l-30 4l-43 -10l-15 6l-63 -12q-17 10 -29 10q-14 0 -39 -14l-24 8h-17z" />
<glyph unicode="." horiz-adv-x="510" d="M164 49v53q0 12 24.5 25.5t28.5 26.5l8 6q20 -9 33.5 -10.5t27.5 -15.5t33 -23l13 -33l-6 -6l4 -23l-11 -6v-16q-11 -2 -38 -35q-28 -2 -54 -10q-7 1 -10.5 9.5t-9.5 8.5h-6q0 8 -4 8q-3 0 -7 -4l-4 8l-8 2l2 11l-8 8l6 12z" />
<glyph unicode="/" horiz-adv-x="846" d="M-18 -78l14 37l47 76q2 31 16 38.5t15 8.5l35 47q2 36 18 39l10 -6l19 63l32 21v18q37 47 43 70l11 6q18 44 32 66v30l21 39h18l11 33l32 29v22l27 10l4 35l19 6l30 39l2 19q0 8 17 37l21 19q9 9 30 44q31 3 36 43t21 53q39 9 39 47q0 11 -2 17l47 51l-6 25l21 8v20 l18 33v47q25 12 25 21q0 4 -7 10l25 14l4 33l49 4q20 -16 45 -20q4 -10 4 -29q0 -8 -28 -36.5t-47 -64.5l-33 -59l-58 -76l-12 -37q-24 -28 -53 -75q-1 -5 -9.5 -10t-14 -9.5t-9.5 -14.5l-8 -22l-84 -106l-10 -33l-37 -53l-76 -98l-8 -23v-33l-31 -4l-6 -18l-51 -66l-8 -26 l-17 -7l-47 -73v-23l-35 -35l-8 -16q-36 -46 -41 -64l-31 -14l7 -14l-25 -19l6 -20l-12 -25q-6 -12 -25 -26q-4 -33 -18 -33q-8 0 -14 10z" />
<glyph unicode="0" horiz-adv-x="1075" d="M59 186l11 45q-9 14 -9 29t11 25q4 16 4 30l-2 31l28 60l7 49l18 26l14 56l17 41q4 29 13 48t48 58l-6 16l18 33l-6 27l21 -2l26 35q31 8 35 53l25 24l12 -6l16 21q9 10 13 33h37l4 20h16v25q40 2 55 26l66 21l39 16h16l31 8l22 -12q17 16 25 16q4 0 17.5 -14t21.5 -37 l35 -20l28 -28q5 -5 31 -13l31 -58l31 -20q10 -41 39 -55q16 -20 16 -56v-14l22 -25l-6 -20l13 -12q14 -96 14 -142q0 -16 -21 -37l15 -18l-21 -23l17 -20l-27 -29l-22 -63l-39 -35l-11 -27q-21 -19 -30 -36l-35 -11v-22l-27 -10l-18 -20q-8 -9 -41 -26l-12 -20h-23l-14 -18 l-23 6l-35 -37l-59 -23l-43 -26l-37 -6l-20 -14q-10 -6 -74 -11l-17 -21l-53 11l-16 -6l-29 6l-16 -4l-29 14h-31q-33 30 -48 35.5t-17 15.5l-12 23l-16 17q-7 7 -27 58l6 27zM104 225l17 -32l-6 -25q4 -9 14 -29q43 -90 86 -90h2l35 2l22 -18q31 10 48 10l22 -4l14 10 q81 1 107 29l37 -2l6 26l12 -14l29 29l22 -8l29 28q49 13 62 43q22 0 22 10q0 5 -2 7h4q22 0 47 34l58 37q2 19 18 21q45 48 45 67v4l20 11q9 31 37 59q-14 3 -14 14q0 8 12.5 26t12.5 26v2l-7 26l11 45l-8 25l4 33l-21 39l4 34l-16 21q-5 27 -21 72q-46 18 -55 69 q-26 11 -55 33l-37 2q-34 55 -70 55q-2 -8 -24 -8l-27 2l-16 -11q-6 -5 -47 -13l-13 -25l-22 -12l-21 10l-12 -27l-19 -7q-8 -3 -51 -38l-26 -31q-13 -16 -45 -38l-11 -23l-65 -82l4 -26l-39 -35l2 -27l-22 -16l-13 -58v-2q0 -12 -18.5 -25.5t-18.5 -33.5q0 -10 -6 -16 l2 -27l-8 -23l2 -26l-26 -17l4 -16l-4 -20l14 -9l-14 -20l16 -16z" />
<glyph unicode="1" horiz-adv-x="1006" d="M6 727q9 21 27 21q6 0 18 -5q11 -16 33 -16q7 0 19 4l12 4q8 0 18.5 -3t13.5 -3q7 0 16.5 14t42.5 21l25 6h13q26 0 49 18t31 21q6 -6 12 -6q12 0 18 22q31 6 31 11q0 2 -8 6h22q9 0 19 35l-8 12l10 6l26 -6q10 0 33 9t19 28t-4 26q0 15 8 31l55 14h55l25 -26 q4 -21 4 -23q0 -6 -4 -10l-64 -57q-4 -4 -4 -13q0 -14 21 -28l-29 -17q0 -12 8 -20l-32 -27q4 -4 4 -6q0 -3 -8.5 -17t-8.5 -28q0 -5 4 -20l-9 -29q-4 -12 -6 -22t-3.5 -24.5t-2.5 -24t-13 -27.5l8 -17l-21 -41l6 -35l-6 -30l-10 -2l12 -33l-12 -37q10 -27 10 -31 q0 -12 -16 -18q18 -18 20 -35l-20 -12q6 -10 6 -17q0 -6 -2 -8q6 -22 6 -39q0 -25 -14 -37q6 -22 24 -28q-8 -20 -8 -25q0 -11 10 -18q-6 -6 -6 -13q0 -12 25 -30q3 -17 22 -17h7l10 15l16 -9l29 9l4 -19l49 19l-4 -15l51 -12q12 6 27 6q16 0 35 -12h20q19 2 40.5 7t27.5 5 q7 0 29 -5t36 -7l8 -14l15 14q20 -15 20 -21q0 -9 -16 -10l-88 -2l-76 -16l-80 16q4 -4 4 -6t-7 -3t-11 -5q-25 12 -56 12l-53 -4l-51 2l-12 -6l-70 10l-22 -4l-4 12l-58 -12l-27 -1q-14 -1 -36 -13l-13 12h-6q-8 0 -14.5 -8t-9.5 -8h-2l-11 8h-28q-7 -6 -17 -6 q-13 0 -43 16q4 -4 4 -8t-9 -7l-9 -3q-18 0 -24.5 2.5t-8.5 8.5t-8 13l-27 10l11 13q-16 15 -19 26q11 11 34.5 18t29.5 7q4 0 9 -5t17 -5l76 10l39 12l49 -4l60 -16q20 -4 24 -4q16 0 43 10l-6 24l6 13l-22 45l4 33q-6 8 -6 16t8 8q-10 25 -10 84q0 10 22 25l2 18l-4 35 q8 13 8 27q0 19 -20 36l-4 23l16 6l-10 21l16 32l-12 37l16 19l13 65v8q0 13 4 29l16 12l-16 27q-4 4 -4 12l16 43h-29q-12 4 -20 4q-15 0 -25 -5.5t-18 -5.5t-28 -9.5t-21 -9.5h-23q-36 -18 -59 -23l-25 -27l-20 11l-33 -9q-39 -3 -66 -26q-15 9 -32.5 13t-51.5 20z" />
<glyph unicode="2" horiz-adv-x="1165" d="M43 100l14 17l-6 12q22 22 51 25l25 22l20 -2l58 31l10 -4q54 10 66 10q6 0 12 -6h51l39 -8q29 -19 55 -19l27 4l14 -10q22 25 37 25l8 -2l47 20l-4 8q43 12 43 17v2l15 28l34 21l68 31q-10 10 -10 14q0 10 16 16v13q31 10 35 10t8 -4q9 23 41 43l8 41l39 6q5 33 33 35 l16 22l17 4q7 37 16.5 59t9.5 33v7q3 10 13 10l12 35l-16 12q20 3 20 12l-6 33v35l-33 55q-5 22 -31 37l-75 45l-13 25l-26 -11l-29 21h-27l-16 24l-29 -8l-36 8l-17 -2l-22 6l-39 -6l-15 9l-18 -9l-16 9l-25 -9l-39 2q-5 -14 -20 -14q-9 0 -15 2l-37 -22h-24l-6 -15 l-29 -12q-9 6 -16 6q-12 0 -33 -31h-31v-20l-16 -4q-6 -17 -19 -17l2 -16l-34 -10v-4q0 -13 -23 -29l-4 -16l-45 -4l-15 16q-2 2 -4 9l-14 34v10q0 27 19 37l6 -6q2 42 16 45l19 -16l12 28h28l7 17l73 41l23 -9l18 23l21 4v6q26 21 63 21q23 0 35 -4q46 30 88 30h14l64 -6 l51 2l27 -6q5 -6 18 -6h13q38 -6 77 -37l19 6l16 -8q6 -21 41 -25l19 -24l55 -25l65 -71l9 -27l-2 -27l26 -8l-6 -16l12 -21l-6 -33l10 -32l-10 -23l2 -33q0 -16 -16.5 -38t-33 -55.5t-36 -45.5t-20.5 -14l-17 -39l-20 -8l-4 -11l-21 -2q6 -5 6 -10q0 -3 -3 -8t-16 -13.5 t-20 -10t-12 -8t-21.5 -20.5t-19.5 -24l-33 -26h-10q-35 0 -35 -19v-6l-8 2q-18 0 -33 -27q-6 -26 -51 -47l-16 4l-6 -20q-14 -3 -17 -12l-22 -19h28l11 -18q5 8 14 8q8 0 14 -4q8 -21 31 -21l21 2l6 -14l30 6l13 -22h26q23 -31 56 -31q10 0 10 4v4l82 -31q12 -8 20 -4l23 4 l16 -12l96 -12l25 12h31q0 12 24 12h11l8 -12l-6 -12q-7 -3 -16.5 -13t-39.5 -24l-14 4l-29 -2v-12q-7 2 -20 2q-18 0 -29 -8q-8 4 -16 4q-6 0 -8 -2l-23 8h-20l-27 16h-18l-7 -10l-24 21l-17 -5q-10 21 -24 21h-4l-21 -4q-20 0 -20 22q-12 -6 -25 -6q-11 0 -45 6 q-9 19 -10 19l-18 -4q-9 0 -27 10t-29 12q-3 -4 -14 -4q-15 0 -33 21l-29 2l-6 -2h-4q-15 0 -28 20l-13 -8l-16 10h-14l-19 2q-15 -25 -55 -31l-6 9l-17 -25q-15 0 -32 -5t-27 -7t-23 -15l-34 -6v-6q0 -6 -7 -6q-8 0 -20 12q-12 -12 -25 -12h-45l-71 27q-23 25 -23 43t-2 30 zM145 82q15 -33 62 -33l29 8h16l12 11l64 18l61 37q-61 20 -76 20h-18q-14 0 -31 11q-13 -9 -26 -9h-9l-24 -12h-6q-28 0 -54 -51z" />
<glyph unicode="3" horiz-adv-x="1159" d="M20 92q0 39 27 39h12q2 6 57 14l48 7q3 0 10.5 -6t7.5 -15q0 -7 -6 -10.5t-61 -11.5q-25 -3 -27 -31l-12 -8q37 -17 86 -23q10 -8 22 -8q14 0 29 12l4 -12l64 12q20 -7 20 -31q40 25 113 25q17 0 39 -6q6 16 16 16q3 0 12 -6q6 -9 17 -12q28 26 39 26h2q11 -14 41 -14 l45 10l37 -4l36 31q24 -4 31 -4q33 0 57 22q10 -2 29 -2q11 0 14 2l-4 21l33 27l31 -5q3 6 37 27t59 51q8 53 8 60q0 9 -2.5 15t-8 11t-13.5 8t-19.5 6t-24.5 14l-24 19l-61 13l-43 -11l-15 21l-22 -4l-37 33l-18 -17q-16 6 -31 6q-9 0 -25 -6q-16 17 -33 17l-19 -7 q-23 -7 -44 -10l-12 13l-56 6l-39 18l-40 -2q-36 19 -52 33v31l-6 22l35 6q26 25 72 28.5t47 14.5l67 -2q14 8 21 29q48 10 59 22h45l6 15h13q41 0 41 18q0 3 -4 14q4 5 67 15q0 6 16 15.5t21 25.5q55 14 55 45l-2 10q0 4 4 4q-7 50 -71 68l-82 22l-51 -4l-16 4q-19 4 -36 4 l-53 -6l-24 2l-33 -10l-37 10l-21 -2l-16 -20q-35 -2 -40.5 -4.5t-20.5 -14.5l-11 8l-26 -8l-8 6l-21 -12q-8 -16 -16 -16q-10 0 -21 8h-6q-22 0 -39 -23h-6q-38 0 -63 -53q-33 0 -35 -18l-29 12l-14 23q-6 13 -11 18q2 4 2 12q0 11 -4 17l25 16q2 8 14 8l19 -2l10 15l18 -3 h11q12 0 12 7q-2 2 -2 4q18 12 41.5 14t38.5 25h28q21 16 43 16q7 -7 21.5 -5t29 3t43.5 8l52 15l35 -7q22 15 57 15h14q17 -8 29 -8q2 2 4 2q9 0 21 -15l39 13l40 -3l31 3v-7l37 -14q3 -6 82 -23l20 -32l22 -18q13 -11 17 -21l13 -29q-5 -3 -13 -24q-32 -85 -90 -99 l-11 -16q-5 -6 -44 -25l-49 -10l-29 -22q-48 -15 -80 -33q-5 8 -10 8q-6 0 -12 -12h-23l-12 -17q-43 -9 -70 -26l-10 4q-14 -12 -14 -23q0 -10 14 -10q32 -10 39 -16l27 8l14 -8l29 2q5 -9 18 -9h10l33 9l31 -19l22 13q14 -3 17 -13q47 -20 100 -20q13 -17 43 -17h8l35 -2 l31 -26h22l29 -33l10 -45q2 -8 23 -31l-4 -16l4 -21l-22 -23q-5 -5 -7 -14l-6 -24l-31 -17h-16v-16l-19 -4l-24 -31q-35 -9 -56 -19.5t-32 -10.5q-14 -24 -68 -27q-9 -8 -48 -19.5t-40 -11.5l-24 4l-91 -26l-34 2l-39 10q-13 0 -43 -10l-41 -6l-33 6l-21 -6q-14 8 -36 12 l-25 -12q-5 0 -12 10t-15 12q-3 -14 -18 -20q-8 1 -25 14q0 -14 -6 -14q-2 0 -17.5 7.5t-37.5 8.5l-4 -6l-23 18l-22 -12l-25 10q-3 0 -9 -6t-9 -6l-4 2v4q0 10 -22 11.5t-26 16t-4 60.5z" />
<glyph unicode="4" horiz-adv-x="1292" d="M31 389q12 38 45 41l8 23q32 25 43 26l68 6q23 6 26 23l43 -10l27 4l16 41l19 14h14l-4 21l37 10q12 39 35 53q0 8 14 20t25 25.5t24 28.5l9 15q3 7 30 24q3 33 20 39q9 30 37 55q15 3 15 12q0 3 -4 14q42 16 49 31q-12 7 -19 29l33 20q7 72 43 72l12 -4q10 -20 23 -29 l-2 -10l2 -12l-12 -15l4 -18l-25 -33l-2 -24l-20 -7l-21 -49v-4q0 -8 -32 -38.5t-56 -61.5q6 -12 6 -16t-15 -12.5t-20 -13.5t-7.5 -11.5t-14.5 -20.5t-14 -18.5t-6.5 -11.5t-37.5 -27l-2 -17l-16 -10l-66 -57l33 -21h35l29 -14q7 10 12 10h12q23 -28 47 -28q16 0 45 8t39 8 q15 0 37 -23h6l25 -2q18 0 18 27v27l23 26l-4 21l8 18l-4 31l12 6l-8 29q29 34 29 49q0 6 -2 8h-6q0 5 16 31v51q10 1 10 20q0 11 -2 19q8 16 8 31q0 11 -5 21.5t-5 17.5q0 10 4 24l19 62l-5 57q0 4 8.5 14t22.5 10q47 -39 47 -88l-20 -22l4 -66l-10 -26l6 -13l-15 -22 l5 -31l-5 -2l-8 -33l-18 -47l2 -35l-39 -167q-14 -27 -16 -39q9 -37 22 -37q4 0 12 5t9 5q15 0 28 -16l43 6l37 -21l47 11h6q15 0 23 14l22 8l15 -10q16 16 22 21t37 16q13 22 33 34l18 -8q-2 -31 -39 -49l-6 -20l6 -6q-24 -25 -38 -25q-3 0 -11 4q-18 -4 -28 -14 q-8 -15 -25 -15h-6l-13 -7q-5 -3 -38 -5l-4 -6h-33l-33 10l-20 -10l-27 16l-23 -6l-32 10l-21 -10v-24l-16 -23l4 -33l-6 -28l6 -23q-12 -8 -12 -20v-4l-11 -19l11 -37q-12 -11 -15 -33l11 -28l-17 -43q6 -6 6 -13q0 -5 -6 -8q-2 -4 -2 -10q0 -8 6 -19.5t6 -15.5v-33l19 -12 l20 -43q-10 -10 -20 -10q-12 0 -33 6l-2 37l-18 22v31l-15 17l8 18l-12 12l4 11l-8 36l8 13l-12 16l12 23l-8 30l12 52l-2 10l2 16l-4 6q0 19 15 31l-7 16q3 8 3 23l-5 33q0 4 7 10v6q0 27 -22 35.5t-88 15.5l-32 4h-43l-16 11l-35 -11l-20 17l-43 -2l-15 12h-24l-17 6 l-18 -16l-21 4q-36 -17 -75 -27l-13 -12l-22 -4l-4 -12l-31 -9q-2 -2 -8 -2l-33 2q-6 0 -10 -6t-8 -6h-5l-8 16l-12 5z" />
<glyph unicode="5" horiz-adv-x="1169" d="M-2 244q0 4 4 6.5t4 7.5q0 2 -4 10q18 13 29 13q21 0 20 -19l-4 -82q11 -19 20.5 -32.5t16 -20t39.5 -18.5l20 -31l27 -4q12 -2 51 -25h27l22 -16l21 4l16 -14l80 -5l43 2l31 -6l45 15q11 0 31 -9l30 17h35l25 6q41 32 100 35l-4 10l4 16h41q11 14 31 21l16 12 q10 23 21 23h4q30 15 38.5 41.5t20.5 50.5l21 -2v6q0 6 15 28.5t15 45.5q0 8 -2 14l6 4l-2 33l11 18l-15 21v33l-12 26l-70 39l-16 17h-19l-12 6l-26 -4l-21 14l-20 -10l-25 20l-25 -8l-55 10h-45l-24 6l-41 -12l-31 12l-35 -12h-43l-66 -12l-20 8l-51 -16l-21 8 q-37 -27 -43 -37h-49l4 33l-16 16l10 6v17l25 -2l-2 45l22 6q45 48 45 65v4q7 3 19.5 34.5t26 34t19 5t8.5 13.5l7 24l27 63l-17 13q-6 -8 -8 -13l25 39q-12 7 -33 7h-14l-9 19q-4 9 -24 26l16 24l78 17l10 -11l21 19l45 -6q9 14 35 14h32l97 -8l8 8l55 2l33 -12l158 18 l92 -8q4 -1 17 -4.5t22 -3.5q10 0 29 5l16 5l92 4l63 8q66 5 72 10q18 -9 41 -16q-14 -9 -33 -16l-32 -2q-19 0 -32 -6l-36 -15l-37 8l-80 -20q-12 4 -24 10l-27 -10l-45 6q-2 2 -6 2q-7 0 -21 -14l-151 -23l-68 6l-16 -8l-10 8l-82 -14l-43 10l-37 -10l-29 6l-20 -20 l-37 -4v-21l-31 -72v-20l-16 -6q-23 -37 -25 -58q-6 -6 -6 -18l-16 -10q-9 -34 -39 -55q-1 -14 -35 -29l16 -23l12 13q25 -17 46 -17q18 0 18 21l47 4q23 0 37 -15q30 11 45 11q16 0 33 -11l47 11l110 -4l31 -13q6 6 17 6q10 0 17 -5t44 -6.5t59 -10.5l58 -25l26 -39 q4 -6 41 -24l17 -70l12 -16l-4 -27l2 -28q-12 -13 -18 -74l-9 -6q-28 -70 -37 -77t-22 -7q-55 -71 -55 -86q-17 0 -31.5 -19.5t-42.5 -27.5q-18 -5 -29 -19t-27 -19t-46 -11t-50.5 -20.5t-62.5 -14.5l-23 2q-32 0 -51 -19l-29 10l-34 -12l-43 6l-17 -6q-13 17 -37 17h-8 q-16 8 -28 8q-17 0 -35 -6l-33 22l-23 -8l-36 31h-35l-33 30l-76 29l2 21l-33 38l-18 82q-4 12 -4 15z" />
<glyph unicode="6" horiz-adv-x="1243" d="M104 311q0 13 17 23l12 39q9 20 9.5 32.5t15.5 49.5l4 24l22 39q11 45 33 60l-4 12l39 55l10 39l23 16l-11 15q23 29 38 42t29.5 28.5t23.5 15.5l6 -2q6 0 12 26l16 4v19l33 10v16l14 15q19 8 33 22q0 6 19 15t22.5 13.5t3.5 14.5q36 33 62 33h8l16 21l39 12q13 22 33 22 h6q25 7 41 7l29 -5h35q40 -44 44.5 -52.5t4.5 -14.5q0 -4 -10 -11t-15 -12q-6 -27 -43 -36q-20 10 -41 36l-41 -8h-18l-23 -8h-35l-41 -29l-24 -26l-43 -25l-29 -27q-18 -10 -33 -28h-6q-24 0 -24 -27q-8 -15 -29.5 -37.5t-21.5 -27.5v-2q0 -3 -21 -21t-39 -37v-28l-14 -11 l-2 -18q0 -2 -6 -5q-29 -17 -41.5 -54.5t-30.5 -71.5l4 -39l-14 -37l-17 -29v-26q-20 -31 -20 -58v-8l-6 -14l10 -59l12 -15l4 -35l25 -16v-18l27 -31l26 24l-12 29l12 12l-10 25l14 16l2 13l21 12v10l11 44q6 24 24 38l75 61l37 19q3 25 33 25q5 0 18 -7q19 7 19 29v8h29 l2 10q19 9 73 15l17 26l32 5l56 32l71 11q15 2 17 16q6 6 16 6h8l19 4l16 -8l101 8l14 -10l37 6l47 -29q18 -6 32 -18t22.5 -27.5t27.5 -31.5v-33l8 -21q-5 -39 -37 -63q0 -16 -10 -26.5t-27 -33.5l-2 -18q-54 -22 -55 -31l-23 -6q-29 -22 -43 -26l-4 -13l-24 -2l-11 -14 q-8 -11 -42 -24l-31 -13l-72 -39q-21 -12 -50 -17.5t-36 -15.5l-22 11q-11 -24 -60 -33l-88 -17q-63 -19 -78 -28l-43 6l-12 -12q-21 -4 -39 -13l-29 11l-28 36l-23 -10l-16 17l-56 24l-51 64q-26 91 -26 98l-2 20l4 37zM301 86q0 -27 10 -27l25 -2q12 -2 35 -14l28 6 q7 -2 13 -2q4 0 25 4t40 4q14 0 135 33q21 18 66 21q13 9 28 14l31 8l70 27l33 8l26 22q24 9 72 41l2 21l27 -4v2q0 6 21 13t28 26l22 14q0 3 11.5 23t29.5 28l15 41v27l-13 33l-16 8l-6 26l-31 5l-18 16l-21 -2l-43 12l-53 -9q-25 -4 -43.5 -5t-25 -4.5t-7.5 -12.5h-22 q-45 0 -64 -16l-31 -18l-42 -9q-9 -2 -23 -14h-19l-14 -14h-10q-40 0 -51 -35l-43 -10q-24 -39 -72 -54l-25 -41l-30 -14l-43 -61q0 -36 -21 -64q-6 -31 -6 -51z" />
<glyph unicode="7" horiz-adv-x="1319" d="M-82 -379q19 4 64 35l43 -2l10 18h6q23 0 27 21q6 16 18 16q5 0 20 -6q16 37 39 37q6 0 15 -4q29 39 45 39q28 16 28 30v7l54 38l6 25h6q16 0 19 12.5t22 44.5q60 28 96 95q12 3 20 11.5t16 24t22.5 31.5t23 30t8.5 21t13 35q32 4 45 23q-4 6 -4 14q0 14 28 45h10l16 20 q7 9 25 56l39 29l13 43l12 4l12 28q21 27 21 31q0 12 -15 12q-3 0 -12.5 -6t-23.5 -6h-9l-26 14l-23 -8l-55 6l-29 -6l-47 13q-24 10 -39 10q-26 0 -47 -21h-16l-23 17h-26l-13 14l10 8q3 0 3 4q0 3 -8.5 12t-8.5 15q0 14 31 27q12 -3 18 -17v2q0 15 64 15q8 0 28 -15h11 q30 -12 92 -12l51 6l152 -16l10 -4l2 32l24 9q10 57 25 57q6 0 10 -2v6l2 35q0 11 -2 16l29 31l-4 37l29 10l8 41q25 15 41 96l16 10l-16 19l-54 -4l-12 -19l-26 4l-11 -18l-43 8l-45 -16l-10 6l-27 -31l-30 17l-35 -13l-25 11q-61 -8 -80 -21q-36 12 -57 12q-6 0 -18 -3 t-17 -3h-43l-57 -2l-15 9q-6 3 -51 8q-12 -7 -24 -7q-18 0 -39 13l-12 -6l-23 10l-10 -2l-60 10l-26 -8q-41 0 -63.5 20.5t-22.5 57.5q0 21 2 30l39 -8l12 15l12 -27q14 10 23 10q12 0 42 -24.5t60 -24.5h10l37 8l54 -16l32 8l62 -12h112l29 -4l25 12l10 -16q26 20 41 20 q9 0 24 -12l31 20l51 4l82 13l47 14l21 -4l12 16q4 8 41 8q15 13 29 13h6l6 -2q13 0 33.5 24.5t28.5 28.5l36 14q9 4 15 4q16 0 35 -18l16 -68l-41 -4q-38 -44 -68 -51v-53l-20 -17l-12 -55l-21 -10q-15 -38 -27 -51t-12 -31q0 -4 4 -21q-24 -10 -28 -22l-33 -84l-27 -33 l13 -16l53 -6l37 8q15 -6 26 -6q13 0 23 6q7 -10 16 -10q23 0 51 14q38 -3 70 -14q13 10 31 10q12 0 18 -4q16 6 42.5 8t27.5 12l78 -10l4 -14l-54 -11l-63 -28l-70 10l-16 -18l-33 12l-18 -19h-49l-31 11q-49 -15 -64 -15l-118 11q-2 0 -19 -5q0 -13 -12 -18 q-12 -24 -29 -37l-10 -43l-27 -18l-2 -17l-16 -10l-21 -55l-22 -8q-8 -25 -25 -31l-2 -23l-18 -14q-29 -41 -37 -45l-6 -21h-14q-10 -32 -25 -36q-16 -58 -39 -58l-8 2l-10 -12q-6 -44 -41 -61l-27 -58l-37 -16l-8 -17h-21v-16q-18 -16 -22 -35l-31 -14l-8 -19l-47 -20 q-11 -22 -33 -49q-21 -3 -28 -19l-31 -8q-3 -16 -10 -16q-5 0 -13 4q-8 -22 -30 -45l-23 2l-18 -21l-27 -8l-26 -13q-15 -7 -29 -8l-39 -1z" />
<glyph unicode="8" horiz-adv-x="1081" d="M125 94q0 3 6 16t6 27q29 46 31 66l10 10l2 18l23 15q27 36 33 43l10 -4l20 20l25 2q-2 4 -2 10q0 14 33 17l-11 14q13 10 27 10h8q11 0 41 27q2 7 33 31q-4 11 -14 16l-66 33l-29 27q-33 9 -45 45l-14 4l-6 28h-17q-8 21 -32 37l-33 78l-23 31q-14 8 -14 14q0 8 10 8 q2 6 6 13t4 10q0 4 -6 22q15 6 21 45l22 21l3 18q1 8 22 35h10q9 39 29 39h2v2q0 9 23 28t38 19l11 -2l77 64q32 2 70 18l10 -4l18 20q2 2 32.5 10.5t64.5 10.5l8 -8l39 12l41 -4q8 -3 23 -4l32 -2l109 -19q18 -9 28 -22l31 -4q7 -19 34 -27t34 -24q39 -59 55 -78l-2 -15 l12 -32l-10 -11l10 -37q-21 -40 -34 -45q-15 -32 -39 -49.5t-35 -36.5h-15l-4 -12l-57 -39l-37 -39l-49 -20l-117 -70l-18 -22l-27 -6l-10 -21l-18 -6v-12q-43 -7 -43 -43l77 -56l99 -82l57 -36v-11l18 -24l23 -17l16 -32q31 -28 31 -62l-8 -41v-4q0 -10 -21 -39t-41 -29 q-6 0 -18 5l-16 -15q-2 -2 -8 -4l-33 -12l-66 6q-14 0 -41 -10l-10 14l-21 -10l-38 10l-33 -12l-31 8l-22 -6q-48 0 -76 16l-15 -2l-92 12l-30 29l-27 6v17l-29 -9l-6 17l-16 2v20q-33 31 -33 35zM190 154q0 -28 4.5 -64t45 -55t41.5 -19h43l20 -12l45 6l41 -10l31 4l37 -6 l63 6l27 -4l74 4l4 16l22 -8q6 -4 19 -4q29 0 90 51l6 29v4q0 33 -43 92l-37 19l-25 37l-65 34l-39 48l-70 32q-39 39 -51 39q-7 0 -12 -12q-6 0 -47 -19t-56 -51q-1 -1 -18 -10l-68 -35l-16 -26l6 -15l-16 -8q-22 -3 -26.5 -24t-17 -26t-12.5 -13zM209 721l27 -27l16 -84 l33 -16l4 -16q21 -29 35 -50l22 -6q12 -4 21 -12l22 -23l43 -8l53 -30l21 6l8 -6v30l66 33l10 33l37 6q6 8 27 25l15 12q6 5 12.5 11.5t15.5 9.5l23 7q13 5 23 15l27 28l39 7v12l33 10q5 23 20 23l10 -2q5 0 7 2l2 12h16q7 0 11 24.5t22 26.5q18 9 18 23q0 8 -2 12 q31 25 31 35v4q12 18 12 33q0 12 -15.5 33t-19.5 36q-16 15 -42 41.5t-30 27.5t-57 3l-18 16l-10 -10l-56 27l-36 -11l-17 11l-14 -4l-8 14l-15 4l-14 -31l57 -49l-6 -18l12 -31q-13 -22 -36 -22q-7 0 -19 4l-29 49l-20 -8l-8 10l-51 -2l-19 -17l-20 9l-6 -9q-31 0 -56 -14 q9 -13 -112 -39q-7 -22 -23 -22q-26 0 -29 -31q-7 -5 -20 -8l-12 -43l-21 -11l-10 -41v-24z" />
<glyph unicode="9" horiz-adv-x="1075" d="M-541 -487q0 6 4 6q0 -2 2 -2l33 -31l33 -4l25 -23l34 6l39 -18q60 0 72 -16q61 0 113.5 11t79.5 11q1 0 20 -4q51 31 98 31h8q26 0 41 12t52 21t37 16v2q69 12 92 53l37 4l83 68q40 9 56 43q37 27 47 27h2l16 12l21 37q26 20 39 61l27 33q5 6 28 16l18 37l19 19 q10 24 20 26q0 26 11 39q36 37 36 90q34 32 46 56l-7 26l23 8l29 101q12 24 12 41v20l14 94l8 19l-8 67l8 23l-8 37v45l-20 51q0 33 -21 33q-8 0 -37 -23l-18 -53l-37 -31l-6 -30l-25 -11q-32 -20 -84 -45l-12 -22l-74 -21l-6 -12l-106 -27l-94 -6l-46 6l-14 -2 q-19 0 -41 15l-2 26q-57 21 -57 64q0 19 10 43l-10 37l10 49v26l11 22q5 9 10 54q21 21 32 55l29 23l4 25l12 2q18 43 37 59q16 6 23 23q14 6 43 43h28q17 39 39 45q17 -9 21 -9q10 0 12 27q58 0 80 37l16 -6l88 6l11 12l14 4l16 -4l64 -67l39 -80l37 -53l10 -37l18 -17 l-4 -18q14 -21 17 -53l14 -19q-6 -15 -6 -26q0 -16 12 -31.5t14 -22.5l-4 -18l15 -17l-9 -24l5 -45l6 -17l-2 -16l6 -86q3 -41 -21 -88l15 6q0 -15 -17 -24v-11l-8 -26l4 -21q-20 -27 -20 -59v-8l-9 -4l-26 -78v-21h-12l2 -22l-21 -19l-10 -37l-25 -20l-4 -33l-28 -22 l10 -19l-22 -22q-11 -11 -29 -47h-15l-4 -27l-20 -16l-2 -17l-33 -16l-74 -101l-39 -26l-92 -80l-21 -8q-10 -4 -26 -25l-27 -6l-22 -27l-74 -34l-29 -7l-12 -14l-41 -8q-8 -2 -26 -19l-48 -2q-35 -22 -59 -22l-12 2l-25 -2l-18 -23l-43 2q-9 0 -34.5 -9t-43.5 -9l-25 2 q-18 0 -30 -6l-37 -6l-27 6l-35 -2l-28 5q-13 2 -21 2.5t-45 23.5l-31 -2l-65 38l-21 35zM174 547q0 -7 21 -10q-9 -3 -9 -11q0 -13 16.5 -22t84.5 -19q12 7 26 7h13q12 3 34 3t37.5 6.5t35.5 9t79 26.5l10 20h17l16 23h23q39 32 49 32h4q8 37 28 37h5q23 30 47 51l8 41 l16 50l-8 40l6 31q0 9 -13.5 28t-17.5 25q-7 40 -77 68q-9 55 -43 55h-4l-89 -26q-31 -3 -53 -35l-39 -6l-35 -33l-22 -12l-37 -60l-20 -4l-16 -32q-3 -5 -29 -23l-7 -16l2 -17l-26 -29l-8 -28q-12 -15 -23 -43l17 -15l-17 -59l6 -22l-4 -21q-4 -4 -4 -10z" />
<glyph unicode=":" horiz-adv-x="510" d="M164 647q0 2 22 51h15l8 15v8l22 -8l17 2l-2 8q16 6 24 6l23 -6l14 -29l33 -28q0 -33 -68 -97h-51q-18 19 -37 21l-6 20l-12 8zM166 35q0 2 4 2l4 47l12 14l-2 17q-1 7 52 45q20 -7 55 -10l22 -31l15 -6v-15l10 -6l-4 -22l6 -9l-12 -32q-18 -7 -37 -23t-35 -16h-4 q-4 0 -21 -8q-12 15 -38.5 30.5t-26.5 22.5z" />
<glyph unicode=";" horiz-adv-x="510" d="M2 -252q2 32 4 43l8 10q0 32 31 47q0 2 9.5 15t15.5 33l2 -7q8 6 8 13v6l16 16l-2 17q24 10 30 38q1 5 30 23v14l14 4q0 60 22 80l15 -6l-4 33l7 31q3 18 15 28.5t33 10.5q39 0 57 -27l23 -6l4 -49l-18 -35l-29 -17l-14 -24l-31 -31l-10 -18l-33 -23l-68 -80l-43 -26 q-5 -20 -12.5 -33.5t-16.5 -16t-18 -8.5q-15 -46 -27 -53zM174 629l10 16l9 4l-11 25v26l11 -8l4 33l28 10v19q15 -15 29 -15q19 0 35 9q8 -15 14 -15q4 0 6 2q56 -44 60 -57q-9 -6 -9 -12q0 -2 5 -21q0 -25 -24 -39.5t-50 -34.5l-35 4l-12 -10l-19 19l-14 -2q0 17 -10 22 q-27 10 -27 25z" />
<glyph unicode="&#x3c;" horiz-adv-x="1706" d="M264 580v61l1178 483v-90l-1045 -424l1045 -424v-88z" />
<glyph unicode="=" horiz-adv-x="1706" d="M254 389v80h1198v-80h-1198zM254 752v79h1198v-79h-1198z" />
<glyph unicode="&#x3e;" horiz-adv-x="1706" d="M264 98v88l1045 424l-1045 424v90l1178 -483v-61z" />
<glyph unicode="?" horiz-adv-x="766" d="M102 1006q33 34 76 36q15 3 15 13q0 4 -3 6l25 6l23 27h20q23 15 45 20l37 -14l18 10q25 -3 43 -16l5 10q15 -12 28 -12q9 0 12 2l27 -9q3 -9 12 -18q8 4 13 4q14 0 71 -76q34 -60 43 -67l4 -29l21 -25l-14 -43l12 -18l-12 -12l4 -21q-18 -14 -33.5 -32t-26 -29.5 t-22.5 -34.5h-6q-53 -43 -52 -49l-26 -17v-10l-27 -6q-8 -8 -8 -18q0 -3 4 -15l-37 -8v-16l-20 -13l2 -12l-39 -33q-14 -37 -37 -79q9 -38 14 -84l33 -25q26 -4 32.5 -10t6.5 -19l-2 -12v-8l-25 4q-14 2 -23 9l-26 18l-20 26q-19 12 -19 25q0 3 4 14l-30 8v6l12 37l-18 23 l18 2l-14 18l2 37q13 5 21 16t11 11q26 22 31 53h8l17 31l16 6q8 14 24.5 27t16.5 20v4l19 4l22 33q41 6 41 20q0 2 -1.5 4.5t-2.5 4.5l29 18v14l24 15l4 24q30 7 41 27q-3 57 -12 72l8 26q-4 0 -33 58l-18 -2l-10 6l-4 14q-32 29 -43 41l-17 -12l2 10q0 20 -24 20l-13 -8 l-55 8l-6 -12q-20 4 -25 4q-3 0 -33.5 -7t-33.5 -7h-39l-78 -23q-7 -4 -10 -4q-9 0 -19 13zM256 16l10 21l-6 43h8l4 16q33 -9 35 -10l8 2q12 -2 58 -33l16 -39l-6 -18l-61 -16l-48 18l-8 20z" />
<glyph unicode="@" horiz-adv-x="1403" d="M78 334l8 61l-2 27q22 38 22 59l-4 19l15 24l4 51l47 99l31 88l37 33l38 57l45 49q12 12 35.5 42t38 43t51.5 30l64 28q72 56 88 56h25l16 15q10 9 21 13l28 9q6 -13 16 -13q4 0 18 10.5t32 10.5h10l18 -10l13 24q44 -7 77 -20l17 14q21 -6 33 -6t18 6q15 -3 25 -14 q23 0 41 -11l36 -12q42 -6 65.5 -20.5t41.5 -23t35 -28.5q8 -15 25 -18.5t21 -7.5t32 -53l26 -11l6 -36l18 -16q11 -9 15 -20l12 -30l-10 -18l16 -31q-10 -14 -10 -21l2 -32l19 -21l-6 -35v-8q0 -6 3 -18t3 -17q0 -28 -8 -49l-11 -24l2 -31q-37 -32 -42 -52t-9.5 -42 t-7.5 -33l-39 -37q-8 -42 -49 -69t-70 -74l-35 6q-17 -25 -33.5 -34.5t-78.5 -23.5l-15 13l-28 -2l-6 -13h-11l-10 -6l-8 6l-8 -6l-35 29l4 29l-10 10l6 43v90l10 33l-10 14l12 8l-6 13l4 12l8 6v16h7l4 45l10 2l-6 9l-23 -9q-10 -17 -22 -24l-2 -14l-17 -9l-4 -20l-10 -8 l-2 -9q-13 -9 -21 -24l-12 -6l-22 -39l-37 -35l-36 -39q-11 -10 -18 -27l-45 -28l-49 -55q-23 -6 -39 -19q-15 4 -20 23q-49 23 -49 61l10 4l-6 29v26l-6 9l8 10l6 39l16 53v8l4 19l-2 10q0 2 5 18l8 2q12 13 12 25q0 11 -6 20l6 7q-8 0 -8 8t16 8q0 20 21 49l-11 2l23 29v6 q0 34 33 49v25l6 4q-4 10 -4 12q0 6 6 6h4l2 23q6 2 6 10v6q7 9 23.5 26t21.5 25h6q13 0 13 6q0 3 -4 7q33 2 32 10l25 12l65 2v-4l60 -14h6q12 0 12 -13l6 3q1 -9 21 -9l12 -14l29 -6v-14q21 15 53 22l-2 -22l6 -7l-4 -4l8 -37l-14 -14q-12 -39 -20 -51l4 -19 q-17 -16 -17 -32q0 -5 4 -21l-6 -8l2 -10l-6 -15l2 -12l-10 -12v-31l-4 -4l4 -6l-4 -2v-4q0 -5 -4 -17l4 -8q-11 -13 -17 -33l5 -18l-17 -18q4 -9 12 -17q-10 -17 -20 -57l10 -2l-2 -8v-7q0 -12 -12 -30h8l4 -25h29l6 -20q32 6 53 14l15 -16l18 14h12q31 0 39 33h19l6 16 q12 -4 16 -4q18 0 25 20q23 5 34 46.5t41 44.5q6 38 27 43q-4 15 -4 24q0 32 23 45q8 9 12 19.5t4 18t14 40.5l-12 18v29q-6 0 -6 6q0 9 18 27l4 55l-24 21l18 45l-31 24l-10 82l-26 -4l-33 58l-21 4l-28 39l-21 -9l-22 17h-17l-14 16l-21 4l-28 29l-35 -2l-39 28l-4 -10 q-13 4 -41 4q-23 0 -35 -4q-37 -4 -43 -4q-8 0 -19.5 5t-15.5 5q-7 0 -18 -8l-24 -18q-3 -2 -23 -2q-22 0 -43 6q-14 -5 -27.5 -11t-27.5 -12l-33 -16q-20 -10 -24 -15l-11 -16l-35 -2l-16 -12q-34 -5 -47 -41l-17 2q-16 -31 -69 -59l-13 -43l-18 6q-36 -40 -40.5 -67 t-33.5 -30l-2 -12l-24 -10q6 -18 6 -29q0 -18 -31 -37l-1 -28q-1 -17 -8 -32l-18 -40l-45 -123q9 -11 9 -24q0 -9 -7 -21l11 -16q-9 -18 -9 -47l13 -56l-4 -41l14 -25q6 -11 12 -52l10 4q17 -41 17 -47l-2 -19l14 -14l39 -56l29 -10l8 -14l12 -4q29 -51 80 -51l16 -15l25 4 l18 -18h25l29 -23l10 9l33 -11l18 7q8 4 14 4q7 0 41 -16.5t52 -16.5q20 0 90 18q7 -4 26 -4q21 0 39 10l35 11l35 2l39 24q73 12 139 54l13 11q6 5 51 25l45 -10h12q31 0 31 -39q0 -4 -9.5 -15.5t-25.5 -14.5l-6 -7q-22 -2 -51 -27.5t-52 -25.5l-12 2q-9 0 -92 -39 q-4 2 -14 2q-17 0 -35 -12l-37 -10l-62 -10q-20 -5 -30 -5q-13 0 -31 6l-16 5h-62q-16 12 -41 12l-26 -4q-16 1 -29.5 1.5t-44.5 10.5l-16 9q-7 3 -31 5q-5 5 -13 7t-25 3.5t-26 6.5l-22 12q-8 -2 -21 -2q-26 0 -35.5 15.5t-19.5 15.5l-12 -4h-19l-8 30l-47 21l-14 27 l-35 14l-10 29h-7q-21 23 -45 61l-8 41q-2 8 -16 25l-4 22l-15 8l2 17l-8 22l2 21q2 4 2 14q0 15 -10 39zM508 295l8 -2v-12l10 -2l9 -11l28 8q9 16 29 19v10l20 6q0 6 9 13t38 38h-6q25 21 37 25l12 25q14 3 29 24h8l15 19l-2 10l10 2v4q0 3 8 14q0 3 16 23l7 -2 q0 13 14 24q0 7 22 23h9l2 12q4 0 4 4q0 2 -4 11l28 26l2 15l13 4l-2 16q6 7 10 21l12 10q-2 45 -8 51l-18 10q-38 35 -46 35l-10 -2l-6 8h-20l-4 6l-17 -4l-6 4h-10q-22 -2 -37 -10l-31 -18q-4 -3 -16 -7l-2 -8q-18 -7 -68 -100l8 -4l-16 -15l4 -12q-16 -19 -16 -45 l-11 -12l-2 -25q-9 -10 -10 -22l-6 -4l-2 -25l-6 -6q-2 -10 -10 -35l6 -16q-12 -8 -19 -15l6 -8l-10 -12l8 -27l-14 -14v-29z" />
<glyph unicode="A" horiz-adv-x="1442" d="M-41 -18l8 18v29l15 18l-7 14l37 5l25 14q33 14 41 51q42 11 49 47q49 28 66 92l28 11l66 102v29q-14 11 -21 30l39 35v15l47 -5l27 17l6 -8l27 36q-9 2 -9 9q0 5 29 24l8 -12q2 25 21 59l-6 4l24 2l8 27q25 3 25 21v24q49 42 49 78v4l27 4l6 29l14 4l21 43l14 -10 l-10 22q30 3 33 39l14 -8v41h14v29q4 4 23 20.5t24 44.5l23 23l-14 32q28 37 53 37h4l12 19l14 -21q5 -6 18 -13l34 -17l4 -52q14 -12 26 -41l17 -6l4 -45l16 -61l27 -47l18 -66l4 -43l29 -39l-8 -16l22 -25v-31l5 -28q0 -8 -9 -21q31 -73 72 -73l39 8h47q22 -6 37 -6 q26 0 40.5 12t18.5 12q6 0 37 -18l45 2q0 -15 -14 -21l-33 11l-37 -29l-43 6q-26 -18 -57 -18q-24 0 -31 -11q-25 11 -47 11q-21 0 -27 -15q4 -10 15 -18l-6 -21l6 -69l26 -39l5 -37l45 -66l-7 -30l31 -29l47 -80q37 -43 43 -61l37 -19l14 -32l15 -11l-27 -20l-33 26h-20 l-27 21h-20l-19 35l-20 10q-24 48 -53 76v20l-19 17l-2 32l-31 33l-43 103l-14 18l-7 51q-1 8 -26 47v43h-24l-27 -18l-41 8l-28 -18l-11 10l-22 -14l-6 14q-5 0 -20.5 -6t-33.5 -6l-26 2h-35l-35 -23l-37 8l-51 -4v-10l-18 10l-25 -14l-18 14h-33l-33 -14l-27 29l-14 -11 l-29 11q-34 -15 -94 -105l-33 -8q-82 -126 -88 -127l-18 -10l-57 -74h-11l-49 -80l-53 -33zM473 506q36 -11 51 -21l25 2l41 -10q12 -4 18 -4q9 0 29 4q2 2 8 2q3 0 15.5 -4t23.5 -4l27 6l80 6l65 9q63 -9 80 -9q47 0 47 21q0 13 -18 35l22 18q-13 34 -33 45l11 29l-27 14 l-8 78l-25 39l-4 33l-14 28v11h-6l-4 44q0 7 -11 22l-14 22q-4 6 -16.5 15t-38.5 21l-23 -12l-14 -24l-49 -70l-12 -23q-5 -10 -48 -53l-8 -33l-43 -22q-15 -78 -61 -90l-19 -62l-41 -16v-21z" />
<glyph unicode="B" horiz-adv-x="1356" d="M-41 1061q0 12 10 12q9 0 13 -2q15 35 36 37l29 -14l14 6q57 0 89 -5l26 -5q10 0 23 5l12 5h14l17 -15q6 4 24 9l47 -19l127 -18q17 4 25 4q12 0 39 -8l33 8q6 0 26 -17q43 -24 86 -24h10l29 8l12 -16q10 6 19 6t13.5 -10t13.5 -10l55 -3q32 -37 80 -37l17 -5 q7 -3 30 -25h35l6 -17l41 -26l8 -39q-23 -46 -32.5 -57t-23.5 -20.5t-28 -13t-35 -16.5l-18 4l-43 -32q-12 4 -15 4q-16 0 -22 -25q-11 8 -19 8q-7 0 -10 -8h-18l-27 -31l-37 -8q-10 -10 -23.5 -15.5t-31.5 -7.5t-39 -10l-12 -16h-21l-24 -15q-15 -9 -29 -13l-39 -9l-10 -12 q-28 -6 -36 -12t-28 -9q-14 -21 -14 -28q0 -6 6 -6h25q36 0 63 -2l111 -9l22 9l107 -19l18 8q26 -22 33 -22q6 0 6 10h4q2 0 17.5 -6t40.5 -6h16q32 -15 57 -15q21 0 35 9q29 -9 84 -9l23 -16l24 6l66 -28h24q22 -22 52 -25q16 -19 43 -32t32 -19l-12 -33l6 -18 q-24 -32 -37 -58l-22 -6l-21 -24l-45 -21q-10 -4 -19 -15l-24 -30l-49 18h-1q-17 0 -44 -49l-29 13l-49 -17l-10 4q-28 -21 -55 -32t-50 -12.5t-25 -2.5t-34 -29l-18 13l-21 -15l-39 11q-20 -17 -43 -17l-49 6l-18 -28l-31 14h-10q-2 -2 -8 -2q-5 0 -13 2t-12 2 q-13 0 -37 -20q-3 -6 -20 -6q-18 0 -45 6l-29 -33l-31 12v8q0 12 -8 17q-5 -8 -18 -8h-9l-26 63l2 31l-6 43l12 39l-6 45l12 39l-6 32l4 29q2 6 2 16q0 9 -4 24l-10 32l-6 65q-38 3 -51 13t-21 20q7 24 27.5 41.5t25.5 17.5q7 0 12 -8l9 27l12 6l-12 41l16 6l-12 47l8 13 l-14 36l14 29l-12 10l-2 26q0 15 -7 28l-16 34l8 39l-16 8l4 37l-12 25l-17 59l-32 33q-17 -2 -33 -18l-15 10l-18 -10l-14 14l-15 -14v10l-32 8l-48 -31q-59 32 -59 64zM319 965l29 -29v-51l12 -37l-12 -33l17 -53l-7 -47l11 -31l-9 -33v-49l-2 -12q0 -15 25 -21 q11 26 35.5 30.5t48 12.5t25.5 15l28 4l4 14l45 4l9 25q10 -8 24 -8q16 0 35 18l25 -2q18 35 59 45t53 16l39 15h25l10 22l41 6l16 19v10h4q23 0 23 37l-37 19q-6 3 -29 32h-32l-15 8q-46 3 -47 21l-18 -14l-21 18l-22 5q-11 3 -29 17l-20 -12l-27 17q-8 -2 -25 -2 q-16 0 -39 4l-20 4l-33 -4l-26 26l-31 -8l-21 12l-14 -16l-29 12l-30 -14l-33 6zM360 328l13 -27l-8 -27l2 -18l-2 -39q5 -10 10.5 -21.5t5.5 -33.5l-16 -45l10 -19l-8 -18l12 -4l4 -31l25 -12l75 4l33 10l47 -2q16 -4 21 -4q22 0 59 27l23 -7l100 23l39 20l29 -6l55 33h55 q44 16 98 47q4 -2 15 -2q12 0 18 2l10 23l74 24l12 25l21 6q8 11 8 31q0 10 -1 15t-25 40l-33 4l-15 23l-24 -9l-41 23l-33 -4l-18 14l-41 -4q-23 17 -41 17q-16 0 -29 -13q-13 7 -18 15h-21l-131 6l-47 22q-3 2 -14 3.5t-19 4.5q-41 -6 -65 -24l-27 20l-37 -4l-2 -14l-41 4 q-21 18 -47 18q-68 0 -68 -65l3 -21z" />
<glyph unicode="C" horiz-adv-x="1245" d="M115 401l12 35v35l12 6l4 33l25 94l18 45l9 2l4 31q10 3 14 35.5t24.5 54.5t20.5 35q0 16 -8 27l24 8q20 29 39 43l11 43l26 16l8 33q43 9 59 35.5t40 31.5l13 13q5 6 42 18l6 -4l23 23l14 -17l20 -4q31 12 66 12l41 -7q3 -1 15 -7l64 -24l144 -91q9 -28 29 -43l12 -39 q19 -46 19 -63l-2 -45q-5 -21 -5 -43q0 -2 3 -4q0 -6 -13.5 -21.5t-19.5 -23.5l-37 -8l-13 10q-8 6 -10 10l-6 11q-4 5 -6.5 17t-5.5 23v31l-6 35v49l8 37q-38 67 -97 81q-12 3 -12 7v2q-1 4 -9 8t-11 10h-43l-29 23q-30 0 -30 -12l-19 12l-20 -14l-27 4l-20 -15q-8 2 -25 2 q-15 0 -31 -6l-33 -47l-55 -55l-43 -66l-18 -8l-17 -53l-28 -23v-28l-35 -60l-17 -67h-14l8 -39l-20 -39l6 -14h-12v-31l-8 -6l2 -80l-9 -60q24 -35 23 -53l18 -14v-25l15 -22l-9 -23l39 -41l2 -20l64 -25l-6 -26l84 -7l26 -26l43 14l23 -27l47 17q17 14 27 14q6 0 6 -6 l30 2l17 -14l33 12h10q31 0 43.5 15.5t42.5 15.5q9 0 29 -4q5 22 43 24q15 18 51 29q15 0 59 20l15 25q11 3 57 25l22 28l35 15l109 114l37 21l18 -13l-37 -22l8 -31q0 -26 -51 -26l-16 -43l-68 -45q-19 -29 -39 -50q-30 0 -61.5 -24.5t-42 -32t-23.5 -14t-26.5 -10.5 t-38 -17.5t-30 -14.5t-15.5 -1h-13q-38 0 -98 -47l-31 6l-25 -8q-26 -9 -36 -9q-13 0 -29.5 4.5t-21.5 4.5h-4q-14 -11 -25 -11q-10 0 -22 13l-35 4q-9 0 -21 -6l-28 10l-19 -8l-41 18l-18 14q-8 6 -47 19l-11 26q-49 13 -53 14.5t-8.5 24.5t-16 31t-18.5 19t-13.5 30 t-15.5 34q-13 20 -19.5 39.5t-6.5 37.5v6l4 63q-12 22 -12 43z" />
<glyph unicode="D" horiz-adv-x="1278" d="M29 997q31 23 53 23l16 -2q5 0 15 12q30 8 71 8q25 -18 49 -18q8 0 23 4q6 -12 12 -12q4 0 35 12l25 -12l30 8l62 -14l35 -23l45 8l14 -26l25 -7l36 -22l23 -4l29 -14l16 2q20 0 39 -17q38 -1 90 -61h19q24 -24 65 -33l47 -37l53 -49q16 -12 25 -12q3 0 16 10l9 -6l6 -33 q52 -45 80 -79.5t31.5 -49.5t27.5 -29v-26q0 -21 18 -39q0 -20 14.5 -35t14.5 -21v-2l-6 -14q-4 -8 -6 -23l-2 -16l-37 -53l-10 -21l-25 -12q-12 -6 -27 -24q-50 -14 -75 -33h-19l-18 -4l-8 -17h-33l-4 -8l-13 2q-3 0 -13 -11.5t-23 -12.5q-10 6 -17 6q-15 0 -43 -15l-37 9 l-24 -17q-4 2 -13 2q-8 0 -28 -6t-33 -6h-14q-11 0 -40 -9t-50 -9q-16 0 -29 4l-31 -9l-33 13l-20 -13l-12 5l-15 -29l-18 16l-25 -12l-8 14q-7 -4 -35 -6l-6 -41l-24 -31l-8 -21q-3 -9 -33 -50l-7 6h-10l4 35l-2 51l-30 20q-11 11 -21 11l-41 -21h-31l-16 12l-4 17l18 18 l2 15l72 18q8 4 21 4q12 0 12 6v2l-12 41q-2 4 -2 11t4 17t4 11l-6 99l10 24v47l14 33l-24 45l24 53l-12 140l6 47v43l-18 47v73l-23 37v21l-55 6l-43 -18l-66 -5q-9 12 -11.5 30t-10.5 52zM301 328l21 -39l-5 -41l9 -23l-13 -30l19 -50l127 15q2 0 11 5t17 5q11 0 36 -5 t40 -5q49 0 96 33q21 2 50 2l49 -2q24 0 43 16q21 2 40 13t25 11q11 0 19 -8q20 0 33 13l36 4l4 20l15 -6l22 10h15l18 23h14l78 59l2 41l-6 57l-82 111h-14l-23 55l-24 2l-27 21l-8 29q-19 18 -76 36l-16 29l-162 98l-29 -2q-15 0 -37 13q-11 14 -24 14q-6 0 -14 -4l-11 24 l-30 -2q-4 3 -24 6t-36 13l-8 -4q0 14 -18 14q-42 33 -113 33q-6 0 -14 -4l6 -23l-10 -31q-5 -6 -5 -16q0 -17 19 -33l-21 -34q1 -5 11 -26.5t10 -35.5q0 -4 -3 -17.5t-3 -17.5q0 -5 10 -30l-14 -5l6 -43v-79l8 -13l-23 -37l15 -14l-19 -51l9 -47z" />
<glyph unicode="E" horiz-adv-x="1227" d="M168 946q0 19 27 49q10 4 14 11q36 14 41 14q7 0 14 -10q6 14 17 14q30 0 30 18q0 6 -6 15l68 -4l12 -23q32 23 66 23l14 -2l43 10q16 0 41 14v-14q18 16 51 16l35 -2h6l195 19l45 -19l14 25q5 -15 16 -15q3 0 19 5l22 -13l15 13l37 -15l24 6l12 -10l66 6l10 -6 q49 -11 51 -18q-3 -15 -10 -23h-22l-15 -10l-28 10l-33 -2q-24 0 -28.5 7t-14.5 7q-8 0 -27 -12q-13 8 -26 8t-40.5 -11t-39.5 -11q-10 0 -28 2t-28 2q-13 0 -16 -12q-16 12 -33 12q-29 0 -59 -25l-21 11l-18 -11l-47 15l-33 -19h-37q-33 -8 -52 -12.5t-50 -20.5l-19 13 l-36 -29l-37 2l-27 -49l10 -39q-20 -5 -20 -53l2 -17l-2 -43l6 -8l-14 -12l8 -12q-15 -32 -15 -56q0 -45 54 -45q8 0 25.5 5t35.5 0t33 -5l31 13l32 -11l21 6l20 -2l31 7l18 -5h5q12 0 36 13q18 -9 42.5 -7t35.5 5l27 6l45 -8q6 0 12 12q51 -10 62 -10l22 2l70 -4l37 8 q3 12 24 12l47 -6l19 4l26 -10l27 6l-6 -25q-36 -14 -53 -14q-5 0 -21.5 4.5t-30.5 5.5l-53 -26l-45 4l-26 -10l-19 4l-33 -19l-22 6l-82 -2q-14 0 -27 -12l-28 8l-15 -14l-26 8l-15 -14l-39 18l-28 -18l-33 8q-4 2 -16 2q-15 0 -42 -8l-24 -8l-74 -7l-16 9q-11 -8 -62 -17 l-16 -39l19 -106l-11 -14l13 -33l-2 -37l7 -10q3 -4 11 -60l18 -20l-10 -35l21 6l37 -57q77 -60 135 -60l37 -6q10 0 43 8l8 11h18q21 0 28.5 0.5t43.5 23.5q28 0 33 8l22 6q12 3 23 11l28 22q12 17 31 33l27 2l51 45q62 18 74 66l14 -8l6 32l27 2l4 31h6q19 0 27 -24 l-70 -91l-25 -6q-36 -55 -49 -63l-51 -35l-33 -31l-14 2l-25 -26l-94 -39l-22 -29l-33 10l-10 -16l-9 2l-16 -14l-55 12l-68 -31l-49 19l-84 43q-36 19 -64.5 58t-58 125.5t-29.5 94.5l7 29l-15 39l15 18l-19 111q-27 34 -31 38.5t-4 20.5q0 37 17.5 45.5t17.5 9.5v13 q0 14 19 18l6 29l-6 12v58l-7 24l23 62q10 38 16 55l-26 33l-45 -4h-4q-11 0 -20 8.5t-9 19.5z" />
<glyph unicode="F" horiz-adv-x="1116" d="M94 520q0 27 10 39t41 12q27 0 48 -2l61 -6h14q25 0 33 35l-10 27v96l-10 2l8 111l-23 61l-2 41l-57 27l-47 -31l-19 26q-18 4 -22 19q10 12 10 53q31 0 52.5 15.5t35.5 15.5l57 -6q6 0 39 2l101 6l69 -10l70 4q9 4 17.5 9t9.5 5q2 0 11.5 -4t10.5 -4h4q5 0 78 12l2 -12 q7 10 14 10q10 0 23 -16l14 6l54 6h4l120 -16q29 8 58 8q12 0 24 -8h54q26 8 32 8q19 0 19 -19q0 -14 -21 -14h-8l-29 -16l-36 12l-52 -29l-22 11q-14 8 -33 8q-8 0 -25 -4t-26 -4h-4l-25 4l-43 -15l-18 2l-8 -6l-95 -2l-24 4l-8 -14l-33 10l-22 -11q-11 -5 -42 -5l-28 6 q-21 0 -39.5 -5t-65.5 -9l-18 -19l-12 4q-7 -9 -7 -28q0 -25 31 -95l-16 -47l16 -12l-16 -25q16 -3 16 -22l-10 -41l-6 -82l4 -31l74 -10l55 14l18 -10q6 -4 47 -4q20 0 31 14l39 9l47 -17q49 10 57 10q12 0 33 7l25 -9l33 9l18 -11q47 2 54.5 4t15.5 2q6 0 18 -2t16 -2 q12 0 21 13l51 6l21 -6q8 4 14 4l22 -8h11l-4 -11q-23 -1 -58 -24h-28l-19 -13l-47 5l-40 -14q-46 -13 -62 -13l-33 10l-8 -10l-62 8l-24 -12l-37 4l-29 -7q-30 -7 -47 -7h-14q-13 0 -33 -11l-23 15l-10 2q-12 0 -59 -21l-39 6l-16 -6l-29 6q-13 0 -25 -118q0 -34 -4 -62 q12 -23 8 -33l-22 -65l12 -25l-14 -26l6 -33l-8 -16q2 -4 2 -15q0 -26 -16 -87t-29 -124l-23 13h-14l4 24v19l10 10l2 25q0 12 15 44l-15 11v22l-10 10l16 31l-18 6q4 18 11 36t7 22v4l-8 10l2 14l-6 31l12 33l-6 80l15 80l-9 32v37q0 16 -16 23l-55 -23l-41 23l-39 -6 q-4 -2 -12 -2q-15 0 -15 28z" />
<glyph unicode="G" horiz-adv-x="1485" d="M98 383l6 10l27 4v25l19 33l4 -9q26 27 26 54l-2 10q43 6 53 74l-16 -27q21 55 43 55h4l-8 -14q18 9 18 27v6l23 4l-4 -8l14 4l4 28l10 -8v15h23l16 12q7 6 21 37l43 8q42 43 43 53l31 10l10 19l39 4l33 33q33 4 63 22l6 10l4 -4l19 15l-4 4q18 12 24 12q4 0 17 -6 q18 37 43 37h43q17 0 47 33l18 -2l33 20l14 -4q14 10 38 15t26 12l10 6l10 -2l45 2l8 16l25 -4l43 6l4 8l33 -14h31l36 -31q19 -3 52 -24q-9 -46 -74 -58l-64 33l-18 -8l-35 14l-24 -14l-35 10l-60 -31l-24 13q-63 -16 -74.5 -23t-17.5 -16q-29 -23 -47 -23q-7 0 -19 4 q-132 -75 -161 -75h-3l-6 -19h-16l-21 -28l-28 -5q-24 -31 -66.5 -50.5t-50.5 -26.5l-51 -50l-33 -26l-33 -45l-65 -53v-46l-11 -10l-36 -94v-35q0 -25 19 -41.5t19 -36.5q0 -8 -2 -12l25 -27l55 -30l58 -17l69 2l82 -16l12 2l17 -4l119 10q52 20 145 23l-4 8l98 10v6 l111 27q21 20 79 26.5t83 12.5l-4 16h12v8l31 9l-9 20l23 25v37q-13 6 -14 10q6 15 6 33t-6 36l63 2l18 -16h19l31 -37l28 -4l-71 -115q-7 -9 -7 -16q0 -4 27 -41l-14 -8l-6 -72l-21 -53l27 -23l-31 -16v-25l18 -16l-8 -39l8 -45l-8 -29l15 -16l-15 -16l8 -49l-18 -50 l25 -22l-7 -53l27 -47q-3 -27 -20 -27q-8 0 -19.5 12t-11.5 15l-10 65l-25 8v27l-22 55v33l-11 14l2 23l-14 6l8 18h-16q3 11 8 11q6 0 12 -7l-14 33l10 29l-8 27l14 18l-14 6q12 16 12 35l-12 88l14 41l-6 10q-8 2 -8 23q-4 16 -16 30l-19 -14q-16 -21 -37.5 -30 t-70.5 -9.5t-68 -17.5l-18 -17l-74 -16l-33 -18h-47l-33 -17l-43 4l-28 -20l-27 8l-18 -18q-13 0 -29.5 4t-22.5 4q-19 0 -35 -13q-8 9 -20 9q-8 0 -12 -4l-8 -3l-11 3l-32 -19l-31 25l-25 -13l-65 21l-13 -8l-24 12h-51l-25 20l-43 21l-78 80l-10 61l-23 29l15 33l-17 20 l11 12z" />
<glyph unicode="H" horiz-adv-x="1503" d="M178 604l47 31q21 61 21 102q0 11 -4 31l18 -8l-10 20l-6 76l12 47l-12 80v45l10 53l37 23q22 -20 47 -27l2 -33l16 -20q-14 -50 -14 -57q0 -16 10 -21q2 -6 2 -20q0 -33 -22 -158l14 -33l-14 -20q-1 -30 -10 -80h43l22 -8l53 8l33 -4l45 4l39 -19v5q0 14 12 14 q8 0 19 -8h35l79 4q22 0 31 -4l15 18l14 -10q46 -5 57 -8q12 6 19 6l8 -2l223 24l90 -6l-18 29l10 12l-10 45l10 33l-14 88l14 33l-41 121q-4 12 -4 18q0 15 13 25t18 10h14l-8 37h31l10 -23l37 8v-32l24 8v-37l-14 -27l18 -53v-26l11 -29l-15 -41l4 -33l-12 -164l49 8l45 3 l76 20l35 -4l26 4h48l-41 -37l-33 4l-29 -22l-22 14l-80 -23l-15 -28l-32 26l-47 -63h16q-3 -34 -27 -61h4q9 0 9 -15q0 -53 -13 -88l11 -10q0 -17 -6.5 -25t-6.5 -16q0 -12 8 -39l-12 -10l2 -99l-18 -110h4l-8 -33l8 -14l-4 -33l7 -17q7 -20 7 -40q0 -10 -14 -21l2 -10 q0 -21 -19 -37l-2 21q-28 43 -28 59v78l-9 26l15 13l-15 8l-6 33v30l6 2l-6 23l6 80l-2 74l15 53l-13 18l9 19v127l6 65l-39 -14l-10 12l-17 -12l-20 8q-34 -17 -55 -13.5t-29 3.5q-15 0 -27 -4l-80 -27l-94 12l-10 -4q-27 10 -41 10q-11 0 -34.5 -9t-31.5 -9l-32 8l-13 -28 l-35 26l-51 -12l-20 12l-17 -16l-24 3q-12 1 -37 15l-2 -14l-16 6q-39 0 -68 -9t-29 -61v-75l-8 -54l8 -36l-18 -39l18 -35l-14 -90l10 -33l-4 -53l14 -35l-6 -17l4 -34l-8 -4q-35 5 -37 38l-4 97q-41 48 -41 59q0 23 31 33l-14 14l2 33l-8 25l-11 163v52l-8 28l-35 21z M1520 674q0 16 24 16q15 0 23 -8l-33 -23q-14 3 -14 15z" />
<glyph unicode="I" horiz-adv-x="537" d="M188 328l21 30l-2 138l14 106l-6 105l10 28l-10 8l6 25v37l8 14l-14 4l10 47q-23 0 -28 15h28l4 33l-14 4l10 24q17 14 17 29t-13 31l13 4v18h20l12 29l17 6q49 0 57 -33l-8 -2l-12 -31l12 -6l-6 -45q-6 -9 -6 -20l6 -27v-25l-10 -10l10 -12l-15 -37l5 -35l-33 -65l8 -4 q-4 -10 -4 -25l4 -31v-4l-23 -10l23 -51h-14l6 -19l-15 -26l19 -35l-4 -14h-10q-7 0 -7 -13q0 -23 25 -39q-20 -9 -22 -57l-3 -22l11 -33l-11 -25l2 -76l-10 -53l21 -10q-4 -21 -9.5 -30.5t-5.5 -18.5q0 -17 21 -43l-14 -4l26 -27l-10 -16l29 -9q-6 -29 -23 -49 q-18 6 -18 27l-27 35l-16 4l8 35l-33 37l14 18l-20 31l6 43q-4 11 -8 20l-8 17l16 24l-8 27l8 18z" />
<glyph unicode="J" horiz-adv-x="537" d="M-799 -381q0 12 27 12q28 0 74 -19l45 -20h12q34 0 68 -10t45 -10h16l16 -16l64 10l29 -10v-11l32 11l58 -15v13l8 2q39 0 79 4l36 4h73l17 8l8 18h29l12 17h14l21 14q14 5 26 17l13 -7l4 23l28 24l8 33l31 17l15 61h4q11 0 16 6t6 39l21 14l-15 27l19 21l-4 24 q8 14 16 14q9 0 16 -10l-8 27l13 53v43h14l6 70v10h6q8 0 8 4l-14 39l14 6v29l-6 6l12 37l-6 35l15 163l12 41l-12 70l18 33l-18 28l12 56l-23 88v94l-18 55v35l-14 4l18 107q8 43 51 43q10 0 13 -6l10 -21q6 -10 20 -20l-14 -25l16 -33l-2 -45l15 -6v-22l6 -27l-19 -25 l19 -6l-6 -45l6 -108l-6 -45l14 -21l-14 -14l4 -43l-6 -51l8 -60l-6 -16l4 -35l-29 -29l10 -14l-14 -4l16 -10l-2 -33l2 -23l-20 -14l14 -29q-20 -24 -20 -65l6 -45v-51h14l-26 -13v-30l-2 -29v-37l-25 -33l10 -14l-14 -14q-4 -25 -4 -48l-15 -18l2 -18l-12 -7v-18l-14 -20 l-14 -3q0 -9 6 -18h-15v-37l-28 -16l-4 -19l-43 -77l-86 -62l-13 -6v6l-53 -39l-20 2l-15 -14h-18l-15 -12l-65 8l-70 -29l-61 19l-47 -7l-23 7l-26 -23l-17 25l-31 -2l-57 18l-51 -16l-10 39l-80 -9l-23 27l-41 2l-4 16l-24 -4l-25 13h-22q-11 5 -11 20z" />
<glyph unicode="K" horiz-adv-x="1497" d="M188 -80l9 29l2 22q2 11 12 27l-8 20l18 11q-20 0 -20 18q-2 2 -2 4q0 11 22 25l-12 16l16 21l8 -4q-5 36 -16 59l16 37l-12 -4q-8 13 -8 28q0 9 12 41q-5 32 -5.5 60.5t-5.5 31.5t-5 13l12 14l-12 41l18 25l-10 18v47l-8 51l24 27q-12 6 -12 33l2 18q0 13 -2 17l6 24 l-10 6v19q12 3 12 12l-4 21v96l2 12q6 8 6 43q-16 25 -16 55q0 32 16 70q13 6 29 6t39 -10l29 -39l-6 -49l14 -17l-8 -20l8 -25l-27 -43l15 -67l-15 -49l4 -68l-18 -31l16 -14l27 -48q2 -4 32.5 -10.5t55.5 -15.5l12 8l21 -8l18 13l33 -5l10 -8q51 41 74 41q18 0 37 -8v14 h18q28 31 58 31h8l12 14v2q0 5 10 5h19l67 28q18 34 28 38.5t15 4.5q6 0 11 -4l4 25h14l4 14l27 6l18 33h21q9 0 14 29t31 30q14 23 28 29v14l29 4q12 56 33 62q14 20 19.5 37t49.5 63v13q0 30 21 30q23 0 45 -35l-12 -2v-22q-8 -16 -35 -43l-4 -27l-19 -6l-18 -63l-23 -27 q-17 -29 -21.5 -32.5t-15.5 -8.5t-30 -20q4 -21 10 -31q-47 0 -61 -33l-23 -6v-16l-24 -11l-41 -45l-56 -30l-39 -29l-37 -8l-32 -21l-56 -12q-72 -49 -104 -59l-59 -21l-41 -6l57 -43l10 -14h23l20 -33l49 -43l60 -35l8 -23l55 -18l47 -33l62 -33l37 -34l39 -11l55 -41 l76 -24l59 -8l98 12h39q16 0 26.5 12.5t18.5 12.5q3 0 9 -3.5t12 -3.5h4q7 25 26 25h7l4 23q24 30 49 45l2 16q23 6 37 20l10 -6l4 -16l-14 -25l-55 -75q-41 -33 -76.5 -54t-116.5 -41l-18 6l-29 -8l-33 6l-37 -6l-10 8l-23 -6l-26 6h-35l-27 27l-47 12l-18 21l-19 -4 l-28 30q-6 7 -17 10l-30 9l-29 33h-59l-15 26h-20l-8 17l-29 10l-4 39l-25 -19l-16 19l-37 26l-24 27q-11 12 -36 29t-42 34t-41 29q-18 35 -49 35h-11l-4 16l-29 -6l-4 19l-14 -4l-31 6l-22 -25l10 -71l-22 -5l18 -57q0 -33 -25 -92q21 -9 25 -33q-16 -29 -16 -53v-47 l-15 -33l-4 -29q-4 -33 -53 -112z" />
<glyph unicode="L" horiz-adv-x="1257" d="M184 295l17 70l-8 71l14 10l2 99l11 29q5 14 11 67l15 10l-13 23v117q24 40 23 57l-2 70l33 40l-31 21l12 37l23 12l-12 33l26 10l6 19l15 4l22 -4l25 -58q-33 -26 -33 -41q0 -2 -2 -4q0 -4 11 -8t13 -10l-22 -66v-76l-21 -67l-6 -66l-32 -143l10 -14l-8 -19 q-4 -10 -10.5 -48.5t-6.5 -43.5l6 -61l-8 -23l17 -92l-2 -8l32 -74v-23l103 -65l80 -8v-6l75 4l78 14h58v-8l22 20l109 2l26 17l76 4l35 10l129 8l55 17q16 -4 39 -4t23 14v4q18 0 28 10h19q24 0 24 -12q0 -21 -39 -21q-2 0 -13 -8t-26 -10l-73 -10h-47l-20 -13 q-11 -8 -24 -9l-34 -3l-17 -16l-96 -4l-55 -27q-43 -3 -55 -22q-26 0 -54 10l-43 -15l-49 -2l-45 -16h-108l-68 18l-43 -4l-16 15l-39 4l-62 63q-40 43 -55 123q-6 31 -25 76z" />
<glyph unicode="M" horiz-adv-x="1747" d="M82 8q0 4 8 25.5t14 51.5t17.5 43.5t11.5 14.5v50q0 43 41 63v33l12 47q-2 4 -2 12q0 10 11 41q14 17 14 37v45l18 33l37 123l-10 55l18 14l7 25l2 88q10 55 10 78q0 22 -27 76l17 34l-9 15q9 4 9 18q30 0 38 14l19 -2l24 -18v-18l23 -15l6 -47l19 -16l8 -29h10 q-4 -8 -4 -14q0 -18 33 -21q13 -6 28 -22l4 -27l23 -24l14 -48l92 -98l17 -55l31 -25l28 -80l70 -125q22 -37 53 -65l4 27h37l23 51l43 30q11 16 37 41v17q22 15 45.5 27.5t23.5 15.5q0 2 -2 2q0 14 12 33h21l18 26q7 -10 11 -10q2 0 2 6q0 2 -5 37q45 61 80 61v25 q0 21 35 31l12 -4l5 12l43 68l4 14h14q30 32 45 76q13 10 31 10q7 0 10 -6l14 30l-8 62l-12 29q22 32 29 65q22 -3 32 -8q5 -7 27 -10l4 -33q34 -29 35.5 -32t1.5 -13l-2 -17v-55l12 -18l-12 -11l12 -4l-4 -22l8 -10l6 -43l11 -9l-21 -28l10 -4l-6 -43l15 -37l-5 -47l19 -74 q5 -22 10 -61q-12 -25 -24 -37l12 -25q8 -5 8 -10t-7.5 -19.5t-10.5 -25.5l16 -15l-6 -112l20 -70v-82l15 -16q12 -30 20 -41t31.5 -35.5t25.5 -36.5q-5 -6 -30 -14l-43 29l-56 69l-16 41q-6 39 -16 66q-23 26 -23 112q0 14 4.5 21t10.5 67l-21 43l6 21l-6 39l2 45l-14 14 l12 31l-12 18l12 19l-14 43v65l-17 39q-1 26 -2.5 45t-38.5 43l-26 -32l-23 -11l-69 -96l-60 -72l-20 -43l-58 -65l-77 -58l-7 -34l-41 -15l-6 -28l-47 -23l-16 -39l-33 -12l-47 -84q-28 0 -33 -51q-8 -2 -14 -2q-8 18 -33 53l4 27l-14 18l14 18l-13 15q-5 6 -16 43l-28 26 q-8 3 -21.5 23.5t-20.5 30.5t-18 49l-22 26l-39 78l-41 47l-14 29l-39 43l-41 64q-35 53 -55 53q-14 0 -26.5 -5t-14.5 -5h-3v-25q0 -68 -18 -102l-43 -80l10 -52l-14 -36l-41 -138l-16 -45l-7 -30l-26 -66l-33 -57l4 -45l-35 -84q0 -18 19 -27q-40 -49 -53 -49 q-5 0 -16 15.5t-11 37.5z" />
<glyph unicode="N" horiz-adv-x="1550" d="M225 4v8l25 80l-10 33l14 43l-14 16l16 33l-23 31q5 24 5 39q0 16 -5 45l9 -4l8 20l-17 31l17 47l-10 61l14 66l-12 45l14 98l-2 76l10 70l-10 22l2 99l23 6q-27 26 -27 47q0 12 12 22l37 -8l10 14q19 -15 19 -32q0 -12 -11 -29h29l4 -47l25 -21l4 -30l33 -21l11 -42 q6 -24 21 -36l68 -49v-4q0 -16 21 -37l47 -32l51 -60l160 -133h18q22 -18 28 -33t11 -16l65 -21l52 -43l30 -10l58 -33l55 -16q51 -51 86 -51l31 8h6l4 57l29 62l-15 14l6 96l23 35l-3 23q-1 10 -20 41l23 80l-10 75l20 146l-24 26l28 84l-10 11l14 18l-4 14l31 15l6 -15 l29 6q-6 -21 -6 -38q0 -20 10 -35.5t10 -20.5l-14 -39l26 -47l-26 -41l4 -32l10 4q0 -14 -14 -47l-12 -27v-105l-21 -47l4 -30l-18 -93l8 -24l-16 -74l4 -33l-15 -53l15 -51l-33 -51l8 -29l-18 -35l10 -20l8 -96l14 -31q-15 -10 -22 -25l-19 4l-10 101l-14 4 q-2 18 -2.5 36.5t-1.5 36.5v40q0 22 -6 33l-13 26l-39 6l-22 27l-10 -13l-19 23l-33 -10l-40 32l-21 -4l-41 8l-24 25l-15 -4l-125 80l-14 18l-43 19l-27 34l-24 13l-33 33l-92 40l-66 84l-28 2l-15 23q-28 12 -65 55h10q-19 17 -33 47l-14 5h-4q-22 0 -28.5 -14t-14.5 -60 l-19 -105l19 -63l-29 -105q12 -63 12 -69v-8q0 -25 -13 -40t-13 -22q0 -5 26 -14l-12 -43v-51l-10 -56l10 -22l-10 -15q-4 -61 -27 -96h-14q-25 0 -25 39z" />
<glyph unicode="O" horiz-adv-x="1427" d="M115 313l28 88l-4 43l19 17l-15 35l35 28v29l12 27v22l15 25l-6 8l10 6l43 98l80 127q18 6 26 21.5t43 40.5l-4 18h25l-6 12q23 24 63 37l15 17h-2q0 1 39 6l94 12l59 -8l45 2h53q21 -4 29 -4q28 0 43 18q10 -10 23 -10q6 0 10 2q1 -20 20 -20q8 -9 45 -13l15 -14l30 -4 h39l56 -29h-13l38 -27q7 -5 20 -28l30 -14l15 -25l35 -14l68 -113q7 -11 24 -57l27 -73q10 -26 10 -34v-14l-19 -45l-6 -62l-18 -18l-21 -66q-3 -13 -6 -19t-13 -10l-22 -9l-121 -97l-28 -14q-13 -6 -41 -33v12l-84 -65l-37 -16l-88 -48q-19 9 -37 9q-14 0 -21.5 -10 t-15.5 -13l-18 4l-33 -31l-17 9l-8 -11h-35l-18 -18l-61 4l-99 -18q-6 2 -18 2l-31 -4l-35 6l-8 8l-86 14l-41 21h-18v39l-29 -11l-14 20q-9 11 -20 17l-32 15q-16 45 -18 104l-10 14zM172 262l12 -24l6 -37l19 -25q4 -6 6 -15l4 -24q39 -44 97 -62q52 -16 65 -16h2l66 17 l14 -15h33v-14h32l9 25l32 4l82 -10q11 20 25 20l8 -2q45 29 66 29h8l41 26q8 4 43 6l26 23q74 2 85 10t19.5 17t39.5 16l14 39l6 -2l4 14q24 7 39 27l19 -6l10 20l33 25l55 61l33 12l16 35l27 19l-6 37l14 32l-8 60l12 20l-18 47l2 15q0 10 -5 22t-42 35l-15 39l-12 6 l-6 23l-58 61l-51 43l-16 -6l-74 47q-10 6 -42.5 11t-49.5 16q0 -2 -6 -2q-4 0 -31 4l-10 -7l-31 11l-20 -11q-27 9 -37 9q-6 0 -17.5 -4.5t-17.5 -4.5q-10 0 -14 5q-21 -11 -33.5 -25.5t-40.5 -26.5l-29 7l-28 -19l-33 4l-12 -5q-6 -3 -11 -7.5t-12.5 -10.5t-18 -13.5 t-23 -16.5t-27.5 -18q-7 -5 -27 -41l2 -29l-37 -16q-6 -3 -25 -25q-15 -34 -37 -55v-25q-24 -10 -28 -25l-19 -59l-34 -22q-7 -125 -21.5 -145t-20 -36.5t-8 -36t-14.5 -55.5z" />
<glyph unicode="P" horiz-adv-x="1126" d="M12 1020l21 29v14q5 9 36.5 11.5t55.5 15.5q23 -5 29 -5q10 0 18 9l18 -9q17 5 21 5q12 0 18 -13h99l59 -2l68 -12q5 -7 17.5 -11.5t12.5 -9.5l15 15h8q22 0 22 -8q0 -5 -2 -7h29q55 -16 92 -18l6 -12h56l37 -25q6 -4 43 -8l10 -16h10q53 0 74 -41l26 14v-25 q19 -5 52 -30h24l19 -29l65 -43v-23l43 -63l-12 -25q-6 -14 -18 -26l-31 -31v-14q-23 -5 -35.5 -22t-22.5 -17q-18 -33 -88 -49q-25 -35 -73 -35h-11v-12h-41l-24 -19l-23 -2q0 -16 -14 -16l-19 -15h-47l-28 -26l-84 -17l-11 -8l-47 4q-2 -7 -18 -35q-9 7 -59 11l-19 -11 l-29 -10q-21 -14 -45 -20l-12 -39l21 -39l-11 -49l15 -56l-13 -8l17 -24v-41l8 -21v-37l47 4q10 -9 10 -22q0 -31 -43 -31h-12l-33 -12l-28 51l-37 80v84l-21 41l15 16l-9 41l4 29l-14 18l-84 15l-22 32l102 9l-10 6q4 4 12 4q11 0 14 -4v47l13 24l6 123l12 15l-4 94l8 51 l4 113l13 32l16 11l-4 30q0 21 24 21q70 0 70 -47q0 -13 -16.5 -45.5t-16.5 -48.5q0 -18 23 -56l-19 -18l-2 -55l-26 -25l8 -43l-16 -47l8 -45l-8 -35l4 -27l-15 -22q3 -34 29 -39l51 31h43q29 28 70 28l14 13q10 -4 29 -4q41 0 82 34l33 2l26 23h27l6 10l108 31q29 3 29 14 q8 8 10 19q10 -2 23 -2q28 0 35 36q32 4 35 13t16 14l12 -10l10 31l15 12l8 45q-17 46 -45 82l-21 4l-36 33l-76 32q-73 55 -156 62v-14l-35 24l-47 -2l-28 19h-33l-29 16h-29q-21 0 -34 16l-80 11q-22 -7 -62 -23l-47 29l-28 -17l-23 15l-43 -13v-6h-18l-41 -22l-28 -4 q-13 -2 -40 -19q-27 34 -33 74z" />
<glyph unicode="Q" horiz-adv-x="1462" d="M115 238l8 51l-4 86l16 37q23 5 23 34q0 17 -3 30t-3 18q0 22 28 30l-10 8l14 5v34q37 22 37 88l-4 5l19 14v-12l12 8l8 37l51 65h-8l16 25q7 -13 9 -13t2 13q0 5 -2 15t-2 15q0 11 20 11q8 0 14 -2q34 48 56 49l-4 16l14 6l2 -8l14 41l19 2l133 60l-15 -23l19 14l100 9 q3 -13 13 -13t24 4l113 33l102 12q139 -12 186.5 -21t51.5 -30h10q38 0 47 -26l10 -2v-13q10 -23 39.5 -53t43.5 -54.5t14 -66.5v-53q-10 -69 -13 -119q-37 -29 -41 -36.5t-6 -25t-4 -24.5l-20 -8l-9 -33l-24 -6l6 -10q-10 -6 -27 -26t-20 -23l-25 -47l-15 -12 q-7 -5 -17 -25l-60 -29l-33 -49l-20 -8l-11 -15q-5 -6 -85 -37q-20 -42 -29 -45v-32l66 -66v-14l12 -17l35 13l43 -31l77 -27l117 -6l19 15l10 -13l90 19h31l14 14l145 37l7 -4v14q32 0 32 25l49 8q1 -5 6 -10.5t5 -8.5q0 -14 -15 -28l-25 -9q-11 -4 -40 -26l-14 6l-74 -22 l-23 -29l-14 2l-2 -6l-19 4l-18 -14h-23l-98 -37q-3 14 -28 14l-41 -14l-29 14l-25 -14l-32 4l-15 -15l-37 29l-12 -12l-35 20l-33 6q-30 24 -71 46l-25 40h-28l-17 21q-8 10 -31 20q-10 32 -15 36.5t-23 6.5l-46 -28h-22l-29 -29l-26 4l-27 -18l-27 4l-36 -19h-29l-43 -28 l-35 14l-33 -14l-39 14l-20 -6l-64 16h-34l-21 23l-24 -4l-9 12l-10 31l-16 16l-54 66l-20 18l8 29zM170 266l14 -18l17 -72l49 -51v-16q17 -13 30 -13h13l74 -35q5 11 12 15q19 -17 33 -17h151v7l23 10q10 4 65 8l17 20q0 -8 4 -8q6 0 12 13q57 1 61 22q23 6 23 23v4h10 l-45 84l-26 32l-7 33l-59 139q-6 19 -6 78q32 3 41 27q39 -22 41 -33l22 -106l19 -29l14 -55l47 -62v-8q0 -57 29 -57q9 0 29 8l4 8h16l21 10l12 29l43 10l2 8q12 3 13.5 12t8.5 9t11 -6q10 7 10 16q0 6 -2 10h20l15 31h16l29 19q18 4 22 36l25 11q5 23 8.5 27t18 10.5 t14.5 17.5v4q18 9 20 29t10 20l9 -2l-4 6h6q16 0 16 27q10 5 10 18l19 19v14q28 55 28 121q0 55 -38 127q-37 72 -83 72h-1l-62 47l-127 22l-41 -14l-22 2q-9 4 -17 4q-4 0 -16 -4l-6 12l-33 -14l-33 6l-39 -15q-8 -3 -26 -22q-32 0 -51.5 -11.5t-26.5 -19.5l-25 3l-28 -7 l-23 4l-25 -30l-14 2q-27 0 -55 -45q0 8 -4 8q-2 0 -26 -20l-21 -15l-43 -67l-23 -70h-16l-17 33h-10q-55 -25 -55 -76v-17l-31 -30v-17q-22 -24 -43 -86q-3 -37 -8 -49l-25 -57l4 -84z" />
<glyph unicode="R" horiz-adv-x="1509" d="M45 903q0 10 4.5 19.5t15.5 17.5l27 18l62 7l84 4l18 14v6q0 31 47 31h25q11 -43 37 -43q6 0 43 18l51 -12l80 12l106 -12l150 -4l75 -14h58l22 -19q3 12 13 12q8 0 20 -12q0 -14 8 -24l21 -4v26l82 -33l28 -22l4 6q18 -11 54 -14l14 -17l18 -4q33 -51 50.5 -76t17.5 -45 q0 -37 -31.5 -65t-68.5 -70l-21 -1l-16 -1q-6 0 -35 -14l-8 -17h-58l-16 -14q-4 -4 -19 -9l-30 -9q-52 0 -92 -43l-33 22l-29 -14q-9 6 -16 6q-12 0 -31 -18l-28 12l-27 -12l-10 12l-37 -21l-49 6q-15 0 -31 -4l20 -28l50 -43l14 -25l80 -61l18 -33l13 -15q6 -6 26 -55 l55 -2l62 -63l33 -15l45 -28l43 -13l61 -24l23 4l10 -8l4 4l8 -14l29 6l6 -21l23 15l24 -7l70 7l28 -7l99 17l73 20l5 -12l14 25h31l12 28q8 -22 8 -28q0 -9 -18.5 -23.5t-42.5 -34.5l-23 8l-27 -41q-33 -2 -63 -18l-59 14l-33 -14l-10 -18q-29 22 -37 22q-4 0 -4 -6l-11 2 l-18 -18l-18 22l-15 -6q-17 14 -33 14h-65l-19 21l-22 -4l-33 18l-20 -10l-15 24h-30l-19 23h-24q-3 0 -12.5 15t-28.5 26l-62 33q-54 26 -84 90h-24l-33 41l-60 47l-67 78l-19 6l-31 33q-5 6 -42 18q-14 -8 -25 -8q-9 0 -20 8v-2q0 -2 -4 -2h-21l-20 29q11 12 14 41l25 8 v12l26 6q13 10 25 10q8 0 17 -5t11 -5q3 0 7 6q9 -37 86 -37q67 0 104 13v6l154 6q53 27 112 27l13 -4l34 12l9 12l24 -2l31 12h22q17 0 21 3.5t4 15.5v8q25 3 25 8q77 20 77 68q0 23 -22 45l-68 65h-16q-47 29 -60 29h-20l-41 18h-25l-26 21h-47l-19 8l-112 8l-19 11 l-12 -7l-23 7l-22 -7l-60 7l-61 -11l-33 11l-37 -4l-32 4l-25 -11l-18 7l-37 -23l-29 4q-14 -30 -31 -51l13 -29l-6 -119l14 -102q-22 -71 -23 -88l-14 -262l16 -150l-12 -80v-20q0 -16 -39 -16h-8l10 79l-10 31l-18 84l12 8q-25 31 -25 41q0 19 23 41l-17 33h-2q-4 0 -4 2 q0 11 25 57q-14 15 -14 39l6 33v16q14 26 14 43q0 19 -14 48l14 34l-6 31l12 10q-6 9 -6 21q0 15 14 49l-20 -4l-12 55l10 39l-10 84l10 10q-32 33 -49 33h-6l-15 -14l-47 4l-31 -39q-21 17 -39 20q-16 21 -16 33z" />
<glyph unicode="S" horiz-adv-x="1475" d="M0 190q0 12 14 58l15 -2q19 0 24 24l31 4l-14 7l22 2q17 20 25 20q22 0 22 -37q-27 -6 -47 -28q0 -8 -16 -17.5t-23 -15.5l6 -12v-35q34 -19 62 -54l25 -4q12 -2 40 -20l37 4l-4 12l55 -4l-12 -8l45 -8l6 -10h95v-7q13 11 28 11q8 0 19.5 -4.5t44.5 -6.5l4 -12l28 -2h31 l21 -8l-9 8q28 12 46 12q10 0 20 -10q18 12 43 12q22 0 49 -8q13 10 29 10q15 0 31 -10l73 21l15 20l63 -8l51 12l-8 2q4 4 70 6q6 7 10 7l14 -2l52 22l10 -4v10h35v4q0 19 32 19h15l8 8l-6 8q16 17 24 17q23 0 23 16q26 39 26 53q0 48 -157 113l-90 37q-35 0 -99 24 q-28 23 -69 23q-26 0 -39 -4l-12 16l-29 -12l-23 26l-32 -8l-58 29h-37l-24 18h-33l-14 21l-4 -10h-23l-29 34q-98 1 -127 35l-22 -6l-14 33l-33 35q-27 65 -41 82l8 61l33 43q19 8 28 37q31 20 48 22q5 -8 12 -8l20 29l9 -14l4 14l75 26l-22 5l20 -2q35 0 43 22 q47 0 105 14l-10 9q5 4 18 4q15 0 20 -4l-6 6l17 -2q20 0 26 18h11l24 2q6 0 6 -2v-8q14 10 27 10h12l121 12l6 -12v14l27 17q10 -21 41 -21h10q49 0 66 -10l-15 -2q39 0 112 -23.5t73 -76.5q0 -39 -52 -47l-8 18l-67 23h-29l-23 28l-43 -6l-14 14l-18 -22l-29 22l-62 -8 l-69 19l-19 -11q-65 -3 -77 -12q-4 2 -15 2q-15 0 -28 -16l-48 -4l-127 -47l-32 8l-47 -37h-27l-20 -29l-52 -37q-8 -4 -8 -8v-2q10 -33 12 -55l21 -10l10 -21l31 -8l23 -16q10 -7 57 -25l4 -10h47l61 -41l25 8q23 -7 48.5 -24t35.5 -17q9 0 22 8v-14l70 -6l21 -13v7h14 l31 -21q55 0 75 -12q12 2 31 2q26 0 45.5 -18.5t28.5 -18.5h4l22 6l15 -6h28l56 -41l55 -8l16 -25l70 -55q31 -26 31 -94l2 -31q0 -16 -25 -50.5t-61 -49.5q-6 -13 -25 -13h-6q-28 -28 -72 -28q-13 -17 -36 -29l-43 4l-37 -33l-17 11l-26 -9q-44 -2 -47 -8l-64 6 q-42 -18 -61 -18l-56 4l-39 -18l-22 4q-6 6 -12 6q-10 0 -17 -10h-65l-19 12l-14 -12l-98 4l-47 8q-21 -10 -33 -10q-22 0 -58 26l-34 -14l-11 12h-22q-38 0 -72 12.5t-43 12.5q-4 0 -12 -4l-72 51l-45 12q-47 59 -47 94z" />
<glyph unicode="T" horiz-adv-x="1210" d="M35 979q0 4 8 33h33l145 -29l35 12l96 -4l90 -8l60 23h16l17 47l28 -9l6 -20l13 6q16 -21 47 -35l33 11q33 0 57 -27l12 16l76 15l47 -4q20 -9 37 -9h10q19 7 31 7l29 -5q9 0 12 7l41 6l47 -11q10 -10 28.5 -3.5t24.5 6.5l37 -7l102 2l45 -8h43l-10 -22l-26 -4h-62 l-29 -7l-24 7l-127 -11l-43 11q-53 -21 -76 -21h-61l-37 14q0 -10 -15 -14q-28 0 -54.5 -8t-49.5 -8l-41 16l-35 -16l-4 -13h-18l-11 -20l-8 -133l8 -19l-4 -22l2 -59l-6 -60v-18q0 -13 -5.5 -19.5t-8.5 -32.5l16 -26l-4 -33l-14 -10q0 -12 12 -31l-12 -20v-23l-16 -24 l10 -58l-4 -84l-15 -53q4 -8 4 -12q0 -6 -3.5 -13.5t-1 -15t2.5 -12.5q0 -6 -10 -26.5t-7 -25.5q1 -2 7 -32q-10 -27 -10 -41t4 -45q-12 0 -21.5 3t-11.5 3q-16 0 -16 59l4 31q0 17 -4 49t-4 47l12 144q-16 27 -16 30q0 11 10 19q-8 10 -8 18q0 6 12 12q-8 20 -8 27 q0 11 7 29.5t7 21.5l-2 33q0 6 19 45q-17 0 -17 27q0 47 12 53v84l-12 41l12 86l-12 61l12 48q-8 28 -28 28q-11 0 -19 -10l-29 -3q-16 -1 -32 -11l-25 2l-24 -2v-7h-17q-34 0 -55 13l-4 -13l-43 13l-119 4l-47 -14q-53 46 -53 61z" />
<glyph unicode="U" horiz-adv-x="1460" d="M201 537q6 9 18 17.5t12 25.5l-14 18l8 43l-16 33v22l16 27l-8 39l14 61l-8 80l8 47l-8 8h15q0 25 10 25h6q0 2 -6 8q61 -10 74 -69l-15 -23l-24 -123q-4 -24 -4 -35q0 -19 20 -63q-27 -129 -27 -195q0 -18 1 -28t16 -29q-7 -28 -8 -90l-15 -23l23 -18l-19 -14 q-6 -15 -6 -29q0 -25 11 -47t17 -56.5t21 -50.5h33l47 -2l4 13q13 4 15 4q5 0 10 -4v2q0 10 14 14l4 29l37 -9l15 31l32 14q7 19 23 19q6 0 18 -4l4 20q38 26 58 29v16l22 4l10 11q18 0 24 5.5t13 37.5l58 30l8 25l14 -4l15 35l36 16l7 14l22 17v26l18 9l21 28l33 15l4 18 h12l-8 8q13 23 35 23h6v24l14 6l45 89q6 22 17 55l8 47l12 25q6 12 12 47l3 36q2 19 12 46l20 16l31 -16q15 -20 43 -41l-10 -19l4 -37q0 -24 -29 -24l-8 -8v-19l-14 -24v-37l-15 -39l4 -51q-20 -28 -20 -35q0 -13 12 -23.5t15 -17.5l-13 -4l-12 -27l12 -33l-6 -63l19 -31 h-7q-14 0 -10 -13q10 -36 10 -75q15 -14 15 -25q0 -5 -8 -10l14 -45q14 -66 51 -164l23 -32q12 -30 28 -46l58 -55l75 -16l9 16l20 -10q14 14 25 16q9 15 28 15l37 -4l-6 -48l-53 -18l-6 -20l-29 10l-35 -23l-22 -2q-49 0 -68 21.5t-22 21.5l-11 -8q-43 23 -69 70l8 4 l-41 47l-14 55l-25 39l-14 53l-19 39l-31 189l-2 80q-14 30 -18 59q-2 2 -8 2q-9 0 -10 -2l-43 -59l-41 -31q-1 -11 -37 -49l-20 -13q-9 -6 -42 -41q0 -20 -22 -26l-25 -29l-33 -14l-28 -39l-158 -123l-70 -43l-25 -21q-16 -12 -27 -15l-34 -11l-4 -23l-8 -2l4 -8h-47 l-14 -6l10 -8l-43 -4q-32 37 -43 43v37l-18 18l-21 125l-6 16l-6 82l12 41l-6 31l6 33l-8 106z" />
<glyph unicode="V" horiz-adv-x="1294" d="M76 936q0 14 14 43l19 6q31 0 43 -8q5 -14 22 -14l25 -50l22 -20q32 -50 39.5 -64t36.5 -38l8 -29l19 -17l2 -24l36 -62l3 -18l26 -43q26 -25 30.5 -56.5t24.5 -52.5l13 -30l12 -45l35 -56l-4 -26l16 -25l25 -76q19 -62 67 -102q10 0 19.5 15.5t36.5 41.5l24 19l29 35 q13 10 24 24t20 32.5t15 24t15 23.5q1 -2 6 -2t10.5 7.5t17 33t18.5 33.5l19 20l13 35l20 25l23 36q31 29 51 56q7 3 12.5 12t12 31.5t13.5 31.5t7 15q0 4 -2 4q2 7 12 17.5t10 17.5l-2 6l13 12l8 33v16l16 17l12 33q17 16 17 30v6l8 41l11 21q5 10 7 41q35 19 35 31l17 -7 q3 2 12 2q14 0 20 -18q14 -3 17 -21.5t2 -23.5l-6 -31l-21 -26l-14 -43l-21 -21l-24 -41q-18 -20 -21 -57q-6 -29 -26.5 -43.5t-22 -31t-13.5 -29t-23.5 -23.5t-18 -21.5t-6.5 -11.5l-49 -53l-29 -68l-39 -47l-25 -43l-16 -14l-23 -33l-71 -90l-33 -55l-43 -35 q-1 -20 -25 -58l7 -71q-9 -25 -15.5 -31t-19.5 -6q-16 0 -25 21.5t-22.5 44.5t-18.5 32l-20 51q-35 50 -43 74l-23 66l-22 39l-2 41l-33 81l-49 93l-54 84l-22 69l-31 17l-26 57l-19 16l-33 54q-9 16 -20 35.5t-21 19.5h-2q-32 18 -67 65z" />
<glyph unicode="W" horiz-adv-x="1958" d="M113 932l12 33q12 15 12 32v9q6 32 23 32q24 0 43.5 -23.5t19.5 -60.5v-8l-6 -14l8 -10l-8 -33v-33l25 -174l-2 -18l22 -46l21 -131l12 -26l18 -86l15 -6v-27l10 -20q4 -9 8 -52l12 -4l11 -55l14 -6q26 -60 45 -62q22 51 27 58h16l35 43l8 25q4 12 25 34v19q0 7 43 34 l8 37l45 47l14 33l29 12q2 47 41 52l6 18q29 0 29 10v6l14 19q9 21 25 24q41 22 41 45v5l22 2q18 20 25 55h14l20 37h17q11 0 26 18v39l18 24q5 7 8 24l7 42q35 22 35 33q0 4 -2 6h33q31 -37 47 -41l4 -29l-6 -53l6 -63l51 -127l-4 -29l13 -22q6 -11 12 -48l18 -12l23 -114 l16 -34q8 -16 14 -53l25 -22l35 -88q64 -117 73 -117v2q0 2 -2 6l9 60l26 18l4 23q7 8 39 26l19 39l4 20q2 9 26 38q25 9 25 36v9l29 6l24 47l51 55l45 82l31 45l25 55l27 29q16 17 32 60l31 79l-12 15l20 43l-6 18l16 8v17l2 18l-18 19q2 33 18 59l-6 14h15q8 37 26 37 q13 0 25 -12l43 -45l-23 -39q13 -15 13 -23q0 -3 -2 -8t-6.5 -13.5t-11 -36.5t-15.5 -54t-15.5 -39.5t-11 -20.5t-4.5 -8l-21 -49l-24 -43v-6l-84 -113l-12 -45l-41 -47l-27 -61l-29 -11l-12 -26q-27 -20 -33 -47l-12 -29l-20 -18l-13 -25l-51 -72l-8 -24q-4 -15 -13 -25 l-22 -26v-37l-18 -35l14 -84q-12 -12 -41 -19q-6 -6 -18 -6l-27 13l-27 77l-45 78l-2 58l-41 36l-22 52q-13 17 -22 48l-14 42q-7 26 -22 47l-14 21q-8 12 -10 25l-4 34l-21 14l-16 80l-33 74l4 14q-39 58 -39 96v11q-14 -6 -30 -41l-23 -21q-18 -9 -68 -51v-2 q0 -17 -20.5 -28.5t-28.5 -16.5q-13 0 -24.5 -8t-29.5 -30.5t-27 -30.5l-23 -21l-47 -62l-49 -78q-30 -23 -37.5 -29t-24.5 -40q-6 -30 -10 -31l-23 -8v-25l-18 -8l-14 -41q-15 -21 -21 -47q-16 -8 -16 -20l4 -11v-6q0 -18 12 -31l-14 -2l8 -20q-5 -18 -20 -27l4 -14v-10 q0 -33 -25 -33q-18 0 -27 12l-55 80l-10 29l-57 102l-23 84l-37 74l-6 47l-25 47l-20 76v26l-51 168l8 27l-11 12q-1 2 -4 8.5t-7.5 17t-8.5 21.5v37l-10 88z" />
<glyph unicode="X" horiz-adv-x="1292" d="M-35 -98l31 26q6 4 27 39q23 3 26 33q60 20 78 72l16 8l13 -4l32 37q2 2 11 10t17.5 17.5t14 17.5t43.5 30l27 29q20 10 31 39l24 6l58 66v14l24 16l17 35l20 4l27 39l33 10l2 27l30 23v10q0 60 -65 129q-20 17 -31 39l-16 33l-33 28l-74 80q-16 27 -47 62 q-70 33 -101.5 64.5t-31.5 68.5v20l41 17l41 -5l29 -32h34v-15l31 -16l12 -35l33 -12l17 -33l32 -14v-37l70 -72l14 -41h15l24 -35l25 -59l19 -15q9 -8 26 -36q28 36 57 57t29 25q0 2 -2 4l18 12v19q47 43 56.5 51.5t9.5 15.5l22 31q21 38 33 51l43 49l12 27q24 24 26 40.5 t2.5 21.5t23 34t34.5 41l31 6q10 0 21.5 -18.5t11.5 -44.5q0 -6 -20 -39.5t-26.5 -50t-31.5 -48.5q-19 -11 -35 -32q-20 -7 -20 -23q-19 -27 -21 -51q-16 -7 -22 -25q-30 -14 -43.5 -41t-18.5 -34q-22 -10 -28 -27l-19 -29l-33 -32l-18 -29q-29 -19 -32 -24t-3 -13 q0 -9 6 -18l17 -26q8 -11 26 -58l9 -7q6 -4 14 -15t22 -32l47 -59l7 -33l59 -49l43 -47l41 -16l43 -45h18l62 -25q10 -2 26 -2q29 0 39.5 13.5t16.5 13.5h2v18q69 -40 69 -64q0 -26 -31.5 -42.5t-52.5 -16.5l-41 14l-32 -6h-2q-4 0 -18 8.5t-34 8.5h-4q-53 0 -75 47 q-2 -2 -7 -2q-9 0 -40 12l-23 31q-45 28 -64 51l-126 154l-43 67l-9 37l-22 20h-17q-23 -23 -47 -67l-18 -4l-78 -68l-43 -33l-25 -49l-143 -116l-27 -43l-45 -18q-8 -3 -28 -28l-25 -2l-47 -53l-25 -10q-33 -24 -47 -27q-27 -41 -39 -41t-12 15z" />
<glyph unicode="Y" horiz-adv-x="1350" d="M61 1071l2 19h19q2 14 18 14q18 0 52 -10l10 -33l39 -17l32 -53l46 -33l2 -43q0 -16 30 -20l21 -33l30 -24l99 -148l-4 -16l22 -8l29 -39l102 -99q11 -9 23.5 -28t17.5 -19q1 0 18 17.5t44 66.5q6 37 14 37h14q9 0 9 12v7q0 12 28 34l-2 7q0 18 45 38l19 29v4q0 22 47 25 q16 8 16 18q0 7 -2 10q32 6 44 20l34 40q20 39 46.5 62.5t31.5 23.5h4l18 25q8 12 37 32l8 31q6 -4 19 -4q18 0 18 31v2q0 8 31 14l-6 12l24 10h23l12 35l49 -6l15 6l12 -26l16 -9l-16 -14v-33q-34 -6 -48 -25t-30 -22q-3 -22 -18 -22l-51 -45l-21 -35h-18q-20 -37 -33 -47 q-33 -14 -41 -23l-43 -51l-31 -23q-16 -12 -45 -22l-20 -39l-28 -17q-13 -8 -44 -40l-21 -54l-71 -88q-31 -45 -47 -84l12 -22l-12 -33l10 -39l-14 -45l8 -53l14 -16q-24 -34 -24 -68q0 -29 -9 -45q6 -45 6 -61v-7l-14 -96l2 -47l-8 -21l14 -73l-18 -31l12 -39l-12 -20 q25 -42 19 -59q-15 -46 -15 -52l12 -55l-20 -51l22 -33l-6 -74q-3 -36 -26 -43l-13 70l-16 61l-4 57l-15 9l11 24l-11 35l11 64l-15 67l6 57l-2 13l2 45l-8 96l8 45l-6 53l15 95l-19 34l8 41q0 49 -14 82q16 30 16 53q0 16 -30 123q-26 19 -43 50q-15 2 -29 18l-61 74 l-31 18l-27 49l-78 78l-14 29l-39 49l-49 41v22l-24 18q-15 11 -21 23l-18 33q-5 10 -33 21q-60 32 -60 106z" />
<glyph unicode="Z" horiz-adv-x="1804" d="M37 61v25l8 18q37 15 41 29l57 21q59 55 78 55q18 18 39 22l6 19h15q14 10 28.5 32.5t16.5 24.5h14l4 21q33 0 45 18.5t29 18.5h4q8 2 8 24q14 0 27 8l30 39q7 8 23 16l39 19l4 33q39 35 49 35h12l43 55l18 3q7 1 36 24l8 20l22 8v15q8 8 17 8q3 0 9 -3t9 -3q5 0 8 10 q0 22 27 31v14l14 -6l11 24l18 4l37 56l43 28l12 37q13 5 47 47h15l14 25h6l-6 10l20 8l-2 23l2 20h-61l-14 15q-12 -26 -39 -29l-15 14l-45 -6l-18 6l-14 -2h-33l-15 11l-32 -29l-15 18l-10 2l-26 -2q-13 -2 -41 -2q-40 0 -62 4l-47 -18l-14 12l-23 -12l-33 16l-14 -4 q-6 -14 -12 -14q-4 0 -10 6.5t-11 7.5l-14 -10l-14 14l-29 2l-16 -18l-39 16l-29 -12h-6q-34 0 -37 78l27 14q17 -2 49 -2l67 4l19 -8l49 12l104 -12l23 12l43 -2q-2 -2 -2 -4q0 -1 6 -3.5t8 -8.5l17 12q19 -8 36 -8q19 0 27 14q43 -8 129 -8l29 6l16 -8q39 4 57 4l33 -2 l43 6l56 -6l53 8h10l23 -2q6 0 8 4q16 17 30 17q3 8 7 8q6 0 22 -4q25 -25 31 -62l-8 -14l-46 -15q-10 -3 -24 -18l-33 -4q-10 -13 -10 -18q0 -7 10 -10l-24 -13l-39 -39l-41 -30l-12 -17q-42 -48 -52 -69l-32 -4l-15 -35l-33 -21v-12h-10q-2 -16 -18 -23q-29 -5 -29 -22v-4 l-12 -8v-15q-46 -23 -52.5 -36t-10.5 -19t-27 -12l-11 -27q-39 -15 -55 -47h-33q-32 -10 -46 -45t-17 -36l-45 -15v-17l-27 -18l-47 -21l-53 -75l-74 -45l-18 -33q-26 -12 -29.5 -20.5t-3.5 -12.5q0 -14 14 -14h29l82 2l94 -6q14 -21 33 -21q5 0 20 4q28 -10 47 -10h9l26 16 q8 -9 15 -30h18q33 4 47 4q48 0 76 -25l24 4l39 -12l13 8l18 -16l14 8q30 -4 65 -7.5t48 -15.5l16 -8l140 -2l49 -14l90 -4l29 -13l94 9q69 26 74 47l22 18l31 64l10 67l12 17q21 39 39 39q11 0 20 -8.5t9 -12.5l-4 -45l-21 -65l-32 -80q-14 -12 -21.5 -35.5t-11.5 -30.5 l-21 -6l-10 -23q-40 -9 -49 -36l-25 16l-22 -6l-16 12l-9 -22l-12 10l-25 -15q-19 15 -34 15t-31 -8q-1 10 -41 10l-61 -2l-56 26h-20l-6 -14l-27 21l-23 -15l-30 23l-92 8l-39 16l-21 -10l-67 19v2q0 6 -11 6q-14 0 -55 -11l-14 13l-51 -4l-29 18l-94 12h-29l-84 21l-8 -4 l-6 8l-31 -8l-27 8l-16 -18l-20 9q-9 5 -50 9l-10 8l-22 -8l-13 12l-16 -12l-17 8l-24 -26l-57 -7l-52 -45l-18 6h-21q-3 15 -24 41z" />
<glyph unicode="[" d="M229 -211l66 37l-4 47q16 18 16 45q0 50 -12 53l27 41l-9 35l9 12v33l-13 6l23 45l-8 39l12 27v35l6 22l-6 41l4 17l-4 41l7 35q3 16 5 40q10 7 10 54q0 13 -4 45q-4 3 -4 12q0 8 10.5 38t14.5 56l14 109l-14 45l12 80l-8 57v18l14 19l-22 80q7 1 11.5 13.5t4.5 14.5 l-8 27v76l-14 16l8 6l-8 19l4 10h-23l-10 14l-21 -14l-73 18l20 29q28 -4 37 -4q35 0 49 22l21 -2l6 -16h18l13 -8l34 16l21 -8l12 8q56 0 78 15l24 -7l27 21l16 -8l19 8h33l37 6l10 -10l-2 -12q0 -13 14 -31l-33 -5q-6 -1 -26 -18h-21q-12 0 -33 -10q-27 -6 -36 -6l-29 6 h-6q-23 0 -32 -3t-19 -3q-19 0 -33 8l-35 -16l-33 10l13 -41v-27q28 -71 28 -102v-8l-8 -13l8 -6l2 -69l8 -51l-8 -35l8 -60l-8 -24l8 -56l-10 -28l6 -27l-10 -10l6 -27l-10 -80l4 -61q-8 -8 -8 -16q0 -5 8 -21q-16 -59 -16 -80v-6l6 -55l-5 -22q-5 -22 -5 -40v-12 q-9 -16 -9 -37v-76l-6 -34v-60l11 -39v-65q0 -99 24 -99q14 5 30.5 10t28.5 6l30 2q18 1 30 6l31 11l18 -6l51 6l17 13l8 -13l69 -2q15 15 31 15t32.5 -11.5t16.5 -21.5v-15l15 -14q-26 -16 -58 -16q-37 0 -69 22l-37 -10l-19 6l-37 -12q-17 0 -47 16q-2 -18 -28 -18h-33 q-8 4 -12 4q-11 0 -25 -10h-3q-49 -4 -65 -28l-18 -28q-49 17 -72 33q-53 -20 -67 -20q-16 0 -19 16z" />
<glyph unicode="\" horiz-adv-x="846" d="M-2 1149v6q0 2 4 23q26 4 43 20l51 -6l2 -33l27 -14q-6 -3 -6 -8q0 -9 24 -21v-47l17 -33v-22l22 -6l-6 -25l47 -51q-2 -6 -2 -19q0 -37 37 -45q18 -18 18 -37q0 -56 41 -61l19 -33l21 -19q10 -9 26 -38l3 -20q1 -9 30 -48l20 -4l4 -35l27 -10v-22l33 -29l10 -33h18 l19 -41v-28l33 -66l12 -6q6 -23 43 -72v-16l31 -21l18 -63l12 6q14 -14 17 -39l37 -47q12 -6 17.5 -10.5t8.5 -15.5l4 -23l47 -74l15 -39l-15 -8q-20 8 -20 33q-16 10 -35 51l4 20l-22 17l4 14l-29 17l-12 24l-29 37q-11 20 -43 51v25l-47 74l-18 6l-9 26l-51 66l-6 18 l-29 2v33l-8 25l-112 151l-11 33l-84 104q-1 25 -19.5 38t-21.5 18l-28 47l-25 31l-12 36l-58 74l-32 60q-22 40 -47 69q-29 18 -29 33z" />
<glyph unicode="]" d="M-18 1251q25 15 57 15q36 0 70 -21l36 10l19 -6l37 13q17 0 47 -17q0 19 28 19h39l14 2q22 3 43 7t32.5 15t27.5 37q49 -19 72 -33q46 19 67 19q17 0 19 -15l-66 -36l4 -48q-18 -21 -18 -55l2 -24q0 -10 12 -19l-26 -41l8 -37l-8 -10v-33l12 -6l-23 -45l9 -39l-13 -26 v-37l-6 -21l6 -41l-4 -18l4 -39l-6 -31q-6 -32 -6 -47q-10 -6 -10 -68q0 -6 4 -30q6 -9 6 -15q0 -3 -11 -28.5t-16 -63.5l-14 -106l14 -45l-12 -80l8 -57v-21l-14 -18l23 -80q-11 -2 -17 -27l8 -27v-77l15 -15l-9 -6l9 -18l-4 -11h22l10 -16l21 16l74 -18l-21 -31 q-31 4 -41 4q-31 0 -45 -20l-20 2l-7 14h-18l-12 9l-35 -15l-21 6l-12 -6q-53 0 -78 -14l-24 6l-27 -20l-16 8l-19 -8h-32l-37 -7l-11 11q2 3 2 12q0 16 -14 31l25 4q12 2 35 18l20 -2q11 0 33 12q21 7 41 7q15 0 24 -7h8q21 0 31 3.5t21 3.5q13 0 30 -11l35 19l33 -11 l-12 41v27l-17 41l-8 37q-6 12 -6 20l2 11l8 12l-8 6l-2 72l-8 51l8 33l-8 59l8 27l-8 53l10 31l-6 26l10 9l-6 26l10 80l-4 63q8 8 8 17q0 10 -8 18q17 59 17 82v6l-7 56l7 28q3 13 3.5 28t4.5 26t4 26v76l6 35v61l-10 39v66q0 98 -25 98l-31 -10q-16 -4 -31 -5l-30 -2 q-14 -1 -57 -18l-19 6l-51 -6l-16 -12l-9 12l-69 2q-15 -14 -31 -14q-18 0 -32.5 11t-14.5 22v14z" />
<glyph unicode="^" horiz-adv-x="2048" d="M412 897l534 565h152l534 -565h-84l-526 465l-530 -465h-80z" />
<glyph unicode="_" d="M0 -217h819v-80h-819v80z" />
<glyph unicode="`" horiz-adv-x="1024" d="M254 1280v12q7 7 20 37q32 12 41 27q16 -9 35 -15l15 -28l41 -51l20 -45l16 -16q7 -7 21 -42l29 -14l14 -25l29 -16l8 -12q13 -7 32 -31q35 -12 37 -45h15l-15 -25l-26 8l-19 21h-18l-4 18l-15 -2q-15 21 -22.5 23t-40.5 6l-16 27l-13 4l-4 24q-26 5 -37 29 q-40 15 -41 53h-16l-21 23h-8q-5 0 -15.5 22.5t-27.5 36.5z" />
<glyph unicode="a" horiz-adv-x="1014" d="M98 184l7 11q4 6 6 20.5t6 40.5l14 76q-2 4 -2 14q0 11 6 23q-4 15 -4 22q0 8 4 21l8 2q17 23 17 39q0 10 -6.5 16t-6.5 8q0 7 11 10q-15 3 -15 13t21 10v4q0 22 12.5 40.5t13.5 25.5l-14 4l27 43v10q0 43 28 74l-2 37l9 6q-7 9 -7 20q0 6 13 6v33q10 3 10 10t-2 11 q6 9 28 33t29 40h6q23 0 23 11q0 4 -6 10q41 0 43 16l37 19l106 -9v-8l86 -18h8q19 0 19 -17l10 4q5 -18 23 -18l10 2l18 -18l43 -11v-18q29 19 74 33v-33h-10l20 -10l-4 -4l16 -52l-18 -20l-8 -34q-4 -17 -19 -42l13 -26q-2 -3 -11.5 -16t-9.5 -46q6 -3 6 -10l-4 -17l2 -14 l-6 -22l4 -19l-12 -14l4 -45l-6 -6l6 -9l-6 -6q2 -2 2 -8q0 -9 -6 -18l6 -13l-10 -18q-8 -5 -8 -29l8 -26l-19 -25q10 -21 19 -27q-15 -21 -25 -79l17 -4l-2 -11q2 -3 2 -14q0 -16 -15 -41h13l6 -31l41 -4l14 -26q-6 -4 -6 -7q0 -8 20 -20h-2q-4 0 -4 -2q0 -5 17 -19 l-29 -14l-6 -18q-17 -4 -31 -11l-10 7l-15 -7l-32 39v45l-15 13l4 63l-12 131l8 43l-14 23l18 10l-12 18l4 19l10 8l-2 25h11v41l4 20q-8 2 -19 19l-32 -15q-13 -25 -27 -33l-2 -22l-23 -10l-4 -29l-14 -10v-15q-20 -15 -29 -36l-14 -9l-31 -55l-49 -49l-16 -27l-43 -45 l-11 -24l-59 -41l-66 -78l-22 -6q-10 -2 -31 -21h-6q-17 0 -27 33q-77 30 -81 86l16 10q-14 39 -16 80zM154 104l10 -6l4 -14q17 -7 29 -23l47 11q13 30 45 32l-4 15q31 8 32.5 8.5t4.5 11.5t18 21h4q6 0 6 8l37 43h-8l22 20q11 11 33 19l15 39q38 16 43 43h12l20 26l-4 17 l19 4q-4 7 -4 10t14 22.5t22 32.5l9 -4q3 24 22 37q4 16 16 25.5t17 9.5h14l2 25q4 4 4 8q0 6 -6 12q18 30 29 37l4 22l14 11l-4 18q12 19 15 37l18 18l4 54l-12 37l-33 10l-57 51q-13 8 -21 8q-5 0 -16 -4l-10 10h-33l-10 13l-23 -9l-10 9l-17 -5l-32 5q-23 0 -72 -23l4 -8 l-18 -6l-4 -8l-23 -3v-12q-20 -12 -47 -65q-17 -62 -37 -105l16 -8l-26 -23l8 -16q-18 -27 -18 -63v-11l-15 -22v-35q-16 -18 -18 -37l-8 -8v-37l-7 -10q0 -20 -8 -55l11 -25q-13 -5 -29 -25l8 -16l-12 -16l16 -41l-18 -25l2 -49z" />
<glyph unicode="b" horiz-adv-x="952" d="M147 299l7 23v65l8 21l4 131l8 51l-8 8l14 47l-6 29v28l10 15q-4 58 -10 65l19 66l-13 70l13 8l-9 24v37l-4 62l6 18l-8 37l8 4q-10 5 -10 12q0 3 5 11.5t5 17.5v6l-8 19q4 16 4 26q0 22 -16 45q0 15 12 15l-12 30l8 25l-16 41l22 2l-2 18l15 8q8 -9 14 -36l20 -17 l-14 -12l27 -33l-13 -18l-14 -4q16 -17 16 -19q0 -7 -8 -10l10 -14l-10 -9l19 -14q-9 -8 -9 -20l19 -41l-8 -23l8 -6l-10 -4q10 -14 10 -21q0 -9 -17 -22l21 -4q-5 -25 -7 -43t-16 -41q15 -6 15 -37l-6 -25l6 -18l-19 -84l19 -27l-19 -34l6 -31l-6 -21l13 -18l-19 -19l6 -14 l-2 -18l2 -11l-6 -18l10 -18l-10 -15l10 -20l-10 -8q6 -16 6 -25q0 -13 -14 -25l12 -10l-4 -31v-81q17 -17 19 -17q14 0 14 31v8q9 7 21 24t12 19v14l10 11q3 40 16 57l-2 39l13 2l2 12l6 -4l6 29l14 28v13l13 24l-3 19l19 26l14 7v14q16 9 19 33l22 26l10 -4v10l11 9 q1 18 26 51q-8 5 -8 10q0 6 10 8l4 10q10 2 37 21l11 31h12l-4 10q19 14 57 14l-16 4l20 11h8l-8 8l12 4l-4 6h21l-2 -6l51 -8l11 -20q5 -9 10 -54l18 -2l4 -29l18 -16v-25l7 -10l-2 -18l24 -13l4 -39v-8q0 -21 25 -61q-7 -20 -15 -25q10 -12 19 -12q8 0 14 4q0 -24 -18 -33 l12 -84q6 -3 6 -10l-4 -18l-2 -109l6 -18l-6 -33l6 -27l-14 -18l4 -49l-43 -60v-24l-27 -31l11 -18q-20 -19 -43 -64l-41 -25q-10 -16 -26.5 -19t-31.5 -7l-4 -12l-6 8l-18 -8l-13 8q-12 0 -28 -10l4 -9l-29 4l-8 -10l-14 10l-37 -20l-19 20l-41 -4l-34 10q-37 10 -52 31 l-24 8l-13 39q-2 14 -28 21l-19 -8l-28 12l-31 70l6 16l-12 23v38l-8 17l8 33zM242 145q0 -10 12 -10q-8 -8 -8 -14q0 -5 8 -12l43 18l29 -2q0 -6 4 -6h2q24 0 26 -17l4 11l3 -17q22 -4 30 -10v-27q14 -6 33 -26h70l57 14l4 12l12 -8l17 13q8 6 45 16l-4 12h18v10h6 q14 0 21 24.5t10 27.5l57 63v27l23 47v57l6 60l-2 28l6 23l-6 45v35l-16 106l-19 76l-28 70l-48 79q-4 11 -16 23l-31 -8l-14 4l-14 -19l-27 -6v-26q0 -4 -15.5 -6.5t-23.5 -30.5q-25 -22 -32.5 -36t-22.5 -30h-10l-13 -47l-16 -24l-27 -66q0 -31 -12 -51t-27 -47l2 -33 l-28 -41l-17 -68l-20 -16q2 -2 2 -4q0 -4 -2 -6q4 -10 4 -33q0 -29 -10 -49l-15 -6l9 -33l-17 -6l2 -21l-6 -16q-18 -12 -18 -23z" />
<glyph unicode="c" horiz-adv-x="844" d="M98 287l13 32l-9 15l21 33l-6 43l5 18q4 24 19 41l2 47l15 12l-6 13l14 20q6 38 43 129l35 35l10 25l16 28q5 24 21 45q21 0 41 17q-2 34 61 34q9 0 39 -10t39 -33q31 0 31 -22l59 -2l2 -19l12 -14l-2 -24l15 -19l-2 -26l4 -15l-4 -41l10 -14v-21l6 -43l-41 -22l-43 51 l-4 66l-8 24v25l-24 29q-11 14 -46 36l-28 -12h-25q-23 -3 -43.5 -17t-46.5 -59.5t-43 -56.5l-2 -29l-17 -14v-41l-20 -27l-8 -28q-11 -22 -16.5 -48t-10.5 -28l2 -33l-18 -43l4 -31l-8 -2l-2 -78l-4 -2l4 -18l-9 -8l30 -35q5 -6 11 -33l-6 -6l21 -29l16 -6l2 -20l109 -25 q14 15 26 15q5 0 21 -5q18 13 28 13l15 -2q1 0 14 8.5t39 9.5q17 35 43 35q10 0 16 -2q52 22 52 39q11 22 43 22h8q84 93 80 101q23 20 35 57l18 12l2 27q14 -11 14 -55l-32 -35q-1 -17 -4 -28q-2 -12 -7 -22q-6 -10 -15 -19q-5 -5 -20 -35q-11 -21 -24 -38q-13 -18 -28 -32 q-16 -14 -35 -26q-28 -15 -50 -36l-17 -3q-7 -1 -38 -25l-23 -2l-47 -35l-16 10l-43 -20l-41 10l-12 -15l-25 5l-24 -5l-7 7l-28 5q-17 3 -29 13l-33 27l-30 45q-21 23 -21 55v8l-22 35v31l-9 12l4 41z" />
<glyph unicode="d" horiz-adv-x="1120" d="M98 98l21 33l-10 33l8 26l-4 39l14 62v57l14 21v51q15 29 15 47l8 6v37l18 33l2 28q13 19 19 41l10 62q3 21 23 37l2 22q2 10 13 27t11 31q30 31 51 43l-4 8q13 3 15 10q3 -2 12 -2q8 0 12 2l-10 4l88 25q19 2 35 3t16 7v2l33 2l18 -10l11 4q3 -10 16 -10q4 0 8 2l33 -2 v-9l8 4l31 -26l31 8l18 -33l33 -27q6 -5 18 -30l33 -18q16 -17 25 -17q6 0 8 8l14 70l16 37l-6 53l9 96l-9 25q15 18 15 43l-9 18l7 56l-7 57l9 12l-9 6q11 10 11 17q0 4 -4 12q6 15 6 29q0 15 -6 30h10q-4 8 -4 19q0 13 20 24l-8 5l10 2q11 0 15 -17q15 -3 18 -26h-10 l2 -33l-2 -19h-12l22 -24l-8 -29l14 -33l-10 -14q10 -24 10 -37q0 -12 -6 -24l16 -13q-10 -6 -10 -12q0 -10 17 -16v-6q0 -13 -17 -23v-18q0 -50 -16 -172q2 -4 2 -15q0 -15 -10 -39l8 -18l-12 -47l-6 -50q-1 -10 -13 -34l6 -23l-12 -37l12 -28l-16 -64l10 -49l-6 -29l4 -26 l-12 -6q20 -33 20 -35q0 -9 -12 -12l4 -13l-4 -6l14 -14l-10 -33l14 -45l-6 -14l6 -15l-12 -37l10 -10h17l14 -18l29 8l10 -16l35 -13q-22 -79 -55 -106q-24 8 -33 22l-37 58l-14 32l-27 95v92l-6 80l6 45l-6 39v57l-19 27l-8 -17l-16 -2l-31 -72l-37 -53h-16l-5 -21 q-3 -12 -11.5 -27t-20.5 -36l-55 -61l-43 -64l-47 -49q-16 -27 -37 -51l-28 -22q-13 -11 -34 -42l-35 -12q-6 -2 -24 -22l-24 -5q-11 -1 -42 -20l-18 4l-6 -12l-23 2l-65 49q-16 22 -24 59.5t-23 38.5zM154 150q17 -32 28 -74l19 -10l-4 -13h20q21 -14 25 -14q2 0 9.5 10 t31.5 10v-8q13 10 16 19q16 0 16 14l19 8l8 -6l6 23l41 16l4 18l29 17v10l22 23l7 -3q8 0 8 15h14v12l33 14l-8 31l22 14l-14 15q4 -2 12 -2q11 0 25 10l2 8l22 2l23 60l20 20l8 37l25 8q28 48 45 62v28l19 8l51 103l20 20l-12 4l-21 19l-17 10q-4 2 -15.5 26.5t-28.5 39.5 q-11 4 -18 12v14l-31 6l-30 17q-9 6 -24.5 10t-41.5 10l-62 -8l-18 -10l-19 14l-32 -10h-41l-7 -18l-12 -5q0 -17 8 -20q-11 -18 -51 -45l-14 -37l-19 -10l-18 -56l-6 -61l-19 -18v-35q-22 -20 -22 -33l4 -49l-33 -64l-8 -45l-2 -69l6 -15l-14 -28l10 -17z" />
<glyph unicode="e" horiz-adv-x="735" d="M90 158l4 69l8 39v43l11 37l-4 27q11 9 14 22.5t12 30.5q-4 18 -8 51l18 15l-18 20q14 23 14 29l-10 61q0 22 6 43q12 -18 27 -18q8 0 39 8q-2 6 -2 14q0 14 16 25q16 50 45 94q19 15 19 41h10l10 20l12 5q4 13 21 30q23 7 55 47q4 -2 17 -2q3 0 16 23q35 12 37 12 q9 0 18 -12l19 4l10 -8h12q11 -33 41 -33h6q3 -14 13 -21l-9 -4q35 -17 35 -79l-6 -23l6 -57l-10 -9l-23 -61l-41 -51l-2 -29q-73 -60 -120 -82q-4 -12 -13 -12q-4 0 -16 4l-45 -31h-27l-39 -18l-17 10q-7 4 -42 8q-31 -29 -31 -75l-14 -17q-4 -38 -10 -53l-11 -6l11 -74 l-11 -10l2 -23l-2 -28q0 -7 5 -38t16 -36q-5 -14 19.5 -34t52.5 -28v-12l53 -8l76 -4l51 6q31 22 45 27l16 24h19l2 10q44 15 48.5 20.5t4.5 10.5q6 12 18 12l6 13q45 7 56 59q10 8 24 8q15 -23 15 -34q0 -8 -18.5 -34t-28.5 -55l-15 -2l-22 -43l-25 -4l-55 -37l-10 -22 l-17 2l-18 -21h-29l-6 -10l-14 2q-22 0 -39 -20l-13 10q-21 -10 -34 -10q-23 0 -37 10q-10 -2 -27 -2l-12 10q-55 3 -74 31v25l-33 18l-8 21q-4 10 -22 26v16zM215 553l14 -8l7 -17l34 -10q29 20 62 27l6 12q11 -4 16 -4q10 0 19 12l24 4l15 25h14l10 22q27 0 51 25v10 q8 1 27 25l6 24q25 42 29 53.5t4 28.5t-14 60l-41 14q-16 -4 -21 -4l-12 4q-15 0 -21 -18q-18 0 -55 -15l-6 -14q-4 2 -8 2q-3 0 -5.5 -1t-4.5 -3t-4 -4.5t-3.5 -6.5t-3 -8.5l-3 -9t-12.5 -17.5l-15 -18l-29 -55l-15 -13q-7 -6 -11 -26t-54 -96z" />
<glyph unicode="f" horiz-adv-x="807" d="M-10 621l10 30q3 13 18 13q9 0 37 -9l6 -14l66 8l82 -6l57 14l41 -2q28 0 39 -14q0 7 25 16l-6 19l10 41l3 38q1 19 13 50l-8 51q1 3 7.5 13t6.5 24v10l19 19l10 67l12 17l-6 30q17 28 23 49q-2 4 -2 11q0 9 8 31t11.5 32t12.5 25.5t9 25.5l-2 11v6q0 14 16 24l-6 11 q0 8 18 20q22 33 35 68q17 2 33 47l30 10h27l14 18l37 -12q33 17 54 17l41 -9q23 -8 26 -8q9 0 29 8q8 -5 18 -30l31 -21q17 -41 43 -67l6 -46v-6q0 -14 -12 -26l-8 8l-19 -12l-16 39q-19 55 -32.5 71.5t-20.5 16.5l-15 -11q-23 16 -57 19l-23 -17q-16 9 -32 9l-50 -7 q-8 -13 -8 -26q-5 -8 -8 -8q-2 0 -5 4t-5 4q-15 0 -82 -123q-8 -54 -16 -70l-11 -2q-11 -42 -28 -76l16 -40l-25 -11q-7 -52 -20 -69l2 -33l-29 -76l4 -39q0 -14 -14 -43q-10 -12 -10 -39q0 -35 33 -35h12q15 13 31 13h8q11 0 31 4q3 3 22.5 0.5t34.5 -2.5h16q21 8 25 8 q8 0 43 -14l45 10q1 0 10.5 -4t20.5 -4q16 0 26 4q11 -15 19 -15q17 11 26 11q6 0 6 -11q0 -4 -4 -24l-57 -19l-61 13q-14 -13 -50 -19q-15 17 -26 17q-7 0 -41 -25q-9 0 -37 6l-6 -10l-31 -14l-22 12l-15 -2h-16q-7 -2 -20 -15t-29 -14l-23 -26l6 -27l-8 -33l8 -33l-22 -49 l6 -86l-12 -32l6 -29l-19 -49l11 -45v-2q0 -4 -7.5 -27t-7.5 -55l-2 -54q0 -29 15 -43l-9 -26l13 -47l-9 -31l23 -111l6 -122l33 -46l-14 -10l-7 -31q25 -33 25 -61v-10q6 -22 6 -35q0 -26 -24 -29l-11 23l-16 10l-2 23l-41 118v31l-14 17l12 20l-10 45l8 35q0 1 -4.5 15 t-5 34.5t-0.5 22.5l-15 106l8 4l-10 51l4 37l-10 19l8 14l-2 109l8 10v84l9 18l-5 70l5 20l18 137q1 9 5.5 25.5t4.5 24.5q0 1 -18 41l-33 -15l-31 10l-20 -12l-23 15l-6 -9l-33 -6l-34 8l-58 -10l-30 6l-9 -6q-34 12 -46.5 20.5t-20.5 39.5z" />
<glyph unicode="g" horiz-adv-x="1186" d="M94 207l4 51l23 78l-2 24l8 34q9 35 19 52t12 50l2 32l41 80q2 4 12 14.5t35 53.5l22 24q16 38 33.5 48t26.5 47q10 12 42 18t44 39l14 -4l37 26q19 23 37 23q4 0 16 -4l60 22l38 -8h27l21 -14h12q5 -10 39.5 -43t38.5 -41q-1 -28 -13 -47h-32l-27 43q-37 15 -43 26 l-10 -4q-28 13 -43 13q-34 0 -70 -27l-14 2l-4 -14h-19l-26 -6q-11 -29 -35 -29q-24 -25 -39 -33l-12 -26l-19 -5l-2 -14h-18l-33 -57l-27 -19l-12 -37l-28 -43q-5 -8 -7 -47l-22 -24l-23 -92l-20 -23l2 -37l-25 -84l8 -28l-4 -39q9 -8 16 -31t21 -29l6 -20q21 -6 27 -12 q15 6 29 6l20 -4q4 0 25 4q14 17 98 26q10 11 24 29t27.5 26t34 22.5t29.5 17.5q36 9 36 38q50 20 56 43l16 5q6 2 21.5 16t46.5 59l12 -8l8 19l23 8q-2 3 -2 10q0 13 12 25q8 0 14.5 2.5t9.5 10.5l7 15l39 51h8l6 41q12 7 55 131l15 5l-11 32l-7 33q-5 19 -13 31l-21 35 l13 32l-9 37q10 21 23 21q6 0 11 -3t22 -34l20 -10l-2 -37l9 -27q4 -12 5 -21t8 -28.5t7 -28.5q0 -8 -6 -8q9 -29 26 -53l-6 -41q23 -30 23 -37q0 -12 -13 -25l5 -26l14 -6l-6 -27l8 -53q10 -23 10 -45q0 -1 -2 -4q-6 -11 -6 -47l14 -11l13 -57l-17 -78l4 -18l-8 -10 q12 -22 12 -44l-4 -20l2 -41q0 -38 -9 -97t-11 -79l-3 -30q-1 -13 -22 -56h11l-5 -31l-12 -15q-6 -7 -13.5 -34t-17.5 -45t-25.5 -42.5t-34.5 -40t-54 -46.5l-31 -14q-24 -20 -37 -21l-10 -12q-72 -14 -74 -14h-4l-4 -7q-28 -12 -66 -12h-73l-53 12l-33 -6l-15 13l-59 8 l-24 22q-11 10 -52 33q-54 22 -65 66l8 10l-8 37q7 10 18 10q6 8 12 8q3 0 23.5 -4t48.5 -6l-2 -21q11 0 29 -12q0 -8 -4 -17l-4 -10q0 -23 18 -26q0 -13 3.5 -14t14.5 -5l86 -28l23 4l4 -8h45q16 0 35 -7q19 15 108 23q18 3 33 16q38 4 45 17h6q10 0 19.5 4t16.5 12l69 72 l39 59l2 27l22 33l4 30l11 25l12 61l16 60l-2 43v16q0 45 15 74l-13 45v106l-14 39v62l-18 43l4 69l-25 76q-6 6 -14 6q-12 0 -27 -20l4 -21l-28 -12l-15 -39l-26 -26l-37 -60l-49 -35l-58 -65q-26 -24 -47.5 -42t-44 -34.5t-26.5 -22.5l-10 -15q-5 -7 -27 -21l-33 -15 l-18 -19q-9 -9 -44 -28q-8 -14 -26 -14h-6q-41 -35 -90 -35q-20 0 -29 2l-17 -10q-11 6 -43 10q-76 76 -84 123z" />
<glyph unicode="h" horiz-adv-x="1051" d="M131 1239l23 33l-4 6q24 0 24 -25l29 -26l8 -24q4 -11 25 -34l-5 -18l13 -37l-13 -18l19 -15l-2 -53l2 -102l12 -52l-8 -22l2 -39l-8 -33l6 -51l-14 -51l8 -14l-4 -125l4 -19l-8 -10l-9 -76l-10 -22l8 -25l-4 -12l-4 -68l-20 -59q22 -26 22 -35l-16 -29q10 -20 10 -49 l19 15l8 26l32 66l15 47q33 10 33 43q6 3 30 49l9 26q4 13 20 33l2 27l-6 6l14 12l4 -6l33 41q16 8 16 25v8q27 4 27 37l6 4v10l17 4l2 27h14l-2 16h14v13q14 10 17 10q2 0 2 -4v-4l2 18h6q24 0 24 39l25 20l4 -8q15 17 19 41l14 6l6 17l16 2q9 8 23 10.5t16 3.5l-4 8 q42 23 51 23q13 0 33 -27q15 -2 15 -18l18 -15q0 -14 33 -69v-160l-4 -84l8 -20v-150l-4 -27v-51l4 -43l-8 -51q8 -8 12 -61l20 -25v-25l17 -8q2 -10 2 -26q0 -47 -45 -47q-30 0 -41 51l-14 63v19q2 14 2 34q0 24 -21 54l14 33l-8 49l8 24v33l5 29l-9 32l9 19v76l2 98 l-15 65l8 27l-18 78v25l-33 14l-37 -34q-8 -7 -20 -13l-35 -15l-57 -82l-23 -6l-51 -84v-10h-14l-6 -18l-22 -21q-12 -13 -19 -39l-21 -71l-31 -40q-6 -7 -14 -34l-20 -19l-9 -53l-43 -41l-4 -57h-8l-14 -39l-33 -59q-39 -44 -47 -60l-10 4h-13l-6 11l-18 69l-4 113l-6 33 l6 41l-2 71l10 4l14 174l6 33l-2 25l11 6l-5 14l9 72l10 29l-6 30l6 15l-6 12l6 68l-10 10l6 14l-2 78l-13 35h13v18l-19 84v41l-8 19l-10 65q-12 45 -33 84z" />
<glyph unicode="i" horiz-adv-x="623" d="M86 1069l47 21q10 50 25.5 56.5t15.5 8.5v8l10 6l4 -2l5 15h8l-8 18h32v29l15 4l10 16l16 6l15 27q8 0 12 12h12l2 21q21 18 25 41q49 -16 59 -56q-7 -18 -35 -34v-13l-18 -20q-9 -12 -16 -12q-3 0 -11 4l-55 -66l-14 -22l-49 -15l-25 -37l-23 -10q-10 -4 -45 -39l-12 8z M123 211l20 168l13 10l-6 105q0 19 5.5 35.5t10.5 45.5l8 5q0 28 -14 57l8 27v38l10 13q-2 14 -7 32.5t-5 20.5q0 16 8 16q2 -2 4 -2q-14 32 -14 41q0 15 14 15q4 0 13.5 -5.5t15.5 -5.5q2 0 10 4q0 17 14 17q12 0 13.5 -4.5t5.5 -38.5l22 -10l-18 -23l-21 -131l17 -33 q0 -23 -19 -39l-6 -26l6 -23l-24 -84l2 -10l-10 -68v-49l-15 -33l4 -28l-4 -47q0 -56 17 -92l-2 -11l18 -12l21 6l24 -10l29 14q11 9 35 15l14 14l4 -6l12 16l21 6q23 20 51 27q7 13 29 16l12 19l23 2l-5 22h9l4 11l43 22l4 25l39 -2q4 -5 8 -13l-4 -20l-19 -14l-8 -25 l-28 -8q-13 -40 -29 -51l-25 -9l-22 -24q-8 -4 -35 -37h-14q-14 -20 -45 -23q-22 -27 -25 -32q-15 -10 -38.5 -14.5t-29.5 -6.5l-8 -12h-33l-18 -14l-51 38l-29 66l-4 106z" />
<glyph unicode="j" horiz-adv-x="522" d="M-420 -356l14 -4l44 -60v-8l16 -11q8 -5 20 -28l21 -10v-23l24 -10q2 -8 39 -29l-4 -6q7 0 37 -12l10 -18l37 -17l-4 -12l33 -4v-10h16l15 -15l20 2l14 -8q2 2 7 2q6 0 12 -12q4 2 8 2t4 -4l19 -4q26 0 73 10l-4 6q27 16 31 16h20l7 15l14 10h12l8 31l23 22h12 q-4 9 -4 17v8l10 -4l-6 14l6 10l6 -2q2 3 11 25h-8l16 43l-10 24l26 74v47l6 8l-18 19q23 58 23 69q0 8 -19 15l10 14l-2 23l8 24l-12 13q0 29 19 53l-19 49l12 29l-16 39l16 14v12l-12 21v18q8 0 8 6t-2 8l6 31l-16 53q-4 13 -4 21q0 21 14 41l-2 16l2 68l-20 69l10 33 l-10 47l10 15l-18 112v88l8 4l-19 39l5 27l-9 6l9 8l2 15l14 4q0 39 18 39q15 0 15 -17l14 6q0 -22 17.5 -27t17.5 -12v-18l-10 2v-16l-2 -31l2 -35l-2 -12l8 -25l-13 -47l7 -37l-7 -61l7 -84l-7 -45l19 -16q-19 -28 -19 -41l17 -123v-25l-12 -82q19 -25 18 -39l-4 -82 l4 -20h-6l-10 -88v-84l6 -15l-6 -63l10 -51l-10 -25l6 -24q-9 -21 -12 -77t-16.5 -77.5t-16.5 -40.5q-12 -45 -47 -74l4 -8h-4q-26 0 -29 -31l-10 5q-23 -10 -33 -31l-27 -6l-10 -11l-10 5l-21 -13l-35 8l-8 -10h-8l-2 10l-12 -14l-6 10h-15q-35 24 -51 23l-10 10 q-14 4 -43 8l-12 15l-21 10l-65 41l-17 24q-40 24 -50.5 37t-18.5 41l-21 14q-12 9 -17 18l-14 26l-14 4l-21 51l-14 8v25zM129 1282l27 55l32 29q41 103 52 104l-7 5h17l6 26l10 -4l6 10h7l12 4v-8q17 0 22.5 -3.5t5.5 -16.5q6 6 11 6q8 0 14 -6l4 -37l-29 -16l-8 -17 q-16 -3 -22.5 -18t-16.5 -23l-8 4l-55 -71l-29 -19l-6 -18h-8q-3 -28 -31 -56z" />
<glyph unicode="k" horiz-adv-x="1239" d="M154 45l6 35l-6 80l6 18v78l2 27v24q0 54 4 95t4 42v33l4 19v57l6 22l-6 29l6 70v84l-6 28l10 19l-4 22l-6 117l-14 68v16l10 76l-8 33l-2 51q-4 28 -4 39q0 41 47 41l6 -15l12 7l-4 -33l10 -58l-14 -61l4 -80l10 -33l-6 -32l4 -56l-8 -43l10 -41l-6 -14l10 -29l-6 -51 l-8 -145q4 -24 4 -31l-4 -29l4 -39q0 -22 -8 -39q15 -15 29 -20l24 51l-2 10q0 12 39.5 100.5t85.5 141.5q14 3 14 10q0 4 -4 9q49 29 57 37.5t15 14t17 11t17 7t14 7.5t20.5 13.5t42.5 17.5q17 24 84 33l79 10l144 -10l22 -13q11 -6 35 -10q76 -73 80 -73q0 3 -6 12l29 -66 l-5 -16q15 -17 15 -33t-23 -45v-18l-22 -70l-31 -45l-14 -2q-2 -10 -16.5 -26t-16.5 -25q-22 0 -41 -23q-19 -6 -23 -22q-28 -6 -47 -31q4 0 6 2h3q0 -8 -191 -70q-20 11 -31 11q-16 0 -16 -23v-4l-2 -10l16 -19l7 -30q4 -21 34 -35l35 -70l53 -33l2 -10l23 -12l8 -21l12 2 l62 -61l76 -31l47 -14l39 4l18 8q32 6 62 25t32 22l37 70l15 19q8 10 18 40q12 4 16 4q10 0 17 -12l-11 -22q0 -46 -16 -68q-25 -21 -25 -33q-6 -14 -18 -37l-18 -15q-9 -7 -17 -28l-67 -36q-33 -10 -72 -13l-31 15h-24l-21 16l-22 2l-74 39l-164 149l-41 64l-33 29 q-6 14 -32 45q-17 14 -39 45.5t-56 44.5l-39 78q1 10 15 63l39 -27l22 -24q10 -10 62 -43h26l11 -10q7 2 20 2q11 0 23 -6q22 16 57.5 24.5t56.5 16.5l10 20h46q1 9 12 14.5t12 5.5h6q31 0 43 50q31 16 37 21l13 13q8 7 28 45h4q20 0 41 76h10l4 15l-4 34l4 35q0 23 -59 51 q-9 19 -27 19h-6l-12 10q-43 3 -88.5 9.5t-54.5 6.5q-35 0 -82 -30q-26 0 -54 -6l3 -4q-12 -2 -23 -6t-21.5 -9.5t-24 -14t-24.5 -12.5l-26 -10l-72 -59l-72 -78v-14l-34 -68l-17 -45q-33 -54 -33 -84q0 -13 9 -26q0 -18 -11 -23q-14 -20 -14 -43l2 -18q0 -16 -6 -31 q-19 -23 -23 -35l9 -37l-9 -43l5 -31q-15 -28 -15 -63v-12q4 -12 4 -15q0 -24 -37 -34q-18 5 -26 39z" />
<glyph unicode="l" horiz-adv-x="623" d="M119 475l16 8l6 78l-4 33l15 37l-11 41q17 22 17 53v68l6 16l-2 100l6 99q-11 28 -11 59q0 9 1 18l6 62l-6 22l10 93q11 4 23.5 10t15.5 6q2 0 8 -4l10 -33l21 -18l-15 -21v-8q0 -12 7 -25q-2 -34 -15 -34l6 -11q3 -63 11 -86l-17 -53l13 -18q-23 -40 -23 -78 q0 -20 18 -25l-14 -39q8 -19 8 -24q0 -10 -8 -27l4 -24l-10 -66l-1 -31q-1 -14 -17 -65l10 -43l-6 -78l-11 -8l13 -25l-9 -39l-8 -61l8 -15l-8 -6q13 -16 13 -49q0 -6 -9 -24l9 -23l-5 -31l9 -22l-4 -17l22 -67l25 -10q36 18 47 18l12 -2l28 24q5 5 25 11q10 18 35 20l10 11 l15 -2l4 10l20 6l19 14l20 6q2 1 19.5 18t31.5 25q0 9 13 15q3 -4 8 -4q7 0 20 10q13 -9 13 -19q0 -25 -13 -28q-24 -39 -49 -39q0 -9 -67 -68q-20 -5 -26.5 -11.5t-27.5 -25.5q-28 -1 -37 -24l-20 -6l-8 4l-6 -17h-6q-15 0 -43 -12t-35 -14l-21 -8h-14l-12 18l-19 16 q-12 31 -31 54l-6 49l2 24l-10 13l2 59l-2 51l2 25q6 9 6 16q0 14 -14 37q8 85 8 94q0 18 -16 37z" />
<glyph unicode="m" horiz-adv-x="1763" d="M152 190l2 33l-2 35v8q0 22 10 33l4 16q0 8 -3 31t-3 27v33q6 20 18 32l-16 21q8 7 5 14.5t-3 11.5q0 7 10.5 24.5t13.5 35.5l-14 39l6 20l-12 70l6 28l-12 56l4 37l-14 32q21 47 40 47h1l8 -4l6 -28q26 -6 26 -33l-4 -43q0 -13 17 -16q-19 -29 -19 -43v-7l11 -104 l-5 -78l-8 -22l8 -25l-6 -10l9 -15q-15 -11 -15 -26l4 -17q0 -15 -12 -24l8 -57l-8 -21q-9 -22 -5.5 -37t3.5 -22q0 -13 -4 -17q10 -20 10 -22q0 -8 -10 -21l20 -14l39 51l8 29q11 6 18 17.5t10 24.5t24 42q4 0 12.5 10t21 29t29.5 37q3 10 9.5 20.5t13 17.5t16.5 41l23 41 l3 15q3 8 20 27l38 40q7 0 24 36t38 55.5t22 33.5q18 3 18 19q22 9 25 28l6 -2q10 0 23 39q30 27 43 27q1 0 49 -12q4 -8 4 -13q0 -4 -4 -12l14 -4q0 -10 29 -51v-33l18 -21v-26q23 -49 23 -80l-8 -33l8 -29l-19 -22l11 -64q-7 -21 -7 -49l7 -55l-5 -18l5 -21l-7 -8 q15 -65 15 -111l-4 -16l-9 -8q15 -22 15 -47l35 -11l94 115q6 6 18.5 34.5t22.5 45.5q11 0 15.5 29.5t23.5 33.5q0 15 4 21.5t35 26.5v4q0 28 39 59q9 31 26 57q28 28 36 44l21 40q13 23 19 47q33 12 55 80q23 6 31 43l33 15l28 -15l-10 -10l14 -14q-16 -6 -16 -15t10 -14 l-14 -27l-12 -94q9 -5 14 -14q-16 -24 -16 -70l2 -37l-4 -14l6 -27q-2 -3 -7.5 -8.5t-5.5 -11.5t7 -18q12 -4 12 -27q0 -6 -6 -12q4 -5 4 -11q0 -3 -6 -12q0 -39 19 -83q8 -19 16 -73l26 -14l10 -45q23 -12 29 -27l25 -10l30 -6q16 -4 23 -4q11 0 29 7t29 14.5t38 19.5 q17 22 31 49l27 12l12 21l28 -2q0 -28 3 -31l-11 -16l-14 -4q0 -20 -13.5 -31t-13.5 -17v-4l-6 -4q-6 -14 -21.5 -24.5t-19.5 -10.5l-18 3l-2 -21q-17 -16 -19 -16t-26 4q-22 -13 -45 -13q-16 0 -68 9q-7 10 -14 10t-17 -6q-5 14 -32 28l4 15q-23 10 -23 41l2 18l-24 19 l-13 61l-18 33v14l-14 66l2 26l-15 72l-2 31l4 63l-8 80l-27 -29l-43 -75l-18 -43q-40 -28 -51 -66q-21 0 -21 -45q-12 -13 -21 -28.5t-14.5 -24.5t-5.5 -10v-5q-34 -31 -43 -69q-5 -4 -20 -31t-53 -70q-19 -8 -31 -37q-8 -19 -21.5 -23t-13.5 -21v-9q-16 0 -61 -20 q-18 2 -25 24l-4 29l-12 25v24l-17 68q2 6 2 14q0 10 -10 27l8 69l-8 15l8 33l-4 18v14l-8 19l14 30l-10 64l4 18l6 76l-14 47l4 37l-10 29q-19 47 -23.5 61.5t-13.5 14.5q-2 2 -8 2q-7 0 -51 -29l-29 -39l-25 -25l-55 -75l-4 -23l-33 -37l-14 -39q-12 -11 -19.5 -35 t-17 -27t-25.5 -15l-2 -37q-9 -13 -18 -32t-22 -31t-19 -42q-23 0 -23 -28q-6 -21 -22 -21q-8 -20 -8 -29v-6q-25 -21 -25 -26q0 -6 6 -13q-23 -11 -36 -38t-21 -33v-9q0 -14 -8 -20t-27.5 -25.5t-32.5 -19.5q-15 0 -22 47q2 4 2 12q0 16 -14 27v29q0 16 8 32z" />
<glyph unicode="n" horiz-adv-x="1276" d="M152 66l16 26l-2 25l10 10l-10 18l2 25l-16 45l14 27l-8 28q14 28 14 84v11q0 5 -12 24q16 13 16 25l-4 32l12 78l-8 15l2 32l-10 19l8 65l-4 23l6 37l-6 53l14 27q37 -11 40.5 -15t5.5 -18.5t1 -46.5l17 -27l-6 -39l8 -84l-14 -45l6 -53v-25l-19 -30l13 -43 q-6 -9 -15 -56l10 -24q-17 -55 -16 -80l2 -74l6 -10l25 12h20l11 45q23 7 28 23q3 24 31 24q3 23 14 31q8 0 19 29q21 21 33 43v28h2q8 0 18.5 14.5t26.5 14.5q7 26 18 37l29 35l26 57q-4 16 -4 21q0 6 6 6q41 27 41 53v25q31 12 31 22q0 4 -3 11.5t-3 9.5q0 10 8 10 q7 0 16 -6q15 55 46 55q6 0 18 -4q0 29 18 47q4 13 48 31l10 16h8q17 -23 29 -29l4 -14l10 -4l4 -39l27 -16l-9 -35l15 -64v-59l14 -70l6 -73l21 -68l4 -68q1 -2 10.5 -19.5t13.5 -45.5l9 -6v-31l18 -20l-4 -15l14 -8v-10q19 -12 33 -12q17 0 31 8q7 -4 10 -4q9 0 18 16 q29 3 29 16v5q3 7 41 20q10 12 21 20l-2 5q2 5 7.5 11.5t19.5 18t19 21.5l11 22q13 18 39 58l28 14h19l6 -29q4 -16 -25 -32l3 -7q0 -10 -27 -42.5t-27 -49.5l-22 -6q-1 -42 -37 -49q-3 -12 -10 -12h-4q-3 -17 -23 -17l-12 -24l-29 -6l-24 -16q-5 -3 -13 -5l-45 -8l-16 2 l-15 -2l-6 8l-18 2l-23 29h-10q-8 8 -8 22q-33 36 -33 56v16l-14 27v12l10 6l-8 29l-15 37l3 55l-21 33v51q-29 149 -29 182v8q-4 16 -4 23q0 8 2 12q-23 35 -24 57l-10 9l-43 -45l-21 -29l-72 -86l-28 -51q-15 -33 -24 -48.5t-40 -45.5l6 -19l-14 -39l-16 -2v-18h-11 l-39 -47q-2 -34 -26 -39q-9 -13 -16 -38t-23 -26l-8 -8q-19 -33 -35.5 -50.5t-46.5 -39.5q-7 -34 -25 -41l-2 -10q-1 -14 -10 -26.5t-49 -22.5q-15 2 -23 34t-24 39z" />
<glyph unicode="o" horiz-adv-x="836" d="M90 113l12 24l-12 56l12 32q0 5 -3 26.5t-3 27.5q0 21 21 34v11q0 23 12 45h12q15 17 15 39l-6 14l6 31v20q18 22 18 45l-6 33q0 15 6 24q31 16 31 31q0 10 -8 21l20 35q4 8 12.5 13t10.5 7l-4 20q32 3 32 33q0 18 -6 37q68 0 90 70h13q14 14 20 14q2 0 17.5 -5t48.5 -5 l32 14v-14q21 -2 52 -23h28q10 -20 19 -20l4 2q23 -36 47 -51l10 -25l19 -8l32 -47l33 -94v-19l18 -74l-14 -43l8 -18l-7 -48q-1 -9 -15 -32v-24l-15 -41l-12 -18q-6 -7 -20 -52l-15 -6l-8 -27l-22 -14l-17 -37l-30 -14l-3 -27l-26 -10q-19 -25 -24.5 -32t-27 -14t-28.5 -12 q-5 -32 -57 -36q-12 -15 -29 -15q-5 0 -16 4q-28 -25 -52 -30l-16 -25l-27 16l-6 -12l-30 12l-72 7q-18 36 -53 73l8 27zM141 111l2 -50l30 -39q5 -8 36 -22l6 -10l14 4l13 -4l24 10l49 -2l23 6l6 14l21 -2q32 0 32 21l29 -8l6 16l19 2l10 23q22 17 24 28h33l10 21l35 31 l13 19q8 11 18 17l29 15q5 28 18 57l-4 18l29 13l-4 10q12 17 22 29h-10q8 11 8 18q0 6 -3 15t-3 12q0 13 6 28t6 19q0 7 -8 10q12 15 12 25q0 7 -7 14.5t-7 9.5h12q-3 12 -14 21l4 6l-14 33l4 45l-19 32q-22 14 -22 21v6q0 8 -7.5 10.5t-7.5 8.5v2q0 3 9 26l-13 10l-20 2 l-8 15l8 12l-27 14l-20 19l-58 24l-24 5q-59 0 -58 -33l3 -68l-41 -2l-64 -39l-6 -22l-23 -15l-10 -59l-20 -14q-6 -3 -6 -29q0 -23 4 -37l-25 -14q-8 -4 -8 -39q0 -16 -19 -31v-20l-18 -29v-18l-6 -13l4 -28l-27 -66l9 -22v-48z" />
<glyph unicode="p" horiz-adv-x="920" d="M-61 711q0 6 11 12.5t11 13.5q0 5 -6 21q37 18 72 18l6 -4l18 19q8 8 55 28l7 -6l18 21l45 -3l33 11l6 -4l8 43h19q19 -41 49 -54l8 15l14 -11l11 7q34 -3 58.5 -17t45.5 -18t33 -17l12 9l4 -15l27 -14l2 6l18 -6l15 -20q8 -11 21 -19l34 -20l4 -11l25 -8v-6 q25 -13 28 -37l23 -14l16 -37h10v-19l12 -12q5 -6 11 -35l16 -4q3 -38 27 -53v-27l16 -22l-2 -25q0 -1 10 -23t11 -46l-10 -4l4 -17v-16l10 -2l-14 -41l14 -37l-19 -27l13 -8q-12 -19 -27 -31l-4 -26l-25 -2l-7 -15q-3 -6 -34 -26l-14 4q-12 -13 -57 -19l-13 9l-2 -17 l-47 23q-4 0 -22 -15l-8 9l-62 6l-37 -6l-18 16l-43 -6l-21 18q-20 -10 -32 -10q-14 0 -31 10q-10 -10 -10 -22q0 -3 4 -19t4 -24q0 -12 -10 -39l8 -27l-17 -20q7 -43 7 -80l-7 -57l7 -72l-19 -27l12 -39l-12 -47l19 -6v-22q-15 -3 -15 -21q0 -4 4 -20l6 -2q-18 -27 -18 -39 l-4 -162q-1 -35 -16 -35q-5 0 -29 4l2 39l-10 86l16 33l6 61l-12 70q16 11 16 22q0 6 -12 45l14 27l-14 45l14 35l-6 37l19 12q-29 7 -29 33q0 14 16 74l-12 24l8 33l-8 8l8 12l-8 74l12 98l-14 21l29 14l-15 4l-12 21l-12 6l10 6l2 -6l6 10l-8 8l23 -4l-9 13l9 -2v10 q-15 7 -15 14q0 14 6 27l-6 22q-12 3 -12 11q0 4 10 4h4v6h13l-15 18l6 27v24l2 15l-8 33l8 36l-8 29l8 37l-8 14l2 33l-2 23l2 32q-11 11 -14 47h-18l-17 11l-31 -25v6l-14 -6h-29l-6 -12l-24 -2l-19 -19l-24 4l-17 -30l-26 12l-6 -16q-41 23 -41 45zM276 635l15 -45 l16 -15l-16 -36l4 -35l-12 -74l8 -16l-10 -25l18 -24l-10 -7l2 -26l16 -10l-16 -19l12 -20l-20 -27l8 -41l-2 -33l10 -37l76 5l4 -13q13 17 14 17t21 -23q6 1 15.5 4.5t12.5 3.5q11 0 35 -8q6 12 15 12q5 0 8 -8h32l25 -4l31 12l2 -8q73 9 88 23h6q16 0 16 18l15 -6l2 23 l18 4l4 20l-6 21l15 12l-5 12l7 12l-2 17l2 12l-11 37l9 20l-13 27l-2 25l-18 34l-8 27l-37 66l-21 18l-14 45l-27 10l-28 39v8l-23 7l-20 -2l-27 36l-14 -4l-11 19l-30 6h-25l-4 8l-14 -8l-11 12l-14 -4l-8 14l-19 -4l-65 11q-19 -9 -19 -27q0 -4 3.5 -10.5t3.5 -34.5z" />
<glyph unicode="q" horiz-adv-x="1192" d="M98 231l11 39q3 62 14 62l4 14v4q0 7 -2 19q18 16 18 51v10l17 19l-4 10q7 4 18 37h10l13 36l10 -4l4 41l6 6l14 -6q-4 8 -4 13q0 14 23 26q14 27 27 33q20 9 20 23q0 6 -2 10q19 2 24 10q19 6 19 31h8v6l43 33v18q9 -6 17 -6q7 0 16 6l-4 8q19 8 37 8l28 -2l13 37h53 l12 29l14 -14q6 4 21 4q23 0 55 -8l11 12q25 -15 32 -15q6 0 19 7l10 -23h8l-4 8q4 4 12 4q9 0 22 -5t22.5 -11t9.5 -25q18 0 18 -14q21 -18 33 -18q4 0 8 4l4 -19q-5 9 -10 9q-2 0 -6 -5l16 -14h16l-14 -59l-33 -4l-18 30l-57 37l-19 25l-18 -8l-25 8l-14 -10l-19 10 l-28 -8l-33 8l-23 -19l-14 15l-41 -31l-10 10l-4 -10l-19 -2l-28 -31l-15 12l-8 -24l-10 4l-33 -33l-24 -12l-23 -33l-27 -24l-79 -113l-13 -45h-12l-43 -109v-37l-12 -20l4 -88l10 -41q12 -10 51 -10q9 -8 15 -8l55 18l-8 -14l63 6l-4 8h14l-4 -8l13 8l-5 8q24 0 37 8.5 t54 24.5l4 16l30 9q9 14 31 14q8 0 14 -6l-6 16l11 6v19q21 0 37 5t29.5 23t17 23.5t24.5 15.5l4 13l12 -7l3 21l26 6l2 12q18 9 27 29h14l19 29h8l6 14l10 4v14l19 11q0 22 6 22q4 0 8 -4l8 27q4 -4 6 -4q4 0 4 16l9 8l6 -8v20l16 13l-8 16l14 -4v27l23 24l-8 33l14 10v37 l12 14l-4 41l6 23v25h13l6 28l14 -14q12 4 16 4q7 0 13.5 -4t7.5 -6l8 -31l-4 -35l4 -22q0 -18 -13 -54.5t-16 -58.5l-8 -78l4 -61l-12 -15l4 -22v-74l-10 -33l4 -59l-18 -88l6 -43q8 -14 8 -39l-10 -2l6 -23l-4 -10l4 -39l-10 -41l6 -32l-6 -43l14 -29l-4 -19l4 -26l-8 -21 l12 -16l-4 -41l10 -14l12 -78l11 -12l-2 -27l10 -2v-39l16 -8v-25q34 -30 51 -82l11 11l43 -21l24 2h15q8 4 24 4q20 0 35 -10v-35q-24 -18 -25 -26q-2 5 -32 14l-25 -19l-14 11h-41l-4 12l-15 -8q-46 35 -53 51l-14 4l-13 35l-14 8l-4 31l-23 24l-20 76l4 10l-10 23 q10 16 10 20t-8 17l-10 28l-4 64l-11 51l6 25l-6 16q7 29 5 48l-5 32l11 43l-7 20l2 66v70l5 22l-7 17l11 155l-9 72q-3 16 -10 20q-14 -13 -22 -28h-11l-10 -25l-28 -14l-13 -27q-8 -4 -19.5 -27t-31.5 -28v-8l-47 -41l-13 -17q-8 -10 -20 -16l-33 -16l-4 -15l-20 -14 l-29 -27l-18 -7q-8 -3 -27 -21h-18q-16 -13 -52 -23l-16 -25l-33 -8l-8 -20l-10 18q-20 -12 -27 -24l-14 6l-10 -6l-17 2l-28 -2l-15 10l-12 -23l-2 6q-13 0 -33 17h-10v8h-27q-26 28 -43 31l-10 28l-12 23q-10 36 -15 43l5 31z" />
<glyph unicode="r" horiz-adv-x="764" d="M129 805q14 19 51 33l15 -4q4 -25 22 -48l-4 -51l20 -155q0 -15 -12 -27l10 -43l-6 -31l6 -33l-4 -26l15 -31l-9 -6l7 -47l16 -4l7 40q1 7 24 36q26 23 26 51v12l13 6q3 0 5 7.5t7 7.5h6l12 40l31 21l2 12h14l-6 23l31 14l2 25l29 4q22 18 30 39l19 4q4 8 37 37q7 0 10 6 l33 18l8 15l18 10q53 39 72 39h8q18 0 29 10l18 -6q14 10 23 10q37 -8 39 -12l-6 -25l-60 -8l-39 -29l-26 -4l-33 -20l-33 -15q-24 -21 -39 -26v-10l-30 -15l-21 -33h-22l-11 -32l-23 -15q-14 -8 -22 -22l-20 -37q-23 -12 -27 -55l-10 4l-4 -13l-15 -10l-14 -35 q-22 -31 -22 -47l-19 -8v-43q-6 -7 -10 -22l4 -7l-20 -8l6 -16q-3 -20 -31 -74l10 -26l-20 -33q4 -20 4 -31l-4 -33l9 -36q1 -3 9 -12l15 -15q-13 -25 -25 -35l-27 10l4 -18l-45 8v27l-6 18l6 33l-6 14l4 70l-4 47q-14 5 -14 12q0 8 14 25v30q0 24 -2 35l8 10l-8 39l6 31 l-6 19l6 55l-10 16l6 19l-12 41l4 32q0 13 -4 37l6 10l-12 70l-15 10l15 35q-21 29 -21 68v28q-9 10 -12 19z" />
<glyph unicode="s" horiz-adv-x="891" d="M29 96l43 6l-2 15l10 14l6 -12h12v-10l19 10q16 -3 16 -15q0 -6 -6 -18l18 -2v-31l52 -8l20 -18l6 10l262 16l90 17l5 10l22 4l6 8q47 9 82 33l6 -6l4 12l15 12l2 7l-10 14l4 18l-23 19l-4 16q-16 6 -20 12l-9 -4l-20 19h-8l-9 12h-20q-6 16 -23 16l-14 -2q-34 0 -61 21 h-21l-26 16l-13 -8l-6 10h-14l-23 19l-61 26l-23 21l-69 12l-2 6l-58 41l-26 66l-21 32l-6 95l6 10q0 40 21 70q38 22 39 43l14 -2q8 25 38 49l25 22l119 51l60 11l59 18l92 -6l4 -12h6q17 0 27 -11v-18l25 -18q-11 -48 -11 -54q0 -18 -18 -18q-8 0 -29 43l-55 4l-14 -4 q-32 24 -37 24q-6 0 -6 -6l-19 -14q-34 0 -55 -18q-38 -7 -53 -25h-23l-17 -13q-7 -5 -40 -14l-8 -10l-11 -6l-28 -27l-19 -30q-29 -19 -30 -25l-21 -84l10 -6v-6q0 -34 33 -58v-10l55 -33h13l30 -30h41l25 -21l47 -6l14 -12l88 -27q0 -12 15 -12q25 0 46 -12t40 -15l2 -10 l18 -10h39l35 -23q6 -22 27 -37l-2 -6l10 -14l18 -4l-8 -15q19 -16 23 -32l-14 -16q-5 -7 -27 -62l-29 -21l2 -12h-27l-26 -29h-35l-23 -12q-10 0 -22 -12q-13 6 -27 6q-11 0 -26 -6v-12l-37 4l-29 -4l-27 4l-4 -6l-10 6l-18 -6h-13q-14 0 -30 -5l-21 7l-16 -11l-8 9l-15 -9 q-26 15 -43 15q-6 0 -18 -6q-13 7 -35 9l-45 5q-21 0 -33 -4l-4 8l-18 -12q-6 8 -15 8l-6 12q-63 3 -63 90z" />
<glyph unicode="t" horiz-adv-x="713" d="M-18 758l8 18l30 -4l23 4l33 -10h86l4 47v47l-14 35l16 12q4 12 4 15q0 13 -16 22l4 80l-17 25l4 18q-20 4 -20 16l14 54q17 22 19 28q61 -30 61 -35v-2l-8 -20q14 -29 14 -45v-6q-6 -16 -6 -29q0 -10 6 -16l-2 -17l2 -22l-18 -29l12 -51l-8 -62l8 -12l-12 -18l16 -51h37 l25 18l141 -6l135 6l33 -2l14 2h74q21 0 21 -18q0 -21 -33 -27q-6 4 -17 4q-14 0 -26 -10l-29 6l-55 -2q-38 -21 -76 -21l-39 7l-20 -19h-19v12l-35 -16h-18l-6 -18q-17 5 -60 8q-3 -12 -10 -12q-4 0 -12 8l-29 -4l-20 -21l-6 -100l4 -60l-6 -77l2 -86l6 -41v-37l24 -51v-9 q0 -35 41 -67l6 -17l37 -8l27 -29l76 -14l100 23l29 -9l71 33l27 -4q14 -14 14 -26q0 -15 -26 -33l-15 6l-32 -27l-68 -8l-23 -14l-24 14q-34 -18 -72 -18l-41 8h-22l-74 43l-35 49l-24 27l-37 98l-17 92l9 37l-17 20l8 23l-8 37l21 16l-9 19l5 24l-9 27l4 39l-4 20l9 6v74 q-6 27 -17 27q-7 0 -12 -8l-23 10l-32 -8l-33 24h-17q-24 0 -24 27l2 31z" />
<glyph unicode="u" horiz-adv-x="1167" d="M143 197q0 50 7 53l1 35q1 18 11 43l-17 12q17 23 17 39q0 12 -10 33q12 6 12 32q0 10 -2 27l-8 68l24 143q-2 37 -10 78l-8 35q0 32 35 32l30 -8l15 -18l-9 -43l-4 -103l4 -65l-14 -33l8 -20l-8 -31v-27q-8 -3 -5 -12.5t3 -13.5q0 -12 -8 -23l14 -18l-20 -25l12 -18 l-6 -27l6 -33v-39l12 -14l-10 -49q0 -12 12 -31l-6 -22l10 -29q17 -10 43 -39q22 3 39 20t43 35q0 2 -8 2q33 15 33 33q23 3 33 8l4 25l20 8q23 29 68 39l2 20l37 31q5 39 43 41l8 27l18 8l27 39h12v12l19 10l12 29q25 13 49 23l8 22l15 6v13l8 2q5 49 35 49l-6 6l38 113h9 v28h2q7 0 35 74l36 4l-4 -8l21 -39l-17 -76l-30 -45l-21 -76l-26 -18v-45l-15 -29l4 -33l-14 -14l4 -90l-8 -111l6 -12l-2 -16h6v-31q33 -48 33 -61l29 -7l6 -18q28 -12 49 -23l27 2l22 -6l32 13q15 6 42 28q14 2 33 2q22 0 22 -16q0 -14 -22 -31l-15 -8l-10 -11 q-4 -5 -35 -22l-33 -10q-12 -12 -67 -12q-5 0 -30 8t-32 14l-67 60l-15 63l-20 19v10q0 30 -14 53l2 49q8 36 8 43q0 23 -12 45l6 92l-23 -12l-14 -22l-19 -13q-10 -6 -20 -24l-18 -2q-23 -20 -23 -41q-30 -13 -38 -35.5t-31 -47t-35 -28.5t-19 -12l-59 -72h-6l-48 -57 l-38 -21l-17 -26q-35 -11 -84 -35l-31 20q-5 -2 -14 -2q-12 0 -12 11q0 8 2 12l-21 12q0 9 7 21l-27 26l16 21h-22l-15 39l15 12z" />
<glyph unicode="v" horiz-adv-x="973" d="M18 766q0 35 41 49q36 -30 51.5 -44.5t39 -61t43.5 -50.5q-9 -2 -9 -10q0 -5 6 -14v-17l25 -20l-6 -18l6 -41l23 -66l6 -6l4 -27l10 -6v-20l25 -90l6 -35l33 -74l26 -96l21 -17v-4q0 -28 43 -28h8v10q0 3 13.5 7.5t25.5 29.5q8 -4 10 -4q6 0 6 8q0 4 -4 16l47 27 q1 13 5 24t12 19l18 16l37 53l12 37l21 15l8 22q4 10 20 25l-2 22l10 4l7 21l8 -8q-4 12 -4 16q0 14 14 16q6 15 18 15q15 29 15 57h16l2 27q15 31 19 57l12 2l29 84l6 8l-2 -12q14 16 18.5 34.5t7.5 18.5t9 -4l26 94l19 25v12l14 -4l-4 33q27 25 38.5 56.5t22.5 31.5 q6 0 11 -2l2 12l10 -12l-10 -21l2 -30l-21 -13l-10 -42q-2 -9 -19 -27l-4 -27h-22q10 -30 10 -37q0 -16 -33 -24v-15l-18 -69l-17 -33h-12q12 -12 12 -25l-26 -26l-47 -123l-43 -74v-33q0 -7 -14.5 -20t-14.5 -21q0 -6 10 -16q-17 -14 -45 -14l8 -23q-21 -31 -22 -43 q-21 -16 -21 -28q0 -9 2 -13h-16v-22l-27 -17l-14 -26l-41 -45l-53 -82q-16 -23 -45 -23q-41 0 -57 27l-66 104l-4 37l-12 8l-2 47l-23 25v47l-49 125l2 25l-13 23q-5 11 -8 42l-14 19l-10 27q-6 16 -15 24l-24 22l-18 72l-21 18q-12 11 -19 24l-18 34q-8 -4 -12 -4 q-21 0 -21 53z" />
<glyph unicode="w" horiz-adv-x="1343" d="M20 852l27 8q2 18 9 19l28 6l12 -19h21l8 -35l10 -8l-4 -22l6 -21l-6 -22l23 -41l-4 -29l26 -98l-4 -25l12 -69l27 -70l14 -94l19 -23v-43q17 -60 18 -84l21 -18l8 -27h18l97 172q16 0 16 37q24 15 24 31q0 21 13 43q12 12 12 26q17 -10 29 -10q-6 13 -6 25q0 16 16 16 l6 -2q2 0 3.5 2t-1 4t-2.5 4q0 7 12 15l-4 18v10q3 9 8 9t5 -9q13 11 20 11q6 0 8 -2l-4 28l14 19l-6 28l11 -4l4 15l18 8l-8 10l8 8l2 10h23q-27 30 -27 60q0 18 12 43l33 4q18 -19 37 -45l7 -44q1 -7 18 -36l-5 -23l15 -49v-26l37 -66v-18l14 -13l33 -88l4 -36l22 -31 l62 -146l37 -8l65 137l25 21l14 45l27 14v35q43 28 43 55v33h10v10l16 13l35 69q3 26 31 66l-4 20l29 41l24 66q-24 77 -24 117q0 30 18 36l20 -8q2 -9 27 -12l4 -21l25 -26l-6 -29l2 -20l-25 -103l-27 -32l-10 -46l-20 -30l-33 -82l-37 -70l-59 -96l-11 -31l-32 -59 l-33 -80l-62 -123q-14 -58 -22 -67q-26 10 -43 20l-29 96l-37 68v20l-28 74l-13 16l-69 160l-58 117q-4 4 -14 4t-18 -4l-39 -66l-35 -30l-47 -72l-35 -43l-18 -59l-47 -64l-5 -24q-32 -69 -32 -74v-27l-15 -26l-22 -60l4 -8q-4 2 -12 2q-7 0 -29 -10q-5 8 -21 14v10l-16 23 l-10 55l-17 35v27l-2 14l-28 94l-11 70l-14 16l2 21l-20 57v20l-21 60l-24 37l4 41l-4 20l-21 60l-4 26q-2 12 -15.5 35.5t-13.5 38.5q0 10 2 16l-14 6z" />
<glyph unicode="x" horiz-adv-x="944" d="M-84 -160l18 33l19 2l14 39q23 11 27 20l26 60l17 10q27 56 35 62v30l34 8l-2 13q0 15 12.5 28t12.5 17q0 3 -10 16l16 -2q-4 5 -4 8q0 7 8 13q27 5 35 16t8 37l11 6l4 14l14 4v5q0 22 31 36l16 50l23 10v31l14 6l8 24l6 -2l15 10q0 41 34 41h7l-7 35l-15 21 q-7 10 -11 34l-17 9l-32 67l-35 64l-25 57l-30 37l8 18l-8 33l26 6l31 -6l4 -16q2 -6 35 -45l-6 -27l16 -10l12 -34q2 -7 9 -14l20 -18h-12l18 -14v-23l37 -51l6 -28l25 -23v6q0 27 30 41l11 -14v28q19 9 32 41h13v15l20 10h8l-4 18q10 13 17 13t12 -8v26l27 2v15l18 12 l6 24q28 6 37 41v-22q8 11 8 20q0 3 -4 6l45 19l12 16q17 3 60 16q15 -28 24 -36q-2 -22 -20.5 -28.5t-30.5 -16.5l-127 -117l-14 -25l-33 -14q-23 -55 -43 -80l-33 -14l-12 -31l-33 -24v-9q-2 -4 -2 -8q0 -14 35 -35l-2 -22q17 -27 16 -35l23 -12q16 -43 21.5 -53t43.5 -39 l13 -52l35 -30l19 -32q3 -5 32 -24l4 -14q25 -14 33 -33l22 -6l21 -33q6 -20 26 -20l21 6l26 -16l84 -11v-24q-11 -14 -24 -14q-9 0 -21 6l-32 -15l-21 11l-27 8l-38 32q-9 7 -22 9l-36 8l-49 47l-61 84l-56 61l-4 17l-10 10l-39 66l-10 22l-17 19q-21 50 -43 55 q-10 -9 -36 -12l-17 -33q-29 -46 -26 -51l-27 -17l-25 -45q-27 -23 -34 -29.5t-12 -24.5t-7 -24l-35 -14q-2 -42 -22 -61l-51 -48v-8l-56 -59l-49 -78l-14 -10v-23l-18 -13q-11 -7 -17 -19l-16 -29z" />
<glyph unicode="y" horiz-adv-x="1307" d="M117 -424q0 16 8 41l8 23v6l14 8l5 10l8 -2l5 24q3 15 48 56l29 8l49 43l57 -4q14 21 25 21q14 0 14 -17q0 -6 -2 -10l-27 -12l-18 -15q-8 -6 -47 -18l-14 -29h-29q-21 -37 -57 -71l2 -39q-17 -25 -17 -52l-10 -6l45 -106l41 -15l6 -24l64 -62l24 -7q14 -5 26 -15l29 -27 h33l25 -24l33 4l14 -13l117 5l16 4v-4q0 -11 8 -11q1 0 5 4q21 21 53 21h10l65 27v-9q13 10 13 13h-7q4 4 13 4q6 0 10 -2q3 18 18 18h7l4 12q14 0 14 17h2q11 0 17 15t18 16l6 -5q3 26 31 43q24 22 24 56h11q31 66 45 104l-4 6l4 52l10 6v47l8 14l-18 23q18 18 18 20 t-4 15.5t-4 31.5v8l4 84v119l-10 23l10 41l-4 47v108l-4 23l8 22l-8 19l8 18l-4 76l-19 18l19 19l-4 16l4 31l-10 12l4 25l-13 24q-9 -10 -26 -16l-10 -25l-17 -10l-4 -24l-33 -23l4 -10l-16 -23l-14 -4l-6 -10l-31 -10v-27h-15l-6 -24l-69 -64l-47 -53l-25 -8l-12 -19 l-47 -43l-19 -4q-1 -2 -37 -33l-6 -18l-18 -10h-17l-10 -19l-22 -4l-41 -41l-37 -6l-15 -14q-15 -5 -41 -15l-6 -16q-10 -6 -47 -6q-44 0 -55 18l-41 70l-4 33l-21 75v66l-8 20l13 50l-9 32l9 9l2 26l14 31l-2 47l10 27l-10 18l20 94l-6 62l6 55l-18 76l8 18l-8 15l16 40 l-8 17l14 12v27l23 2q9 -26 27 -41l-7 -14l13 -3l-6 -26l16 -29l-6 -14l6 -33l10 -8l-14 -31l12 -53l-24 -33l12 -14l-12 -78v-72l-9 -10l-8 -106l-22 -29l4 -19v-47l10 -28l-10 -23l4 -35l-8 -16l8 -18v-25l22 -23l7 -24l14 2l4 -12l16 10l43 -4l15 33l51 20l2 -6 q2 17 16 24t34.5 24.5t43.5 25.5l-2 -11q10 4 10 11q0 2 -4 10q20 2 66.5 46.5t95.5 51.5l25 41l4 -12v18q30 6 32 33l23 16q20 9 20 29v6q28 20 52 27l4 16q38 44 51 68q31 16 43 41l37 78l-2 47l16 8v39l-10 33l6 30l-18 11l-2 6q0 7 10.5 22.5t13.5 26.5l8 6l2 14 q12 8 23 8l43 -43l2 -24l1 -20q1 -7 19 -39l-12 -13l4 -28l-4 -23l17 -18l-17 -2v-29l-10 -37l10 -53l-2 -39l6 -14l-4 -37l19 -66q-21 -16 -21 -37q0 -8 2 -20l12 -74l-12 -80l4 -33l-10 -28l6 -90l-6 -13v-73l-4 -58l8 -20l-4 -135l10 -25l-10 -12l6 -37l-10 -10l8 -31h-8 l-4 -16v-31l-10 -25l4 -18l-43 -76l-4 -39l-11 2l-18 -24q-26 -29 -37 -52l-37 -22q-16 -47 -59 -47q2 -2 2 -6q0 -7 -8 -7l-9 -8q-29 -14 -34 -24h-23l-6 -8l-27 6l-41 -27l-24 4l-66 -10l-18 2l-10 -2l-60 10h-16l-21 19l-10 -2l-72 24l-51 8l-12 21l-33 4l-14 35l-19 6 l-28 39l-29 14l-27 39q-6 8 -17 15l-32 18l11 26l-19 21l2 12q0 21 -14 53q-4 17 -4 29z" />
<glyph unicode="z" horiz-adv-x="1096" d="M-37 827l25 19l20 -6q18 13 41 16l27 -10h39q0 -21 18 -21l10 2h41l29 -8l35 6l31 -10l28 6h6l25 2l35 -4l12 8l180 -2l23 -6l33 15h20v14h82l33 8l32 -8l46 18l30 -2l37 6h4q24 0 29 -43l-19 -12l-18 -16l-29 -13l-61 -63l-19 -2l-47 -66q-68 -24 -75 -80l-27 -24 l-37 -55l-20 -11l-84 -110l-29 -10l-27 -37l-18 -6l-6 -19l-41 -37l-19 -35l-39 -34l-47 -60l-22 -6l-4 -14l-15 -8q9 -21 25 -21q29 -10 45 -22l12 4l101 2l22 -11l109 9l102 -19q9 6 19 6q8 0 20 -18l37 22l37 -14l33 10l36 -6l35 2q17 17 37 17q17 24 25.5 27.5 t11.5 21.5q20 12 20 35v10l7 20l16 -6q18 -25 18 -57q0 -14 -2 -17l-49 -59l-6 -25l-29 -8l-10 -20l-31 -6h-32l-88 12l-25 -12l-33 12l-43 -8l-16 14q-69 -12 -72 -12l-37 8l-71 4l-45 -4l-25 7q-25 7 -37 7q-27 0 -67 -14l-39 14q-73 0 -119 -16l-4 -23l-19 -8l-10 -14 l-18 -6l-21 8l-6 18v27l6 14l27 23q12 24 21.5 31.5t33.5 15.5q4 4 16.5 16t12.5 27v4q23 1 26 19q42 22 47 27.5t5 12.5q14 14 26 19q7 25 45 57q28 2 33.5 22t17.5 34h11v14l33 4v4q0 6 12 35q22 9 24 29q20 19 41 22l2 16l23 15l21 32q12 17 26 27q24 6 27 33l28 22 l11 27l20 14l35 58l33 22q9 29 24 43v19q26 6 35 18q-7 25 -41 25h-8l-51 -25l-29 4l-25 -8l-36 4l-25 -8l-21 10l-61 -20q-24 6 -47 6q-29 0 -59 -6l-21 10l-43 -6l-20 6l-39 -10l-64 14l-51 -4l-92 23l-35 -9l-27 13z" />
<glyph unicode="{" d="M197 590l22 12q10 6 47 10l8 -14q26 14 58 14l16 23h10l-6 18q30 10 39 25l-4 20l10 33l-8 33l21 41l-4 24l8 29l-8 51l12 13l-4 45l16 16l-12 10l12 39l-8 45l14 25l4 32q2 17 13 33l-15 15l31 16l-6 35l24 6l9 18l16 14q8 7 23 36q25 8 76 16l48 8l31 -8l27 20l18 -6 l15 -22l-11 -49l-26 -13l-35 11l-27 -7l-28 15l-11 -12q-35 -3 -67 -19l-6 -27l-20 -15q-3 -3 -5 -6l-16 -34l2 -35l-15 -37l2 -61l-16 -61l4 -60l-10 -6l-4 -53l10 -62l-10 -22l4 -23l-14 -16l16 -21q-14 -39 -33 -61l10 -18q-39 -28 -61 -35l16 -19l21 -4q24 -28 24 -47 v-37l-8 -39l19 -30l-25 -15l4 -16l-10 -41l18 -45l-6 -21l-2 -31q-2 -16 -12 -34l9 -21q5 -12 7 -34l4 -58l-6 -24l19 -47l-6 -29q0 -17 22 -55h23l6 -25h8l14 4l28 -20q8 -6 75 -19l16 10l14 -10l9 13l28 -5l21 9l20 -31q-5 -22 -35 -60l-14 15l-22 -8l-52 4l-28 8l-21 -4 l-41 14l-14 27h-35l-72 59l-14 60l6 22l-6 29l-20 12l22 37l-7 33q-3 16 -18 39l11 43l-11 59l11 78l-15 24l15 15l4 45l-10 28l14 33q-18 39 -47 68v8l-25 -8l-8 12l-8 -14q-28 0 -88 16z" />
<glyph unicode="|" horiz-adv-x="1024" d="M467 -483v2048h90v-2048h-90z" />
<glyph unicode="}" d="M84 1278l4 19q2 8 29 42l16 -14l21 8l53 -2l24 -8l25 4l39 -14l14 -25h37l70 -57l16 -60l-6 -24l6 -27l21 -10l-21 -41q12 -55 27 -70l-13 -45l15 -59l-10 -78l16 -22l-16 -17l-2 -45l10 -26l-13 -35q11 -35 48 -68v-8l24 10l10 -12l7 14q28 0 88 -14l10 -29 q-35 -20 -70 -24l-10 16q-23 -14 -55 -16l-17 -23h-10l8 -20q-29 -10 -41 -25l6 -18l-10 -33l8 -33l-20 -41l6 -26l-6 -31l8 -49l-14 -13l6 -45l-16 -16l12 -10l-12 -39l8 -45l-13 -27l-1 -21l-2 -18q-1 -8 -13 -26l14 -11l-28 -18l6 -37l-25 -4l-10 -21l-15 -14 q-8 -6 -20 -35q-27 -9 -80 -17l-47 -7l-26 8l-27 -25l-23 9l-12 22l10 49l25 13l35 -11l26 6l29 -12l10 10q38 5 70 21l4 26l17 16q6 5 10 14t12 26l-2 37l14 34l-4 64l17 59l-7 62l11 4l2 55l-9 60l9 24l-6 23l16 18l-19 16q17 42 33 66l-10 16q39 27 61 37l-18 19l-20 4 q-25 24 -25 43v37l6 43l-16 30l22 13l-6 18l10 39l-18 45l7 50q1 16 11 36l-16 35v33l-6 45l6 22l-18 49l4 31q0 15 -23 53h-22l-7 25h-8l-16 -4l-27 19q-5 4 -73 18l-19 -13l-14 11l-6 -13l-31 4l-21 -8z" />
<glyph unicode="~" horiz-adv-x="1706" d="M178 481v92q207 146 387 146q100 0 245.5 -52t207 -69.5t125.5 -17.5q162 0 387 159v-92q-210 -147 -387 -147q-100 0 -289 69q-197 70 -289 70q-165 0 -387 -158z" />
<glyph unicode="&#xa1;" horiz-adv-x="604" d="M229 1063q7 6 7 12q0 9 -7 21l25 20l27 -8l26 12l19 -12h22l12 -45q-9 -36 -24 -47q-2 4 -4 4q-3 0 -19 -23q-27 13 -34 13v-2q0 -2 2 -4q-14 0 -25 6t-27 53zM258 27l8 16q5 11 15 29l-15 55l13 16l-9 11l4 16l-8 12q19 0 19 21q0 9 -6 37l10 28l-15 19q17 32 17 104v35 l6 98l-12 19l12 47l-12 43l12 26l-12 21l4 22l-4 15l12 4q-8 16 -8 37q0 16 18 16q-16 19 -16 27q0 18 20 18q19 0 19 -41v-47q7 -65 14 -88l-12 -25l12 -28l-12 -74l18 -10l-6 -27l4 -24v-19l-8 -4l10 -29l-2 -14q0 -18 -12 -37l8 -18v-29l6 -4l-14 -18l12 -33l-8 -29 l14 -18l-14 -19l4 -28l-4 -21q6 -9 6 -18q0 -4 -6 -19l10 -4v-43l19 -18l-4 -41l-21 4l-31 -6q-4 0 -18 5.5t-25 8.5q-6 18 -12 23z" />
<glyph unicode="&#xa2;" horiz-adv-x="1225" d="M113 313l12 117v23l6 32h6v35l21 49v21h10l2 37l23 28l18 45q22 26 22 33q0 1 -1.5 4t-2.5 4q45 44 45 62v16h7q15 0 43 37l34 8l2 15l37 2l37 30l12 -4l13 47l-4 39v21l-9 112l5 17q0 4 -6.5 32t-6.5 42l2 8q35 1 58 10l30 -27l9 -67l-25 -19l12 -12l-6 -16v-23l-12 -10 l4 -53l-6 -47q0 -11 12 -39q13 4 43 4t43 -4q14 7 14 16v59l7 23l-7 37l15 43l-8 43l12 6l-12 20l8 23v33l33 16l10 -2h8q41 0 41 -39v-8l-6 -33v-18l-10 -13v-20l-17 -33l10 -24l-22 -56l4 -41l-4 -10l10 -12q-16 -13 -16 -27q0 -9 30 -45l31 -20l25 -29l24 -14l13 -14 q6 -7 30 -15l2 -18l23 -17l2 -35q0 -14 -21 -63q-13 -9 -23 -6l-26 6q-36 4 -59 123l-23 18q-7 31 -22 31q-14 0 -14 -33l6 -41l-6 -4l-5 -20l5 -91l-13 -118v-86l-16 -56l14 -4q0 -26 -12 -45l8 -20l-14 -31l-4 -65l8 -11l-4 -24l35 -4l28 8l21 12l26 8q14 11 27 11 q83 35 128 65.5t50 30.5q4 0 4 -8q34 30 41 30q4 0 4 -2l9 -2q3 0 30 10l8 23q50 17 66 47q20 4 22 4q9 0 9 -8q0 -10 -6 -29l-23 -12q-15 -24 -39 -33q-3 -18 -18 -18l-74 -49l-49 -25l-31 -24l-35 -15l-41 -28l-34 -7q-21 -4 -33 -12l-33 -22l-21 4l-32 -33l-25 4 q-18 0 -18 -14v-37l-4 -35l4 -51l-9 -31l23 -18l-18 -15v-71l4 -66l4 -18l-8 -23l18 -20q-11 -26 -18 -31l-11 4v102l-10 66q-2 7 -5 46l-3 38q0 11 14 33l-18 51l4 65q-14 11 -23 11q-11 0 -16 -9l-76 -10l-16 -33l8 -57v-74l2 -37v-24l14 -23v-4q0 -6 -12 -6q-20 0 -20 37 v72l-11 47l5 12l-19 25q14 5 14 10q0 2 -4 11t-4 20q0 10 4 18l-34 -6l-33 2l-43 -4l-60 29l-14 -5l-25 31l-53 21l4 26l-39 58l-16 36l8 25zM170 350l8 -26v-21l15 -29v-26l8 -16q4 -7 10 -42q19 -12 31 -40h14l18 -15l66 -29l41 3l29 -15l12 15v22l10 14l-2 13h14l-6 14 l6 37l-22 49l10 45l-2 70l8 2l-8 69l2 60l-6 39l6 20l-2 53l2 54l-2 12l10 23l-8 53l6 24l-16 19l18 14l-6 14l-24 -6l-68 -53l-2 -12l-18 -17l-46 -63q-21 -30 -51 -109q-3 -46 -24 -59q-8 -16 -8 -27q0 -37 -23 -82l12 -28zM463 160l14 -17l-4 -24q29 -8 33 -8 q36 0 45.5 1.5t34.5 22.5l4 25v30l8 33l4 62l-8 24l8 64l-8 24l10 4l-10 25l4 74l10 14l-10 33l12 71l-8 60l6 43l-8 22l16 15q-6 9 -6 63v27q0 6 -15.5 11.5t-19.5 4.5l-77 -14l-6 -35l6 -39l-11 -35l17 -45l-19 -32l7 -15l-13 -65l13 -27l-15 -29l8 -36l-14 -29l21 -47 l-7 -19l2 -18l-16 -37l21 -51l-13 -15v-30l-16 -31l14 -37z" />
<glyph unicode="&#xa3;" horiz-adv-x="1333" d="M41 565h10q66 25 78 25l43 -8l37 6l65 -8l50 10l34 -2l-10 24l14 6l15 37l-4 11l18 24l-8 21l8 18v21l19 12l-4 6l22 23v24q0 12 4.5 24.5t13.5 24.5t18 34.5t11 41.5q13 11 25 23.5t23 26t12 17.5l2 27l30 15q12 -5 17 -5q16 0 16 19l-6 12l18 19q2 10 19 10h8l61 16 q16 0 28.5 6.5t29.5 12.5q11 -9 18 -9q6 0 8 13q4 4 17 4q12 0 20 -4l2 -6l21 10l45 -14q3 2 14 2q13 0 25 -15q19 -5 53 -20q3 -17 33 -33v-6l22 -4q16 -29 37 -56q2 -37 25 -51q6 -1 8 -14t8 -21l-14 -16l-21 -4l-49 33q-18 53 -22 92l-27 -8l-27 49h-20l-12 10l-9 -4 l-24 8l-12 -8l-23 27l-33 -13l-28 13l-52 -17l-16 8l-16 -14l-23 -4l-10 -18l-23 -7l-20 -26l-23 -6l-22 -37l-15 -4q-7 -1 -12.5 -6.5t-7.5 -36.5l-25 -23q-4 -30 -18 -48.5t-14 -20.5v-21l-33 -45q4 -19 4 -27q0 -12 -6 -24l10 -15l-41 -32v-33l-14 -10l6 -15v-10l47 -22 l27 10l39 -6q11 0 20 6q12 0 31 -12q8 14 30 14q16 0 25 -8l158 18h8l43 -4q3 0 8 2t8 2q11 0 17 -8h32l33 2l31 -8l29 10q3 -10 10 -10q4 0 21 4t32 4q6 0 55 -6l25 12q17 -4 39 -4l18 -23q-19 -3 -32 -14l-25 14h-31q-17 -10 -20 -10q-9 0 -15 6l-16 -6l-22 10l-21 -14 l-29 8l-82 -16l-20 8h-8q-24 0 -103 -18q-9 10 -41 10l-11 -5q-11 -5 -48 -5l-41 8l-90 -14l-35 6q-22 -8 -39 -14t-41 -7.5t-35 -3t-16.5 -4.5t-5.5 -8v-45l-23 -21l4 -43l-36 -55l-9 -35l-51 -157q-12 -13 -16 -48q22 -3 31 -10l12 6q11 -14 20 -14l27 2q10 0 49 -10l8 10 q9 -6 45 -10l7 8q12 -3 20 -8l37 -10l2 -13l51 8l43 -14q16 6 29 6q8 0 10 -2l25 -4l6 -8l20 8l39 -14l2 12l23 2l8 -27h33l6 13l18 -6q9 0 28.5 4t31.5 4q14 0 38.5 -7t34.5 -10q6 2 18 15.5t60 13.5q20 0 33 -10q27 41 49 41l12 -2l31 51l13 7q6 3 38 48h17l12 -18 l-14 -39v-16l-20 -16q-11 -9 -17 -20l-15 -28l-41 -18l-14 -21l-10 2q-18 0 -37 -22l-16 8l-21 -14l-20 2q-4 -6 -35 -13q-5 -5 -18.5 -9.5t-14.5 -4.5l-67 16q-13 4 -19 4l-29 -8l-73 8l-19 -10l-14 15l-23 -5l-23 9q-25 8 -45 8t-32 8l-20 -18l-17 18l-16 -6l-72 20 l-20 -8q-30 14 -41 14l-23 -2l-14 2l-12 -6l-33 4l-6 -4l-33 13l-66 -15q-12 -61 -39 -61q-6 0 -10 2q6 -2 8 -2q0 -4 -63 -4l-27 6l-10 22q4 6 4 17q0 5 -2 14t-2 14q0 17 41 39q20 0 35 21h10q1 16 15.5 36t17.5 27l3 23q1 10 17 35q8 6 11 24l2 13l28 90l27 51v35l14 6 l4 16q7 50 19 56l6 45q-48 -9 -86 -25q-8 16 -21 16h-4l-32 -10l-31 10l-66 -10l-14 -8q-19 10 -35 20q-2 25 -6 35z" />
<glyph unicode="&#xa4;" horiz-adv-x="1241" d="M94 418l207 205q-92 117 -92 262t92 262l-207 205l58 59l206 -207q119 94 263 94q145 0 264 -94l205 207l59 -59l-207 -205q92 -117 92 -262q0 -146 -92 -262l207 -205l-59 -60l-205 207q-117 -92 -264 -92q-146 0 -263 92l-206 -207zM291 887q0 -137 97.5 -234.5 t234.5 -97.5t234 97.5t97 234.5q0 136 -97 233t-234 97t-234.5 -97.5t-97.5 -232.5z" />
<glyph unicode="&#xa5;" horiz-adv-x="1102" d="M82 979v6q0 13 12 16q3 -1 6 -4.5t4 -5.5q14 3 31 19l19 -13q29 -2 63 -24q0 -12 3 -22t9 -18.5t17 -17.5t16 -21l12 -24l19 -14l45 -84q39 -51 45 -70l16 -6l15 -51l47 -61q20 -27 49 -27q6 0 6 12l21 19l8 -8q23 33 45 47l-2 12q0 6 20 6h10l5 29q23 0 32 4q4 12 36 43 t34 31t2 -4l14 34q21 8 35 26t31 34q28 10 31 39l25 9q11 4 33 31.5t22 32.5q0 7 -5 11l33 30l8 -4l15 43q32 27 57 27q27 0 43 -33l23 -8l-7 -25l-12 -4l-6 -28l-45 -13q-40 -55 -68 -55l2 -21q-18 -12 -34 -40l-41 -19l-35 -49l-14 -11q-7 -5 -21 -40l-29 -4l-22 -27 l-37 -20l-10 -15q-91 -72 -90 -92l-23 -6l-10 -14h-8l-7 -17l-30 -20l22 -23q1 -33 19 -33q2 0 43 11l12 -9l53 13q11 -8 25 -8q10 0 41 16l18 -8l15 8q14 -16 26 -21l-4 -16h-22l-19 -8l-20 14l-72 -26l-80 2q-35 0 -35 -11v-2q-8 -11 -8 -20q0 -3 4 -14q-10 -6 -10 -15 q0 -5 7 -16t7 -21q0 -14 27 -14l29 8l28 -8h62l20 10l25 -10l16 8l23 -4l32 6q6 -14 25 -14q18 0 37 8l14 -12q-7 -9 -23 -13t-20 -4l-71 9l-46 -17l-94 8l-18 -12h-64q-16 -41 -16 -92l10 -27l-10 -24q3 -28 14 -49q-15 -37 -14 -56l4 -75l-4 -43q-23 -65 -23 -93l13 -43 q-21 -67 -21 -88l8 -43l-8 -18q10 -38 10 -92l-2 -37l-14 -8l6 -58l-6 -39v-26q-10 -10 -14 -10q-19 0 -19 28l13 23l-11 41l4 49l-20 37l20 4l-10 22l6 6l-6 23l10 25l-10 14l6 33l-10 41l14 41l-12 102l12 57q11 17 11 23q0 5 -5.5 13t-5.5 14v2q5 8 5 12q0 8 -15 16l6 70 l-8 29l6 6l6 30l-6 2v31l-6 25l6 8l2 39l-6 41q-8 8 -22 8t-45 -14l-6 14l-39 -18l-60 6l-24 -19l-41 17l-88 -25l-11 25l-34 6l6 22h12l16 29h25l20 4l31 -8q35 -8 66 -8l41 4h22l17 8l24 -8l23 12l39 -12l14 12l14 -4l4 29q0 1 -3 10.5t-9 67.5l-33 -17h-59q-19 6 -31 12 l-10 -14l-37 6l-33 -18l-8 8h-29l-24 4l-25 -22h-2q-10 0 -37.5 25t-27.5 30q0 16 39 16q74 0 82 10q10 -10 38 -10l29 4q6 0 12 -6q13 12 23 12q8 0 18 -10q12 6 23 6q14 0 33 -6l2 10q0 5 12 5h20q13 0 19 2l-10 47l-16 14q-7 6 -17 37l-25 14l-6 15l-20 14l2 10l-17 8 q-10 46 -41 66l-5 17q-3 7 -36 38l7 15l-27 24v10q-35 12 -35 31q0 4 6 10q-16 7 -30 23l-27 2v16l-14 6v25h-27l-18 68z" />
<glyph unicode="&#xa6;" horiz-adv-x="1024" d="M467 -350v758h90v-758h-90zM467 674v758h90v-758h-90z" />
<glyph unicode="&#xa7;" horiz-adv-x="901" d="M57 199q0 20 33.5 31.5t42.5 17.5l23 -19l28 -2v-43l-41 -41l-2 -45q7 -12 16 -31q10 -20 12.5 -21t29.5 -7l10 -25l29 -14h32l21 -20l41 -5q44 -16 63 -16q41 0 56 21l20 -5l14 11q6 -2 19 -2q50 0 61 28l20 9q9 4 46 36l10 27l27 23q7 7 12.5 23t5.5 65l-7 37 q-6 46 -24 59l-86 61l-43 4l-30 31l-93 8q-99 20 -111.5 35.5t-30.5 28t-19 12.5l-11 -2q-21 0 -47 23v10q0 30 -25.5 54.5t-25.5 59.5q0 34 2 52q68 49 68 86q0 34 -39 98q-12 28 -12 51t12 60q27 0 31 65l28 16h8q38 48 50 60l49 12q7 19 30 19h13l8 -15q32 27 43 27 t47 -12l39 10l45 -10l20 -15q7 -4 22 -6l38 -6l8 -21q0 -14 20 -23t31 -20v-26q41 -43 51 -90l-12 -29q-8 -34 -34 -60t-44 -26q-15 0 -27 17t-12 22v29l25 43l-14 34l16 39q0 18 -20 30l-41 24q-20 12 -56 24l-20 -6l-12 4l-29 -18q-41 0 -76 20q-67 -32 -94 -74 q-59 -19 -59 -65v-6q-27 -9 -27 -41v-8l4 -25l16 -25q16 -43 26 -59t42 -18.5t43 -26.5l41 -4q28 -29 70 -29h8l153 -30v-21l60 -8l12 -31l41 -23q6 -3 33 -36l4 -60q12 -24 12 -41q0 -31 -31.5 -60.5t-33.5 -43.5l12 -39h12l7 -44q1 -7 22 -34l-21 -59h13l-23 -86l-29 -25 l-30 -57q-4 -7 -18 -16.5t-38 -20t-43.5 -17t-54.5 -26.5l-39 4l-28 -22l-31 18q-13 -32 -53 -35l-35 27l-31 -10q-44 25 -60 32q-78 34 -124 80t-53 75.5t-7 113.5zM203 635q0 -40 46 -98t105 -58q9 0 47.5 -6t69.5 -8l14 -12l45 -7l15 -14h10q45 0 57 -35l15 2l16 -10 l33 8q18 48 18 82q0 32 -67 99q-58 13 -101 32l-18 -6l-62 29l-65 10q-19 3 -55.5 27t-59.5 24q-17 0 -40 -20t-23 -39z" />
<glyph unicode="&#xa8;" horiz-adv-x="1024" d="M246 1149q5 23 7.5 32.5t25.5 24.5t32 29l17 -6q31 -4 42 -18.5t38 -22.5l12 -35l-6 -6l4 -23l-10 -6v-14q-12 -4 -39 -37q-19 -1 -37 -6.5t-21 -5.5t-6.5 9t-11.5 9h-4q0 10 -8 10h-5l-12 7l4 10l-8 8l4 12zM584 1139l18 22l-4 13l8 8l-4 10q12 3 12 10q4 -2 9 -2 q4 0 4 4v4h6q7 0 10 9.5t10 9.5q13 -10 54 -13q23 -32 38 -36v-15l11 -6l-4 -22l6 -7l-13 -32l-24 -13q-14 -19 -29.5 -22.5t-42.5 -13.5q-14 16 -36.5 32.5t-23.5 19.5t-5 40z" />
<glyph unicode="&#xa9;" horiz-adv-x="555" d="M68 1243q0 87 66.5 154t158.5 67t158.5 -66.5t66.5 -158.5q0 -93 -67 -159t-162 -66q-88 0 -154.5 67.5t-66.5 161.5zM102 1239q0 -77 56.5 -133.5t134.5 -56.5t135 55.5t57 134.5t-56 135t-136 56q-79 0 -135 -57t-56 -134zM178 1241q0 60 33 96.5t86 36.5q94 0 100 -86 h-55q-4 45 -47 45q-57 0 -57 -92q0 -90 57 -90q45 0 49 49h55q0 -44 -29.5 -71t-78.5 -27q-51 0 -82 37t-31 102z" />
<glyph unicode="&#xaa;" horiz-adv-x="422" d="M-8 418v31l14 2l8 20l11 -18l24 16q11 0 21 -12q4 -2 16 -2q23 0 23 12l34 -10l33 2q-6 -6 -6 -10q0 -9 6 -9q4 0 12 4l5 19l20 -6l31 4q4 2 10 2q10 0 20 -10l33 -7l21 9q20 -11 37 -11t41 11l22 -11h35q-5 -2 -10 -2q12 -6 18 -12l-22 -29l-13 9l-84 -21l-65 10 q-16 -4 -23 -4q-10 0 -22 6l-31 5l-119 -17q-16 10 -29 10q-10 0 -38 -16l4 8h-17zM6 633l6 8q3 33 15 78q-2 6 -2 14q0 6 2 8q-2 4 -2 13q0 10 2 14q16 5 16 23q0 6 -8 18l6 6q-8 0 -8 6t12 6q0 14 16 43h-10l19 25v10q0 27 16 43v23l4 2q-4 8 -4 12t6 4h2v21q6 0 6 4l-2 8 q27 30 35 45h6q8 0 8 4t-2 6q25 0 27 10l21 11l63 -4v-4l53 -13h6q11 0 11 -8h6q5 -8 18 -8q10 -11 39 -17v-12q15 13 43 19v-19h-6l10 -8l10 -31l-12 -14q-7 -34 -14 -43l6 -16q-1 -2 -6.5 -8.5t-5.5 -18.5q0 -11 2 -14l-2 -13l2 -10l-2 -10v-12l-8 -11v-37q2 -2 2 -8 q0 -4 -2 -8l2 -8q-11 -21 -11 -29l4 -16l-12 -15q1 -4 12 -14q-8 -13 -14 -49l10 -2l-2 -6q2 -4 2 -10q0 -12 -8 -23h6l4 -20h25q4 -21 8 -25l14 -21l-16 -10l-4 -10h-10l-8 -6l-7 6l-8 -6l-31 24v27l-8 8l2 37l-8 78l6 29l-10 10l12 8l-8 10l2 13l8 4l-2 14h6v39h9l-6 8 l-19 -8q-8 -14 -16 -19l-2 -14l-15 -6l-2 -18l-8 -7v-8l-12 -8l-4 -12l-11 -4l-18 -35l-56 -63q-9 -9 -14 -23l-34 -25l-41 -47q-20 -5 -33 -16q-11 2 -19 18q-47 22 -49 53l8 5q-6 24 -8 49zM55 606l6 -4l2 -8l9 -2l8 -8l24 6q6 13 25 16l-2 8l18 4q0 8 8.5 14.5t28.5 31.5 h-4q17 18 31 20l8 23q11 3 23 20h6l10 14l-2 11l10 2v4q0 11 17 33l6 -3q0 10 12 19q3 12 16 20h9l2 15l-2 8q11 16 16 20v13l10 4l-2 12q5 8 6 19l11 10l2 28q0 6 -7 19q-13 3 -49 35q-2 2 -12 2h-6l-6 6h-19l-4 6l-14 -4l-4 4l-10 -2l-19 2q-10 0 -25.5 -10.5t-31.5 -16.5 v-6q-21 -14 -28.5 -41t-18.5 -51l8 -4l-15 -10l5 -13q-9 -10 -9 -28v-10l-8 -11v-20l-8 -8v-13l-6 -2v-20l-4 -6q0 -18 -6 -31l6 -12q-7 -4 -15 -15l7 -6l-9 -10l11 -23l-13 -14l2 -25z" />
<glyph unicode="&#xab;" d="M49 473l19 6l17 14q9 7 32 13l12 22l23 4l4 25q29 23 69 41v25l62 55h20v31q4 3 13 11.5t18 8.5q14 0 29 21l36 12q7 17 15 24l6 37q57 29 61 66q18 10 41 10q24 0 44 -47q9 -20 16 -29q-19 0 -24 -8t-21 -29l-29 -6l-18 -26l-33 -15v-16l-23 -6l-6 -17l-37 -22l-13 -16 q-5 -7 -42 -21l-2 -14l-19 -15l-28 -14l-21 -27q-10 -14 -30 -26l-20 -10q-9 -5 -25 -25v-14l-11 -4l-6 -31l15 -8q14 -46 28 -56l6 -37l19 -38l10 -39q36 -42 41 -58l10 -2l-2 -18l10 -15l25 -65l18 -16l22 -28q11 -15 23 -22l-2 -26l-34 -19l-25 41l-17 11q-10 6 -32 36 v15l-33 59q-13 16 -24 35q-20 8 -23 17l-10 42q-29 27 -29 39l-27 19l-4 12l-20 6l4 37l-59 53q-3 18 -19 37zM344 375v14l27 12v33l6 19q13 6 18 14l37 -6q6 6 12 6h9q8 0 23 28t42 56l49 51q3 10 19 16.5t25 23t36 46.5q21 6 21 23q16 5 22 24q28 0 60 -12l14 -16l10 -19 q-6 -16 -32.5 -27t-26.5 -24q0 -6 2 -10l-12 -4l-13 -15q-6 -6 -49 -20l-16 -27h-9q-12 0 -36 -10l6 -6l-53 -60l-29 -24q-27 -18 -27 -27v-12l27 -62l20 -32q13 -19 19 -37h-15l19 -25l10 -4l8 -37q22 -38 25 -55l41 -39q-12 -12 -12 -18q0 -13 12 -29l43 -55h-25l-35 32 q-6 5 -27 46t-54 63l-5 23l-55 51v18l-18 19l-2 22l-17 4l-24 41l-52 10q-18 0 -18 17z" />
<glyph unicode="&#xac;" horiz-adv-x="1706" d="M254 776v80h1198v-502h-80v422h-1118z" />
<glyph unicode="&#xad;" horiz-adv-x="698" d="M82 426v31l14 2l8 20l21 -16l18 -2l25 16q11 -2 20 -12q7 -2 19 -2q20 0 22 12l35 -10l31 2q-6 -6 -6 -10q0 -8 8 -8q2 0 10 4l6 10l19 -6l33 4q4 2 10 2q10 0 20 -10l31 -7l20 9q21 -11 37 -11q20 0 43 11l21 -11h43q16 0 26 -14l-22 -29l-39 9l-84 -21l-65 10l-9 -8 l-35 -2l-30 4l-43 -10l-15 6l-63 -12q-17 10 -29 10q-14 0 -39 -14l-24 8h-17z" />
<glyph unicode="&#xae;" horiz-adv-x="555" d="M68 1243q0 87 66.5 154t158.5 67t158.5 -66.5t66.5 -158.5q0 -93 -67 -159t-162 -66q-88 0 -154.5 67.5t-66.5 161.5zM102 1239q0 -77 56.5 -133.5t134.5 -56.5t135 55.5t57 134.5t-56 135t-136 56q-79 0 -135 -57t-56 -134zM203 1118v242h88q102 0 102 -70 q0 -50 -51 -65l53 -107h-57l-47 99h-35v-99h-53zM256 1253h35q49 0 49 33q0 37 -51 37h-33v-70z" />
<glyph unicode="&#xaf;" d="M0 1319v80h819v-80h-819z" />
<glyph unicode="&#xb0;" horiz-adv-x="342" d="M23 897l8 8l4 23l10 2q0 25 25 31q-4 5 -4 14q0 14 12 14h16l2 10l25 5l22 28l9 -4l14 12l20 -4l7 4l20 -4l4 -14l25 6q22 -18 45 -20q1 -2 7.5 -6t10.5 -9l8 -22q47 -44 49 -56l-6 -10q0 -7 5.5 -11.5t5.5 -16.5q0 -7 -2 -13l-25 -65l-38 -31q-5 -4 -13 -6l-23 -6 l-12 -25l-88 2l2 4q0 2 -4 2l-21 -6l-67 -8l-6 25q-33 28 -33 88q0 5 6 32zM100 803q14 -8 33 -35l35 6l18 -6q15 0 23 3.5t33 6.5q10 11 39 15l-2 6q14 3 14 12l14 20l-2 15l14 16q-18 37 -18 51q0 7 -4 29l-18 6l-5 23q-17 9 -21.5 9.5t-17 2.5t-18.5 2q-35 0 -84 -51 l-4 -19l-29 -65l9 -27z" />
<glyph unicode="&#xb1;" horiz-adv-x="1706" d="M254 61v80h1198v-80h-1198zM254 727v80h559v354h80v-354h559v-80h-559v-352h-80v352h-559z" />
<glyph unicode="&#xb2;" horiz-adv-x="770" d="M29 465l8 10l-2 8q11 12 33 15l16 14l14 -2l11 6q10 4 26 12l6 -2l43 6q5 0 9 -4h34l25 -4q24 -12 37 -12l18 2l8 -6q17 16 25 16l6 -2l31 13l-2 4q28 8 28 10v2l9 16q21 11 67 31q-6 6 -6 8q0 7 10 10v9q19 6 25 6l4 -2q8 15 27 24l6 25l26 4q3 20 21 20l10 15l12 2 l4 16q2 8 7.5 20.5t5.5 18.5v4q3 6 8 6l8 21l-10 8q12 0 12 6l-4 21v20l-20 33q-3 13 -18 21l-52 28l-8 14l-19 -6l-18 13h-18l-11 16l-18 -6l-25 6l-10 -2l-16 4l-25 -4l-10 4l-12 -4l-11 4l-16 -4l-27 2q-3 -10 -12 -10q-6 0 -10 2l-25 -15h-16l-4 -8l-19 -6q-4 2 -10 2 q-7 0 -22 -18h-21v-13l-10 -2q-4 -10 -12 -10l2 -8l-23 -6v-4q0 -7 -16 -17l-2 -10l-29 -2q-23 19 -23 35v6q0 18 13 23l4 -5q2 27 10 29l12 -10l8 16h19l4 10l49 25l15 -4l12 12l14 2v4q18 13 41 13q17 0 25 -2q30 18 57 18h10l41 -4l35 2l16 -4q5 -4 13 -4h8q25 -3 51 -23 l12 4l11 -4q7 -14 28 -14l11 -16l33 -13q4 -2 28.5 -26.5t24.5 -34.5l-2 -15l18 -6l-4 -10l8 -12l-4 -19l6 -20l-6 -12l2 -21q0 -8 -11.5 -22t-19.5 -30t-11 -21t-14.5 -11t-15.5 -8l-10 -23l-14 -6l-2 -6h-13l4 -6q0 -6 -17.5 -16t-29.5 -19.5t-14 -15.5l-22 -17h-7 q-22 0 -22 -10v-4l-6 2q-11 0 -19.5 -17t-36.5 -28l-10 2l-4 -12q-5 0 -27 -19h19l8 -10q2 4 8 4q7 0 11 -2q6 -12 20 -12l14 2l2 -10l21 4l8 -12h18q14 -19 37 -19q6 0 6 2v2l54 -18q9 -5 12 -4t16 4l13 -8l63 -7l17 7h18q0 8 16 8h9l4 -8l-4 -7q-5 -2 -10 -7t-27 -15l-8 2 h-19v-8q-6 2 -14 2q-12 0 -19 -6q-4 2 -10 2h-6l-14 4h-15l-18 10h-12l-3 -6l-16 12l-12 -2q-8 12 -17 12h-2l-14 -2q-12 0 -12 13q-12 -4 -17 -4q-4 0 -30 4q-4 12 -6 12q-7 0 -13 -4q-5 0 -17 6t-20 8q-1 -2 -8 -2q-10 0 -22 12h-25q-11 0 -20 13l-9 -6l-10 6h-8l-12 2 q-6 -11 -37 -19l-4 4l-11 -14q-38 0 -55 -16l-22 -2v-4q0 -4 -4 -4q-7 0 -15 8q-7 -8 -16 -8h-29l-31 10q-16 6 -23 13t-7 17q0 13 -2 19zM96 455q16 -21 41 -21l19 6h10l8 6l43 11l39 22q-34 13 -49 13h-12q-12 0 -21 6q-8 -4 -16 -4h-6l-17 -9h-4q-17 0 -35 -30z" />
<glyph unicode="&#xb3;" horiz-adv-x="766" d="M14 461q0 22 17 22h8q4 6 38 9l32 4q12 0 12 -13q0 -4 -8 -8q-27 -3 -41 -5t-15 -17l-8 -7q10 -3 21.5 -6t23.5 -4.5t17.5 -4.5t9.5 -3q5 0 20 8l2 -8l41 8q15 0 15 -18q28 14 73 14q17 0 27 -4q4 10 10 10l19 -10q19 16 26 16h2q7 -10 27 -10q2 0 13.5 3t15.5 3l24 -2 l25 19l20 -2q23 0 37 14q8 -2 21 -2q6 0 8 2l-2 12l22 15l19 -2q2 3 34.5 22t32.5 41l2 18q0 10 -5 15.5t-19 9t-27 13.5q-21 16 -49 16l-29 -6l-10 12l-14 -4l-25 20l-12 -10q-13 4 -21 4q-2 0 -7.5 -1.5t-8.5 -2.5q-10 10 -20 10l-43 -10l-9 8l-37 4l-24 11l-27 -2 q-24 13 -35 20v18l-4 15l23 2q18 16 48.5 17.5t31.5 8.5l43 -2q10 0 14 19q32 6 39 12h31l4 10h8q27 0 27 11l-2 8q6 5 43 8q0 5 10.5 10.5t13.5 14.5q25 7 35 16l2 12l-2 6q2 2 4 2q-2 27 -47.5 40.5t-54.5 13.5l-33 -2l-35 4l-35 -2h-16l-21 -6l-24 6h-14l-11 -13 q-26 -1 -41 -12l-6 6l-18 -6l-6 4l-13 -8q-5 -8 -10 -8q-8 0 -14 4h-4q-16 0 -27 -14h-2q-27 0 -43 -31q-21 0 -23 -12l-18 8l-10 14q-1 1 -2.5 4.5t-3.5 5.5v8q0 7 -2 9l16 10q3 6 10 6l10 -2l9 8h18q8 0 8 2q-2 2 -2 4q13 7 29 7q17 4 24 16h19q17 9 29 10q4 -5 26.5 -2 t34.5 6l35 8l22 -4q16 9 39 9h8q9 -5 21 -5h2q6 0 14 -8l25 8l27 -2l20 2v-4l25 -8q1 -4 53 -14l14 -19l15 -12q8 -6 20 -29q-4 -2 -9 -14q-22 -54 -59 -59l-8 -10q-4 -5 -28 -15l-33 -6l-19 -14q-33 -8 -53 -19q-4 4 -6 4q-6 0 -8 -8h-17l-8 -8q-28 -6 -45 -16l-6 2 q-10 -6 -10 -15q0 -6 14.5 -8.5t20.5 -5.5l18 4l8 -4h21q1 -4 12 -4h6l21 4l20 -10l16 6q8 0 11 -6q27 -13 65 -13q10 -10 29 -10h6l16 -1q7 -1 27 -15h14l13 -14q6 -7 14 -40l14 -12l-2 -10l2 -12l-18 -17l-4 -20l-21 -10h-10v-11l-12 -2l-17 -18q-25 -5 -38.5 -11.5 t-20.5 -7.5q-10 -13 -45 -16q-3 -4 -57 -18l-17 4l-59 -17h-23l-26 6q-12 0 -23.5 -4t-32.5 -4l-20 2l-14 -2l-25 6l-16 -6q-3 0 -8 6t-9 7q-5 -10 -12 -13q-3 1 -8.5 4.5t-7.5 3.5q0 -8 -5 -8q-1 0 -11 4.5t-25 6.5l-2 -5l-15 13l-16 -8l-17 6q-2 0 -6 -4.5t-6 -4.5 q0 3 -2 3v2q0 6 -12.5 7t-16.5 3.5t-4 42.5z" />
<glyph unicode="&#xb4;" horiz-adv-x="1024" d="M381 1008l22 18l11 37l41 22l24 48l19 4l12 39l8 -7v11l12 4l9 16q98 90 98 113v2q5 16 18 16l29 33l23 4l10 -4q42 -11 39 -23l-15 -57q-42 0 -53 -29l-6 5l-74 -74l-12 4l-29 -39l-16 -4l2 -19l-29 -10v-16l-18 -6q-23 -41 -27 -52l-18 -8v-16q-13 -4 -49 -41z" />
<glyph unicode="&#xb5;" horiz-adv-x="1051" d="M-49 -354q0 42 53.5 259.5t104.5 459.5l108 520h119l-111 -518q-8 -39 -8 -88q0 -96 47 -153.5t121 -57.5q201 0 279 335l110 482h119l-117 -527q-26 -121 -26 -178q0 -94 75 -94q37 0 68.5 20.5t48.5 52.5t44 108q25 71 44 71q27 0 27 -31q0 -90 -72 -205.5t-192 -115.5 q-144 0 -144 174l2 33q-86 -213 -270 -213q-190 0 -219 210q-21 -127 -39.5 -309t-35.5 -239.5t-67 -57.5q-29 0 -49 18t-20 44z" />
<glyph unicode="&#xb6;" horiz-adv-x="936" d="M139 674q3 13 12.5 29.5t12 29t8.5 20.5l18 21l-4 17l7 16l15 13q7 5 23 42l17 4l31 60q18 8 51 45l32 6q10 18 24.5 27.5t28.5 10.5t52 19q19 -6 33 -6q6 0 41 8q22 -8 30 -8q7 0 9 2l16 4l12 -8l6 4q6 -4 9 -4q5 0 16 8l31 -2l20 -14l27 12q10 -10 22 -10q9 0 21 6 l16 -4l19 4q12 -6 12 -20q0 -11 -2 -15l-8 -2l-9 -10l3 -10q-7 -17 -21 -17q-3 0 -14 4l-13 -8l-16 2l8 -69l-18 -82l12 -74l-20 -41l4 -102l-23 -68l15 -8q-19 -61 -19 -86q0 -15 6 -33l-12 -51l14 -51l-22 -54l-4 -108l-15 -31l4 -164l-22 -75l6 -125q-3 -50 -23 -76 l-12 24q10 48 10 68q0 30 -14 41l10 55l-2 39l11 31l-13 41l15 37l4 106l-9 47l11 52l-4 38q-4 42 -4 62q0 23 8 61l8 35l-4 25l12 24l-10 70l14 39l-6 43q0 2 4 12.5t6 52.5q9 54 9 97q0 44 -7 96l-6 45q0 1 3.5 19.5t4.5 58.5l-10 -4l-24 12l-23 -12q-6 12 -20 12 q-13 0 -19 -4h-20l4 -37l8 -8l-2 -23l4 -35l-12 -30l6 -45v-49l8 -13l-20 -57l6 -62l-17 -20q13 -43 13 -51v-105l-17 -57l4 -74q-6 -21 -6 -41q0 -29 8 -51q-12 -4 -12 -24l4 -99q0 -66 -2 -74l-33 -124l17 -37l-6 -31v-37l-21 -8q-4 17 -22 45l8 25l-8 32q18 51 18 64 q0 23 -10 47l14 94l-10 21l10 57q2 6 2 16q0 17 -12 29l4 180q2 13 2 27l-2 29q0 19 6 34l10 6q-6 31 -6 52t6 43l-22 -4l-14 -23h-15l-8 -20q-45 -23 -61.5 -26t-18.5 -3l-33 -12h-8q-21 0 -31 18h-8q-12 0 -24 -8q-86 12 -86 41q0 8 2 12q-13 0 -13 8q0 9 5 13l2 18l-7 23 l9 38z" />
<glyph unicode="&#xb7;" horiz-adv-x="498" d="M164 506v2l4 47l12 14l-2 19q7 14 20 22t31 23q21 -6 54 -12q26 -33 39 -35v-17l10 -6l-4 -22l6 -6l-12 -33l-23 -13q-34 -28 -49 -28h-4q-9 0 -21 -6q-14 14 -37.5 28t-23.5 23z" />
<glyph unicode="&#xb8;" horiz-adv-x="1024" d="M385 -199l6 -8v23l8 -9l33 68q8 3 8 8q0 4 -2 8l15 7l-7 26l7 10v19l12 8l-8 29q9 15 10 39l18 -2v6h9q11 -30 32 -39q-12 -10 -12 -21q0 -6 12 -6l-18 -6l4 -27l-10 -14l2 -14q0 -37 31 -37h14q12 6 20 6q15 0 23 -16h29l14 -17l22 -2q25 -40 52 -71l-9 -52l9 -49 l-33 -30l-18 -12q-9 -5 -23 -29l-66 -7q-15 -19 -26 -18l-119 14l-10 25l28 10q11 -16 25 -16q11 0 14.5 4t5.5 4t12 -4t21 -4q10 0 17.5 5t19.5 5q9 0 12 -2q9 22 31 22q5 0 16 -4l23 27l4 33l10 28l-6 37l-12 4q4 6 4 17q0 27 -47 33l-66 8l-28 -15l-23 4l-29 -38l-14 6 q-20 -4 -33 -25z" />
<glyph unicode="&#xb9;" horiz-adv-x="664" d="M4 842q6 12 19 12l12 -2q4 -10 20 -10q4 0 12 2t9 2l22 -2q3 0 7 4l6.5 6.5t13.5 5.5t29 8h8q17 0 31.5 10.5t19.5 12.5q6 -4 8 -4q9 0 12 14q21 3 21 6q-2 2 -6 4h16q6 0 12 21l-6 6l6 4l19 -4q4 0 18.5 5t14.5 18l-2 16q0 6 6 18l37 9h34q21 -19 21 -29q0 -6 -4 -6 q-45 -39 -45 -43q0 -8 14 -17l-18 -10q0 -4 4 -12l-21 -17q2 0 2 -2t-5 -11t-5 -17l2 -13l-7 -24q-4 -12 -6 -26t-9 -25l6 -11l-15 -24l5 -21l-5 -18h-6l8 -21l-8 -22q6 -15 6 -19q0 -6 -10 -10q12 -12 12 -20l-12 -8q4 -9 4 -11q0 -4 -2 -4q4 -16 4 -24q0 -15 -8 -21 q3 -16 14 -18q-4 -12 -4 -15q0 -7 7 -10q-5 -6 -5 -8q0 -5 17 -18q3 -11 14 -11h4l8 8l11 -4l18 4l2 -10l33 10l-2 -8l33 -6l18 2l23 -6h14q12 1 26.5 3.5t18.5 2.5t18.5 -2.5t24.5 -3.5l4 -8l10 8q15 -9 15 -12q0 -6 -13 -6l-57 -2l-49 -11l-53 11q4 -6 -1 -6t-10 -3 q-20 9 -36 9l-35 -5l-33 3l-8 -5l-47 7l-15 -2l-2 8l-39 -8q-31 -3 -41 -9l-8 6h-4q-6 0 -10 -4t-6 -4h-2l-6 4h-19q-8 -4 -12 -4q-9 0 -27 11q0 -2 2 -5q0 -6 -12 -6q-16 0 -17.5 1.5t-9.5 13.5l-18 6l6 6q-10 14 -10 16q14 15 41 15h4q7 -7 14 -7l49 7l27 8l31 -2 q46 -13 55 -13q13 0 29 7l-4 14l4 8l-15 27l2 18q-4 8 -4 10q0 7 6 7q-6 12 -6 49q0 7 15 14l2 12l-4 21q6 9 6 16q0 11 -15 23l-2 12l11 4l-7 12l11 21l-9 20l13 13l8 39v4q0 12 2 18l10 6l-10 17q-2 2 -2 8q0 8 8 16l2 8h-18q-8 4 -15 4q-6 0 -15.5 -3.5t-19.5 -6.5 l-26 -8h-14q-27 -12 -39 -14l-17 -17l-14 6q-51 -9 -63 -20l-56 20z" />
<glyph unicode="&#xba;" horiz-adv-x="510" d="M-8 418v31l14 2l8 20l11 -18l24 16q11 0 21 -12q4 -2 16 -2q23 0 23 12l34 -10l33 2q-6 -6 -6 -10q0 -9 6 -9q4 0 12 4l5 19l20 -6l31 4q4 2 10 2q10 0 20 -10l33 -7l21 9q20 -11 37 -11t41 11l22 -11h35q-5 -2 -10 -2q12 -6 18 -12l-22 -29l-13 9l-84 -21l-65 10 q-16 -4 -23 -4q-10 0 -22 6l-31 5l-119 -17q-16 10 -29 10q-10 0 -38 -16l4 8h-17zM59 649l7 15l-7 34l7 19l-3 26q0 21 13 25q0 19 6 35h8q8 18 8 22l-2 11l2 16v12q11 14 11 27l-5 20q0 11 12.5 20t12.5 13q0 6 -6 12q16 33 27 33l-5 15q21 1 21 24q0 4 -4 16 q24 0 34.5 9.5t20.5 31.5h6q10 11 17 11l34 -9l21 11v-11l12 -2l19 -10h16l14 -12q12 -21 29 -29l6 -14q9 -4 19.5 -18t20.5 -44l9 -30v-10l13 -44l-9 -28l5 -8q-4 -39 -15 -50v-14l-4 -6l-4 -18q-14 -19 -20 -41l-9 -4l-4 -17q-12 -6 -22 -29l-19 -10l-2 -14l-16 -8 l-10 -17q-3 -4 -37 -18q-12 -23 -35 -23q-3 -8 -14 -8l-13 2q-17 -13 -30 -18l-11 -15l-16 11l-4 -9q-14 9 -62 13q-8 20 -30 43l4 16zM106 666l3 -27l18 -27q19 -9 20 -12l7 2l8 -2l12 4l27 -2l12 4l4 8q4 -2 10 -2q13 0 17 13l16 -4l4 8l10 2l7 12l10 6l2 10h18l2 11 l21 14l8 13q4 5 25 16q3 16 10 32l-4 9l16 6l-2 6q9 11 12 16h-4q4 9 4 15t-2 8q4 11 4 16t-4 17q6 6 6 12l-4 12q0 2 4 2q-5 14 -14 31l2 25l-8 18q-12 4 -12 10v2q0 5 -4.5 7t-4.5 4v2q0 10 5 16q-5 4 -19 6l-4 8l4 4l-14 9q-25 24 -53 24q-19 0 -31 -16v-35l-17 -1 q-8 -1 -40 -24l-3 -12l-12 -6l-6 -31q-16 -15 -16 -26q0 -3 4 -19l-13 -8l-4 -21q0 -9 -10 -16v-10l-12 -17v-10l-2 -6v-16l-13 -37l5 -8v-27z" />
<glyph unicode="&#xbb;" d="M47 225q6 16 34 27.5t28 26.5l-3 10l13 2l16 22l43 15l19 26h8q16 0 37 11l-9 4l56 61l28 23q25 15 25 26v13l-25 61q-20 29 -20 35q-17 20 -21 35h15l-17 26l-10 2l-8 37q-22 39 -25 55l-41 39q11 11 11 19q0 18 -11 30l-45 54h27l34 -32q5 -5 25.5 -45t57.5 -65l2 -22 l57 -51v-19l17 -16l4 -25l14 -2l25 -43q61 -8 66 -12t5 -14v-15l-26 -12v-33l-7 -18q-13 -7 -18 -15l-39 7q-6 -7 -12 -7l-6 3q-9 0 -24.5 -27t-43.5 -57l-47 -52q-3 -12 -19 -17.5t-24 -20.5t-37 -50q-22 -6 -22 -22q-17 -5 -23 -25q-29 4 -57 12zM238 92h4q12 0 22 10 q0 4 6.5 12t10.5 13l28 8l14 17q7 8 39 24v14l21 7l6 18l39 21l13 15q5 7 40 23l4 15l47 26l31 43l42 22q5 3 22 26v14l12 2l6 31l-14 8l-10 28q-5 15 -19 29l-8 35l-29 78q-34 41 -39 57l-12 2l4 21l-12 12l-25 68l-18 14q-39 51 -43 51l2 25l33 18l24 -41l20 -12 q9 -5 18.5 -18.5t10.5 -14.5v-14l35 -60q3 -6 25 -37q8 -4 22 -18l8 -41l27 -25l4 -14l27 -16l2 -13l22 -6l-4 -37l60 -55l2 -18l16 -19l-18 -6l-18 -14q-9 -6 -31 -10l-15 -23l-20 -4l-6 -25q-30 -25 -68 -43v-24l-61 -55h-23l2 -29q-5 -4 -15 -13.5t-18 -9.5 q-14 0 -28 -20l-35 -10q-8 -21 -14 -27l-9 -35q-57 -32 -61 -65q-28 -13 -39 -13q-24 0 -38.5 34.5t-20.5 43.5z" />
<glyph unicode="&#xbc;" horiz-adv-x="2001" d="M4 854q5 10 16 10q9 0 13.5 -5t19.5 -5l19 4l20 -4q5 0 11 8t7 8l35 9h9q17 0 31.5 9t19.5 11q2 -2 6 -2q9 0 12 12q12 2 19 4q0 5 -4 5h14q6 0 12 20l-6 6l6 4l17 -4q32 0 32 21l-2 14q0 11 4 18l35 9h35q18 -18 18 -29q0 -5 -43 -37l-2 -8q0 -8 13 -14l-17 -11 q0 -8 4 -10l-20 -16q2 0 2 -2q0 -3 -5 -11.5t-5 -15.5q0 -2 4 -10q-11 -21 -15 -62l-8 -10l4 -10l-12 -23l4 -18l-4 -19h-6l8 -18l-8 -20q6 -16 6 -19q0 -7 -10 -10q12 -9 12 -19l-12 -8q4 -4 4 -8t-2 -4q4 -8 4 -23t-8 -20q3 -12 14 -16q-4 -12 -4 -15q0 -7 6 -10 q-4 -4 -4 -6q0 -7 16 -17q0 -10 15 -10h2l8 8l10 -4l17 4l4 -10l31 10l-3 -8l31 -6l17 2l22 -6h14q12 1 25.5 3.5t15.5 2.5q6 0 19.5 -2.5t21.5 -3.5l6 -8l9 8q14 -9 14 -12q0 -4 -10 -4l-56 -2l-49 -9l-49 9q5 -6 0 -6t-10 -3q-20 9 -35 9l-33 -5l-32 2l-9 -4l-43 7l-14 -3 l-2 7l-37 -7q-31 -2 -39 -8l-8 6h-4q-6 0 -10 -4t-6 -4l-7 4h-18q-4 -2 -10 -2q-10 0 -29 8l4 -4q0 -6 -12 -6q-19 0 -27 15l-16 4l6 8q-10 10 -10 14q14 15 39 15q4 0 4 -3q5 -4 12 -4l74 13q21 0 50 -7.5t34 -7.5q6 0 26 6l-4 15l4 6l-14 27l2 18q-4 4 -4 8t6 4 q-6 13 -6 47q0 8 14 15v10l-2 20q6 7 6 15q0 12 -14 20l-2 13l10 4l-6 10l10 18l-8 21l10 10l9 37v6l2 14l10 9l-10 14q-2 2 -2 6q0 9 8 16l2 9h-19q-4 2 -12 2q-12 0 -17 -2.5t-16 -5.5l-24 -9h-15q-23 -11 -38 -12l-15 -14l-14 4l-21 -4q-19 0 -41 -15l-53 19zM563 -127 l19 45l-4 33q16 0 21.5 20t13.5 32t15 36t13.5 32t30.5 62q4 29 11 41t32 39v18l24 33q11 16 15 30t12 32l35 80q9 21 29 46.5t20 28.5v25l20 29q13 18 16 32l11 39l16 6l7 41l18 6l14 21q4 6 7 22l6 39q28 11 31 33t20 53l29 28q7 6 26 52l19 45l88 154q2 4 12.5 19 t17.5 26l35 8q4 2 10 2q12 0 20 -9t24 -19t16 -17q0 -12 -19 -31q0 -17 -18 -26l-33 2l-47 -41l-12 -46q-2 -7 -33 -40l4 -12l-14 -7l-6 -20l-27 -12l-4 -29q-26 -26 -32.5 -47t-35.5 -51l-6 -39l-13 -13q-5 -6 -22 -51l-10 -28l-27 -27l-24 -66l-23 -14l-4 -47l-33 -22 l5 -33q-23 -2 -28 -11t-5 -36v-4l-12 -3q-10 -46 -27 -49l-12 -10v-37q-10 -16 -16.5 -22t-10 -23t-6.5 -20q-9 -7 -21 -32t-12 -26v-14l-27 -47l-12 -13q-6 -6 -12 -28l-2 -21l-33 -79l-7 -26q-3 -11 -28 -48zM1204 217q9 22 29 25q2 11 33 26q44 5 50 7t9 10l27 -6l16 2 l10 22l13 8h10l-4 13l24 6q6 20 21 28q0 5 10 12q24 17 39 44l16 8q0 19 13 22q6 19 24 31q8 0 8 6l-2 8q28 10 31 19q-8 3 -12 14l20 13q4 36 27 40l8 -4l6 -10l8 -4l-2 -6l2 -8l-8 -6l4 -13l-16 -16l-2 -14l-12 -5l-13 -26v-2q0 -6 -20.5 -23.5t-34.5 -34.5q4 -6 4 -8 q0 -3 -10.5 -8t-22.5 -20l-12 -15q-4 -8 -29 -22v-8q-4 -1 -51 -39l21 -11h20l19 -8q6 6 8 6h8q14 -16 29 -16q9 0 27.5 4t25.5 4q10 0 22 -12h21q10 0 10 14v15l14 14l-2 12l7 10l-5 17l9 4l-4 16q16 20 16 27v6h-4q0 3 10 16v29q6 1 6 12v11q4 12 4 16l-6 23q0 6 2 12 l13 35l-3 32q0 15 19 15q11 -9 20 -20t9 -29l-13 -15l2 -37l-6 -14l4 -6l-8 -12l2 -19h-2l-16 -45v-20l-25 -95q-10 -14 -10 -20q6 -21 14 -21l13 5q10 0 18 -9l27 4l24 -12l29 6h4q9 0 14 9l15 4l8 -7l18 17l21 4q7 11 20 20l10 -4q0 -16 -22 -28l-4 -11l4 -4 q-18 -14 -25 -14l-8 2q-10 0 -16.5 -8t-16.5 -8h-4q-14 -5 -33 -6l-2 -5h-20l-21 7l-12 -7l-18 11l-13 -4l-22 6l-12 -6v-15l-11 -12l2 -18l-4 -15l4 -14q-6 -3 -6 -10v-2l-8 -11l8 -20l-8 -8l-2 -11l6 -16l-10 -25q4 -2 4 -6t-4 -6v-4q0 -5 3 -12t3 -8v-19l12 -6l13 -25 q-4 -6 -13 -6q-4 0 -20 4l-2 21l-10 12v17l-11 10l7 10l-9 6l2 6l-4 21l4 8l-6 8l6 12l-4 19l8 29l-2 4l2 10l-4 4q0 9 11 16l-4 9v14l-3 18q0 1 5 4v5q0 30 -84 30h-33l-10 6l-21 -6l-14 10l-27 -2l-8 7h-16l-11 4l-12 -9l-12 3q-22 -11 -47 -15l-9 -8l-14 -2l-2 -6l-20 -6 h-25q-4 0 -6.5 -3t-5.5 -3h-2l-6 10l-7 2z" />
<glyph unicode="&#xbd;" horiz-adv-x="1921" d="M4 854q5 10 16 10q9 0 13.5 -5t19.5 -5l19 4l20 -4q5 0 11 8t7 8l35 9h9q17 0 31.5 9t19.5 11q2 -2 6 -2q9 0 12 12q12 2 19 4q0 5 -4 5h14q6 0 12 20l-6 6l6 4l17 -4q32 0 32 21l-2 14q0 11 4 18l35 9h35q18 -18 18 -29q0 -5 -43 -37l-2 -8q0 -8 13 -14l-17 -11 q0 -8 4 -10l-20 -16q2 0 2 -2q0 -3 -5 -11.5t-5 -15.5q0 -2 4 -10q-11 -21 -15 -62l-8 -10l4 -10l-12 -23l4 -18l-4 -19h-6l8 -18l-8 -20q6 -16 6 -19q0 -7 -10 -10q12 -9 12 -19l-12 -8q4 -4 4 -8t-2 -4q4 -8 4 -23t-8 -20q3 -12 14 -16q-4 -12 -4 -15q0 -7 6 -10 q-4 -4 -4 -6q0 -7 16 -17q0 -10 15 -10h2l8 8l10 -4l17 4l4 -10l31 10l-3 -8l31 -6l17 2l22 -6h14q12 1 25.5 3.5t15.5 2.5q6 0 19.5 -2.5t21.5 -3.5l6 -8l9 8q14 -9 14 -12q0 -4 -10 -4l-56 -2l-49 -9l-49 9q5 -6 0 -6t-10 -3q-20 9 -35 9l-33 -5l-32 2l-9 -4l-43 7l-14 -3 l-2 7l-37 -7q-31 -2 -39 -8l-8 6h-4q-6 0 -10 -4t-6 -4l-7 4h-18q-4 -2 -10 -2q-10 0 -29 8l4 -4q0 -6 -12 -6q-19 0 -27 15l-16 4l6 8q-10 10 -10 14q14 15 39 15q4 0 4 -3q5 -4 12 -4l74 13q21 0 50 -7.5t34 -7.5q6 0 26 6l-4 15l4 6l-14 27l2 18q-4 4 -4 8t6 4 q-6 13 -6 47q0 8 14 15v10l-2 20q6 7 6 15q0 12 -14 20l-2 13l10 4l-6 10l10 18l-8 21l10 10l9 37v6l2 14l10 9l-10 14q-2 2 -2 6q0 9 8 16l2 9h-19q-4 2 -12 2q-12 0 -17 -2.5t-16 -5.5l-24 -9h-15q-23 -11 -38 -12l-15 -14l-14 4l-21 -4q-19 0 -41 -15l-53 19zM563 -127 l19 45l-4 33q16 0 21.5 20t13.5 32t15 36t13.5 32t30.5 62q4 29 11 41t32 39v18l24 33q11 16 15 30t12 32l35 80q9 21 29 46.5t20 28.5v25l20 29q13 18 16 32l11 39l16 6l7 41l18 6l14 21q4 6 7 22l6 39q28 11 31 33t20 53l29 28q7 6 26 52l19 45l88 154q2 4 12.5 19 t17.5 26l35 8q4 2 10 2q12 0 20 -9t24 -19t16 -17q0 -12 -19 -31q0 -17 -18 -26l-33 2l-47 -41l-12 -46q-2 -7 -33 -40l4 -12l-14 -7l-6 -20l-27 -12l-4 -29q-26 -26 -32.5 -47t-35.5 -51l-6 -39l-13 -13q-5 -6 -22 -51l-10 -28l-27 -27l-24 -66l-23 -14l-4 -47l-33 -22 l5 -33q-23 -2 -28 -11t-5 -36v-4l-12 -3q-10 -46 -27 -49l-12 -10v-37q-10 -16 -16.5 -22t-10 -23t-6.5 -20q-9 -7 -21 -32t-12 -26v-14l-27 -47l-12 -13q-6 -6 -12 -28l-2 -21l-33 -79l-7 -26q-3 -11 -28 -48zM1212 55l11 11l-4 6q7 8 20 12t27 14h12q13 5 37 17l6 -2l41 6 q4 0 8 -4h33l24 -4q18 -11 35 -11l17 2l8 -6q14 15 24 15q2 0 5 -2l30 12l-2 4q7 2 16.5 4.5t10 4t8.5 18.5q18 11 66 28q-9 6 -9 8q0 6 13 9v8l20 4q5 0 6 -2q6 15 25 24l6 23l25 4q2 18 20 21l10 12l11 2l4 16q1 7 6.5 18t5.5 17v4q2 4 8 4l8 21l-10 6q12 3 12 8l-4 19v18 l-20 31q-3 12 -14 18l-54 29l-6 12l-18 -4l-17 10h-18l-10 15l-19 -5l-22 5l-11 -3l-14 5l-25 -5l-8 7l-12 -7l-10 7l-17 -7l-22 3q-5 -9 -15 -9q-4 0 -8 2l-24 -14h-15l-4 -6l-18 -8q-8 4 -10 4q-9 0 -21 -19h-18v-10l-11 -2q-5 -10 -12 -10l2 -8l-22 -6v-3q0 -5 -15 -16 l-2 -8l-28 -4q-21 20 -21 35v4q0 15 10 22l4 -4q3 23 11 25l12 -8l8 16h19l2 8l47 23l14 -4l12 12l13 2v4q18 12 41 12q14 0 20 -4q31 19 55 19h11l39 -5l32 3l17 -5q7 -4 12 -4h8q24 -3 49 -20l11 4l10 -4q5 -12 26 -14l13 -15l25 -9q10 -3 32.5 -25.5t22.5 -32.5v-17 l16 -4l-4 -8l8 -12l-4 -19l6 -18l-6 -13l2 -18q0 -8 -12 -22l-27 -41q-4 -8 -16 -15t-12 -8l-11 -22l-14 -5l-2 -6h-12q4 -4 4 -6q0 -4 -7.5 -9t-19 -11.5t-21.5 -14t-12 -12.5l-20 -14h-6q-23 0 -23 -11v-4q-2 2 -4 2q-11 0 -20 -16q-4 -15 -33 -27l-10 4l-5 -12 q-3 -1 -24 -16h18l6 -12q4 6 11 6q4 0 8 -2q6 -13 18 -13l15 2l4 -8l18 2l8 -12h17q14 -16 35 -16q6 0 6 2v2l51 -17q4 -4 10 -4h4l15 4l10 -8l59 -6l17 6h18q0 8 16 8h7l6 -8l-4 -6q-5 -2 -11.5 -8t-23.5 -13l-10 3l-19 -3v-6q-4 2 -12 2q-9 0 -19 -6q-1 2 -10 2h-4l-14 4 h-15l-16 11h-10l-4 -7l-17 11l-10 -2q-6 12 -14 12h-4q-4 -2 -13 -2q-12 0 -12 12q-11 -4 -16 -4t-29 4q-4 10 -6 10l-12 -2q-6 0 -17 5.5t-18 7.5q-2 -2 -8 -2q-8 0 -21 10l-18 2l-4 -2h-3q-7 0 -18 12l-8 -4l-10 6h-21q-10 -16 -29 -16h-6l-4 4l-10 -14q-37 0 -51 -15 l-23 -4v-2q0 -4 -2 -4q-5 0 -14 6q-11 -6 -14 -6h-29l-30 9q-15 5 -22.5 12.5t-7.5 17.5t-2 16zM1278 45l4 -8q13 -7 35 -10l16 6h10l50 16l39 21q-40 10 -50 10h-10q-11 0 -20 6q-9 -4 -17 -4h-4l-16 -8h-4q-10 0 -21 -11.5t-12 -17.5z" />
<glyph unicode="&#xbe;" horiz-adv-x="2097" d="M12 498q0 22 17 22h8q4 5 40 8l25 2q13 0 13 -10q0 -5 -13.5 -7.5t-29.5 -5t-17 -18.5l-8 -4q22 -9 55 -12q4 -4 15 -4q6 0 18 6l2 -6l39 6q14 0 14 -16q21 12 70 12q17 0 25 -2q4 8 10 8q4 0 7 -3t11 -7q17 14 25 14h2q9 -8 25 -8q1 0 13 3t15 3l23 -2l24 19 q16 -4 19 -4q20 0 37 14q5 -2 18 -2q6 0 8 2l-2 10l21 14l18 -2q3 4 24.5 16t37.5 29l2 15q4 15 4 18q0 15 -13 18t-36 16t-50 13l-26 -4l-8 10l-15 -2l-24 19l-11 -8q-5 2 -20 2q-8 0 -14 -2q-13 8 -21 8l-41 -8l-8 6l-35 4l-24 10l-25 -2q-22 11 -33 19v16l-4 14l23 2 q17 15 45 17t28 8l43 -2q9 6 13 16q32 6 39 12h28l2 9h9q26 0 26 10l-2 8q4 5 41 8q0 4 11 9.5t14 13.5q34 13 34 26l-2 7l2 2q-1 29 -52 39l-44 10l-33 -2l-30 4l-35 -2h-14l-21 -4l-25 4h-12l-10 -12h-23l-16 -11l-6 4l-16 -4l-7 4l-12 -8q-5 -8 -10 -8l-14 4h-3 q-15 0 -24 -12h-4q-26 0 -41 -31q-21 0 -21 -10q-20 7 -28 20q0 4 -6 11q2 1 2 6q0 6 -5 10l17 8q3 6 8 6l12 -2l6 8l13 -2h6q8 0 8 4l-2 3q16 8 27 8q15 0 24 14h19l12 8h14q2 -2 9 -2q8 0 45 4q35 11 38 11l21 -5q13 9 37 9h8q8 -4 18 -4h3q5 0 14 -7l24 7l25 -3l20 3v-5 l23 -8q1 -2 51 -12l28 -30q7 -5 17 -25q-3 -3 -6 -13q-17 -48 -57 -57q-6 -10 -35 -23l-31 -6l-18 -12q-31 -7 -51 -18q-2 4 -7 4q-2 0 -8 -6h-14l-6 -11q-28 -3 -45 -14l-6 2q-9 -5 -9 -12q0 -6 14 -8.5t19 -6.5l17 5l10 -5h18q5 -4 10 -4h7l20 4l21 -10l14 8q8 -2 10 -8 q31 -10 64 -10q7 -10 26 -10h27l20 -17h15l16 -18l6 -19q2 -10 15 -22l-2 -10l2 -11l-17 -16l-4 -18l-20 -11h-11v-8l-10 -2l-16 -18l-19 -4q-5 -1 -17.5 -7t-19.5 -6q-11 -14 -43 -14q-4 -4 -55 -18l-16 2l-56 -15l-47 6q-10 0 -26 -4l-27 -4l-20 4l-13 -4q-9 6 -22 6 l-17 -6q-2 1 -7 6.5t-9 6.5q-5 -11 -12 -11q-3 0 -15 6q0 -8 -12.5 -3.5t-26.5 5.5l-4 -4l-14 11l-12 -7l-15 5q0 2 -2 2t-6 -4.5t-6 -4.5q0 2 -2 2v3q0 6 -18 6q-15 2 -15 43zM662 -127l18 45l-4 33q17 0 22 20t13 32t15.5 36t13.5 32t30 62q4 29 11 41t32 39v18l24 33 q12 16 15.5 30t11.5 32l35 80q10 21 29.5 46.5t19.5 28.5v25l21 29q12 18 16 32l10 39l17 6l6 41l18 6l14 21q5 6 7 22l6 39q28 11 31 33t20 53l29 28q7 6 26 52l19 45l37 60l51 94q2 4 13 19t18 26l34 8q5 2 11 2q11 0 19.5 -9t24 -19t15.5 -17q0 -12 -18 -31 q0 -17 -19 -26l-33 2l-47 -41l-12 -46q-2 -7 -33 -40l4 -12l-14 -7l-6 -20l-27 -12l-4 -29q-25 -26 -32 -47t-35 -51l-7 -39l-13 -13q-5 -6 -21 -51l-11 -28l-26 -27l-25 -66l-22 -14l-4 -47l-33 -22l4 -33q-23 -2 -28 -11t-5 -36v-4l-12 -3q-10 -46 -27 -49l-12 -10v-37 q-10 -16 -16.5 -22t-10 -23t-6.5 -20q-8 -7 -20.5 -32t-12.5 -26v-14l-10 -14l-16 -33l-13 -13q-6 -6 -12 -28l-2 -21l-33 -79l-7 -26q-3 -11 -27 -48zM1303 217q9 22 28 25q3 11 33 26q45 5 51 7t8 10l27 -6l16 2l11 22l12 8h10l-4 13l25 6q5 20 20 28q0 5 10 12 q24 17 39 44l17 8q0 19 12 22q6 19 24 31q9 0 9 6l-2 8q27 10 30 19q-8 3 -12 14l21 13q4 36 26 40l8 -4l7 -10l8 -4l-2 -6l2 -8l-8 -6l4 -13l-17 -16l-2 -14l-12 -5l-12 -26v-2q0 -6 -21 -23.5t-35 -34.5q4 -6 4 -8q0 -3 -10.5 -8t-22.5 -20l-12 -15q-4 -8 -28 -22v-8 q-4 -1 -52 -39l21 -11h20l19 -8q6 6 8 6h8q14 -16 29 -16q10 0 28 4t25 4q10 0 23 -12h20q10 0 10 14v15l15 14l-2 12l6 10l-4 17l8 4l-4 16q16 20 16 27v6h-4q0 3 10 16v29q7 1 7 12v11q4 12 4 16l-7 23q0 6 3 12l12 35l-2 32q0 15 18 15q12 -9 20.5 -20t8.5 -29l-12 -15 l2 -37l-7 -14l5 -6l-9 -12l2 -19h-2l-16 -45v-20l-25 -95q-9 -14 -10 -20q6 -21 15 -21l12 5q10 0 18 -9l27 4l24 -12l29 6h4q9 0 15 9l14 4l8 -7q14 12 19 17l20 4q7 11 20 20l11 -4q0 -16 -23 -28l-4 -11l4 -4q-18 -14 -24 -14l-9 2q-10 0 -16.5 -8t-15.5 -8h-4 q-14 -5 -33 -6l-2 -5h-21l-20 7l-13 -7l-18 11l-12 -4l-23 6l-12 -6v-15l-10 -12l2 -18l-4 -15l4 -14q-6 -3 -6 -10v-2l-9 -11l9 -20l-9 -8l-2 -11l7 -16l-11 -25q4 -2 4 -6t-4 -6v-4q0 -5 3 -12t3 -8v-19l13 -6l12 -25q-3 -6 -12 -6q-5 0 -21 4l-2 21l-10 12v17l-10 10 l6 10l-8 6l2 6l-4 21l4 8l-6 8l6 12l-4 19l8 29l-2 4l2 10l-4 4q0 9 10 16l-4 9v14l-2 18q0 1 4 4v5q0 30 -84 30h-33l-10 6l-21 -6l-14 10l-27 -2l-8 7h-16l-10 4l-13 -9l-12 3q-21 -11 -47 -15l-8 -8l-15 -2l-2 -6l-20 -6h-25q-4 0 -6.5 -3t-5.5 -3h-2l-6 10l-6 2z" />
<glyph unicode="&#xbf;" horiz-adv-x="766" d="M102 219l17 45l-13 17l13 12l-4 20q17 14 32.5 34t27.5 32.5t20 30.5h6l49 39l2 12l27 14v10q29 8 32.5 15.5t3.5 11.5q0 3 -4 14l37 9v14l21 14l-4 10l41 33q7 30 36 80q-8 38 -14 84l-33 27l-24 2q-15 11 -15 26l2 11v8l39 -4l33 -25l23 -27q18 -12 18 -24q0 -3 -4 -14 l29 -9v-8l-11 -35l19 -22l-19 -4l15 -19l-4 -35q-13 -4 -21.5 -15t-11.5 -11q-24 -26 -29 -55h-10l-16 -31l-17 -6q-8 -15 -24.5 -26.5t-16.5 -18.5v-6l-18 -3l-21 -32q-41 -7 -41 -21q0 -3 4 -10l-28 -18v-15l-27 -12l-2 -27q-27 -6 -41 -26l4 -52l6 -20l-6 -27 q6 -6 33 -57l18 4l11 -6l4 -16q31 -27 43 -41l16 14q-2 -4 -2 -10q0 -9 7.5 -16t15.5 -7l14 10l55 -10l6 12q6 -2 23 -2l70 13h38l78 22q8 4 11 4q9 0 18 -12q-30 -31 -76 -37q-16 -3 -16 -10q0 -2 4 -6l-17 -6q-8 -2 -30 -27h-23q-20 -16 -45 -20l-35 14l-18 -12 q-18 2 -43 18l-6 -12q-21 14 -33 14l-8 -2l-27 6q-3 11 -10 19q-8 -4 -12 -4q-9 0 -24 16t-48 61l-19 34q-10 18 -26 32l-2 29zM352 1077q0 14 6 21q20 2 62 16l45 -20l10 -19l10 2l-10 -18l4 -45h-8l-2 -17q-35 9 -37 13l-8 -4q-11 2 -57 32z" />
<glyph unicode="&#xc0;" horiz-adv-x="1442" d="M-41 -18l8 18v29l15 18l-7 14l37 5l25 14q33 14 41 51q42 11 49 47q49 28 66 92l28 11l66 102v29q-14 11 -21 30l39 35v15l47 -5l27 17l6 -8l27 36q-9 2 -9 9q0 5 29 24l8 -12q2 25 21 59l-6 4l24 2l8 27q25 3 25 21v24q49 42 49 78v4l27 4l6 29l14 4l21 43l14 -10 l-10 22q30 3 33 39l14 -8v41h14v29q4 4 23 20.5t24 44.5l23 23l-14 32q28 37 53 37h4l12 19l14 -21q5 -6 18 -13l34 -17l4 -52q14 -12 26 -41l17 -6l4 -45l16 -61l27 -47l18 -66l4 -43l29 -39l-8 -16l22 -25v-31l5 -28q0 -8 -9 -21q31 -73 72 -73l39 8h47q22 -6 37 -6 q26 0 40.5 12t18.5 12q6 0 37 -18l45 2q0 -15 -14 -21l-33 11l-37 -29l-43 6q-26 -18 -57 -18q-24 0 -31 -11q-25 11 -47 11q-21 0 -27 -15q4 -10 15 -18l-6 -21l6 -69l26 -39l5 -37l45 -66l-7 -30l31 -29l47 -80q37 -43 43 -61l37 -19l14 -32l15 -11l-27 -20l-33 26h-20 l-27 21h-20l-19 35l-20 10q-24 48 -53 76v20l-19 17l-2 32l-31 33l-43 103l-14 18l-7 51q-1 8 -26 47v43h-24l-27 -18l-41 8l-28 -18l-11 10l-22 -14l-6 14q-5 0 -20.5 -6t-33.5 -6l-26 2h-35l-35 -23l-37 8l-51 -4v-10l-18 10l-25 -14l-18 14h-33l-33 -14l-27 29l-14 -11 l-29 11q-34 -15 -94 -105l-33 -8q-82 -126 -88 -127l-18 -10l-57 -74h-11l-49 -80l-53 -33zM473 506q36 -11 51 -21l25 2l41 -10q12 -4 18 -4q9 0 29 4q2 2 8 2q3 0 15.5 -4t23.5 -4l27 6l80 6l65 9q63 -9 80 -9q47 0 47 21q0 13 -18 35l22 18q-13 34 -33 45l11 29l-27 14 l-8 78l-25 39l-4 33l-14 28v11h-6l-4 44q0 7 -11 22l-14 22q-4 6 -16.5 15t-38.5 21l-23 -12l-14 -24l-49 -70l-12 -23q-5 -10 -48 -53l-8 -33l-43 -22q-15 -78 -61 -90l-19 -62l-41 -16v-21zM569 1458v12q7 7 20 37q32 12 41 27q16 -9 35 -15l15 -28l41 -51l20 -45l16 -16 q7 -7 21 -42l29 -14l14 -25l29 -16l8 -12q13 -7 32 -31q35 -12 37 -45h15l-15 -25l-26 8l-19 21h-18l-4 18l-15 -2q-15 21 -22.5 23t-40.5 6l-16 27l-13 4l-4 24q-26 5 -37 29q-40 15 -41 53h-16l-21 23h-8q-5 0 -15.5 22.5t-27.5 36.5z" />
<glyph unicode="&#xc1;" horiz-adv-x="1442" d="M-41 -18l8 18v29l15 18l-7 14l37 5l25 14q33 14 41 51q42 11 49 47q49 28 66 92l28 11l66 102v29q-14 11 -21 30l39 35v15l47 -5l27 17l6 -8l27 36q-9 2 -9 9q0 5 29 24l8 -12q2 25 21 59l-6 4l24 2l8 27q25 3 25 21v24q49 42 49 78v4l27 4l6 29l14 4l21 43l14 -10 l-10 22q30 3 33 39l14 -8v41h14v29q4 4 23 20.5t24 44.5l23 23l-14 32q28 37 53 37h4l12 19l14 -21q5 -6 18 -13l34 -17l4 -52q14 -12 26 -41l17 -6l4 -45l16 -61l27 -47l18 -66l4 -43l29 -39l-8 -16l22 -25v-31l5 -28q0 -8 -9 -21q31 -73 72 -73l39 8h47q22 -6 37 -6 q26 0 40.5 12t18.5 12q6 0 37 -18l45 2q0 -15 -14 -21l-33 11l-37 -29l-43 6q-26 -18 -57 -18q-24 0 -31 -11q-25 11 -47 11q-21 0 -27 -15q4 -10 15 -18l-6 -21l6 -69l26 -39l5 -37l45 -66l-7 -30l31 -29l47 -80q37 -43 43 -61l37 -19l14 -32l15 -11l-27 -20l-33 26h-20 l-27 21h-20l-19 35l-20 10q-24 48 -53 76v20l-19 17l-2 32l-31 33l-43 103l-14 18l-7 51q-1 8 -26 47v43h-24l-27 -18l-41 8l-28 -18l-11 10l-22 -14l-6 14q-5 0 -20.5 -6t-33.5 -6l-26 2h-35l-35 -23l-37 8l-51 -4v-10l-18 10l-25 -14l-18 14h-33l-33 -14l-27 29l-14 -11 l-29 11q-34 -15 -94 -105l-33 -8q-82 -126 -88 -127l-18 -10l-57 -74h-11l-49 -80l-53 -33zM473 506q36 -11 51 -21l25 2l41 -10q12 -4 18 -4q9 0 29 4q2 2 8 2q3 0 15.5 -4t23.5 -4l27 6l80 6l65 9q63 -9 80 -9q47 0 47 21q0 13 -18 35l22 18q-13 34 -33 45l11 29l-27 14 l-8 78l-25 39l-4 33l-14 28v11h-6l-4 44q0 7 -11 22l-14 22q-4 6 -16.5 15t-38.5 21l-23 -12l-14 -24l-49 -70l-12 -23q-5 -10 -48 -53l-8 -33l-43 -22q-15 -78 -61 -90l-19 -62l-41 -16v-21zM696 1186l22 18l11 37l41 22l24 48l19 4l12 39l8 -7v11l12 4l9 16q98 90 98 113 v2q5 16 18 16l29 33l23 4l10 -4q42 -11 39 -23l-15 -57q-42 0 -53 -29l-6 5l-74 -74l-12 4l-29 -39l-16 -4l2 -19l-29 -10v-16l-18 -6q-23 -41 -27 -52l-18 -8v-16q-13 -4 -49 -41z" />
<glyph unicode="&#xc2;" horiz-adv-x="1442" d="M-41 -18l8 18v29l15 18l-7 14l37 5l25 14q33 14 41 51q42 11 49 47q49 28 66 92l28 11l66 102v29q-14 11 -21 30l39 35v15l47 -5l27 17l6 -8l27 36q-9 2 -9 9q0 5 29 24l8 -12q2 25 21 59l-6 4l24 2l8 27q25 3 25 21v24q49 42 49 78v4l27 4l6 29l14 4l21 43l14 -10 l-10 22q30 3 33 39l14 -8v41h14v29q4 4 23 20.5t24 44.5l23 23l-14 32q28 37 53 37h4l12 19l14 -21q5 -6 18 -13l34 -17l4 -52q14 -12 26 -41l17 -6l4 -45l16 -61l27 -47l18 -66l4 -43l29 -39l-8 -16l22 -25v-31l5 -28q0 -8 -9 -21q31 -73 72 -73l39 8h47q22 -6 37 -6 q26 0 40.5 12t18.5 12q6 0 37 -18l45 2q0 -15 -14 -21l-33 11l-37 -29l-43 6q-26 -18 -57 -18q-24 0 -31 -11q-25 11 -47 11q-21 0 -27 -15q4 -10 15 -18l-6 -21l6 -69l26 -39l5 -37l45 -66l-7 -30l31 -29l47 -80q37 -43 43 -61l37 -19l14 -32l15 -11l-27 -20l-33 26h-20 l-27 21h-20l-19 35l-20 10q-24 48 -53 76v20l-19 17l-2 32l-31 33l-43 103l-14 18l-7 51q-1 8 -26 47v43h-24l-27 -18l-41 8l-28 -18l-11 10l-22 -14l-6 14q-5 0 -20.5 -6t-33.5 -6l-26 2h-35l-35 -23l-37 8l-51 -4v-10l-18 10l-25 -14l-18 14h-33l-33 -14l-27 29l-14 -11 l-29 11q-34 -15 -94 -105l-33 -8q-82 -126 -88 -127l-18 -10l-57 -74h-11l-49 -80l-53 -33zM473 506q36 -11 51 -21l25 2l41 -10q12 -4 18 -4q9 0 29 4q2 2 8 2q3 0 15.5 -4t23.5 -4l27 6l80 6l65 9q63 -9 80 -9q47 0 47 21q0 13 -18 35l22 18q-13 34 -33 45l11 29l-27 14 l-8 78l-25 39l-4 33l-14 28v11h-6l-4 44q0 7 -11 22l-14 22q-4 6 -16.5 15t-38.5 21l-23 -12l-14 -24l-49 -70l-12 -23q-5 -10 -48 -53l-8 -33l-43 -22q-15 -78 -61 -90l-19 -62l-41 -16v-21zM522 1179q3 30 31 35l6 11l8 4v6l8 4l8 18h8q15 25 46 60l4 -9q11 0 26 46l15 6 q2 13 32 45l2 18q14 2 23.5 13.5t18 16t16.5 15t11 23t10 26t9 17.5l19 -4q0 18 12 24l27 -24l4 4l8 -23l29 -35q6 -8 10 -28l20 -13l5 -24l22 -23q9 -29 29 -49l45 -45l4 -35l27 -14l16 -20l29 -13l22 -28q-3 -6 -26 -15q-52 8 -53.5 8.5t-26.5 25t-25 42.5l-18 8 q-25 6 -25 19v4l-40 44q-9 11 -32 25v19l-14 16l6 8q-24 22 -35 50l-8 -9q-3 19 -10 23q-10 -12 -31 -12l-16 -37l-17 -6l-4 -11l-12 -8v-14l-43 -39v-8l-22 -11l-7 -18q-10 -4 -20 -23l-49 -32l-23 -39q-24 -17 -35 -35z" />
<glyph unicode="&#xc3;" horiz-adv-x="1442" d="M-41 -18l8 18v29l15 18l-7 14l37 5l25 14q33 14 41 51q42 11 49 47q49 28 66 92l28 11l66 102v29q-14 11 -21 30l39 35v15l47 -5l27 17l6 -8l27 36q-9 2 -9 9q0 5 29 24l8 -12q2 25 21 59l-6 4l24 2l8 27q25 3 25 21v24q49 42 49 78v4l27 4l6 29l14 4l21 43l14 -10 l-10 22q30 3 33 39l14 -8v41h14v29q4 4 23 20.5t24 44.5l23 23l-14 32q28 37 53 37h4l12 19l14 -21q5 -6 18 -13l34 -17l4 -52q14 -12 26 -41l17 -6l4 -45l16 -61l27 -47l18 -66l4 -43l29 -39l-8 -16l22 -25v-31l5 -28q0 -8 -9 -21q31 -73 72 -73l39 8h47q22 -6 37 -6 q26 0 40.5 12t18.5 12q6 0 37 -18l45 2q0 -15 -14 -21l-33 11l-37 -29l-43 6q-26 -18 -57 -18q-24 0 -31 -11q-25 11 -47 11q-21 0 -27 -15q4 -10 15 -18l-6 -21l6 -69l26 -39l5 -37l45 -66l-7 -30l31 -29l47 -80q37 -43 43 -61l37 -19l14 -32l15 -11l-27 -20l-33 26h-20 l-27 21h-20l-19 35l-20 10q-24 48 -53 76v20l-19 17l-2 32l-31 33l-43 103l-14 18l-7 51q-1 8 -26 47v43h-24l-27 -18l-41 8l-28 -18l-11 10l-22 -14l-6 14q-5 0 -20.5 -6t-33.5 -6l-26 2h-35l-35 -23l-37 8l-51 -4v-10l-18 10l-25 -14l-18 14h-33l-33 -14l-27 29l-14 -11 l-29 11q-34 -15 -94 -105l-33 -8q-82 -126 -88 -127l-18 -10l-57 -74h-11l-49 -80l-53 -33zM473 506q36 -11 51 -21l25 2l41 -10q12 -4 18 -4q9 0 29 4q2 2 8 2q3 0 15.5 -4t23.5 -4l27 6l80 6l65 9q63 -9 80 -9q47 0 47 21q0 13 -18 35l22 18q-13 34 -33 45l11 29l-27 14 l-8 78l-25 39l-4 33l-14 28v11h-6l-4 44q0 7 -11 22l-14 22q-4 6 -16.5 15t-38.5 21l-23 -12l-14 -24l-49 -70l-12 -23q-5 -10 -48 -53l-8 -33l-43 -22q-15 -78 -61 -90l-19 -62l-41 -16v-21zM545 1249q0 10 7 20t18.5 18t21.5 26t15 22l26 14q4 20 17 23q49 4 76 29l34 4 q29 0 48 -25l26 -6q24 -26 51 -41l2 -18q19 -7 33 -27l14 -2q17 0 21 14q37 0 39 11l27 2q2 18 12 41q-5 8 -21 8v18q41 47 56 47t49 -69q-8 -22 -8 -47l-25 -25q-33 -7 -61 -23l-11 -18q-52 -23 -80 -18l-61 10q-14 20 -33 20q-8 0 -12 -2q9 20 12 31l-26 6v14l-15 15l4 8 q-44 10 -73 10l-66 -39q-6 -14 -25.5 -22t-19.5 -15q0 -5 8 -10q-15 -49 -45 -49q-4 0 -20 4q-15 23 -15 41z" />
<glyph unicode="&#xc4;" horiz-adv-x="1442" d="M-41 -18l8 18v29l15 18l-7 14l37 5l25 14q33 14 41 51q42 11 49 47q49 28 66 92l28 11l66 102v29q-14 11 -21 30l39 35v15l47 -5l27 17l6 -8l27 36q-9 2 -9 9q0 5 29 24l8 -12q2 25 21 59l-6 4l24 2l8 27q25 3 25 21v24q49 42 49 78v4l27 4l6 29l14 4l21 43l14 -10 l-10 22q30 3 33 39l14 -8v41h14v29q4 4 23 20.5t24 44.5l23 23l-14 32q28 37 53 37h4l12 19l14 -21q5 -6 18 -13l34 -17l4 -52q14 -12 26 -41l17 -6l4 -45l16 -61l27 -47l18 -66l4 -43l29 -39l-8 -16l22 -25v-31l5 -28q0 -8 -9 -21q31 -73 72 -73l39 8h47q22 -6 37 -6 q26 0 40.5 12t18.5 12q6 0 37 -18l45 2q0 -15 -14 -21l-33 11l-37 -29l-43 6q-26 -18 -57 -18q-24 0 -31 -11q-25 11 -47 11q-21 0 -27 -15q4 -10 15 -18l-6 -21l6 -69l26 -39l5 -37l45 -66l-7 -30l31 -29l47 -80q37 -43 43 -61l37 -19l14 -32l15 -11l-27 -20l-33 26h-20 l-27 21h-20l-19 35l-20 10q-24 48 -53 76v20l-19 17l-2 32l-31 33l-43 103l-14 18l-7 51q-1 8 -26 47v43h-24l-27 -18l-41 8l-28 -18l-11 10l-22 -14l-6 14q-5 0 -20.5 -6t-33.5 -6l-26 2h-35l-35 -23l-37 8l-51 -4v-10l-18 10l-25 -14l-18 14h-33l-33 -14l-27 29l-14 -11 l-29 11q-34 -15 -94 -105l-33 -8q-82 -126 -88 -127l-18 -10l-57 -74h-11l-49 -80l-53 -33zM473 506q36 -11 51 -21l25 2l41 -10q12 -4 18 -4q9 0 29 4q2 2 8 2q3 0 15.5 -4t23.5 -4l27 6l80 6l65 9q63 -9 80 -9q47 0 47 21q0 13 -18 35l22 18q-13 34 -33 45l11 29l-27 14 l-8 78l-25 39l-4 33l-14 28v11h-6l-4 44q0 7 -11 22l-14 22q-4 6 -16.5 15t-38.5 21l-23 -12l-14 -24l-49 -70l-12 -23q-5 -10 -48 -53l-8 -33l-43 -22q-15 -78 -61 -90l-19 -62l-41 -16v-21zM561 1327q5 23 7.5 32.5t25.5 24.5t32 29l17 -6q31 -4 42 -18.5t38 -22.5l12 -35 l-6 -6l4 -23l-10 -6v-14q-12 -4 -39 -37q-19 -1 -37 -6.5t-21 -5.5t-6.5 9t-11.5 9h-4q0 10 -8 10h-5l-12 7l4 10l-8 8l4 12zM899 1317l18 22l-4 13l8 8l-4 10q12 3 12 10q4 -2 9 -2q4 0 4 4v4h6q7 0 10 9.5t10 9.5q13 -10 54 -13q23 -32 38 -36v-15l11 -6l-4 -22l6 -7 l-13 -32l-24 -13q-14 -19 -29.5 -22.5t-42.5 -13.5q-14 16 -36.5 32.5t-23.5 19.5t-5 40z" />
<glyph unicode="&#xc5;" horiz-adv-x="1442" d="M-41 -18l8 18v29l15 18l-7 14l37 5l25 14q33 14 41 51q42 11 49 47q49 28 66 92l28 11l66 102v29q-14 11 -21 30l39 35v15l47 -5l27 17l6 -8l27 36q-9 2 -9 9q0 5 29 24l8 -12q2 25 21 59l-6 4l24 2l8 27q25 3 25 21v24q49 42 49 78v4l27 4l6 29l14 4l21 43l14 -10 l-10 22q30 3 33 39l14 -8v41h14v29q4 4 23 20.5t24 44.5l23 23l-14 32q28 37 53 37h4l12 19l14 -21q5 -6 18 -13l34 -17l4 -52q14 -12 26 -41l17 -6l4 -45l16 -61l27 -47l18 -66l4 -43l29 -39l-8 -16l22 -25v-31l5 -28q0 -8 -9 -21q31 -73 72 -73l39 8h47q22 -6 37 -6 q26 0 40.5 12t18.5 12q6 0 37 -18l45 2q0 -15 -14 -21l-33 11l-37 -29l-43 6q-26 -18 -57 -18q-24 0 -31 -11q-25 11 -47 11q-21 0 -27 -15q4 -10 15 -18l-6 -21l6 -69l26 -39l5 -37l45 -66l-7 -30l31 -29l47 -80q37 -43 43 -61l37 -19l14 -32l15 -11l-27 -20l-33 26h-20 l-27 21h-20l-19 35l-20 10q-24 48 -53 76v20l-19 17l-2 32l-31 33l-43 103l-14 18l-7 51q-1 8 -26 47v43h-24l-27 -18l-41 8l-28 -18l-11 10l-22 -14l-6 14q-5 0 -20.5 -6t-33.5 -6l-26 2h-35l-35 -23l-37 8l-51 -4v-10l-18 10l-25 -14l-18 14h-33l-33 -14l-27 29l-14 -11 l-29 11q-34 -15 -94 -105l-33 -8q-82 -126 -88 -127l-18 -10l-57 -74h-11l-49 -80l-53 -33zM473 506q36 -11 51 -21l25 2l41 -10q12 -4 18 -4q9 0 29 4q2 2 8 2q3 0 15.5 -4t23.5 -4l27 6l80 6l65 9q63 -9 80 -9q47 0 47 21q0 13 -18 35l22 18q-13 34 -33 45l11 29l-27 14 l-8 78l-25 39l-4 33l-14 28v11h-6l-4 44q0 7 -11 22l-14 22q-4 6 -16.5 15t-38.5 21l-23 -12l-14 -24l-49 -70l-12 -23q-5 -10 -48 -53l-8 -33l-43 -22q-15 -78 -61 -90l-19 -62l-41 -16v-21zM664 1352l10 19q4 9 27 28q0 36 10 36h15q2 17 20 17h6q28 35 49 35l23 -4 q12 0 24 -5l9 -10q8 8 18 8q2 0 17.5 -12t37.5 -18q15 -21 58 -66q8 -38 12 -54t4 -22q0 -41 -74 -96l-22 -2q-12 -26 -17.5 -29t-28.5 -6t-32 -7.5t-10 -4.5q-7 0 -17 18h-20q-12 -12 -27 -12q-9 0 -47 17q0 32 -24 51q-7 12 -7 18l3 21q0 6 -9 18l2 29q7 0 7 6q0 7 -17 27 zM734 1249q18 -8 37 -35l37 6l14 -6l35 2l26 19l13 -2q21 0 34 21t17 26l-6 14l14 12v23l-16 10q-11 31 -11 49q-9 6 -28 23.5t-39 17.5q-46 0 -58 -24l-12 -2l-2 -15l-22 -8l-23 -28l-6 -46l4 -38z" />
<glyph unicode="&#xc6;" horiz-adv-x="2208" d="M-33 27v6q14 13 33 18q2 14 18 33v14q29 10 29 25v4q7 7 29 10q1 20 11 25.5t40 27.5l16 21l21 10q10 4 26 27q23 6 25 18q65 22 68 47l51 17q10 39 39 39h10l25 30l22 9q25 27 42.5 31.5t33.5 15.5q16 3 22 24l19 6l41 50l39 10l24 24h23l14 37l70 39q17 4 31.5 24.5 t25.5 20.5l37 33q50 24 91 56t56 32q9 0 13 -2q39 29 39 41q28 37 39 37l18 18l23 15q12 8 24 26l33 12l6 19q13 3 24.5 11.5t14.5 8.5q4 0 8 -8l6 33q2 16 17 39h18q6 -6 10 -6l19 2q12 12 12 37q14 14 25 14q10 0 22 -31l47 -14l92 12l43 -4l43 14l25 -8l55 6l35 -14 q24 12 33 12q7 0 22 13l25 -17l20 17l82 -9q46 -4 54 -28l47 4l10 -17q19 0 25 -14l-35 -18q-26 18 -41 18l-29 -10l-29 10l-45 -18l-51 8l-16 -10l-43 -4l-37 -11l-94 -6l-47 6l-37 -2l-15 -8q-6 -4 -39 -8l-20 10l-33 -10l-18 6l-15 -4q-23 -4 -34 -61l-13 -62l-12 -31 l-8 -34l-10 -19l-15 -72l-18 -61l-8 -66l67 5l43 -9h35l43 13l27 -9l20 11l29 -6q10 0 25 5l14 5q5 0 26.5 -3t26.5 -3q10 0 26.5 8t49.5 8h24q4 0 13 4l30 4l33 -2q11 8 19 8t22 -14l10 14l43 -10q43 19 68 19l51 -7l23 2l18 -18q-9 -18 -20 -18q-8 0 -11 8 q-29 -19 -41 -19h-6l-39 -4l-16 -12l-35 2l-33 -14l-26 10l-27 -6l-14 8l-19 -16l-26 2l-8 -7l-56 13q-5 -25 -22 -27l-25 10q-6 -2 -14 -10h-62l-32 -12l-31 6l-21 -12q-5 2 -18 2q-15 0 -27 -6l-32 8q-13 0 -25 -8l-51 2l-66 -15l-8 -43l2 -82q0 -32 3.5 -50t18.5 -61.5 t17 -47.5t45 -39l22 -5q9 -1 48 -28h45l35 10h65l84 21q41 17 62 20q20 21 43 21h4q6 -4 8 -4q3 0 13.5 8t23.5 8h4l78 39l43 6l18 11q8 5 43 9q7 25 41 25q10 19 53 23q29 34 54 34q18 0 18 -26q0 -14 -8 -25l-23 -4q0 -21 -20 -33q-7 11 -15 11q-12 0 -18 -15 q-27 -10 -61 -28.5t-49.5 -26.5t-24.5 -18h-31l-18 -17l-29 -2l-37 -20h-8q-36 0 -41 -27q-2 2 -4 2q-3 0 -13 -7.5t-22 -10.5l-35 -5q-24 -10 -28 -10h-5q-2 0 -14 -4l-2 -12l-39 4l-10 -12h-29q-31 0 -69 -27l-41 6l-29 -6q-24 0 -53 14l-92 45l-52 72l-24 66l-19 104v94 q0 27 -10.5 40.5t-40.5 13.5l-31 -11l-81 2l-60 -18l-37 -4l-28 8l-35 -16l-29 6l-26 -10l-9 6l-20 -11l-60 9l-12 -17l-12 13l-19 -5h-18q-3 9 -12 9q-5 0 -11 -9l-24 -14l-27 -4l-96 -72l-35 -18l-129 -96l-106 -64l-33 -33l-74 -51l-61 -57l-33 -17l-10 -16q-8 -4 -10 -4 q-13 0 -13 27zM723 528q7 0 27.5 -5t25.5 -5l49 10l70 2l76 15l86 6q64 7 89 8.5t46 7.5q0 66 18 86l-2 31q15 29 15 37l4 41l39 119q0 14 -21 14q-18 0 -20 -14q-8 -10 -19 -12.5t-45 -30.5h-2q-14 0 -26 -15.5t-25 -17.5l-35 -25q-24 -26 -37 -28q-17 -25 -32 -25l-13 2 l-20 -31q-37 -15 -90 -47l-39 -39l-35 -14q-21 -20 -28.5 -24.5t-20 -17.5t-35.5 -28z" />
<glyph unicode="&#xc7;" horiz-adv-x="1245" d="M115 401l12 35v35l12 6l4 33l25 94l18 45l9 2l4 31q11 3 14 31.5t23 55.5t20 40q0 10 -6 25l24 8q20 29 39 43l11 43l26 16l8 33q33 11 60.5 39.5t38.5 27.5l13 13q5 6 42 18l6 -4l23 23l14 -17l20 -4q31 12 66 12l41 -7q3 -1 15 -7l64 -24l144 -91q9 -28 29 -43l12 -39 q19 -46 19 -63l-2 -45q-2 -8 -2 -33v-2q0 -7 -13.5 -27t-19.5 -30l-37 -8q-45 28 -45 96l6 39l-6 45l2 37l-10 21q-9 22 -10.5 21.5t-16.5 13.5t-26.5 20.5t-26.5 10.5t-15 7v2l-20 18h-43l-29 23q-30 0 -30 -12l-19 12l-20 -14l-27 4l-20 -15l-33 2l-23 -6l-33 -47l-55 -55 l-43 -66l-18 -8l-17 -53l-28 -23v-28l-35 -60l-17 -67h-14l8 -39l-20 -39l6 -14h-12v-31l-8 -6l2 -80l-9 -60q24 -35 23 -53l18 -14v-25l15 -22l-9 -23l39 -41l2 -20l64 -25l-6 -26l84 -7l26 -26l43 14l23 -27l47 17q17 14 27 14q6 0 6 -6l30 2l17 -14l33 12h10 q31 0 43.5 15.5t42.5 15.5q9 0 29 -4q5 22 43 24q15 18 51 29q15 0 59 20l15 25q11 3 57 25l22 28l35 15l109 114l37 21l18 -13q-31 -16 -35 -28l6 -25q0 -5 -7 -15.5t-17 -10.5h-27l-16 -43l-68 -45q-19 -29 -39 -50q-30 0 -65 -27.5t-51.5 -37.5t-34 -15t-43.5 -19.5 t-39 -14.5h-15q-41 0 -100 -47l-31 6q-40 -15 -65 -15q-9 0 -14 2q4 -4 4 -8t-7.5 -16.5t-7.5 -26.5q0 -10 2 -16l-12 -14l4 -15q0 -24 9 -32.5t32 -8.5q8 8 16 8q15 0 25 -22l31 -2l10 -17l25 -4l43 -80l-13 -49l4 -47l-33 -28q-1 -3 -30 -15l-16 -22h-15q-26 0 -47 -9 q-9 -12 -22 -12l-82 12l-45 15q-2 14 -9 28l31 7q4 -25 20 -18l23 7q12 -9 43 -12q12 6 23 6q10 0 16 -2l6 10h19l12 9q15 0 37 18q5 37 18 59l-4 41h-4q-6 0 -6 5l6 16q0 28 -45 37l-64 12l-30 -12l-21 8l-35 -41q-13 10 -18 10q-9 0 -16 -10l-13 23l7 32l22 33q2 12 14 25 q11 0 17 7.5t6 10.5l-2 27l20 35l-6 32q-20 0 -26 13l-56 -2l-28 10l-19 -8l-41 18l-18 14q-8 6 -47 19l-11 26q-49 13 -53 14t-7 24.5t-16 31.5t-20 19t-13.5 30t-15.5 34q-13 20 -19.5 39.5t-6.5 37.5v6l4 63q-12 22 -12 43z" />
<glyph unicode="&#xc8;" horiz-adv-x="1227" d="M168 946q0 19 27 49q10 4 14 11q36 14 41 14q7 0 14 -10q6 14 17 14q30 0 30 18q0 6 -6 15l68 -4l12 -23q32 23 66 23l14 -2l43 10q16 0 41 14v-14q18 16 51 16l35 -2h6l195 19l45 -19l14 25q5 -15 16 -15q3 0 19 5l22 -13l15 13l37 -15l24 6l12 -10l66 6l10 -6 q49 -11 51 -18q-3 -15 -10 -23h-22l-15 -10l-28 10l-33 -2q-24 0 -28.5 7t-14.5 7q-8 0 -27 -12q-13 8 -26 8t-40.5 -11t-39.5 -11q-10 0 -28 2t-28 2q-13 0 -16 -12q-16 12 -33 12q-29 0 -59 -25l-21 11l-18 -11l-47 15l-33 -19h-37q-33 -8 -52 -12.5t-50 -20.5l-19 13 l-36 -29l-37 2l-27 -49l10 -39q-20 -5 -20 -53l2 -17l-2 -43l6 -8l-14 -12l8 -12q-15 -32 -15 -56q0 -45 54 -45q8 0 25.5 5t35.5 0t33 -5l31 13l32 -11l21 6l20 -2l31 7l18 -5h5q12 0 36 13q18 -9 42.5 -7t35.5 5l27 6l45 -8q6 0 12 12q51 -10 62 -10l22 2l70 -4l37 8 q3 12 24 12l47 -6l19 4l26 -10l27 6l-6 -25q-36 -14 -53 -14q-5 0 -21.5 4.5t-30.5 5.5l-53 -26l-45 4l-26 -10l-19 4l-33 -19l-22 6l-82 -2q-14 0 -27 -12l-28 8l-15 -14l-26 8l-15 -14l-39 18l-28 -18l-33 8q-4 2 -16 2q-15 0 -42 -8l-24 -8l-74 -7l-16 9q-11 -8 -62 -17 l-16 -39l19 -106l-11 -14l13 -33l-2 -37l7 -10q3 -4 11 -60l18 -20l-10 -35l21 6l37 -57q77 -60 135 -60l37 -6q10 0 43 8l8 11h18q21 0 28.5 0.5t43.5 23.5q28 0 33 8l22 6q12 3 23 11l28 22q12 17 31 33l27 2l51 45q62 18 74 66l14 -8l6 32l27 2l4 31h6q19 0 27 -24 l-70 -91l-25 -6q-36 -55 -49 -63l-51 -35l-33 -31l-14 2l-25 -26l-94 -39l-22 -29l-33 10l-10 -16l-9 2l-16 -14l-55 12l-68 -31l-49 19l-84 43q-36 19 -64.5 58t-58 125.5t-29.5 94.5l7 29l-15 39l15 18l-19 111q-27 34 -31 38.5t-4 20.5q0 37 17.5 45.5t17.5 9.5v13 q0 14 19 18l6 29l-6 12v58l-7 24l23 62q10 38 16 55l-26 33l-45 -4h-4q-11 0 -20 8.5t-9 19.5zM459 1458v12q7 7 20 37q32 12 41 27q16 -9 35 -15l15 -28l41 -51l20 -45l16 -16q7 -7 21 -42l29 -14l14 -25l29 -16l8 -12q13 -7 32 -31q35 -12 37 -45h15l-15 -25l-26 8l-19 21 h-18l-4 18l-15 -2q-15 21 -22.5 23t-40.5 6l-16 27l-13 4l-4 24q-26 5 -37 29q-40 15 -41 53h-16l-21 23h-8q-5 0 -15.5 22.5t-27.5 36.5z" />
<glyph unicode="&#xc9;" horiz-adv-x="1227" d="M168 946q0 19 27 49q10 4 14 11q36 14 41 14q7 0 14 -10q6 14 17 14q30 0 30 18q0 6 -6 15l68 -4l12 -23q32 23 66 23l14 -2l43 10q16 0 41 14v-14q18 16 51 16l35 -2h6l195 19l45 -19l14 25q5 -15 16 -15q3 0 19 5l22 -13l15 13l37 -15l24 6l12 -10l66 6l10 -6 q49 -11 51 -18q-3 -15 -10 -23h-22l-15 -10l-28 10l-33 -2q-24 0 -28.5 7t-14.5 7q-8 0 -27 -12q-13 8 -26 8t-40.5 -11t-39.5 -11q-10 0 -28 2t-28 2q-13 0 -16 -12q-16 12 -33 12q-29 0 -59 -25l-21 11l-18 -11l-47 15l-33 -19h-37q-33 -8 -52 -12.5t-50 -20.5l-19 13 l-36 -29l-37 2l-27 -49l10 -39q-20 -5 -20 -53l2 -17l-2 -43l6 -8l-14 -12l8 -12q-15 -32 -15 -56q0 -45 54 -45q8 0 25.5 5t35.5 0t33 -5l31 13l32 -11l21 6l20 -2l31 7l18 -5h5q12 0 36 13q18 -9 42.5 -7t35.5 5l27 6l45 -8q6 0 12 12q51 -10 62 -10l22 2l70 -4l37 8 q3 12 24 12l47 -6l19 4l26 -10l27 6l-6 -25q-36 -14 -53 -14q-5 0 -21.5 4.5t-30.5 5.5l-53 -26l-45 4l-26 -10l-19 4l-33 -19l-22 6l-82 -2q-14 0 -27 -12l-28 8l-15 -14l-26 8l-15 -14l-39 18l-28 -18l-33 8q-4 2 -16 2q-15 0 -42 -8l-24 -8l-74 -7l-16 9q-11 -8 -62 -17 l-16 -39l19 -106l-11 -14l13 -33l-2 -37l7 -10q3 -4 11 -60l18 -20l-10 -35l21 6l37 -57q77 -60 135 -60l37 -6q10 0 43 8l8 11h18q21 0 28.5 0.5t43.5 23.5q28 0 33 8l22 6q12 3 23 11l28 22q12 17 31 33l27 2l51 45q62 18 74 66l14 -8l6 32l27 2l4 31h6q19 0 27 -24 l-70 -91l-25 -6q-36 -55 -49 -63l-51 -35l-33 -31l-14 2l-25 -26l-94 -39l-22 -29l-33 10l-10 -16l-9 2l-16 -14l-55 12l-68 -31l-49 19l-84 43q-36 19 -64.5 58t-58 125.5t-29.5 94.5l7 29l-15 39l15 18l-19 111q-27 34 -31 38.5t-4 20.5q0 37 17.5 45.5t17.5 9.5v13 q0 14 19 18l6 29l-6 12v58l-7 24l23 62q10 38 16 55l-26 33l-45 -4h-4q-11 0 -20 8.5t-9 19.5zM586 1186l22 18l11 37l41 22l24 48l19 4l12 39l8 -7v11l12 4l9 16q98 90 98 113v2q5 16 18 16l29 33l23 4l10 -4q42 -11 39 -23l-15 -57q-42 0 -53 -29l-6 5l-74 -74l-12 4 l-29 -39l-16 -4l2 -19l-29 -10v-16l-18 -6q-23 -41 -27 -52l-18 -8v-16q-13 -4 -49 -41z" />
<glyph unicode="&#xca;" horiz-adv-x="1227" d="M168 946q0 19 27 49q10 4 14 11q36 14 41 14q7 0 14 -10q6 14 17 14q30 0 30 18q0 6 -6 15l68 -4l12 -23q32 23 66 23l14 -2l43 10q16 0 41 14v-14q18 16 51 16l35 -2h6l195 19l45 -19l14 25q5 -15 16 -15q3 0 19 5l22 -13l15 13l37 -15l24 6l12 -10l66 6l10 -6 q49 -11 51 -18q-3 -15 -10 -23h-22l-15 -10l-28 10l-33 -2q-24 0 -28.5 7t-14.5 7q-8 0 -27 -12q-13 8 -26 8t-40.5 -11t-39.5 -11q-10 0 -28 2t-28 2q-13 0 -16 -12q-16 12 -33 12q-29 0 -59 -25l-21 11l-18 -11l-47 15l-33 -19h-37q-33 -8 -52 -12.5t-50 -20.5l-19 13 l-36 -29l-37 2l-27 -49l10 -39q-20 -5 -20 -53l2 -17l-2 -43l6 -8l-14 -12l8 -12q-15 -32 -15 -56q0 -45 54 -45q8 0 25.5 5t35.5 0t33 -5l31 13l32 -11l21 6l20 -2l31 7l18 -5h5q12 0 36 13q18 -9 42.5 -7t35.5 5l27 6l45 -8q6 0 12 12q51 -10 62 -10l22 2l70 -4l37 8 q3 12 24 12l47 -6l19 4l26 -10l27 6l-6 -25q-36 -14 -53 -14q-5 0 -21.5 4.5t-30.5 5.5l-53 -26l-45 4l-26 -10l-19 4l-33 -19l-22 6l-82 -2q-14 0 -27 -12l-28 8l-15 -14l-26 8l-15 -14l-39 18l-28 -18l-33 8q-4 2 -16 2q-15 0 -42 -8l-24 -8l-74 -7l-16 9q-11 -8 -62 -17 l-16 -39l19 -106l-11 -14l13 -33l-2 -37l7 -10q3 -4 11 -60l18 -20l-10 -35l21 6l37 -57q77 -60 135 -60l37 -6q10 0 43 8l8 11h18q21 0 28.5 0.5t43.5 23.5q28 0 33 8l22 6q12 3 23 11l28 22q12 17 31 33l27 2l51 45q62 18 74 66l14 -8l6 32l27 2l4 31h6q19 0 27 -24 l-70 -91l-25 -6q-36 -55 -49 -63l-51 -35l-33 -31l-14 2l-25 -26l-94 -39l-22 -29l-33 10l-10 -16l-9 2l-16 -14l-55 12l-68 -31l-49 19l-84 43q-36 19 -64.5 58t-58 125.5t-29.5 94.5l7 29l-15 39l15 18l-19 111q-27 34 -31 38.5t-4 20.5q0 37 17.5 45.5t17.5 9.5v13 q0 14 19 18l6 29l-6 12v58l-7 24l23 62q10 38 16 55l-26 33l-45 -4h-4q-11 0 -20 8.5t-9 19.5zM412 1179q3 30 31 35l6 11l8 4v6l8 4l8 18h8q15 25 46 60l4 -9q11 0 26 46l15 6q2 13 32 45l2 18q14 2 23.5 13.5t18 16t16.5 15t11 23t10 26t9 17.5l19 -4q0 18 12 24l27 -24 l4 4l8 -23l29 -35q6 -8 10 -28l20 -13l5 -24l22 -23q9 -29 29 -49l45 -45l4 -35l27 -14l16 -20l29 -13l22 -28q-3 -6 -26 -15q-52 8 -53.5 8.5t-26.5 25t-25 42.5l-18 8q-25 6 -25 19v4l-40 44q-9 11 -32 25v19l-14 16l6 8q-24 22 -35 50l-8 -9q-3 19 -10 23 q-10 -12 -31 -12l-16 -37l-17 -6l-4 -11l-12 -8v-14l-43 -39v-8l-22 -11l-7 -18q-10 -4 -20 -23l-49 -32l-23 -39q-24 -17 -35 -35z" />
<glyph unicode="&#xcb;" horiz-adv-x="1227" d="M168 946q0 19 27 49q10 4 14 11q36 14 41 14q7 0 14 -10q6 14 17 14q30 0 30 18q0 6 -6 15l68 -4l12 -23q32 23 66 23l14 -2l43 10q16 0 41 14v-14q18 16 51 16l35 -2h6l195 19l45 -19l14 25q5 -15 16 -15q3 0 19 5l22 -13l15 13l37 -15l24 6l12 -10l66 6l10 -6 q49 -11 51 -18q-3 -15 -10 -23h-22l-15 -10l-28 10l-33 -2q-24 0 -28.5 7t-14.5 7q-8 0 -27 -12q-13 8 -26 8t-40.5 -11t-39.5 -11q-10 0 -28 2t-28 2q-13 0 -16 -12q-16 12 -33 12q-29 0 -59 -25l-21 11l-18 -11l-47 15l-33 -19h-37q-33 -8 -52 -12.5t-50 -20.5l-19 13 l-36 -29l-37 2l-27 -49l10 -39q-20 -5 -20 -53l2 -17l-2 -43l6 -8l-14 -12l8 -12q-15 -32 -15 -56q0 -45 54 -45q8 0 25.5 5t35.5 0t33 -5l31 13l32 -11l21 6l20 -2l31 7l18 -5h5q12 0 36 13q18 -9 42.5 -7t35.5 5l27 6l45 -8q6 0 12 12q51 -10 62 -10l22 2l70 -4l37 8 q3 12 24 12l47 -6l19 4l26 -10l27 6l-6 -25q-36 -14 -53 -14q-5 0 -21.5 4.5t-30.5 5.5l-53 -26l-45 4l-26 -10l-19 4l-33 -19l-22 6l-82 -2q-14 0 -27 -12l-28 8l-15 -14l-26 8l-15 -14l-39 18l-28 -18l-33 8q-4 2 -16 2q-15 0 -42 -8l-24 -8l-74 -7l-16 9q-11 -8 -62 -17 l-16 -39l19 -106l-11 -14l13 -33l-2 -37l7 -10q3 -4 11 -60l18 -20l-10 -35l21 6l37 -57q77 -60 135 -60l37 -6q10 0 43 8l8 11h18q21 0 28.5 0.5t43.5 23.5q28 0 33 8l22 6q12 3 23 11l28 22q12 17 31 33l27 2l51 45q62 18 74 66l14 -8l6 32l27 2l4 31h6q19 0 27 -24 l-70 -91l-25 -6q-36 -55 -49 -63l-51 -35l-33 -31l-14 2l-25 -26l-94 -39l-22 -29l-33 10l-10 -16l-9 2l-16 -14l-55 12l-68 -31l-49 19l-84 43q-36 19 -64.5 58t-58 125.5t-29.5 94.5l7 29l-15 39l15 18l-19 111q-27 34 -31 38.5t-4 20.5q0 37 17.5 45.5t17.5 9.5v13 q0 14 19 18l6 29l-6 12v58l-7 24l23 62q10 38 16 55l-26 33l-45 -4h-4q-11 0 -20 8.5t-9 19.5zM451 1327q5 23 7.5 32.5t25.5 24.5t32 29l17 -6q31 -4 42 -18.5t38 -22.5l12 -35l-6 -6l4 -23l-10 -6v-14q-12 -4 -39 -37q-19 -1 -37 -6.5t-21 -5.5t-6.5 9t-11.5 9h-4 q0 10 -8 10h-5l-12 7l4 10l-8 8l4 12zM789 1317l18 22l-4 13l8 8l-4 10q12 3 12 10q4 -2 9 -2q4 0 4 4v4h6q7 0 10 9.5t10 9.5q13 -10 54 -13q23 -32 38 -36v-15l11 -6l-4 -22l6 -7l-13 -32l-24 -13q-14 -19 -29.5 -22.5t-42.5 -13.5q-14 16 -36.5 32.5t-23.5 19.5t-5 40z " />
<glyph unicode="&#xcc;" horiz-adv-x="537" d="M59 1458v12q7 7 20 37q32 12 41 27q16 -9 35 -15l15 -28l41 -51l20 -45l16 -16q7 -7 21 -42l29 -14l14 -25l29 -16l8 -12q13 -7 32 -31q35 -12 37 -45h15l-15 -25l-26 8l-19 21h-18l-4 18l-15 -2q-15 21 -22.5 23t-40.5 6l-16 27l-13 4l-4 24q-26 5 -37 29q-40 15 -41 53 h-16l-21 23h-8q-5 0 -15.5 22.5t-27.5 36.5zM188 328l21 30l-2 138l14 106l-6 105l10 28l-10 8l6 25v37l8 14l-14 4l10 47q-23 0 -28 15h28l4 33l-14 4l10 24q17 14 17 29t-13 31l13 4v18h20l12 29l17 6q49 0 57 -33l-8 -2l-12 -31l12 -6l-6 -45q-6 -9 -6 -20l6 -27v-25 l-10 -10l10 -12l-15 -37l5 -35l-33 -65l8 -4q-4 -10 -4 -25l4 -31v-4l-23 -10l23 -51h-14l6 -19l-15 -26l19 -35l-4 -14h-10q-7 0 -7 -13q0 -23 25 -39q-20 -9 -22 -57l-3 -22l11 -33l-11 -25l2 -76l-10 -53l21 -10q-4 -21 -9.5 -30.5t-5.5 -18.5q0 -17 21 -43l-14 -4 l26 -27l-10 -16l29 -9q-6 -29 -23 -49q-18 6 -18 27l-27 35l-16 4l8 35l-33 37l14 18l-20 31l6 43q-4 11 -8 20l-8 17l16 24l-8 27l8 18z" />
<glyph unicode="&#xcd;" horiz-adv-x="537" d="M186 1186l22 18l11 37l41 22l24 48l19 4l12 39l8 -7v11l12 4l9 16q98 90 98 113v2q5 16 18 16l29 33l23 4l10 -4q42 -11 39 -23l-15 -57q-42 0 -53 -29l-6 5l-74 -74l-12 4l-29 -39l-16 -4l2 -19l-29 -10v-16l-18 -6q-23 -41 -27 -52l-18 -8v-16q-13 -4 -49 -41zM188 328 l21 30l-2 138l14 106l-6 105l10 28l-10 8l6 25v37l8 14l-14 4l10 47q-23 0 -28 15h28l4 33l-14 4l10 24q17 14 17 29t-13 31l13 4v18h20l12 29l17 6q49 0 57 -33l-8 -2l-12 -31l12 -6l-6 -45q-6 -9 -6 -20l6 -27v-25l-10 -10l10 -12l-15 -37l5 -35l-33 -65l8 -4 q-4 -10 -4 -25l4 -31v-4l-23 -10l23 -51h-14l6 -19l-15 -26l19 -35l-4 -14h-10q-7 0 -7 -13q0 -23 25 -39q-20 -9 -22 -57l-3 -22l11 -33l-11 -25l2 -76l-10 -53l21 -10q-4 -21 -9.5 -30.5t-5.5 -18.5q0 -17 21 -43l-14 -4l26 -27l-10 -16l29 -9q-6 -29 -23 -49 q-18 6 -18 27l-27 35l-16 4l8 35l-33 37l14 18l-20 31l6 43q-4 11 -8 20l-8 17l16 24l-8 27l8 18z" />
<glyph unicode="&#xce;" horiz-adv-x="537" d="M12 1179q3 30 31 35l6 11l8 4v6l8 4l8 18h8q15 25 46 60l4 -9q11 0 26 46l15 6q2 13 32 45l2 18q14 2 23.5 13.5t18 16t16.5 15t11 23t10 26t9 17.5l19 -4q0 18 12 24l27 -24l4 4l8 -23l29 -35q6 -8 10 -28l20 -13l5 -24l22 -23q9 -29 29 -49l45 -45l4 -35l27 -14l16 -20 l29 -13l22 -28q-3 -6 -26 -15q-52 8 -53.5 8.5t-26.5 25t-25 42.5l-18 8q-25 6 -25 19v4l-40 44q-9 11 -32 25v19l-14 16l6 8q-24 22 -35 50l-8 -9q-3 19 -10 23q-10 -12 -31 -12l-16 -37l-17 -6l-4 -11l-12 -8v-14l-43 -39v-8l-22 -11l-7 -18q-10 -4 -20 -23l-49 -32 l-23 -39q-24 -17 -35 -35zM188 328l21 30l-2 138l14 106l-6 105l10 28l-10 8l6 25v37l8 14l-14 4l10 47q-23 0 -28 15h28l4 33l-14 4l10 24q17 14 17 29t-13 31l13 4v18h20l12 29l17 6q49 0 57 -33l-8 -2l-12 -31l12 -6l-6 -45q-6 -9 -6 -20l6 -27v-25l-10 -10l10 -12 l-15 -37l5 -35l-33 -65l8 -4q-4 -10 -4 -25l4 -31v-4l-23 -10l23 -51h-14l6 -19l-15 -26l19 -35l-4 -14h-10q-7 0 -7 -13q0 -23 25 -39q-20 -9 -22 -57l-3 -22l11 -33l-11 -25l2 -76l-10 -53l21 -10q-4 -21 -9.5 -30.5t-5.5 -18.5q0 -17 21 -43l-14 -4l26 -27l-10 -16l29 -9 q-6 -29 -23 -49q-18 6 -18 27l-27 35l-16 4l8 35l-33 37l14 18l-20 31l6 43q-4 11 -8 20l-8 17l16 24l-8 27l8 18z" />
<glyph unicode="&#xcf;" horiz-adv-x="537" d="M51 1327q5 23 7.5 32.5t25.5 24.5t32 29l17 -6q31 -4 42 -18.5t38 -22.5l12 -35l-6 -6l4 -23l-10 -6v-14q-12 -4 -39 -37q-19 -1 -37 -6.5t-21 -5.5t-6.5 9t-11.5 9h-4q0 10 -8 10h-5l-12 7l4 10l-8 8l4 12zM188 328l21 30l-2 138l14 106l-6 105l10 28l-10 8l6 25v37 l8 14l-14 4l10 47q-23 0 -28 15h28l4 33l-14 4l10 24q17 14 17 29t-13 31l13 4v18h20l12 29l17 6q49 0 57 -33l-8 -2l-12 -31l12 -6l-6 -45q-6 -9 -6 -20l6 -27v-25l-10 -10l10 -12l-15 -37l5 -35l-33 -65l8 -4q-4 -10 -4 -25l4 -31v-4l-23 -10l23 -51h-14l6 -19l-15 -26 l19 -35l-4 -14h-10q-7 0 -7 -13q0 -23 25 -39q-20 -9 -22 -57l-3 -22l11 -33l-11 -25l2 -76l-10 -53l21 -10q-4 -21 -9.5 -30.5t-5.5 -18.5q0 -17 21 -43l-14 -4l26 -27l-10 -16l29 -9q-6 -29 -23 -49q-18 6 -18 27l-27 35l-16 4l8 35l-33 37l14 18l-20 31l6 43q-4 11 -8 20 l-8 17l16 24l-8 27l8 18zM389 1317l18 22l-4 13l8 8l-4 10q12 3 12 10q4 -2 9 -2q4 0 4 4v4h6q7 0 10 9.5t10 9.5q13 -10 54 -13q23 -32 38 -36v-15l11 -6l-4 -22l6 -7l-13 -32l-24 -13q-14 -19 -29.5 -22.5t-42.5 -13.5q-14 16 -36.5 32.5t-23.5 19.5t-5 40z" />
<glyph unicode="&#xd0;" horiz-adv-x="1278" d="M18 516l23 33l16 -19l13 13l51 6l92 4l39 -10h8l-10 121l6 47v43l-18 47v73l-23 37v21l-55 6l-43 -18l-66 -5q-9 12 -11.5 30t-10.5 52q31 23 53 23l16 -2q5 0 15 12q30 8 71 8q25 -18 49 -18q8 0 23 4q6 -12 12 -12q4 0 35 12l25 -12l30 8l62 -14l35 -23l45 8l14 -26 l25 -7l36 -22l23 -4l29 -14l16 2q20 0 39 -17q38 -1 90 -61h19q24 -24 65 -33l47 -37l51 -47q10 -12 21 -12q6 0 22 8l9 -6l6 -33q52 -45 80 -79.5t31.5 -49.5t27.5 -29v-26q0 -21 18 -39q0 -20 14.5 -35t14.5 -21v-2l-6 -14q-4 -8 -6 -23l-2 -16l-37 -53l-10 -21l-25 -12 q-12 -6 -27 -24q-50 -14 -75 -33h-19l-18 -4l-8 -17h-33l-4 -8l-13 2q-3 0 -13 -11.5t-23 -12.5q-10 6 -17 6q-15 0 -43 -15l-37 9l-24 -17q-4 2 -13 2q-8 0 -28 -6t-33 -6h-14q-11 0 -40 -9t-50 -9q-16 0 -29 4l-31 -9l-33 13l-20 -13l-12 5l-15 -29l-18 16l-25 -12l-8 14 q-7 -4 -35 -6l-6 -41l-24 -31l-8 -21q-3 -9 -33 -50l-7 6h-10l4 35l-2 51l-30 20q-11 11 -21 11l-41 -21h-31l-16 12l-4 17l18 18l2 15l72 18q8 4 21 4q12 0 12 6v2l-12 41q-2 4 -2 11t4 17t4 11l-6 99l10 24v47l14 33l-24 45l8 16q-17 9 -39 9q-27 0 -45 -11l-37 19 l-78 -19zM301 328l21 -39l-5 -41l9 -23l-13 -30l19 -50l127 15q2 0 11 5t17 5q11 0 36 -5t40 -5q49 0 96 33q21 2 50 2l49 -2q24 0 43 16q21 2 40 13t25 11q11 0 19 -8q20 0 33 13l36 4l4 20l15 -6l22 10h15l18 23h14l78 59l2 41l-6 57l-82 111h-14l-23 55l-24 2l-27 21 l-8 29q-19 18 -76 36l-16 29l-162 98l-29 -2q-15 0 -37 13q-11 14 -24 14q-6 0 -14 -4l-11 24l-30 -2q-4 3 -24 6t-36 13l-8 -4q0 14 -18 14q-42 33 -113 33q-6 0 -14 -4l6 -23l-10 -31q-5 -6 -5 -16q0 -17 19 -33l-21 -34q1 -5 11 -26.5t10 -35.5q0 -4 -3 -17.5t-3 -17.5 q0 -5 10 -30l-14 -5l6 -43v-65l67 8l23 -14l22 8l35 -16l6 18l19 -8l24 14l70 -16l41 4l18 -6l-16 -47l-18 -11l-64 19l-47 -8l-47 6l-29 -8l-2 6q-21 -19 -61 -19l-15 15l-34 -15l8 -8l-19 -51l9 -47z" />
<glyph unicode="&#xd1;" horiz-adv-x="1550" d="M225 4v8l25 80l-10 33l14 43l-14 16l16 33l-23 31q5 24 5 39q0 16 -5 45l9 -4l8 20l-17 31l17 47l-10 61l14 66l-12 45l14 98l-2 76l10 70l-10 22l2 99l23 6q-27 26 -27 47q0 12 12 22l37 -8l10 14q19 -15 19 -32q0 -12 -11 -29h29l4 -47l25 -21l4 -30l33 -21l11 -42 q6 -24 21 -36l68 -49v-4q0 -16 21 -37l47 -32l51 -60l160 -133h18q22 -18 28 -33t11 -16l65 -21l52 -43l30 -10l58 -33l55 -16q51 -51 86 -51l31 8h6l4 57l29 62l-15 14l6 96l23 35l-3 23q-1 10 -20 41l23 80l-10 75l20 146l-24 26l28 84l-10 11l14 18l-4 14l31 15l6 -15 l29 6q-6 -21 -6 -38q0 -20 10 -35.5t10 -20.5l-14 -39l26 -47l-26 -41l4 -32l10 4q0 -14 -14 -47l-12 -27v-105l-21 -47l4 -30l-18 -93l8 -24l-16 -74l4 -33l-15 -53l15 -51l-33 -51l8 -29l-18 -35l10 -20l8 -96l14 -31q-15 -10 -22 -25l-19 4l-10 101l-14 4 q-2 18 -2.5 36.5t-1.5 36.5v40q0 22 -6 33l-13 26l-39 6l-22 27l-10 -13l-19 23l-33 -10l-40 32l-21 -4l-41 8l-24 25l-15 -4l-125 80l-14 18l-43 19l-27 34l-24 13l-33 33l-92 40l-66 84l-28 2l-15 23q-28 12 -65 55h10q-19 17 -33 47l-14 5h-4q-22 0 -28.5 -14t-14.5 -60 l-19 -105l19 -63l-29 -105q12 -63 12 -69v-8q0 -25 -13 -40t-13 -22q0 -5 26 -14l-12 -43v-51l-10 -56l10 -22l-10 -15q-4 -61 -27 -96h-14q-25 0 -25 39zM522 1249q0 10 7 20t18.5 18t21.5 26t15 22l26 14q4 20 17 23q49 4 76 29l34 4q29 0 48 -25l26 -6q24 -26 51 -41 l2 -18q19 -7 33 -27l14 -2q17 0 21 14q37 0 39 11l27 2q2 18 12 41q-5 8 -21 8v18q41 47 56 47t49 -69q-8 -22 -8 -47l-25 -25q-33 -7 -61 -23l-11 -18q-52 -23 -80 -18l-61 10q-14 20 -33 20q-8 0 -12 -2q9 20 12 31l-26 6v14l-15 15l4 8q-44 10 -73 10l-66 -39 q-6 -14 -25.5 -22t-19.5 -15q0 -5 8 -10q-15 -49 -45 -49q-4 0 -20 4q-15 23 -15 41z" />
<glyph unicode="&#xd2;" horiz-adv-x="1427" d="M115 313l28 88l-4 43l19 17l-15 35l35 28v29l12 27v22l15 25l-6 8l10 6l43 98l80 127q18 6 26 21.5t43 40.5l-4 18h25l-6 12q23 24 63 37l15 17h-2q0 1 39 6l94 12l59 -8l45 2h53q21 -4 29 -4q28 0 43 18q10 -10 23 -10q6 0 10 2q1 -20 20 -20q8 -9 45 -13l15 -14l30 -4 h39l56 -29h-13l38 -27q7 -5 20 -28l30 -14l15 -25l35 -14l68 -113q7 -11 24 -57l27 -73q10 -26 10 -34v-14l-19 -45l-6 -62l-18 -18l-21 -66q-3 -13 -6 -19t-13 -10l-22 -9l-121 -97l-28 -14q-13 -6 -41 -33v12l-84 -65l-37 -16l-88 -48q-19 9 -37 9q-14 0 -21.5 -10 t-15.5 -13l-18 4l-33 -31l-17 9l-8 -11h-35l-18 -18l-61 4l-99 -18q-6 2 -18 2l-31 -4l-35 6l-8 8l-86 14l-41 21h-18v39l-29 -11l-14 20q-9 11 -20 17l-32 15q-16 45 -18 104l-10 14zM172 262l12 -24l6 -37l19 -25q4 -6 6 -15l4 -24q39 -44 97 -62t67 -16l66 17l14 -15h33 v-14h32l9 25l32 4l82 -10q11 20 25 20l8 -2q45 29 66 29h8l41 26q8 4 43 6l26 23q74 2 85 10t19.5 17t39.5 16l14 39l6 -2l4 14q24 7 39 27l19 -6l10 20l33 25l55 61l33 12l16 35l27 19l-6 37l14 32l-8 60l12 20l-18 47l2 15q0 10 -5 22t-42 35l-15 39l-12 6l-6 23l-58 61 l-51 43l-16 -6l-74 47q-10 6 -42.5 11t-49.5 16q0 -2 -6 -2q-4 0 -31 4l-10 -7l-31 11l-20 -11q-27 9 -37 9q-6 0 -17.5 -4.5t-17.5 -4.5q-10 0 -14 5q-21 -11 -33.5 -25.5t-40.5 -26.5l-29 7l-28 -19l-33 4l-12 -5q-6 -3 -11 -7.5t-12.5 -10.5t-18 -13.5t-23 -16.5 t-27.5 -18q-7 -5 -27 -41l2 -29l-37 -16q-6 -3 -25 -25q-15 -34 -37 -55v-25q-24 -10 -28 -25l-19 -59l-34 -22q-7 -125 -21.5 -145t-20 -36.5t-8 -36t-14.5 -55.5zM502 1458v12q7 7 20 37q32 12 41 27q16 -9 35 -15l15 -28l41 -51l20 -45l16 -16q7 -7 21 -42l29 -14l14 -25 l29 -16l8 -12q13 -7 32 -31q35 -12 37 -45h15l-15 -25l-26 8l-19 21h-18l-4 18l-15 -2q-15 21 -22.5 23t-40.5 6l-16 27l-13 4l-4 24q-26 5 -37 29q-40 15 -41 53h-16l-21 23h-8q-5 0 -15.5 22.5t-27.5 36.5z" />
<glyph unicode="&#xd3;" horiz-adv-x="1427" d="M115 313l28 88l-4 43l19 17l-15 35l35 28v29l12 27v22l15 25l-6 8l10 6l43 98l80 127q18 6 26 21.5t43 40.5l-4 18h25l-6 12q23 24 63 37l15 17h-2q0 1 39 6l94 12l59 -8l45 2h53q21 -4 29 -4q28 0 43 18q10 -10 23 -10q6 0 10 2q1 -20 20 -20q8 -9 45 -13l15 -14l30 -4 h39l56 -29h-13l38 -27q7 -5 20 -28l30 -14l15 -25l35 -14l68 -113q7 -11 24 -57l27 -73q10 -26 10 -34v-14l-19 -45l-6 -62l-18 -18l-21 -66q-3 -13 -6 -19t-13 -10l-22 -9l-121 -97l-28 -14q-13 -6 -41 -33v12l-84 -65l-37 -16l-88 -48q-19 9 -37 9q-14 0 -21.5 -10 t-15.5 -13l-18 4l-33 -31l-17 9l-8 -11h-35l-18 -18l-61 4l-99 -18q-6 2 -18 2l-31 -4l-35 6l-8 8l-86 14l-41 21h-18v39l-29 -11l-14 20q-9 11 -20 17l-32 15q-16 45 -18 104l-10 14zM172 262l12 -24l6 -37l19 -25q4 -6 6 -15l4 -24q39 -44 97 -62t67 -16l66 17l14 -15h33 v-14h32l9 25l32 4l82 -10q11 20 25 20l8 -2q45 29 66 29h8l41 26q8 4 43 6l26 23q74 2 85 10t19.5 17t39.5 16l14 39l6 -2l4 14q24 7 39 27l19 -6l10 20l33 25l55 61l33 12l16 35l27 19l-6 37l14 32l-8 60l12 20l-18 47l2 15q0 10 -5 22t-42 35l-15 39l-12 6l-6 23l-58 61 l-51 43l-16 -6l-74 47q-10 6 -42.5 11t-49.5 16q0 -2 -6 -2q-4 0 -31 4l-10 -7l-31 11l-20 -11q-27 9 -37 9q-6 0 -17.5 -4.5t-17.5 -4.5q-10 0 -14 5q-21 -11 -33.5 -25.5t-40.5 -26.5l-29 7l-28 -19l-33 4l-12 -5q-6 -3 -11 -7.5t-12.5 -10.5t-18 -13.5t-23 -16.5 t-27.5 -18q-7 -5 -27 -41l2 -29l-37 -16q-6 -3 -25 -25q-15 -34 -37 -55v-25q-24 -10 -28 -25l-19 -59l-34 -22q-7 -125 -21.5 -145t-20 -36.5t-8 -36t-14.5 -55.5zM629 1186l22 18l11 37l41 22l24 48l19 4l12 39l8 -7v11l12 4l9 16q98 90 98 113v2q5 16 18 16l29 33l23 4 l10 -4q42 -11 39 -23l-15 -57q-42 0 -53 -29l-6 5l-74 -74l-12 4l-29 -39l-16 -4l2 -19l-29 -10v-16l-18 -6q-23 -41 -27 -52l-18 -8v-16q-13 -4 -49 -41z" />
<glyph unicode="&#xd4;" horiz-adv-x="1427" d="M115 313l28 88l-4 43l19 17l-15 35l35 28v29l12 27v22l15 25l-6 8l10 6l43 98l80 127q18 6 26 21.5t43 40.5l-4 18h25l-6 12q23 24 63 37l15 17h-2q0 1 39 6l94 12l59 -8l45 2h53q21 -4 29 -4q28 0 43 18q10 -10 23 -10q6 0 10 2q1 -20 20 -20q8 -9 45 -13l15 -14l30 -4 h39l56 -29h-13l38 -27q7 -5 20 -28l30 -14l15 -25l35 -14l68 -113q7 -11 24 -57l27 -73q10 -26 10 -34v-14l-19 -45l-6 -62l-18 -18l-21 -66q-3 -13 -6 -19t-13 -10l-22 -9l-121 -97l-28 -14q-13 -6 -41 -33v12l-84 -65l-37 -16l-88 -48q-19 9 -37 9q-14 0 -21.5 -10 t-15.5 -13l-18 4l-33 -31l-17 9l-8 -11h-35l-18 -18l-61 4l-99 -18q-6 2 -18 2l-31 -4l-35 6l-8 8l-86 14l-41 21h-18v39l-29 -11l-14 20q-9 11 -20 17l-32 15q-16 45 -18 104l-10 14zM172 262l12 -24l6 -37l19 -25q4 -6 6 -15l4 -24q39 -44 97 -62t67 -16l66 17l14 -15h33 v-14h32l9 25l32 4l82 -10q11 20 25 20l8 -2q45 29 66 29h8l41 26q8 4 43 6l26 23q74 2 85 10t19.5 17t39.5 16l14 39l6 -2l4 14q24 7 39 27l19 -6l10 20l33 25l55 61l33 12l16 35l27 19l-6 37l14 32l-8 60l12 20l-18 47l2 15q0 10 -5 22t-42 35l-15 39l-12 6l-6 23l-58 61 l-51 43l-16 -6l-74 47q-10 6 -42.5 11t-49.5 16q0 -2 -6 -2q-4 0 -31 4l-10 -7l-31 11l-20 -11q-27 9 -37 9q-6 0 -17.5 -4.5t-17.5 -4.5q-10 0 -14 5q-21 -11 -33.5 -25.5t-40.5 -26.5l-29 7l-28 -19l-33 4l-12 -5q-6 -3 -11 -7.5t-12.5 -10.5t-18 -13.5t-23 -16.5 t-27.5 -18q-7 -5 -27 -41l2 -29l-37 -16q-6 -3 -25 -25q-15 -34 -37 -55v-25q-24 -10 -28 -25l-19 -59l-34 -22q-7 -125 -21.5 -145t-20 -36.5t-8 -36t-14.5 -55.5zM455 1179q3 30 31 35l6 11l8 4v6l8 4l8 18h8q15 25 46 60l4 -9q11 0 26 46l15 6q2 13 32 45l2 18 q14 2 23.5 13.5t18 16t16.5 15t11 23t10 26t9 17.5l19 -4q0 18 12 24l27 -24l4 4l8 -23l29 -35q6 -8 10 -28l20 -13l5 -24l22 -23q9 -29 29 -49l45 -45l4 -35l27 -14l16 -20l29 -13l22 -28q-3 -6 -26 -15q-52 8 -53.5 8.5t-26.5 25t-25 42.5l-18 8q-25 6 -25 19v4l-40 44 q-9 11 -32 25v19l-14 16l6 8q-24 22 -35 50l-8 -9q-3 19 -10 23q-10 -12 -31 -12l-16 -37l-17 -6l-4 -11l-12 -8v-14l-43 -39v-8l-22 -11l-7 -18q-10 -4 -20 -23l-49 -32l-23 -39q-24 -17 -35 -35z" />
<glyph unicode="&#xd5;" horiz-adv-x="1427" d="M115 313l28 88l-4 43l19 17l-15 35l35 28v29l12 27v22l15 25l-6 8l10 6l43 98l80 127q18 6 26 21.5t43 40.5l-4 18h25l-6 12q23 24 63 37l15 17h-2q0 1 39 6l94 12l59 -8l45 2h53q21 -4 29 -4q28 0 43 18q10 -10 23 -10q6 0 10 2q1 -20 20 -20q8 -9 45 -13l15 -14l30 -4 h39l56 -29h-13l38 -27q7 -5 20 -28l30 -14l15 -25l35 -14l68 -113q7 -11 24 -57l27 -73q10 -26 10 -34v-14l-19 -45l-6 -62l-18 -18l-21 -66q-3 -13 -6 -19t-13 -10l-22 -9l-121 -97l-28 -14q-13 -6 -41 -33v12l-84 -65l-37 -16l-88 -48q-19 9 -37 9q-14 0 -21.5 -10 t-15.5 -13l-18 4l-33 -31l-17 9l-8 -11h-35l-18 -18l-61 4l-99 -18q-6 2 -18 2l-31 -4l-35 6l-8 8l-86 14l-41 21h-18v39l-29 -11l-14 20q-9 11 -20 17l-32 15q-16 45 -18 104l-10 14zM172 262l12 -24l6 -37l19 -25q4 -6 6 -15l4 -24q39 -44 97 -62t67 -16l66 17l14 -15h33 v-14h32l9 25l32 4l82 -10q11 20 25 20l8 -2q45 29 66 29h8l41 26q8 4 43 6l26 23q74 2 85 10t19.5 17t39.5 16l14 39l6 -2l4 14q24 7 39 27l19 -6l10 20l33 25l55 61l33 12l16 35l27 19l-6 37l14 32l-8 60l12 20l-18 47l2 15q0 10 -5 22t-42 35l-15 39l-12 6l-6 23l-58 61 l-51 43l-16 -6l-74 47q-10 6 -42.5 11t-49.5 16q0 -2 -6 -2q-4 0 -31 4l-10 -7l-31 11l-20 -11q-27 9 -37 9q-6 0 -17.5 -4.5t-17.5 -4.5q-10 0 -14 5q-21 -11 -33.5 -25.5t-40.5 -26.5l-29 7l-28 -19l-33 4l-12 -5q-6 -3 -11 -7.5t-12.5 -10.5t-18 -13.5t-23 -16.5 t-27.5 -18q-7 -5 -27 -41l2 -29l-37 -16q-6 -3 -25 -25q-15 -34 -37 -55v-25q-24 -10 -28 -25l-19 -59l-34 -22q-7 -125 -21.5 -145t-20 -36.5t-8 -36t-14.5 -55.5zM477 1249q0 10 7 20t18.5 18t21.5 26t15 22l26 14q4 20 17 23q49 4 76 29l34 4q29 0 48 -25l26 -6 q24 -26 51 -41l2 -18q19 -7 33 -27l14 -2q17 0 21 14q37 0 39 11l27 2q2 18 12 41q-5 8 -21 8v18q41 47 56 47t49 -69q-8 -22 -8 -47l-25 -25q-33 -7 -61 -23l-11 -18q-52 -23 -80 -18l-61 10q-14 20 -33 20q-8 0 -12 -2q9 20 12 31l-26 6v14l-15 15l4 8q-44 10 -73 10 l-66 -39q-6 -14 -25.5 -22t-19.5 -15q0 -5 8 -10q-15 -49 -45 -49q-4 0 -20 4q-15 23 -15 41z" />
<glyph unicode="&#xd6;" horiz-adv-x="1427" d="M115 313l28 88l-4 43l19 17l-15 35l35 28v29l12 27v22l15 25l-6 8l10 6l43 98l80 127q18 6 26 21.5t43 40.5l-4 18h25l-6 12q23 24 63 37l15 17h-2q0 1 39 6l94 12l59 -8l45 2h53q21 -4 29 -4q28 0 43 18q10 -10 23 -10q6 0 10 2q1 -20 20 -20q8 -9 45 -13l15 -14l30 -4 h39l56 -29h-13l38 -27q7 -5 20 -28l30 -14l15 -25l35 -14l68 -113q7 -11 24 -57l27 -73q10 -26 10 -34v-14l-19 -45l-6 -62l-18 -18l-21 -66q-3 -13 -6 -19t-13 -10l-22 -9l-121 -97l-28 -14q-13 -6 -41 -33v12l-84 -65l-37 -16l-88 -48q-19 9 -37 9q-14 0 -21.5 -10 t-15.5 -13l-18 4l-33 -31l-17 9l-8 -11h-35l-18 -18l-61 4l-99 -18q-6 2 -18 2l-31 -4l-35 6l-8 8l-86 14l-41 21h-18v39l-29 -11l-14 20q-9 11 -20 17l-32 15q-16 45 -18 104l-10 14zM172 262l12 -24l6 -37l19 -25q4 -6 6 -15l4 -24q39 -44 97 -62t67 -16l66 17l14 -15h33 v-14h32l9 25l32 4l82 -10q11 20 25 20l8 -2q45 29 66 29h8l41 26q8 4 43 6l26 23q74 2 85 10t19.5 17t39.5 16l14 39l6 -2l4 14q24 7 39 27l19 -6l10 20l33 25l55 61l33 12l16 35l27 19l-6 37l14 32l-8 60l12 20l-18 47l2 15q0 10 -5 22t-42 35l-15 39l-12 6l-6 23l-58 61 l-51 43l-16 -6l-74 47q-10 6 -42.5 11t-49.5 16q0 -2 -6 -2q-4 0 -31 4l-10 -7l-31 11l-20 -11q-27 9 -37 9q-6 0 -17.5 -4.5t-17.5 -4.5q-10 0 -14 5q-21 -11 -33.5 -25.5t-40.5 -26.5l-29 7l-28 -19l-33 4l-12 -5q-6 -3 -11 -7.5t-12.5 -10.5t-18 -13.5t-23 -16.5 t-27.5 -18q-7 -5 -27 -41l2 -29l-37 -16q-6 -3 -25 -25q-15 -34 -37 -55v-25q-24 -10 -28 -25l-19 -59l-34 -22q-7 -125 -21.5 -145t-20 -36.5t-8 -36t-14.5 -55.5zM494 1327q5 23 7.5 32.5t25.5 24.5t32 29l17 -6q31 -4 42 -18.5t38 -22.5l12 -35l-6 -6l4 -23l-10 -6v-14 q-12 -4 -39 -37q-19 -1 -37 -6.5t-21 -5.5t-6.5 9t-11.5 9h-4q0 10 -8 10h-5l-12 7l4 10l-8 8l4 12zM832 1317l18 22l-4 13l8 8l-4 10q12 3 12 10q4 -2 9 -2q4 0 4 4v4h6q7 0 10 9.5t10 9.5q13 -10 54 -13q23 -32 38 -36v-15l11 -6l-4 -22l6 -7l-13 -32l-24 -13 q-14 -19 -29.5 -22.5t-42.5 -13.5q-14 16 -36.5 32.5t-23.5 19.5t-5 40z" />
<glyph unicode="&#xd7;" horiz-adv-x="1706" d="M309 123l488 487l-488 488l58 57l487 -487l487 487l58 -57l-488 -488l488 -487l-58 -57l-487 487l-487 -487z" />
<glyph unicode="&#xd8;" horiz-adv-x="1427" d="M129 360l18 70l-4 16q0 17 17.5 44.5t17.5 41.5l-10 33l27 19l-9 28q0 28 31 62h10v22q0 1 8.5 7t8.5 22q0 9 -11 33l21 4l2 39l16 -6q23 0 29 71l18 15l11 -7v37l32 4l19 43q2 4 20 14.5t56 22.5q0 43 41 43h12q43 0 76 52q39 13 78 20.5t45 9.5q5 -2 18 -2q21 0 37 8 l37 -10l59 14l86 -16q-12 15 -12 27q0 13 14 39q22 3 27.5 9.5t5.5 27.5v10q0 36 16 47l2 22l23 13q5 21 18 49l-4 26l21 9q19 26 16.5 58t16.5 32h4l31 -8q18 -5 29 -15l32 -28l-10 -25v-23l-27 -12q-6 -35 -36 -65q-17 -16 -18 -45.5t-20 -34.5l-6 -25l-10 -4l-12 -24 q-35 -38 -35 -76q0 -13 2 -21l14 -6h33l26 -18l48 -58l51 -45l24 -55l47 -57q31 -39 33 -90l4 -82l15 -35l-4 -29l8 -18l-15 -27v-51l-36 -98l-25 -86l-33 -33l-33 -58l-47 -41l-65 -92l-74 -53l-72 -59q-32 -21 -43 -21h-24l-17 -17q-8 -7 -47 -22q-6 13 -14 13 q-5 0 -21.5 -13.5t-37.5 -17.5l-19 12l-10 -24l-45 -5l-35 15l-14 -15q-21 7 -35 7q-10 0 -16 -7l-17 5h-33l-30 12l-37 -6l-41 -39l-37 -86l-8 -43l-41 -76l-19 -6l7 -21l-48 -100l-57 -102q-18 0 -20 14l32 70v41l41 36l13 48l10 6l6 55l45 61v37q21 31 23 45l14 6 q8 53 20 80l-34 21l-33 31l-51 34l-56 58q-16 26 -21.5 44t-15.5 62l-14 70v88zM178 322l15 -15l8 -114l-6 -15l14 -18l16 -64l29 -16q14 -38 20 -44.5t21.5 -14t35 -13t46.5 -18.5q22 2 27 10.5t14 71.5l28 26l9 45l24 47v21l43 51l13 45l24 33q4 6 8 35h6q-2 4 -2 14 q0 19 15 47l16 8l4 41l41 11q-14 20 -14 28t22.5 36.5t24.5 66.5l33 24l18 78l57 94l9 66l34 14l19 76l33 45l2 10q0 17 -27 23l-8 -15l-14 11l-25 -11l-18 15l-23 -4h-43l-4 -15q-29 0 -29 -14q-31 6 -53 6q-20 0 -35 -6l8 -29l21 -16l-21 -51l-32 18l-33 -10l-31 10 l-24 -24q-15 0 -19 -11l-29 -16l-8 -25l-32 -22l-15 -47l-47 -29l-39 -88q-35 -51 -41 -72l-47 -157l4 -54q-16 -26 -20 -55zM424 -33l6 -12l31 12l61 -12l4 12q28 -4 41 -4q15 0 30 3t34 3h26q29 0 47.5 14.5t31 17.5t24.5 3q10 0 14 -4q94 38 94 41t-14 6l33 12l10 21 q41 12 51 24q34 5 45 41l15 9q10 26 65 57l14 37l19 -6q33 42 34 67t31 27v12l25 12q-10 21 -10 31q0 16 28 35v45l48 147l4 31l-29 99l-4 32l-14 11l-37 83h-6l-66 84l-84 66l-18 6q-21 0 -45 -10l-29 -62l-51 -88l-25 -36l-22 -58l-39 -69l-23 -7l4 -16l-18 -49l-37 -84 l-29 -31l-10 -74l-22 -16l-21 -47l-20 -14l-3 -23l-30 -24l12 -15l-14 -12v-29l-37 -55l-14 -35l-23 -16l-18 -47l-37 -66l-7 -29q-4 -14 -26 -51z" />
<glyph unicode="&#xd9;" horiz-adv-x="1460" d="M201 537q6 9 18 17.5t12 25.5l-14 18l8 43l-16 33v22l16 27l-8 39l14 61l-8 80l8 47l-8 8h15q0 25 10 25h6q0 2 -6 8q61 -10 74 -69l-15 -23l-24 -123q-4 -24 -4 -35q0 -19 20 -63q-27 -129 -27 -195q0 -18 1 -28t16 -29q-7 -28 -8 -90l-15 -23l23 -18l-19 -14 q-6 -15 -6 -29q0 -25 11 -47t17 -56.5t21 -50.5h33l47 -2l4 13q13 4 15 4q5 0 10 -4v2q0 10 14 14l4 29l37 -9l15 31l32 14q7 19 23 19q6 0 18 -4l4 20q38 26 58 29v16l22 4l10 11q18 0 24 5.5t13 37.5l58 30l8 25l14 -4l15 35l36 16l7 14l22 17v26l18 9l21 28l33 15l4 18 h12l-8 8q13 23 35 23h6v24l14 6l45 89q6 22 17 55l8 47l12 25q6 12 12 47l3 36q2 19 12 46l20 16l31 -16q15 -20 43 -41l-10 -19l4 -37q0 -24 -29 -24l-8 -8v-19l-14 -24v-37l-15 -39l4 -51q-20 -28 -20 -35q0 -13 12 -23.5t15 -17.5l-13 -4l-12 -27l12 -33l-6 -63l19 -31 h-7q-14 0 -10 -13q10 -36 10 -75q15 -14 15 -25q0 -5 -8 -10l14 -45q14 -66 51 -164l23 -32q12 -30 28 -46l58 -55l75 -16l9 16l20 -10q14 14 25 16q9 15 28 15l37 -4l-6 -48l-53 -18l-6 -20l-29 10l-35 -23l-22 -2q-49 0 -68 21.5t-22 21.5l-11 -8q-43 23 -69 70l8 4 l-41 47l-14 55l-25 39l-14 53l-19 39l-31 189l-2 80q-14 30 -18 59q-2 2 -8 2q-9 0 -10 -2l-43 -59l-41 -31q-1 -11 -37 -49l-20 -13q-9 -6 -42 -41q0 -20 -22 -26l-25 -29l-33 -14l-28 -39l-158 -123l-70 -43l-25 -21q-16 -12 -27 -15l-34 -11l-4 -23l-8 -2l4 -8h-47 l-14 -6l10 -8l-43 -4q-32 37 -43 43v37l-18 18l-21 125l-6 16l-6 82l12 41l-6 31l6 33l-8 106zM455 1458v12q7 7 20 37q32 12 41 27q16 -9 35 -15l15 -28l41 -51l20 -45l16 -16q7 -7 21 -42l29 -14l14 -25l29 -16l8 -12q13 -7 32 -31q35 -12 37 -45h15l-15 -25l-26 8l-19 21 h-18l-4 18l-15 -2q-15 21 -22.5 23t-40.5 6l-16 27l-13 4l-4 24q-26 5 -37 29q-40 15 -41 53h-16l-21 23h-8q-5 0 -15.5 22.5t-27.5 36.5z" />
</font>
</defs>
</svg>
