<?xml version="1.0" standalone="no"?>
<!DOCTYPE svg PUBLIC "-//W3C//DTD SVG 1.1//EN" "http://www.w3.org/Graphics/SVG/1.1/DTD/svg11.dtd" >
<svg>
<metadata>
Created by FontForge 20110222 at Tue Sep 10 20:34:13 2013
 By Orthosie Webhosting
FontShop by Sherlock
</metadata>
<defs>
<font id="TRCenturyGothicRegular" horiz-adv-x="1135" >
  <font-face 
    font-family="TRCenturyGothicRegular"
    font-weight="400"
    font-stretch="normal"
    units-per-em="2048"
    panose-1="2 11 5 2 2 2 2 2 2 4"
    ascent="1638"
    descent="-410"
    x-height="1088"
    cap-height="1471"
    bbox="-347 -451 2360 2060"
    underline-thickness="119"
    underline-position="-138"
    unicode-range="U+0020-F002"
  />
<missing-glyph horiz-adv-x="1024" 
d="M128 0v2060h768v-2060h-768zM256 128h512v1804h-512v-1804z" />
    <glyph glyph-name=".notdef" horiz-adv-x="1024" 
d="M128 0v2060h768v-2060h-768zM256 128h512v1804h-512v-1804z" />
    <glyph glyph-name=".null" horiz-adv-x="0" 
 />
    <glyph glyph-name="nonmarkingreturn" horiz-adv-x="567" 
 />
    <glyph glyph-name="space" unicode=" " horiz-adv-x="567" 
 />
    <glyph glyph-name="exclam" unicode="!" horiz-adv-x="604" 
d="M373 1508v-1140h-145v1140h145zM302 220q52 0 87.5 -36t35.5 -88q0 -51 -36 -87.5t-87 -36.5t-87 36.5t-36 87.5q0 52 35.5 88t87.5 36z" />
    <glyph glyph-name="quotedbl" unicode="&#x22;" horiz-adv-x="633" 
d="M562 1045h-103l-22 463h148zM174 1045h-104l-22 463h148z" />
    <glyph glyph-name="numbersign" unicode="#" horiz-adv-x="1475" 
d="M1233 602v-108h-248l-72 -494h-112l72 494h-333l-76 -494h-110l76 494h-246v108h263l51 334h-253v109h269l70 468h107l-68 -468h332l68 468h112l-69 -468h224v-109h-240l-48 -334h231zM940 936h-334l-49 -334h332z" />
    <glyph glyph-name="dollar" unicode="$" 
d="M531 1574h131v-109q183 -34 301 -200l-108 -87q-77 119 -193 144v-499q262 -138 326 -224q82 -110 82 -243q0 -111 -62 -204q-60 -89 -162 -140q-67 -33 -184 -48v-313h-131v313q-210 17 -341 127q-71 58 -118 135l107 81q139 -184 352 -205v619q-159 78 -199 105
q-167 113 -167 293q0 188 168 292q77 48 198 60v103zM531 1332q-139 -11 -193 -107q-27 -47 -27 -103q0 -71 42 -122q57 -68 178 -123v455zM662 106q106 15 181 76q85 71 85 171q0 107 -86 192q-57 57 -180 123v-562z" />
    <glyph glyph-name="percent" unicode="%" horiz-adv-x="1587" 
d="M1381 1536l-1072 -1638h-132l975 1492q-191 -46 -422 -42l-54 1q62 -86 62 -182q0 -149 -100.5 -251t-248.5 -102q-145 0 -244 100t-99 245q0 201 173 301q83 48 170 48q38 0 122 -18q131 -28 282 -28q209 0 470 74h118zM392 1381q-92 0 -155.5 -64t-63.5 -156
t63.5 -155.5t155.5 -63.5t156 63.5t64 155.5t-64 156t-156 64zM1195 649q144 0 245 -101t101 -245t-101 -245t-245 -101t-245 101t-101 245t101 245t245 101zM1195 522q-92 0 -155.5 -63.5t-63.5 -155.5t63.5 -155.5t155.5 -63.5t156 63.5t64 155.5t-64 155.5t-156 63.5z
" />
    <glyph glyph-name="ampersand" unicode="&#x26;" horiz-adv-x="1550" 
d="M1292 544l100 -106q-96 -85 -173 -147q59 -63 147 -151q79 -79 131 -140h-205l-189 197q-157 -119 -255 -166q-141 -68 -293 -68q-160 0 -265 90q-111 94 -111 251q0 144 119 286q71 85 234 214q-93 112 -124 160q-66 104 -66 188q0 110 85 182q99 84 244 84
q197 0 284 -136q40 -63 40 -133q0 -153 -257 -371l223 -234l153 -153q110 92 178 153zM647 888q199 154 199 264q0 62 -63 97q-51 28 -118 28q-65 0 -116 -30q-60 -37 -60 -98q0 -40 20 -75q49 -85 138 -186zM629 693q-133 -100 -192 -162q-111 -117 -111 -217
q0 -92 78 -155q72 -58 167 -58q79 0 153 32q117 50 279 166l-240 246q-48 49 -134 148z" />
    <glyph glyph-name="quotesingle" unicode="'" horiz-adv-x="405" 
d="M254 1045h-103l-22 463h148z" />
    <glyph glyph-name="parenleft" unicode="(" horiz-adv-x="756" 
d="M470 1536h162q-216 -443 -216 -1022q0 -542 167 -940h-154q-162 390 -162 921q0 576 203 1041z" />
    <glyph glyph-name="parenright" unicode=")" horiz-adv-x="756" 
d="M286 -426h-162q216 439 216 1022q0 542 -167 940h154q162 -384 162 -922q0 -575 -203 -1040z" />
    <glyph glyph-name="asterisk" unicode="*" horiz-adv-x="870" 
d="M369 1508h130l-29 -297l246 176l66 -112l-277 -125l277 -123l-66 -113l-246 174l29 -297h-130l31 297l-246 -174l-66 113l281 123l-281 125l66 112l246 -176z" />
    <glyph glyph-name="plus" unicode="+" horiz-adv-x="1241" 
d="M552 804v434h137v-434h438v-137h-438v-434h-137v434h-437v137h437z" />
    <glyph glyph-name="comma" unicode="," horiz-adv-x="567" 
d="M295 270l135 -64l-203 -378l-99 42z" />
    <glyph glyph-name="hyphen" unicode="-" horiz-adv-x="680" 
d="M65 614h550v-122h-550v122z" />
    <glyph glyph-name="hyphen" unicode="&#x2010;" horiz-adv-x="680" 
d="M65 614h550v-122h-550v122z" />
    <glyph glyph-name="period" unicode="." horiz-adv-x="567" 
d="M310 220q52 0 87.5 -36t35.5 -88q0 -51 -36 -87.5t-87 -36.5t-87 36.5t-36 87.5q0 52 35.5 88t87.5 36z" />
    <glyph glyph-name="slash" unicode="/" horiz-adv-x="895" 
d="M836 1508l-611 -1708h-153l610 1708h154z" />
    <glyph glyph-name="zero" unicode="0" 
d="M65 735q0 519 239 691q114 82 255 82q307 0 443 -330q67 -165 67 -443q0 -510 -250 -688q-117 -84 -260 -84q-303 0 -430 323q-64 160 -64 449zM204 732q0 -436 176 -570q87 -66 184 -66q223 0 312 258q55 159 55 378q0 431 -184 571q-87 65 -183 65q-111 0 -198 -77
q-77 -69 -117 -181q-45 -128 -45 -378z" />
    <glyph glyph-name="one" unicode="1" 
d="M379 1471h289v-1471h-146v1327h-231z" />
    <glyph glyph-name="two" unicode="2" 
d="M237 1010h-141q6 213 140 354q138 144 350 144q192 0 322 -123q132 -126 132 -317q0 -145 -94 -291q-54 -84 -199 -240l-366 -395h679v-142h-999l562 607q145 157 181 207q93 130 93 251q0 129 -94.5 216t-224.5 87q-153 0 -245 -105q-84 -96 -96 -253z" />
    <glyph glyph-name="three" unicode="3" 
d="M271 1130h-150q38 171 146 271q116 107 285 107q112 0 210 -50q102 -52 159 -144q54 -89 54 -186q0 -190 -189 -301q106 -43 174 -126q96 -117 96 -262q0 -128 -67 -240.5t-180 -174t-254 -61.5q-200 0 -326 118q-120 111 -157 313h144q77 -288 341 -288q146 0 247 86
q107 92 107 235q0 88 -49 162t-130 112t-252 47v135q219 0 305 126q37 55 37 120q0 105 -84 173q-78 63 -186 63q-193 0 -281 -235z" />
    <glyph glyph-name="four" unicode="4" 
d="M872 1508h30v-1025h178v-141h-178v-342h-147v342h-703zM755 483v613l-433 -613h433z" />
    <glyph glyph-name="five" unicode="5" 
d="M1007 1471v-140h-524l-73 -401q96 28 173 28q206 0 334 -136t128 -343q0 -141 -64 -260q-66 -125 -182.5 -190.5t-266.5 -65.5q-178 0 -301.5 108t-147.5 285h151q32 -159 166 -223q67 -33 141 -33q154 0 256 117q97 111 97 268q0 153 -95.5 244t-249.5 91
q-130 0 -315 -79l136 730h637z" />
    <glyph glyph-name="six" unicode="6" 
d="M751 1508l121 -79l-397 -602q80 27 150 27q180 0 301 -130q118 -126 118 -308q0 -266 -226 -392q-109 -61 -234 -61q-263 0 -387 223q-59 106 -59 227q0 180 167 429zM590 725q-129 0 -219 -90.5t-90 -219.5t90 -219t219 -90t219 90t90 219t-90 219.5t-219 90.5z" />
    <glyph glyph-name="seven" unicode="7" 
d="M147 1471h933l-787 -1508l-121 62l680 1307h-705v139z" />
    <glyph glyph-name="eight" unicode="8" 
d="M787 807q278 -138 278 -385q0 -170 -111 -300q-136 -159 -389 -159q-208 0 -348 118q-148 125 -148 329q0 254 286 397q-216 112 -216 317q0 103 62 195q59 87 155 137q101 52 219 52q246 0 367 -197q55 -91 55 -191q0 -199 -210 -313zM568 1365q-111 0 -192 -64
q-88 -70 -88 -178q0 -106 91 -183q87 -74 194 -74q161 0 240 135q36 62 36 125q0 111 -87 178q-80 61 -194 61zM575 733q-143 0 -248 -91q-110 -96 -110 -237q0 -182 167 -264q79 -39 183 -39q145 0 245 85q106 89 106 232q0 132 -107 225q-102 89 -236 89z" />
    <glyph glyph-name="nine" unicode="9" 
d="M393 -37l-121 78l397 602q-80 -26 -150 -26q-180 0 -301 130q-118 126 -118 308q0 265 227 392q108 61 232 61q263 0 388 -224q59 -106 59 -226q0 -181 -167 -430zM553 746q129 0 219.5 90t90.5 219t-90.5 219t-219.5 90t-219 -90t-90 -219t90 -219t219 -90z" />
    <glyph glyph-name="colon" unicode=":" horiz-adv-x="567" 
d="M310 1116q52 0 87.5 -36t35.5 -88t-35.5 -88t-87.5 -36t-87.5 36t-35.5 88q0 51 36 87.5t87 36.5zM310 220q52 0 87.5 -36t35.5 -88q0 -51 -36 -87.5t-87 -36.5t-87 36.5t-36 87.5q0 52 35.5 88t87.5 36z" />
    <glyph glyph-name="semicolon" unicode=";" horiz-adv-x="567" 
d="M310 1116q52 0 87.5 -36t35.5 -88t-35.5 -88t-87.5 -36t-87.5 36t-35.5 88q0 51 36 87.5t87 36.5zM295 270l135 -64l-203 -378l-99 42z" />
    <glyph glyph-name="less" unicode="&#x3c;" horiz-adv-x="1241" 
d="M1137 347v-146l-1033 469v130l1033 471v-147l-839 -390z" />
    <glyph glyph-name="equal" unicode="=" horiz-adv-x="1241" 
d="M1127 1024v-137h-1012v137h1012zM1127 584v-137h-1012v137h1012z" />
    <glyph glyph-name="greater" unicode="&#x3e;" horiz-adv-x="1241" 
d="M104 347l839 387l-839 390v147l1033 -471v-130l-1033 -469v146z" />
    <glyph glyph-name="question" unicode="?" horiz-adv-x="1210" 
d="M315 1071h-145q2 201 119.5 319t318.5 118q173 0 289 -84q131 -94 131 -261q0 -142 -123 -236q-60 -47 -217 -109q-147 -58 -172 -72q-106 -60 -106 -138q0 -70 69 -113q60 -37 134 -37q194 0 217 212h146q-7 -166 -102.5 -259t-260.5 -93q-144 0 -243 72
q-111 80 -111 219q0 128 102 203q49 37 182 91q196 80 211 89q126 70 126 169q0 101 -88 158q-76 49 -182 49q-150 0 -233 -99q-58 -69 -62 -198zM607 220q52 0 87.5 -36t35.5 -88q0 -51 -36 -87.5t-87 -36.5t-87 36.5t-36 87.5q0 52 35.5 88t87.5 36z" />
    <glyph glyph-name="at" unicode="@" horiz-adv-x="1776" 
d="M1444 301h106q-135 -168 -248 -234q-161 -94 -369 -94q-215 0 -399 100q-188 103 -293 286q-104 179 -104 391q0 213 103 398.5t286 289.5q180 102 394 102q282 0 494 -178q224 -188 224 -466q0 -369 -321 -533q-114 -58 -193 -58q-58 0 -92 31q-26 23 -27 80
q-80 -101 -217 -101q-153 0 -245 106q-87 102 -87 257q0 192 116 327q122 142 312 142q164 0 260 -148l26 138h108l-116 -654q-5 -28 -5 -41q0 -49 50 -49q79 0 176 87q84 75 125 158q52 107 52 238q0 255 -197 421q-183 155 -448 155q-194 0 -351 -87q-163 -89 -256 -253
t-93 -353q0 -191 92 -351q93 -163 258 -255t363 -92q158 0 284 62q109 54 232 178zM838 428q149 0 216 166q44 108 44 219q0 97 -52 160q-56 67 -151 67q-132 0 -217 -109q-78 -100 -78 -235q0 -115 60 -189q65 -79 178 -79z" />
    <glyph glyph-name="A" unicode="A" horiz-adv-x="1515" 
d="M780 1471l686 -1471h-158l-231 484h-634l-230 -484h-164l695 1471h36zM762 1159l-253 -533h503z" />
    <glyph glyph-name="B" unicode="B" horiz-adv-x="1176" 
d="M183 1471h290q310 0 418 -169q54 -86 54 -191q0 -207 -189 -309q204 -69 274 -218q34 -75 34 -162q0 -195 -144 -313q-134 -109 -333 -109h-404v1471zM327 1327v-471h84q122 0 187 17q100 26 152 102q42 61 42 136q0 216 -295 216h-170zM327 708v-564h182q129 0 198 19
q103 29 159 111q45 67 45 145q0 104 -70 178q-64 68 -170 93q-75 18 -261 18h-83z" />
    <glyph glyph-name="C" unicode="C" horiz-adv-x="1665" 
d="M1549 1198l-116 -89q-195 254 -526 254q-172 0 -321 -82q-153 -83 -236.5 -227.5t-83.5 -322.5q0 -276 188 -454q185 -175 462 -175q309 0 517 242l116 -88q-230 -293 -642 -293q-387 0 -609 257q-187 216 -187 524q0 333 232 551q227 213 562 213q420 0 644 -310z" />
    <glyph glyph-name="D" unicode="D" horiz-adv-x="1524" 
d="M179 0v1471h305q329 0 479 -53q224 -79 343 -273q112 -182 112 -428q0 -201 -84 -368q-92 -181 -259 -269q-153 -80 -428 -80h-468zM320 139h170q306 0 423 38q176 57 269 206q87 140 87 332q0 206 -97 355q-102 158 -293 216q-138 42 -455 42h-104v-1189z" />
    <glyph glyph-name="E" unicode="E" horiz-adv-x="1098" 
d="M180 1471h843v-145h-696v-460h690v-144h-690v-577h690v-145h-837v1471z" />
    <glyph glyph-name="F" unicode="F" horiz-adv-x="993" 
d="M179 1471h737v-145h-591v-460h591v-145h-591v-721h-146v1471z" />
    <glyph glyph-name="G" unicode="G" horiz-adv-x="1786" 
d="M1598 1224l-114 -108q-250 246 -555 246q-173 0 -327 -84q-159 -85 -245 -231t-86 -308q0 -172 91 -319.5t244 -230.5q157 -86 344 -86q219 0 376 121q164 126 194 339h-469v142h634q-2 -340 -201 -541t-538 -201q-408 0 -646 278q-183 214 -183 495q0 210 105 389.5
t288 281t414 101.5q375 0 674 -284z" />
    <glyph glyph-name="H" unicode="H" horiz-adv-x="1399" 
d="M177 1471h148v-617h748v617h148v-1471h-148v710h-748v-710h-148v1471z" />
    <glyph glyph-name="I" unicode="I" horiz-adv-x="463" 
d="M158 1471h147v-1471h-147v1471z" />
    <glyph glyph-name="J" unicode="J" horiz-adv-x="987" 
d="M660 1471h148v-993q0 -179 -18 -256q-31 -138 -136 -205q-83 -54 -201 -54q-179 0 -367 156l78 117q114 -81 191 -114q50 -22 98 -22q65 0 115.5 38.5t71 101t20.5 243.5v988z" />
    <glyph glyph-name="K" unicode="K" horiz-adv-x="1210" 
d="M179 1471h150v-552l587 552h199l-707 -660l762 -811h-195l-646 686v-686h-150v1471z" />
    <glyph glyph-name="L" unicode="L" horiz-adv-x="946" 
d="M179 1471h148v-1329h565v-142h-713v1471z" />
    <glyph glyph-name="M" unicode="M" horiz-adv-x="1882" 
d="M112 0l209 1471h24l598 -1207l592 1207h24l211 -1471h-145l-144 1052l-520 -1052h-37l-527 1060l-143 -1060h-142z" />
    <glyph glyph-name="N" unicode="N" horiz-adv-x="1515" 
d="M180 0v1471h32l978 -1126v1126h145v-1471h-33l-970 1112v-1112h-152z" />
    <glyph glyph-name="O" unicode="O" horiz-adv-x="1780" 
d="M880 1508q332 0 557 -219q227 -222 227 -553q0 -325 -223.5 -549t-548.5 -224t-551 221t-226 545q0 210 101 391t281 286q177 102 383 102zM887 1364q-165 0 -310 -85t-227 -229t-82 -321q0 -261 179 -442t440 -181q170 0 315.5 82t227.5 227t82 321q0 364 -311 543
q-148 85 -314 85z" />
    <glyph glyph-name="P" unicode="P" horiz-adv-x="1212" 
d="M178 1471h293q251 0 340 -22q134 -33 210 -132t76 -238q0 -301 -293 -371q-100 -24 -374 -24h-105v-684h-147v1471zM325 1328v-500l249 -3q253 -3 331 117q40 61 40 137q0 73 -39.5 134.5t-105.5 88t-215 26.5h-260z" />
    <glyph glyph-name="Q" unicode="Q" horiz-adv-x="1784" 
d="M1413 160l218 -276h-181l-150 190q-180 -111 -406 -111q-325 0 -551 221t-226 545q0 210 101 390q102 184 283 287q177 102 389 102q329 0 552.5 -222.5t223.5 -550.5q0 -336 -253 -575zM1322 275q192 187 192 461q0 364 -311 543q-148 85 -312 85q-166 0 -311.5 -84.5
t-227.5 -229t-82 -321.5q0 -261 179 -442t439 -181q175 0 320 85l-328 416h179z" />
    <glyph glyph-name="R" unicode="R" horiz-adv-x="1243" 
d="M187 1471h293q245 0 332 -20q136 -31 215.5 -131t79.5 -240q0 -252 -218 -348q-105 -47 -290 -48l529 -684h-182l-528 684h-84v-684h-147v1471zM334 1327v-500l253 -2q251 -2 328 118q39 61 39 137q0 73 -39 133.5t-105 87t-217 26.5h-259z" />
    <glyph glyph-name="S" unicode="S" horiz-adv-x="1020" 
d="M27 274l125 75q132 -243 305 -243q164 0 238 127q34 58 34 123q0 74 -50 145q-65 93 -242 225q-181 134 -239 212q-78 105 -78 225q0 204 176 300q83 45 181 45q210 0 386 -241l-120 -91q-67 88 -114 125q-70 55 -155 55t-142 -51q-60 -52 -60 -136q0 -99 93 -191
q27 -26 190 -147q150 -111 224 -200q109 -133 109 -272q0 -167 -126 -283q-122 -113 -291 -113q-274 0 -444 311z" />
    <glyph glyph-name="T" unicode="T" horiz-adv-x="872" 
d="M33 1328v143h807v-143h-328v-1328h-150v1328h-329z" />
    <glyph glyph-name="U" unicode="U" horiz-adv-x="1341" 
d="M184 1471h147v-888q0 -153 6 -197q23 -172 174 -243q83 -40 167 -40q156 0 252 117q45 55 66 133q15 56 15 230v888h147v-888q0 -188 -30 -292q-43 -145 -160.5 -236.5t-281.5 -91.5q-166 0 -292 76q-136 83 -183 234q-27 87 -27 310v888z" />
    <glyph glyph-name="V" unicode="V" horiz-adv-x="1438" 
d="M67 1471h160l487 -1137l496 1137h160l-640 -1471h-32z" />
    <glyph glyph-name="W" unicode="W" horiz-adv-x="1966" 
d="M96 1471h151l299 -1060l422 1060h30l417 -1060l305 1060h150l-422 -1471h-28l-436 1113l-445 -1113h-28z" />
    <glyph glyph-name="X" unicode="X" horiz-adv-x="1247" 
d="M101 1471h172l352 -574l355 574h170l-438 -713l467 -758h-172l-382 617l-384 -617h-172l469 758z" />
    <glyph glyph-name="Y" unicode="Y" horiz-adv-x="1212" 
d="M63 1471h170l376 -606l370 606h170l-466 -768v-703h-145v703z" />
    <glyph glyph-name="Z" unicode="Z" horiz-adv-x="983" 
d="M122 1329v142h776l-615 -1328h584v-143h-811l619 1329h-553z" />
    <glyph glyph-name="bracketleft" unicode="[" horiz-adv-x="719" 
d="M290 1508h336v-142h-196v-1627h196v-137h-336v1906z" />
    <glyph glyph-name="backslash" unicode="\" horiz-adv-x="1239" 
d="M220 1508l952 -1708h-153l-953 1708h154z" />
    <glyph glyph-name="bracketright" unicode="]" horiz-adv-x="719" 
d="M429 -398h-336v142h195v1627h-195v137h336v-1906z" />
    <glyph glyph-name="asciicircum" unicode="^" horiz-adv-x="1376" 
d="M629 1471h118l510 -1106h-133l-439 952l-436 -952h-129z" />
    <glyph glyph-name="underscore" unicode="_" horiz-adv-x="1024" 
d="M-12 -154h1048v-102h-1048v102z" />
    <glyph glyph-name="grave" unicode="`" horiz-adv-x="774" 
d="M326 1598l218 -308h-138l-295 308h215z" />
    <glyph glyph-name="a" unicode="a" horiz-adv-x="1399" 
d="M1240 1088v-1088h-138v187q-177 -215 -437 -215q-236 0 -398 170q-160 167 -160 405q0 235 163.5 402t398.5 167q269 0 433 -228v200h138zM680 981q-250 0 -373 -219q-59 -104 -59 -220t59 -220.5t158.5 -163t213.5 -58.5q115 0 218 58t158.5 157t55.5 223
q0 187 -122.5 315t-308.5 128z" />
    <glyph glyph-name="b" unicode="b" horiz-adv-x="1397" 
d="M165 0v1508h139v-607q175 215 436 215q236 0 397 -168.5t161 -405.5q0 -236 -163.5 -403t-398.5 -167q-266 0 -432 228v-200h-139zM725 107q250 0 374 219q58 104 58 220t-59 221t-158.5 163.5t-212.5 58.5q-115 0 -218.5 -58.5t-159 -157.5t-55.5 -223
q0 -187 122.5 -315t308.5 -128z" />
    <glyph glyph-name="c" unicode="c" horiz-adv-x="1325" 
d="M1212 862l-111 -69q-144 191 -393 191q-193 0 -326 -122q-136 -126 -136 -317q0 -120 61 -224.5t166 -162.5t236 -58q240 0 392 191l111 -73q-164 -246 -509 -246q-249 0 -421 156q-177 161 -177 407q0 159 79.5 294t218.5 211t311 76q222 0 379 -119q70 -53 119 -135z
" />
    <glyph glyph-name="d" unicode="d" horiz-adv-x="1403" 
d="M1242 1508v-1508h-138v187q-177 -215 -437 -215q-236 0 -398 170q-160 167 -160 405q0 235 163.5 402t398.5 167q269 0 433 -228v620h138zM682 981q-250 0 -373 -219q-59 -104 -59 -220t59 -220.5t158.5 -163t213.5 -58.5q115 0 218 58t158.5 157t55.5 223
q0 187 -122.5 315t-308.5 128z" />
    <glyph glyph-name="e" unicode="e" horiz-adv-x="1331" 
d="M1072 361l118 -62q-110 -215 -305 -290q-95 -37 -215 -37q-245 0 -405.5 162t-160.5 407q0 207 127 369q161 206 431 206q278 0 444 -211q118 -150 120 -372h-978q4 -183 114 -305q116 -128 296 -128q174 0 295 106q55 48 119 155zM1072 654q-52 207 -223 287
q-88 41 -185 41q-160 0 -275 -103q-84 -75 -127 -225h810z" />
    <glyph glyph-name="f" unicode="f" horiz-adv-x="643" 
d="M604 1508v-137q-77 33 -132 33q-84 0 -102 -54q-7 -22 -7 -115v-147h227v-120h-228v-968h-140v968h-143v120h143v170q0 95 13 140q20 71 82 108q51 30 124 30q68 0 163 -28z" />
    <glyph glyph-name="g" unicode="g" horiz-adv-x="1378" 
d="M1093 1088h141v-867q0 -227 -40 -335q-59 -159 -206 -240q-131 -72 -312 -72q-280 0 -433 145q-70 67 -129 195h152q122 -212 403 -212q285 0 382 188q42 81 42 261v56q-164 -207 -435 -207q-149 0 -281 73.5t-204.5 200.5t-72.5 278q0 152 75 282t207.5 206t279.5 76
q248 0 431 -217v189zM680 981q-119 0 -221 -57t-160 -159t-58 -220q0 -185 124 -300q121 -113 307 -113q192 0 310 115t118 306q0 255 -207 372q-99 56 -213 56z" />
    <glyph glyph-name="h" unicode="h" horiz-adv-x="1249" 
d="M156 1508h140v-615q169 223 408 223q119 0 214.5 -60.5t141 -166.5t45.5 -329v-560h-140v519q0 188 -15 251q-52 217 -274 217q-127 0 -227.5 -83.5t-132.5 -208.5q-20 -78 -20 -296v-399h-140v1508z" />
    <glyph glyph-name="i" unicode="i" horiz-adv-x="410" 
d="M205 1536q48 0 82 -34t34 -82t-34 -81.5t-82 -33.5q-47 0 -81 34t-34 81q0 48 33.5 82t81.5 34zM135 1088h141v-1088h-141v1088z" />
    <glyph glyph-name="j" unicode="j" horiz-adv-x="416" 
d="M208 1536q48 0 81.5 -34t33.5 -82t-33.5 -81.5t-81.5 -33.5t-81.5 33.5t-33.5 81.5t33.5 82t81.5 34zM139 1088h142v-1252q0 -262 -185 -262q-71 0 -160 34v126q56 -29 101 -29q58 0 85 47q17 29 17 125v1211z" />
    <glyph glyph-name="k" unicode="k" horiz-adv-x="1028" 
d="M155 1508h141v-858l503 438h206l-597 -519l632 -569h-198l-546 489v-489h-141v1508z" />
    <glyph glyph-name="l" unicode="l" horiz-adv-x="410" 
d="M135 1508h140v-1508h-140v1508z" />
    <glyph glyph-name="m" unicode="m" horiz-adv-x="1921" 
d="M155 1088h139v-188q152 216 373 216q167 0 266 -113q45 -52 78 -148q143 261 401 261q239 0 328 -216q42 -102 42 -306v-594h-143v594q0 137 -12 191q-22 104 -98 155q-61 40 -145 40q-104 0 -188 -60.5t-122.5 -160t-38.5 -333.5v-426h-139v557q0 153 -10 208
q-21 118 -100 173q-61 42 -145 42q-101 0 -186 -61q-81 -59 -120 -155q-41 -99 -41 -303v-461h-139v1088z" />
    <glyph glyph-name="n" unicode="n" horiz-adv-x="1249" 
d="M156 1088h140v-195q167 223 408 223q119 0 214.5 -60.5t141 -167t45.5 -328.5v-560h-139v519q0 184 -16 251q-52 217 -274 217q-127 0 -227.5 -83.5t-132.5 -208.5q-20 -79 -20 -296v-399h-140v1088z" />
    <glyph glyph-name="o" unicode="o" horiz-adv-x="1341" 
d="M671 1116q251 0 416 -182q150 -166 150 -393q0 -240 -163 -404.5t-403 -164.5t-403.5 164t-163.5 405q0 226 150 392q165 183 417 183zM671 979q-179 0 -301.5 -130.5t-122.5 -310.5q0 -116 55 -217q57 -104 155 -160t214 -56q248 0 367 213q57 102 57 220
q0 180 -122.5 310.5t-301.5 130.5z" />
    <glyph glyph-name="p" unicode="p" horiz-adv-x="1397" 
d="M158 1088h139v-200q166 228 432 228q235 0 398.5 -167t163.5 -402q0 -238 -160 -405q-162 -170 -398 -170q-259 0 -436 215v-585h-139v1486zM718 981q-186 0 -308.5 -128t-122.5 -315q0 -260 215 -380q103 -58 218 -58q116 0 216 60q97 59 155.5 163t58.5 219
q0 116 -58 220t-157.5 161.5t-216.5 57.5z" />
    <glyph glyph-name="q" unicode="q" horiz-adv-x="1397" 
d="M1239 1088v-1486h-138v585q-177 -215 -437 -215q-236 0 -398 170q-160 167 -160 405q0 235 163.5 402t398.5 167q269 0 433 -228v200h138zM679 981q-250 0 -373 -219q-59 -104 -59 -220t59 -220.5t158.5 -163t213.5 -58.5q115 0 218 58t158.5 157t55.5 223
q0 187 -122.5 315t-308.5 128z" />
    <glyph glyph-name="r" unicode="r" horiz-adv-x="616" 
d="M103 1088h143v-159q127 187 283 187q58 0 124 -37l-73 -118q-44 19 -74 19q-168 0 -234 -236q-26 -93 -26 -376v-368h-143v1088z" />
    <glyph glyph-name="s" unicode="s" horiz-adv-x="795" 
d="M703 969l-90 -93q-112 109 -219 109q-65 0 -115 -43t-50 -107q0 -108 208 -216q128 -66 186 -126q81 -84 81 -201q0 -138 -95 -229t-234 -91q-201 0 -321 154l88 100q107 -121 227 -121q79 0 140.5 51.5t61.5 129.5q0 79 -73 139q-36 30 -142 84q-121 62 -177 123
q-76 82 -76 196q0 127 85.5 207.5t212.5 80.5q150 0 302 -147z" />
    <glyph glyph-name="t" unicode="t" horiz-adv-x="694" 
d="M278 1492h141v-404h222v-120h-222v-968h-141v968h-191v120h191v404z" />
    <glyph glyph-name="u" unicode="u" horiz-adv-x="1245" 
d="M138 1088h141v-508q0 -188 20 -256q31 -104 120 -162q84 -54 196 -54q109 0 191 51q87 55 120 154q21 63 21 267v508h143v-534q0 -184 -35 -292q-48 -147 -175 -225q-106 -65 -265 -65q-313 0 -424 245q-53 115 -53 347v524z" />
    <glyph glyph-name="v" unicode="v" 
d="M53 1088h149l364 -792l361 792h150l-498 -1088h-25z" />
    <glyph glyph-name="w" unicode="w" horiz-adv-x="1702" 
d="M9 1088h144l333 -790l349 790h25l348 -790l339 790h146l-472 -1088h-27l-346 779l-349 -779h-26z" />
    <glyph glyph-name="x" unicode="x" horiz-adv-x="983" 
d="M32 1088h168l288 -403l288 403h168l-372 -517l419 -571h-170l-333 457l-328 -457h-167l412 571z" />
    <glyph glyph-name="y" unicode="y" horiz-adv-x="1098" 
d="M39 1088h148l374 -838l363 838h149l-649 -1486h-148l210 480z" />
    <glyph glyph-name="z" unicode="z" horiz-adv-x="870" 
d="M67 1088h799l-616 -964h596v-124h-837l616 965h-558v123z" />
    <glyph glyph-name="braceleft" unicode="{" horiz-adv-x="719" 
d="M75 591q124 4 174 104q25 52 30 144l2 228q2 145 23 219q38 136 169 174q38 11 125 11h56v-157h-31q-111 0 -145 -48q-27 -39 -27 -158q0 -232 -7 -297q-13 -117 -55 -182q-45 -70 -147 -119q132 -56 178 -186q31 -88 31 -265q0 -191 4 -227q10 -92 70 -115
q30 -11 129 -11v-157h-56q-100 0 -146 17q-136 51 -160 229q-7 56 -7 252q0 164 -23 243q-41 134 -187 138v163z" />
    <glyph glyph-name="bar" unicode="|" horiz-adv-x="1376" 
d="M616 1508h143v-1906h-143v1906z" />
    <glyph glyph-name="braceright" unicode="}" horiz-adv-x="719" 
d="M644 591v-163q-123 -2 -173 -103q-26 -52 -31 -144l-2 -228q-2 -146 -23 -220q-39 -137 -169 -173q-39 -11 -125 -11h-56v157h31q111 0 145 48q27 38 27 157q0 236 8 304q26 219 201 295q-134 64 -178 185q-31 84 -31 265q0 219 -9 259q-14 61 -58 81q-31 14 -105 14h-31
v157h56q98 0 146 -18q136 -51 160 -228q8 -57 7 -252q0 -164 24 -243q40 -135 186 -139z" />
    <glyph glyph-name="asciitilde" unicode="~" horiz-adv-x="1241" 
d="M1128 837v-162q-171 -96 -252 -96q-95 0 -265 77q-183 83 -237 83q-86 0 -262 -105v160q170 96 254 96q97 0 268 -81q175 -83 240 -83q58 0 133 39q21 10 121 72z" />
    <glyph glyph-name="nonbreakingspace" unicode="&#xa0;" horiz-adv-x="573" 
 />
    <glyph glyph-name="exclamdown" unicode="&#xa1;" horiz-adv-x="604" 
d="M302 1110q52 0 87.5 -36t35.5 -88t-35.5 -88t-87.5 -36t-87.5 36t-35.5 88q0 51 36 87.5t87 36.5zM231 -426v1140h145v-1140h-145z" />
    <glyph glyph-name="cent" unicode="&#xa2;" 
d="M961 1340l121 -60l-132 -257q72 -46 116 -94l-85 -105q-46 44 -95 76l-394 -766q75 -32 144 -32q146 0 306 128l91 -106q-172 -152 -396 -152q-96 0 -208 37l-152 -295l-117 64l151 301q-208 187 -208 456q0 244 148 410q154 171 396 171q90 0 181 -33zM765 961
q-64 21 -121 21q-183 0 -295 -130q-105 -123 -105 -309q0 -213 133 -334z" />
    <glyph glyph-name="sterling" unicode="&#xa3;" 
d="M99 844h254q-53 187 -60 227q-11 60 -11 108q0 143 111 238q105 91 250 91q194 0 289 -165q46 -81 57 -218h-136q-8 249 -206 249q-98 0 -159 -53q-66 -56 -66 -152q0 -88 29 -163l7 -18l45 -144h320v-129h-286q37 -126 37 -264q0 -107 -22 -188q63 -52 166 -115
q59 -36 110 -36q95 0 106 232h141q1 -95 -25 -186q-32 -112 -93 -157q-50 -38 -112 -38q-67 0 -145 35q-108 48 -197 125q-83 -160 -237 -160q-93 0 -149 47q-60 50 -60 141q0 94 64.5 163t157.5 69q67 0 144 -39q7 67 7 106q0 141 -45 265h-286v129zM385 207
q-68 41 -114 41q-77 0 -77 -77q0 -75 67 -75q75 0 124 111z" />
    <glyph glyph-name="currency" unicode="&#xa4;" 
d="M42 192l116 114q-108 145 -108 308q0 88 28 171q21 64 83 140l-120 117l90 91l120 -119q144 112 321 112q164 0 312 -106l117 113l88 -91l-116 -112q115 -142 115 -315q0 -167 -109 -309l116 -114l-89 -90l-116 115q-147 -115 -321 -115q-171 0 -321 115l-117 -115z
M193 612q0 -155 110 -263.5t266 -108.5q157 0 266.5 109t109.5 266t-109 265.5t-266 108.5t-267 -110t-110 -267z" />
    <glyph glyph-name="yen" unicode="&#xa5;" 
d="M906 1471h166l-417 -735h356v-117h-374v-155h374v-117h-374v-347h-144v347h-370v117h370v155h-370v117h353l-414 735h167l337 -602z" />
    <glyph glyph-name="brokenbar" unicode="&#xa6;" horiz-adv-x="1376" 
d="M616 686v822h143v-767zM616 -398v957l143 54v-1011h-143z" />
    <glyph glyph-name="section" unicode="&#xa7;" horiz-adv-x="1259" 
d="M964 1194h-147q-24 201 -231 201q-92 0 -155 -43q-72 -49 -72 -137q0 -93 102 -179q56 -48 198 -133q130 -78 175 -111q99 -75 136 -153q29 -61 29 -119q0 -113 -89 -197q-80 -77 -197 -99q218 -136 218 -336q0 -146 -114 -234q-105 -80 -255 -80q-146 0 -256 72
q-120 79 -144 216h148q23 -64 67 -99q72 -58 176 -58q91 0 156 44q74 50 74 137q0 93 -101 185q-46 41 -179 126q-179 115 -210 138q-163 124 -163 281q0 134 119 230q56 45 141 70q-178 128 -178 303q0 152 113 239q102 78 259 78q343 0 380 -342zM507 839
q-98 -15 -159 -65q-72 -59 -72 -151q0 -73 53 -133q70 -79 267 -184q102 13 172 63q85 60 85 154q0 62 -47 114q-21 23 -285 193z" />
    <glyph glyph-name="dieresis" unicode="&#xa8;" horiz-adv-x="756" 
d="M174 1518q48 0 82 -34t34 -82t-34 -82t-82 -34t-82 34t-34 82t34 82t82 34zM582 1518q48 0 82 -34t34 -82t-34 -82t-82 -34t-82 34t-34 82t34 82t82 34z" />
    <glyph glyph-name="copyright" unicode="&#xa9;" horiz-adv-x="1530" 
d="M1551 757q0 -211 -104.5 -392t-287.5 -286.5t-393 -105.5q-211 0 -393.5 105t-287.5 287t-105 392q0 211 105 392t287.5 286t393.5 105t393 -104.5t287 -286.5t105 -392zM1442 757q0 182 -90 338.5t-247.5 247.5t-339.5 91t-338.5 -91t-247 -248t-90.5 -338
q0 -182 90.5 -339t248 -247.5t338.5 -90.5q182 0 338.5 90.5t247 247.5t90.5 339zM1150 924h-136q-42 178 -235 178q-144 0 -218 -107q-63 -93 -63 -244q0 -145 60 -236q70 -108 207 -108q213 0 249 246h136q-18 -159 -119 -256q-104 -102 -261 -102q-200 0 -311 131
q-104 123 -104 327q0 205 103 336q113 142 313 142q156 0 257 -75q109 -82 122 -232z" />
    <glyph glyph-name="ordfeminine" unicode="&#xaa;" horiz-adv-x="756" 
d="M664 1491v-681h-114v94q-84 -110 -207 -110q-130 0 -213 118q-73 105 -73 240t75 239q83 117 213 117q123 0 205 -116v99h114zM365 1399q-89 0 -144 -83q-48 -72 -48 -166q0 -93 48 -167q54 -85 143 -85q91 0 145 82q47 72 47 168q0 95 -47 167q-54 84 -144 84z" />
    <glyph glyph-name="guillemotleft" unicode="&#xab;" horiz-adv-x="870" 
d="M391 1088l-223 -546l223 -542h-148l-222 542l222 546h148zM849 1088l-224 -546l224 -542h-148l-222 542l222 546h148z" />
    <glyph glyph-name="logicalnot" unicode="&#xac;" horiz-adv-x="1241" 
d="M1127 1024v-577h-137l-1 440h-874v137h1012z" />
    <glyph glyph-name="registered" unicode="&#xae;" horiz-adv-x="1530" 
d="M1551 760q0 -212 -104.5 -393.5t-288 -287.5t-392.5 -106q-210 0 -392.5 105.5t-288 287.5t-105.5 390q0 211 105.5 394.5t288 288.5t392.5 105q212 0 392.5 -104.5t286.5 -288.5t106 -391zM1442 759q0 181 -91 339t-247 249t-336 91q-182 0 -340 -91t-248.5 -249.5
t-90.5 -340.5q0 -183 91 -339t249.5 -247t338.5 -91t336.5 91.5t247 248t90.5 339.5zM439 1217h377q108 0 161 -16q79 -25 124 -97q36 -60 36 -140q0 -70 -26 -119q-19 -37 -87 -81q67 -33 87 -82q16 -37 16 -123v-102q0 -69 32 -120l15 -24h-160q-16 62 -21 133l-7 111
q-6 100 -63 122q-29 11 -114 11h-227v-377h-143v904zM582 1087v-268h222q100 0 137 23q53 33 53 112q0 81 -53 111q-39 22 -128 22h-231z" />
    <glyph glyph-name="ch248" unicode="&#xaf;" horiz-adv-x="993" 
d="M152 1479h690v-119h-690v119z" />
    <glyph glyph-name="ch248" unicode="&#x2c9;" horiz-adv-x="993" 
d="M152 1479h690v-119h-690v119z" />
    <glyph glyph-name="degree" unicode="&#xb0;" horiz-adv-x="819" 
d="M755 1164q0 -145 -100.5 -244.5t-245.5 -99.5q-146 0 -245 100t-99 247q0 142 102 241.5t245 99.5q144 0 243.5 -100t99.5 -244zM636 1162q0 99 -63 169.5t-160 70.5t-163 -70.5t-66 -167.5q0 -95 66.5 -166.5t161.5 -71.5t159.5 70t64.5 166z" />
    <glyph glyph-name="plusminus" unicode="&#xb1;" horiz-adv-x="1124" 
d="M493 913v434h137v-434h438v-137h-438v-434h-137v434h-437v137h437zM1068 161v-137h-1012v137h1012z" />
    <glyph glyph-name="twosuperior" unicode="&#xb2;" horiz-adv-x="680" 
d="M155 1234h-106q2 125 90 201q85 73 212 73q111 0 191 -59q89 -66 89 -173q0 -76 -58 -153q-33 -42 -118 -119l-190 -172h377v-99h-636l358 325q80 73 100 95q58 67 58 121q0 63 -58 102q-52 34 -117 34q-177 0 -192 -176z" />
    <glyph glyph-name="threesuperior" unicode="&#xb3;" horiz-adv-x="705" 
d="M184 1293h-112q55 215 270 215q100 0 176 -50q87 -58 87 -153q0 -87 -91 -146q138 -66 138 -194q0 -116 -98 -187q-88 -63 -209 -63q-254 0 -301 241h109q39 -142 192 -142q74 0 131 34q66 41 66 111q0 136 -254 145v94q71 0 125 20q77 28 77 88q0 50 -52 79
q-43 24 -96 24q-105 0 -158 -116z" />
    <glyph glyph-name="acute" unicode="&#xb4;" horiz-adv-x="768" 
d="M452 1598h215l-295 -308h-138z" />
    <glyph glyph-name="mu1" unicode="&#xb5;" horiz-adv-x="1180" 
d="M147 -398v1486h141v-600q0 -117 24 -181q32 -82 118 -134q75 -46 162 -46q183 0 264 164q37 76 37 210v587h140v-1088h-140v118q-114 -143 -302 -143q-189 0 -303 140v-513h-141z" />
    <glyph glyph-name="mu1" unicode="&#x3bc;" horiz-adv-x="1180" 
d="M147 -398v1486h141v-600q0 -117 24 -181q32 -82 118 -134q75 -46 162 -46q183 0 264 164q37 76 37 210v587h140v-1088h-140v118q-114 -143 -302 -143q-189 0 -303 140v-513h-141z" />
    <glyph glyph-name="paragraph" unicode="&#xb6;" horiz-adv-x="1155" 
d="M483 -231v937q-75 0 -111 8q-135 29 -209 144q-69 104 -69 247q0 189 116 308q97 100 299 100h513v-75h-84v-1669h-119v1669h-217v-1669h-119z" />
    <glyph glyph-name="ch225" unicode="&#xb7;" horiz-adv-x="567" 
d="M284 859q52 0 87.5 -36t35.5 -88q0 -51 -36 -87.5t-87 -36.5t-87 36.5t-36 87.5q0 52 35.5 88t87.5 36z" />
    <glyph glyph-name="ch225" unicode="&#x2219;" horiz-adv-x="567" 
d="M284 859q52 0 87.5 -36t35.5 -88q0 -51 -36 -87.5t-87 -36.5t-87 36.5t-36 87.5q0 52 35.5 88t87.5 36z" />
    <glyph glyph-name="cedilla" unicode="&#xb8;" horiz-adv-x="664" 
d="M311 0h88l-17 -118q23 3 38 3q48 0 81.5 -30t33.5 -77q0 -81 -78 -124q-63 -34 -151 -34q-89 0 -167 30l22 69q64 -20 120 -20q135 0 135 65q0 43 -62 43q-24 0 -70 -9z" />
    <glyph glyph-name="onesuperior" unicode="&#xb9;" horiz-adv-x="680" 
d="M224 1489h187v-756h-110v658h-150z" />
    <glyph glyph-name="ordmasculine" unicode="&#xba;" horiz-adv-x="756" 
d="M377 1508q142 0 235 -110q88 -104 88 -249t-88 -247q-93 -108 -235 -108t-234 108q-88 103 -88 247q0 145 87 249q93 110 235 110zM377 1398q-92 0 -151 -82q-54 -74 -54 -169q0 -97 53 -168q58 -78 152 -78t153 78q53 71 53 168q0 95 -54 169q-60 82 -152 82z" />
    <glyph glyph-name="guillemotright" unicode="&#xbb;" horiz-adv-x="870" 
d="M479 0l223 545l-223 543h147l223 -543l-223 -545h-147zM21 0l223 545l-223 543h148l222 -543l-222 -545h-148z" />
    <glyph glyph-name="onequarter" unicode="&#xbc;" horiz-adv-x="1702" 
d="M188 1489h187v-756h-110v658h-150zM388 -37l923 1545h112l-925 -1545h-110zM1554 786v-528h105v-97h-105v-170h-111v170h-432zM1443 258v248l-214 -248h214z" />
    <glyph glyph-name="onehalf" unicode="&#xbd;" horiz-adv-x="1702" 
d="M177 1489h187v-756h-110v658h-150zM277 -37l923 1545h112l-925 -1545h-110zM1088 492h-106q2 125 90 201q85 73 212 73q111 0 191 -59q89 -66 89 -173q0 -76 -58 -153q-33 -42 -118 -119l-190 -172h377v-99h-636l358 325q80 73 100 95q58 67 58 121q0 63 -58 102
q-52 34 -117 34q-177 0 -192 -176z" />
    <glyph glyph-name="threequarters" unicode="&#xbe;" horiz-adv-x="1702" 
d="M209 1293h-112q55 215 270 215q100 0 176 -50q87 -58 87 -153q0 -87 -91 -146q138 -66 138 -194q0 -116 -98 -187q-88 -63 -209 -63q-254 0 -301 241h109q39 -142 192 -142q74 0 131 34q66 41 66 111q0 136 -254 145v94q71 0 125 20q77 28 77 88q0 50 -52 79
q-43 24 -96 24q-105 0 -158 -116zM431 -37l923 1545h112l-925 -1545h-110zM1547 786v-528h105v-97h-105v-170h-111v170h-432zM1436 258v248l-214 -248h214z" />
    <glyph glyph-name="questiondown" unicode="&#xbf;" horiz-adv-x="1210" 
d="M604 1110q52 0 87.5 -36t35.5 -88t-35.5 -88t-87.5 -36t-87.5 36t-35.5 88q0 51 36 87.5t87 36.5zM896 11h145q-2 -201 -119.5 -319t-318.5 -118q-173 0 -289 84q-131 94 -131 261q0 141 124 237q60 46 216 108q147 58 172 72q106 60 106 138q0 70 -69 113
q-60 37 -134 37q-194 0 -217 -212h-146q7 166 102.5 259.5t260.5 93.5q144 0 243 -72q111 -81 111 -220q0 -128 -101 -203q-50 -37 -183 -91q-192 -79 -210 -89q-127 -71 -127 -168q0 -101 88 -158q76 -50 182 -50q151 0 234 99q58 69 61 198z" />
    <glyph glyph-name="Agrave" unicode="&#xc0;" horiz-adv-x="1515" 
d="M780 1471l686 -1471h-158l-231 484h-634l-230 -484h-164l695 1471h36zM762 1159l-253 -533h503zM697 1895l218 -308h-138l-295 308h215z" />
    <glyph glyph-name="Aacute" unicode="&#xc1;" horiz-adv-x="1515" 
d="M780 1471l686 -1471h-158l-231 484h-634l-230 -484h-164l695 1471h36zM762 1159l-253 -533h503zM825 1895h215l-295 -308h-138z" />
    <glyph glyph-name="Acircumflex" unicode="&#xc2;" horiz-adv-x="1515" 
d="M780 1471l686 -1471h-158l-231 484h-634l-230 -484h-164l695 1471h36zM762 1159l-253 -533h503zM691 1840h139l290 -257h-180l-176 152l-184 -152h-186z" />
    <glyph glyph-name="Atilde" unicode="&#xc3;" horiz-adv-x="1515" 
d="M780 1471l686 -1471h-158l-231 484h-634l-230 -484h-164l695 1471h36zM762 1159l-253 -533h503zM1054 1789l70 -97q-122 -88 -226 -88q-72 0 -148 37q-65 32 -83 37q-25 7 -52 7q-64 0 -158 -69l-66 102q91 97 225 97q56 0 149.5 -39.5t137.5 -39.5q55 0 151 53z" />
    <glyph glyph-name="Adieresis" unicode="&#xc4;" horiz-adv-x="1515" 
d="M780 1471l686 -1471h-158l-231 484h-634l-230 -484h-164l695 1471h36zM762 1159l-253 -533h503zM554 1816q48 0 82 -34t34 -82t-34 -82t-82 -34t-82 34t-34 82t34 82t82 34zM962 1816q48 0 82 -34t34 -82t-34 -82t-82 -34t-82 34t-34 82t34 82t82 34z" />
    <glyph glyph-name="Aring" unicode="&#xc5;" horiz-adv-x="1515" 
d="M780 1471l686 -1471h-158l-231 484h-634l-230 -484h-164l695 1471h36zM762 1159l-253 -533h503zM757 1989q89 0 151 -62.5t62 -151.5t-62 -151t-151 -62t-151 62t-62 151t62 151.5t151 62.5zM756 1888q-46 0 -78 -32t-32 -78t32 -78t78 -32q45 0 77 32.5t32 77.5
t-32 77.5t-77 32.5z" />
    <glyph glyph-name="AE" unicode="&#xc6;" horiz-adv-x="2032" 
d="M1 0l950 1471h910v-151h-693v-452h693v-145h-693v-579h693v-144h-842v482h-535l-312 -482h-171zM578 620h441v681z" />
    <glyph glyph-name="Ccedilla" unicode="&#xc7;" horiz-adv-x="1665" 
d="M1549 1198l-116 -89q-195 254 -526 254q-172 0 -321 -82q-153 -83 -236.5 -227.5t-83.5 -322.5q0 -276 188 -454q185 -175 462 -175q309 0 517 242l116 -88q-230 -293 -642 -293q-387 0 -609 257q-187 216 -187 524q0 333 232 551q227 213 562 213q420 0 644 -310zM811 0
h88l-17 -118q23 3 38 3q48 0 81.5 -30t33.5 -77q0 -81 -78 -124q-63 -34 -151 -34q-89 0 -167 30l22 69q64 -20 120 -20q135 0 135 65q0 43 -62 43q-24 0 -70 -9z" />
    <glyph glyph-name="Egrave" unicode="&#xc8;" horiz-adv-x="1098" 
d="M180 1471h843v-145h-696v-460h690v-144h-690v-577h690v-145h-837v1471zM549 1895l218 -308h-138l-295 308h215z" />
    <glyph glyph-name="Eacute" unicode="&#xc9;" horiz-adv-x="1098" 
d="M180 1471h843v-145h-696v-460h690v-144h-690v-577h690v-145h-837v1471zM677 1895h215l-295 -308h-138z" />
    <glyph glyph-name="Ecircumflex" unicode="&#xca;" horiz-adv-x="1098" 
d="M180 1471h843v-145h-696v-460h690v-144h-690v-577h690v-145h-837v1471zM543 1840h139l290 -257h-180l-176 152l-184 -152h-186z" />
    <glyph glyph-name="Edieresis" unicode="&#xcb;" horiz-adv-x="1098" 
d="M180 1471h843v-145h-696v-460h690v-144h-690v-577h690v-145h-837v1471zM406 1816q48 0 82 -34t34 -82t-34 -82t-82 -34t-82 34t-34 82t34 82t82 34zM814 1816q48 0 82 -34t34 -82t-34 -82t-82 -34t-82 34t-34 82t34 82t82 34z" />
    <glyph glyph-name="Igrave" unicode="&#xcc;" horiz-adv-x="463" 
d="M158 1471h147v-1471h-147v1471zM171 1895l218 -308h-138l-295 308h215z" />
    <glyph glyph-name="Iacute" unicode="&#xcd;" horiz-adv-x="463" 
d="M158 1471h147v-1471h-147v1471zM299 1895h215l-295 -308h-138z" />
    <glyph glyph-name="Icircumflex" unicode="&#xce;" horiz-adv-x="463" 
d="M158 1471h147v-1471h-147v1471zM165 1840h139l290 -257h-180l-176 152l-184 -152h-186z" />
    <glyph glyph-name="Idieresis" unicode="&#xcf;" horiz-adv-x="463" 
d="M158 1471h147v-1471h-147v1471zM28 1816q48 0 82 -34t34 -82t-34 -82t-82 -34t-82 34t-34 82t34 82t82 34zM436 1816q48 0 82 -34t34 -82t-34 -82t-82 -34t-82 34t-34 82t34 82t82 34z" />
    <glyph glyph-name="Eth" unicode="&#xd0;" horiz-adv-x="1786" 
d="M1598 1224l-114 -108q-250 246 -555 246q-173 0 -327 -84q-159 -85 -245 -231t-86 -308q0 -172 91 -319.5t244 -230.5q157 -86 344 -86q219 0 376 121q164 126 194 339h-469v142h634q-2 -340 -201 -541t-538 -201q-408 0 -646 278q-183 214 -183 495q0 210 105 389.5
t288 281t414 101.5q375 0 674 -284zM1224 1829l70 -97q-122 -88 -226 -88q-72 0 -148 37q-65 32 -83 37q-25 7 -52 7q-64 0 -158 -69l-66 102q91 97 225 97q56 0 149.5 -39.5t137.5 -39.5q55 0 151 53z" />
    <glyph glyph-name="Ntilde" unicode="&#xd1;" horiz-adv-x="1515" 
d="M180 0v1471h32l978 -1126v1126h145v-1471h-33l-970 1112v-1112h-152zM1054 1789l70 -97q-122 -88 -226 -88q-72 0 -148 37q-65 32 -83 37q-25 7 -52 7q-64 0 -158 -69l-66 102q91 97 225 97q56 0 149.5 -39.5t137.5 -39.5q55 0 151 53z" />
    <glyph glyph-name="Ograve" unicode="&#xd2;" horiz-adv-x="1780" 
d="M880 1508q332 0 557 -219q227 -222 227 -553q0 -325 -223.5 -549t-548.5 -224t-551 221t-226 545q0 210 101 391t281 286q177 102 383 102zM887 1364q-165 0 -310 -85t-227 -229t-82 -321q0 -261 179 -442t440 -181q170 0 315.5 82t227.5 227t82 321q0 364 -311 543
q-148 85 -314 85zM829 1895l218 -308h-138l-295 308h215z" />
    <glyph glyph-name="Oacute" unicode="&#xd3;" horiz-adv-x="1780" 
d="M880 1508q332 0 557 -219q227 -222 227 -553q0 -325 -223.5 -549t-548.5 -224t-551 221t-226 545q0 210 101 391t281 286q177 102 383 102zM887 1364q-165 0 -310 -85t-227 -229t-82 -321q0 -261 179 -442t440 -181q170 0 315.5 82t227.5 227t82 321q0 364 -311 543
q-148 85 -314 85zM958 1895h215l-295 -308h-138z" />
    <glyph glyph-name="Ocircumflex" unicode="&#xd4;" horiz-adv-x="1780" 
d="M880 1508q332 0 557 -219q227 -222 227 -553q0 -325 -223.5 -549t-548.5 -224t-551 221t-226 545q0 210 101 391t281 286q177 102 383 102zM887 1364q-165 0 -310 -85t-227 -229t-82 -321q0 -261 179 -442t440 -181q170 0 315.5 82t227.5 227t82 321q0 364 -311 543
q-148 85 -314 85zM824 1840h139l290 -257h-180l-176 152l-184 -152h-186z" />
    <glyph glyph-name="Otilde" unicode="&#xd5;" horiz-adv-x="1780" 
d="M880 1508q332 0 557 -219q227 -222 227 -553q0 -325 -223.5 -549t-548.5 -224t-551 221t-226 545q0 210 101 391t281 286q177 102 383 102zM887 1364q-165 0 -310 -85t-227 -229t-82 -321q0 -261 179 -442t440 -181q170 0 315.5 82t227.5 227t82 321q0 364 -311 543
q-148 85 -314 85zM1186 1789l70 -97q-122 -88 -226 -88q-72 0 -148 37q-65 32 -83 37q-25 7 -52 7q-64 0 -158 -69l-66 102q91 97 225 97q56 0 149.5 -39.5t137.5 -39.5q55 0 151 53z" />
    <glyph glyph-name="Odieresis" unicode="&#xd6;" horiz-adv-x="1780" 
d="M880 1508q332 0 557 -219q227 -222 227 -553q0 -325 -223.5 -549t-548.5 -224t-551 221t-226 545q0 210 101 391t281 286q177 102 383 102zM887 1364q-165 0 -310 -85t-227 -229t-82 -321q0 -261 179 -442t440 -181q170 0 315.5 82t227.5 227t82 321q0 364 -311 543
q-148 85 -314 85zM686 1816q48 0 82 -34t34 -82t-34 -82t-82 -34t-82 34t-34 82t34 82t82 34zM1094 1816q48 0 82 -34t34 -82t-34 -82t-82 -34t-82 34t-34 82t34 82t82 34z" />
    <glyph glyph-name="multiply" unicode="&#xd7;" horiz-adv-x="1241" 
d="M712 735l332 -331l-92 -92l-331 331l-332 -331l-92 92l331 331l-331 332l92 92l332 -332l331 332l92 -92z" />
    <glyph glyph-name="Oslash" unicode="&#xd8;" horiz-adv-x="1778" 
d="M1454 1269q209 -213 209 -533q0 -325 -223.5 -549t-548.5 -224q-245 0 -437 128l-164 -194l-107 87l165 194q-234 227 -234 551q0 210 102 392t281 284.5t392 102.5q257 0 467 -148l144 174l105 -87zM444 291l811 954q-169 119 -369 119q-165 0 -310 -85t-227 -229
t-82 -322q0 -255 177 -437zM1356 1153l-805 -949q152 -98 335 -98q170 0 315.5 82t227.5 227t82 321q0 244 -155 417z" />
    <glyph glyph-name="Ugrave" unicode="&#xd9;" horiz-adv-x="1341" 
d="M184 1471h147v-888q0 -153 6 -197q23 -172 174 -243q83 -40 167 -40q156 0 252 117q45 55 66 133q15 56 15 230v888h147v-888q0 -188 -30 -292q-43 -145 -160.5 -236.5t-281.5 -91.5q-166 0 -292 76q-136 83 -183 234q-27 87 -27 310v888zM610 1895l218 -308h-138
l-295 308h215z" />
    <glyph glyph-name="Uacute" unicode="&#xda;" horiz-adv-x="1341" 
d="M184 1471h147v-888q0 -153 6 -197q23 -172 174 -243q83 -40 167 -40q156 0 252 117q45 55 66 133q15 56 15 230v888h147v-888q0 -188 -30 -292q-43 -145 -160.5 -236.5t-281.5 -91.5q-166 0 -292 76q-136 83 -183 234q-27 87 -27 310v888zM739 1895h215l-295 -308h-138z
" />
    <glyph glyph-name="Ucircumflex" unicode="&#xdb;" horiz-adv-x="1341" 
d="M184 1471h147v-888q0 -153 6 -197q23 -172 174 -243q83 -40 167 -40q156 0 252 117q45 55 66 133q15 56 15 230v888h147v-888q0 -188 -30 -292q-43 -145 -160.5 -236.5t-281.5 -91.5q-166 0 -292 76q-136 83 -183 234q-27 87 -27 310v888zM605 1840h139l290 -257h-180
l-176 152l-184 -152h-186z" />
    <glyph glyph-name="Udieresis" unicode="&#xdc;" horiz-adv-x="1341" 
d="M184 1471h147v-888q0 -153 6 -197q23 -172 174 -243q83 -40 167 -40q156 0 252 117q45 55 66 133q15 56 15 230v888h147v-888q0 -188 -30 -292q-43 -145 -160.5 -236.5t-281.5 -91.5q-166 0 -292 76q-136 83 -183 234q-27 87 -27 310v888zM467 1816q48 0 82 -34t34 -82
t-34 -82t-82 -34t-82 34t-34 82t34 82t82 34zM875 1816q48 0 82 -34t34 -82t-34 -82t-82 -34t-82 34t-34 82t34 82t82 34z" />
    <glyph glyph-name="Yacute" unicode="&#xdd;" horiz-adv-x="463" 
d="M158 1471h147v-1471h-147v1471zM235 1826q48 0 82 -34t34 -82t-34 -81.5t-82 -33.5q-47 0 -81 34t-34 81q0 48 33.5 82t81.5 34z" />
    <glyph glyph-name="Thorn" unicode="&#xde;" horiz-adv-x="1020" 
d="M27 274l125 75q132 -243 305 -243q164 0 238 127q34 58 34 123q0 74 -50 145q-65 93 -242 225q-181 134 -239 212q-78 105 -78 225q0 204 176 300q83 45 181 45q210 0 386 -241l-120 -91q-67 88 -114 125q-70 55 -155 55t-142 -51q-60 -52 -60 -136q0 -99 93 -191
q27 -26 190 -147q150 -111 224 -200q109 -133 109 -272q0 -167 -126 -283q-122 -113 -291 -113q-274 0 -444 311zM431 -10h88l-17 -118q23 3 38 3q48 0 81.5 -30t33.5 -77q0 -81 -78 -124q-63 -34 -151 -34q-89 0 -167 30l22 69q64 -20 120 -20q135 0 135 65q0 43 -62 43
q-24 0 -70 -9z" />
    <glyph glyph-name="germandbls" unicode="&#xdf;" 
d="M162 0v995q0 183 26 271q39 134 161 209q99 61 234 61q168 0 278 -96q116 -100 116 -266q0 -202 -189 -299q-48 -25 -137 -37q98 -15 149 -42q230 -121 230 -388q0 -189 -113 -311q-117 -125 -304 -125q-123 0 -208 49v133q105 -49 188 -49q132 0 214.5 87t82.5 220
q0 167 -117 259q-105 83 -278 88v157h32q123 0 210 63q97 70 97 189q0 103 -72 168t-176 65q-85 0 -156.5 -46.5t-102.5 -124.5q-24 -60 -24 -248v-982h-141z" />
    <glyph glyph-name="agrave" unicode="&#xe0;" horiz-adv-x="1399" 
d="M1240 1088v-1088h-138v187q-177 -215 -437 -215q-236 0 -398 170q-160 167 -160 405q0 235 163.5 402t398.5 167q269 0 433 -228v200h138zM680 981q-250 0 -373 -219q-59 -104 -59 -220t59 -220.5t158.5 -163t213.5 -58.5q115 0 218 58t158.5 157t55.5 223
q0 187 -122.5 315t-308.5 128zM639 1598l218 -308h-138l-295 308h215z" />
    <glyph glyph-name="aacute" unicode="&#xe1;" horiz-adv-x="1399" 
d="M1240 1088v-1088h-138v187q-177 -215 -437 -215q-236 0 -398 170q-160 167 -160 405q0 235 163.5 402t398.5 167q269 0 433 -228v200h138zM680 981q-250 0 -373 -219q-59 -104 -59 -220t59 -220.5t158.5 -163t213.5 -58.5q115 0 218 58t158.5 157t55.5 223
q0 187 -122.5 315t-308.5 128zM767 1598h215l-295 -308h-138z" />
    <glyph glyph-name="acircumflex" unicode="&#xe2;" horiz-adv-x="1399" 
d="M1240 1088v-1088h-138v187q-177 -215 -437 -215q-236 0 -398 170q-160 167 -160 405q0 235 163.5 402t398.5 167q269 0 433 -228v200h138zM680 981q-250 0 -373 -219q-59 -104 -59 -220t59 -220.5t158.5 -163t213.5 -58.5q115 0 218 58t158.5 157t55.5 223
q0 187 -122.5 315t-308.5 128zM633 1542h139l290 -257h-180l-176 152l-184 -152h-186z" />
    <glyph glyph-name="atilde" unicode="&#xe3;" horiz-adv-x="1399" 
d="M1240 1088v-1088h-138v187q-177 -215 -437 -215q-236 0 -398 170q-160 167 -160 405q0 235 163.5 402t398.5 167q269 0 433 -228v200h138zM680 981q-250 0 -373 -219q-59 -104 -59 -220t59 -220.5t158.5 -163t213.5 -58.5q115 0 218 58t158.5 157t55.5 223
q0 187 -122.5 315t-308.5 128zM996 1492l70 -97q-122 -88 -226 -88q-72 0 -148 37q-65 32 -83 37q-25 7 -52 7q-64 0 -158 -69l-66 102q91 97 225 97q56 0 149.5 -39.5t137.5 -39.5q55 0 151 53z" />
    <glyph glyph-name="adieresis" unicode="&#xe4;" horiz-adv-x="1399" 
d="M1240 1088v-1088h-138v187q-177 -215 -437 -215q-236 0 -398 170q-160 167 -160 405q0 235 163.5 402t398.5 167q269 0 433 -228v200h138zM680 981q-250 0 -373 -219q-59 -104 -59 -220t59 -220.5t158.5 -163t213.5 -58.5q115 0 218 58t158.5 157t55.5 223
q0 187 -122.5 315t-308.5 128zM496 1518q48 0 82 -34t34 -82t-34 -82t-82 -34t-82 34t-34 82t34 82t82 34zM904 1518q48 0 82 -34t34 -82t-34 -82t-82 -34t-82 34t-34 82t34 82t82 34z" />
    <glyph glyph-name="aring" unicode="&#xe5;" horiz-adv-x="1399" 
d="M1240 1088v-1088h-138v187q-177 -215 -437 -215q-236 0 -398 170q-160 167 -160 405q0 235 163.5 402t398.5 167q269 0 433 -228v200h138zM680 981q-250 0 -373 -219q-59 -104 -59 -220t59 -220.5t158.5 -163t213.5 -58.5q115 0 218 58t158.5 157t55.5 223
q0 187 -122.5 315t-308.5 128zM699 1691q89 0 151 -62.5t62 -151.5t-62 -151t-151 -62t-151 62t-62 151t62 151.5t151 62.5zM698 1590q-46 0 -78 -32t-32 -78t32 -78t78 -32q45 0 77 32.5t32 77.5t-32 77.5t-77 32.5z" />
    <glyph glyph-name="ae" unicode="&#xe6;" horiz-adv-x="2370" 
d="M1245 1088v-197q98 118 191 168q104 57 246 57q252 0 411 -168q155 -164 155 -418h-979q4 -115 60 -216q59 -105 155 -159.5t212 -54.5q255 0 397 257l120 -60q-74 -156 -215 -241q-137 -84 -312 -84q-153 0 -275 69q-87 50 -166 153v-194h-128v201q-88 -110 -173 -159
q-121 -70 -263 -70q-237 0 -399 169t-162 407q0 155 73 284.5t205 206.5t279 77q142 0 264 -69q86 -49 176 -157v198h128zM2093 651q-51 209 -222 290q-88 41 -181 41q-205 0 -331 -155q-57 -71 -82 -176h816zM687 981q-115 0 -214 -57t-154.5 -157.5t-55.5 -222.5
q0 -186 122 -312.5t307 -126.5t306.5 125.5t121.5 311.5q0 265 -209 382q-103 57 -224 57z" />
    <glyph glyph-name="ccedilla" unicode="&#xe7;" horiz-adv-x="1325" 
d="M1212 862l-111 -69q-144 191 -393 191q-193 0 -326 -122q-136 -126 -136 -317q0 -120 61 -224.5t166 -162.5t236 -58q240 0 392 191l111 -73q-164 -246 -509 -246q-249 0 -421 156q-177 161 -177 407q0 159 79.5 294t218.5 211t311 76q222 0 379 -119q70 -53 119 -135z
M642 0h88l-17 -118q23 3 38 3q48 0 81.5 -30t33.5 -77q0 -81 -78 -124q-63 -34 -151 -34q-89 0 -167 30l22 69q64 -20 120 -20q135 0 135 65q0 43 -62 43q-24 0 -70 -9z" />
    <glyph glyph-name="egrave" unicode="&#xe8;" horiz-adv-x="1331" 
d="M1072 361l118 -62q-110 -215 -305 -290q-95 -37 -215 -37q-245 0 -405.5 162t-160.5 407q0 207 127 369q161 206 431 206q278 0 444 -211q118 -150 120 -372h-978q4 -183 114 -305q116 -128 296 -128q174 0 295 106q55 48 119 155zM1072 654q-52 207 -223 287
q-88 41 -185 41q-160 0 -275 -103q-84 -75 -127 -225h810zM605 1598l218 -308h-138l-295 308h215z" />
    <glyph glyph-name="eacute" unicode="&#xe9;" horiz-adv-x="1331" 
d="M1072 361l118 -62q-110 -215 -305 -290q-95 -37 -215 -37q-245 0 -405.5 162t-160.5 407q0 207 127 369q161 206 431 206q278 0 444 -211q118 -150 120 -372h-978q4 -183 114 -305q116 -128 296 -128q174 0 295 106q55 48 119 155zM1072 654q-52 207 -223 287
q-88 41 -185 41q-160 0 -275 -103q-84 -75 -127 -225h810zM734 1598h215l-295 -308h-138z" />
    <glyph glyph-name="ecircumflex" unicode="&#xea;" horiz-adv-x="1331" 
d="M1072 361l118 -62q-110 -215 -305 -290q-95 -37 -215 -37q-245 0 -405.5 162t-160.5 407q0 207 127 369q161 206 431 206q278 0 444 -211q118 -150 120 -372h-978q4 -183 114 -305q116 -128 296 -128q174 0 295 106q55 48 119 155zM1072 654q-52 207 -223 287
q-88 41 -185 41q-160 0 -275 -103q-84 -75 -127 -225h810zM600 1542h139l290 -257h-180l-176 152l-184 -152h-186z" />
    <glyph glyph-name="edieresis" unicode="&#xeb;" horiz-adv-x="1331" 
d="M1072 361l118 -62q-110 -215 -305 -290q-95 -37 -215 -37q-245 0 -405.5 162t-160.5 407q0 207 127 369q161 206 431 206q278 0 444 -211q118 -150 120 -372h-978q4 -183 114 -305q116 -128 296 -128q174 0 295 106q55 48 119 155zM1072 654q-52 207 -223 287
q-88 41 -185 41q-160 0 -275 -103q-84 -75 -127 -225h810zM462 1518q48 0 82 -34t34 -82t-34 -82t-82 -34t-82 34t-34 82t34 82t82 34zM870 1518q48 0 82 -34t34 -82t-34 -82t-82 -34t-82 34t-34 82t34 82t82 34z" />
    <glyph glyph-name="igrave" unicode="&#xec;" horiz-adv-x="410" 
d="M135 1088h141v-1088h-141v1088zM144 1598l218 -308h-138l-295 308h215z" />
    <glyph glyph-name="iacute" unicode="&#xed;" horiz-adv-x="410" 
d="M135 1088h141v-1088h-141v1088zM273 1598h215l-295 -308h-138z" />
    <glyph glyph-name="icircumflex" unicode="&#xee;" horiz-adv-x="410" 
d="M135 1088h141v-1088h-141v1088zM139 1542h139l290 -257h-180l-176 152l-184 -152h-186z" />
    <glyph glyph-name="idieresis" unicode="&#xef;" horiz-adv-x="410" 
d="M135 1088h141v-1088h-141v1088zM1 1518q48 0 82 -34t34 -82t-34 -82t-82 -34t-82 34t-34 82t34 82t82 34zM409 1518q48 0 82 -34t34 -82t-34 -82t-82 -34t-82 34t-34 82t34 82t82 34z" />
    <glyph glyph-name="eth" unicode="&#xf0;" horiz-adv-x="1378" 
d="M1093 1088h141v-867q0 -227 -40 -335q-59 -159 -206 -240q-131 -72 -312 -72q-280 0 -433 145q-70 67 -129 195h152q122 -212 403 -212q285 0 382 188q42 81 42 261v56q-164 -207 -435 -207q-149 0 -281 73.5t-204.5 200.5t-72.5 278q0 152 75 282t207.5 206t279.5 76
q248 0 431 -217v189zM680 981q-119 0 -221 -57t-160 -159t-58 -220q0 -185 124 -300q121 -113 307 -113q192 0 310 115t118 306q0 255 -207 372q-99 56 -213 56zM996 1492l70 -97q-122 -88 -226 -88q-72 0 -148 37q-65 32 -83 37q-25 7 -52 7q-64 0 -158 -69l-66 102
q91 97 225 97q56 0 149.5 -39.5t137.5 -39.5q55 0 151 53z" />
    <glyph glyph-name="ntilde" unicode="&#xf1;" horiz-adv-x="1249" 
d="M156 1088h140v-195q167 223 408 223q119 0 214.5 -60.5t141 -167t45.5 -328.5v-560h-139v519q0 184 -16 251q-52 217 -274 217q-127 0 -227.5 -83.5t-132.5 -208.5q-20 -79 -20 -296v-399h-140v1088zM921 1492l70 -97q-122 -88 -226 -88q-72 0 -148 37q-65 32 -83 37
q-25 7 -52 7q-64 0 -158 -69l-66 102q91 97 225 97q56 0 149.5 -39.5t137.5 -39.5q55 0 151 53z" />
    <glyph glyph-name="ograve" unicode="&#xf2;" horiz-adv-x="1341" 
d="M671 1116q251 0 416 -182q150 -166 150 -393q0 -240 -163 -404.5t-403 -164.5t-403.5 164t-163.5 405q0 226 150 392q165 183 417 183zM671 979q-179 0 -301.5 -130.5t-122.5 -310.5q0 -116 55 -217q57 -104 155 -160t214 -56q248 0 367 213q57 102 57 220
q0 180 -122.5 310.5t-301.5 130.5zM610 1598l218 -308h-138l-295 308h215z" />
    <glyph glyph-name="oacute" unicode="&#xf3;" horiz-adv-x="1341" 
d="M671 1116q251 0 416 -182q150 -166 150 -393q0 -240 -163 -404.5t-403 -164.5t-403.5 164t-163.5 405q0 226 150 392q165 183 417 183zM671 979q-179 0 -301.5 -130.5t-122.5 -310.5q0 -116 55 -217q57 -104 155 -160t214 -56q248 0 367 213q57 102 57 220
q0 180 -122.5 310.5t-301.5 130.5zM739 1598h215l-295 -308h-138z" />
    <glyph glyph-name="ocircumflex" unicode="&#xf4;" horiz-adv-x="1341" 
d="M671 1116q251 0 416 -182q150 -166 150 -393q0 -240 -163 -404.5t-403 -164.5t-403.5 164t-163.5 405q0 226 150 392q165 183 417 183zM671 979q-179 0 -301.5 -130.5t-122.5 -310.5q0 -116 55 -217q57 -104 155 -160t214 -56q248 0 367 213q57 102 57 220
q0 180 -122.5 310.5t-301.5 130.5zM605 1542h139l290 -257h-180l-176 152l-184 -152h-186z" />
    <glyph glyph-name="otilde" unicode="&#xf5;" horiz-adv-x="1341" 
d="M671 1116q251 0 416 -182q150 -166 150 -393q0 -240 -163 -404.5t-403 -164.5t-403.5 164t-163.5 405q0 226 150 392q165 183 417 183zM671 979q-179 0 -301.5 -130.5t-122.5 -310.5q0 -116 55 -217q57 -104 155 -160t214 -56q248 0 367 213q57 102 57 220
q0 180 -122.5 310.5t-301.5 130.5zM967 1492l70 -97q-122 -88 -226 -88q-72 0 -148 37q-65 32 -83 37q-25 7 -52 7q-64 0 -158 -69l-66 102q91 97 225 97q56 0 149.5 -39.5t137.5 -39.5q55 0 151 53z" />
    <glyph glyph-name="odieresis" unicode="&#xf6;" horiz-adv-x="1341" 
d="M671 1116q251 0 416 -182q150 -166 150 -393q0 -240 -163 -404.5t-403 -164.5t-403.5 164t-163.5 405q0 226 150 392q165 183 417 183zM671 979q-179 0 -301.5 -130.5t-122.5 -310.5q0 -116 55 -217q57 -104 155 -160t214 -56q248 0 367 213q57 102 57 220
q0 180 -122.5 310.5t-301.5 130.5zM467 1518q48 0 82 -34t34 -82t-34 -82t-82 -34t-82 34t-34 82t34 82t82 34zM875 1518q48 0 82 -34t34 -82t-34 -82t-82 -34t-82 34t-34 82t34 82t82 34z" />
    <glyph glyph-name="divide" unicode="&#xf7;" horiz-adv-x="1124" 
d="M461 1207h201v-202h-201v202zM56 804h1012v-137h-1012v137zM461 466h201v-205h-201v205z" />
    <glyph glyph-name="oslash" unicode="&#xf8;" horiz-adv-x="1337" 
d="M1102 913q133 -161 133 -372q0 -240 -163 -404.5t-403 -164.5q-164 0 -299 82l-116 -137l-89 74l114 134q-177 171 -177 416q0 241 163 408t403 167q201 0 351 -120l116 137l92 -74zM367 229l560 658q-118 92 -258 92q-114 0 -211.5 -59.5t-154.5 -160.5
q-58 -104 -58 -221q0 -185 122 -309zM1007 802l-548 -644q103 -53 209 -53q249 0 368 213q57 102 57 219q0 144 -86 265z" />
    <glyph glyph-name="ugrave" unicode="&#xf9;" horiz-adv-x="1245" 
d="M138 1088h141v-508q0 -188 20 -256q31 -104 120 -162q84 -54 196 -54q109 0 191 51q87 55 120 154q21 63 21 267v508h143v-534q0 -184 -35 -292q-48 -147 -175 -225q-106 -65 -265 -65q-313 0 -424 245q-53 115 -53 347v524zM561 1598l218 -308h-138l-295 308h215z" />
    <glyph glyph-name="uacute" unicode="&#xfa;" horiz-adv-x="1245" 
d="M138 1088h141v-508q0 -188 20 -256q31 -104 120 -162q84 -54 196 -54q109 0 191 51q87 55 120 154q21 63 21 267v508h143v-534q0 -184 -35 -292q-48 -147 -175 -225q-106 -65 -265 -65q-313 0 -424 245q-53 115 -53 347v524zM690 1598h215l-295 -308h-138z" />
    <glyph glyph-name="ucircumflex" unicode="&#xfb;" horiz-adv-x="1245" 
d="M138 1088h141v-508q0 -188 20 -256q31 -104 120 -162q84 -54 196 -54q109 0 191 51q87 55 120 154q21 63 21 267v508h143v-534q0 -184 -35 -292q-48 -147 -175 -225q-106 -65 -265 -65q-313 0 -424 245q-53 115 -53 347v524zM556 1542h139l290 -257h-180l-176 152
l-184 -152h-186z" />
    <glyph glyph-name="udieresis" unicode="&#xfc;" horiz-adv-x="1245" 
d="M138 1088h141v-508q0 -188 20 -256q31 -104 120 -162q84 -54 196 -54q109 0 191 51q87 55 120 154q21 63 21 267v508h143v-534q0 -184 -35 -292q-48 -147 -175 -225q-106 -65 -265 -65q-313 0 -424 245q-53 115 -53 347v524zM418 1518q48 0 82 -34t34 -82t-34 -82
t-82 -34t-82 34t-34 82t34 82t82 34zM826 1518q48 0 82 -34t34 -82t-34 -82t-82 -34t-82 34t-34 82t34 82t82 34z" />
    <glyph glyph-name="yacute" unicode="&#xfd;" horiz-adv-x="410" 
d="M135 1088h141v-1088h-141v1088z" />
    <glyph glyph-name="thorn" unicode="&#xfe;" horiz-adv-x="795" 
d="M703 969l-90 -93q-112 109 -219 109q-65 0 -115 -43t-50 -107q0 -108 208 -216q128 -66 186 -126q81 -84 81 -201q0 -138 -95 -229t-234 -91q-201 0 -321 154l88 100q107 -121 227 -121q79 0 140.5 51.5t61.5 129.5q0 79 -73 139q-36 30 -142 84q-121 62 -177 123
q-76 82 -76 196q0 127 85.5 207.5t212.5 80.5q150 0 302 -147zM322 0h88l-17 -118q23 3 38 3q48 0 81.5 -30t33.5 -77q0 -81 -78 -124q-63 -34 -151 -34q-89 0 -167 30l22 69q64 -20 120 -20q135 0 135 65q0 43 -62 43q-24 0 -70 -9z" />
    <glyph glyph-name="ydieresis" unicode="&#xff;" horiz-adv-x="1098" 
d="M39 1088h148l374 -838l363 838h149l-649 -1486h-148l210 480zM355 1518q48 0 82 -34t34 -82t-34 -82t-82 -34t-82 34t-34 82t34 82t82 34zM763 1518q48 0 82 -34t34 -82t-34 -82t-82 -34t-82 34t-34 82t34 82t82 34z" />
    <glyph glyph-name="dotlessi" unicode="&#x131;" horiz-adv-x="410" 
d="M135 1088h141v-1088h-141v1088z" />
    <glyph glyph-name="OE" unicode="&#x152;" horiz-adv-x="2445" 
d="M1522 1471h838v-145h-689v-457h689v-145h-689v-579h689v-145h-838v285q-175 -222 -387 -288q-110 -34 -241 -34q-369 0 -598 273q-182 217 -182 492q0 212 103.5 392.5t287.5 284t391 103.5q198 0 378 -103q143 -82 248 -219v285zM891 1366q-251 0 -434.5 -187
t-183.5 -439q0 -266 182 -450t448 -184q260 0 438.5 185t178.5 446q0 172 -83 314.5t-233 228.5t-313 86z" />
    <glyph glyph-name="oe" unicode="&#x153;" horiz-adv-x="2329" 
d="M2214 531h-976q12 -193 121 -309q114 -121 304 -121q276 0 398 260l119 -61q-178 -328 -526 -328q-201 0 -343 111q-64 50 -145 164q-183 -275 -489 -275q-240 0 -402.5 169t-162.5 409q0 270 206 437q159 129 360 129q162 0 299 -88q100 -64 189 -200q84 132 178 196
q137 92 313 92q233 0 396 -161q168 -168 162 -388zM672 981q-115 0 -211.5 -59t-152.5 -160q-57 -104 -57 -220q0 -257 216 -381q103 -60 214 -60q112 0 211 59t153 157t54 220q0 185 -120 313q-123 131 -307 131zM2061 651q-39 151 -142 238q-108 91 -261 91
q-157 0 -275 -100q-91 -77 -132 -229h810z" />
    <glyph glyph-name="Scaron" unicode="&#x160;" horiz-adv-x="1020" 
d="M27 274l125 75q132 -243 305 -243q164 0 238 127q34 58 34 123q0 74 -50 145q-65 93 -242 225q-181 134 -239 212q-78 105 -78 225q0 204 176 300q83 45 181 45q210 0 386 -241l-120 -91q-67 88 -114 125q-70 55 -155 55t-142 -51q-60 -52 -60 -136q0 -99 93 -191
q27 -26 190 -147q150 -111 224 -200q109 -133 109 -272q0 -167 -126 -283q-122 -113 -291 -113q-274 0 -444 311zM576 1583h-139l-290 257h180l177 -152l183 152h186z" />
    <glyph glyph-name="scaron" unicode="&#x161;" horiz-adv-x="795" 
d="M703 969l-90 -93q-112 109 -219 109q-65 0 -115 -43t-50 -107q0 -108 208 -216q128 -66 186 -126q81 -84 81 -201q0 -138 -95 -229t-234 -91q-201 0 -321 154l88 100q107 -121 227 -121q79 0 140.5 51.5t61.5 129.5q0 79 -73 139q-36 30 -142 84q-121 62 -177 123
q-76 82 -76 196q0 127 85.5 207.5t212.5 80.5q150 0 302 -147zM463 1285h-139l-290 257h180l177 -152l183 152h186z" />
    <glyph glyph-name="Ydieresis" unicode="&#x178;" horiz-adv-x="463" 
d="M158 1471h147v-1471h-147v1471zM235 1826q48 0 82 -34t34 -82t-34 -81.5t-82 -33.5q-47 0 -81 34t-34 81q0 48 33.5 82t81.5 34z" />
    <glyph glyph-name="florin" unicode="&#x192;" 
d="M621 882h231l-17 -122h-233l-107 -710q-51 -339 -184 -431q-66 -45 -137 -45q-68 0 -142 49l18 124q55 -45 111 -45q102 0 156 143q27 71 50 226l101 689h-141l17 122h141l49 319q28 185 65 239q65 96 166 96q83 0 177 -65l-18 -133q-77 73 -139 73q-65 0 -95 -91
q-11 -34 -27 -144z" />
    <glyph glyph-name="circumflex" unicode="&#x2c6;" horiz-adv-x="1028" 
d="M448 1542h139l290 -257h-180l-176 152l-184 -152h-186z" />
    <glyph glyph-name="caron" unicode="&#x2c7;" horiz-adv-x="1028" 
d="M580 1285h-139l-290 257h180l177 -152l183 152h186z" />
    <glyph glyph-name="breve" unicode="&#x2d8;" horiz-adv-x="928" 
d="M110 1525h132q68 -104 227 -104q143 0 222 104h128q-26 -108 -136 -164q-92 -47 -215 -47q-124 0 -217 47q-112 56 -141 164z" />
    <glyph glyph-name="dotaccent" unicode="&#x2d9;" horiz-adv-x="455" 
d="M228 1518q48 0 82 -34t34 -82t-34 -82t-82 -34t-82 34t-34 82t34 82t82 34z" />
    <glyph glyph-name="ring" unicode="&#x2da;" horiz-adv-x="680" 
d="M340 1691q89 0 151 -62.5t62 -151.5t-62 -151t-151 -62t-151 62t-62 151t62 151.5t151 62.5zM339 1590q-46 0 -78 -32t-32 -78t32 -78t78 -32q45 0 77 32.5t32 77.5t-32 77.5t-77 32.5z" />
    <glyph glyph-name="ogonek" unicode="&#x2db;" horiz-adv-x="618" 
d="M309 0h109q-121 -103 -121 -193q0 -110 146 -110q29 0 69 5l-9 -85q-42 -10 -85 -10q-93 0 -156 42q-72 49 -72 138q0 130 119 213z" />
    <glyph glyph-name="tilde" unicode="&#x2dc;" horiz-adv-x="899" 
d="M746 1492l70 -97q-122 -88 -226 -88q-72 0 -148 37q-65 32 -83 37q-25 7 -52 7q-64 0 -158 -69l-66 102q91 97 225 97q56 0 149.5 -39.5t137.5 -39.5q55 0 151 53z" />
    <glyph glyph-name="hungarumlaut" unicode="&#x2dd;" horiz-adv-x="1130" 
d="M475 1598h215l-295 -308h-138zM791 1598h215l-295 -308h-138z" />
    <glyph glyph-name="Delta" unicode="&#x394;" horiz-adv-x="1253" 
d="M1226 0h-1200l628 1387zM990 82l-399 967l-440 -967h839z" />
    <glyph glyph-name="Delta" unicode="&#x2206;" horiz-adv-x="1253" 
d="M1226 0h-1200l628 1387zM990 82l-399 967l-440 -967h839z" />
    <glyph glyph-name="Ohm" unicode="&#x3a9;" horiz-adv-x="1573" 
d="M496 160q-231 145 -306 377q-40 121 -40 265q0 195 75 352q83 173 241 264q147 85 342 85q323 0 502 -236q145 -191 145 -466q0 -273 -151 -468q-72 -93 -193 -173l364 6v-166h-575v177q92 46 144 95q203 192 203 505q0 149 -49 279q-58 152 -167 223q-95 61 -227 61
q-222 0 -340 -176q-102 -151 -102 -384q0 -201 81 -354q88 -168 261 -246v-180h-577v168z" />
    <glyph glyph-name="Ohm" unicode="&#x2126;" horiz-adv-x="1573" 
d="M496 160q-231 145 -306 377q-40 121 -40 265q0 195 75 352q83 173 241 264q147 85 342 85q323 0 502 -236q145 -191 145 -466q0 -273 -151 -468q-72 -93 -193 -173l364 6v-166h-575v177q92 46 144 95q203 192 203 505q0 149 -49 279q-58 152 -167 223q-95 61 -227 61
q-222 0 -340 -176q-102 -151 -102 -384q0 -201 81 -354q88 -168 261 -246v-180h-577v168z" />
    <glyph glyph-name="pi" unicode="&#x3c0;" horiz-adv-x="1373" 
d="M1323 965h-221v-965h-141v965h-549v-965h-141v965h-221v123h1273v-123z" />
    <glyph glyph-name="endash" unicode="&#x2013;" horiz-adv-x="1024" 
d="M-12 637h1048v-129h-1048v129z" />
    <glyph glyph-name="emdash" unicode="&#x2014;" horiz-adv-x="2048" 
d="M-12 637h2072v-129h-2072v129z" />
    <glyph glyph-name="quoteleft" unicode="&#x2018;" horiz-adv-x="719" 
d="M371 1508l78 -44q-60 -119 -71 -230h89v-275h-181v172q0 121 16 195q17 78 69 182z" />
    <glyph glyph-name="quoteright" unicode="&#x2019;" horiz-adv-x="719" 
d="M347 959l-77 44q60 121 70 230h-88v275h181v-172q0 -122 -16 -195q-18 -78 -70 -182z" />
    <glyph glyph-name="quotesinglbase" unicode="&#x201a;" horiz-adv-x="725" 
d="M350 -274l-77 43q60 121 70 231h-88v275h181v-172q0 -122 -16 -195q-18 -78 -70 -182z" />
    <glyph glyph-name="quotedblleft" unicode="&#x201c;" horiz-adv-x="1028" 
d="M289 1508l78 -44q-60 -119 -71 -230h89v-275h-181v172q0 121 16 195q17 78 69 182zM734 1508l78 -44q-60 -119 -71 -230h89v-275h-181v172q0 122 16 195q17 79 69 182z" />
    <glyph glyph-name="quotedblright" unicode="&#x201d;" horiz-adv-x="991" 
d="M721 959l-77 44q60 121 70 230h-88v275h181v-172q0 -122 -16 -195q-18 -78 -70 -182zM276 959l-77 44q60 121 70 230h-88v275h181v-172q0 -122 -16 -195q-18 -78 -70 -182z" />
    <glyph glyph-name="quotedblbase" unicode="&#x201e;" horiz-adv-x="1028" 
d="M738 -274l-77 44q60 121 70 230h-88v275h181v-172q0 -122 -16 -195q-18 -78 -70 -182zM293 -274l-77 44q60 121 70 230h-88v275h181v-172q0 -122 -16 -195q-18 -78 -70 -182z" />
    <glyph glyph-name="dagger" unicode="&#x2020;" horiz-adv-x="1133" 
d="M489 1508h149l-23 -457l360 21v-149l-360 26l27 -1263h-153l29 1263l-361 -26v149l361 -21z" />
    <glyph glyph-name="daggerdbl" unicode="&#x2021;" horiz-adv-x="1133" 
d="M492 1508h147l-23 -354l358 23v-148l-358 27l23 -459l-23 -452l358 20v-148l-358 28l23 -359h-147l24 359l-357 -28v148l357 -20l-24 452l24 459l-357 -27v148l357 -23z" />
    <glyph glyph-name="bullet" unicode="&#x2022;" horiz-adv-x="1241" 
d="M620 1053q128 0 217.5 -89.5t89.5 -217.5t-89.5 -218t-217.5 -90t-217.5 90t-89.5 218t89.5 217.5t217.5 89.5z" />
    <glyph glyph-name="ellipsis" unicode="&#x2026;" horiz-adv-x="2048" 
d="M1024 220q52 0 87.5 -36t35.5 -88q0 -51 -36 -87.5t-87 -36.5t-87 36.5t-36 87.5q0 52 35.5 88t87.5 36zM341 220q52 0 87.5 -36t35.5 -88q0 -51 -36 -87.5t-87 -36.5t-87 36.5t-36 87.5q0 52 35.5 88t87.5 36zM1707 220q51 0 87 -36.5t36 -87.5t-36 -87.5t-87 -36.5
t-87 36.5t-36 87.5q0 52 35.5 88t87.5 36z" />
    <glyph glyph-name="perthousand" unicode="&#x2030;" horiz-adv-x="2404" 
d="M1384 1536l-1072 -1638h-132l975 1492q-191 -46 -422 -42l-54 1q62 -86 62 -182q0 -149 -100.5 -251t-248.5 -102q-145 0 -244 100t-99 245q0 201 173 301q83 48 170 48q38 0 122 -18q131 -28 282 -28q209 0 470 74h118zM395 1381q-92 0 -155.5 -64t-63.5 -156
t63.5 -155.5t155.5 -63.5t156 63.5t64 155.5t-64 156t-156 64zM1198 649q144 0 245 -101t101 -245t-101 -245t-245 -101t-245 101t-101 245t101 245t245 101zM1198 522q-92 0 -155.5 -63.5t-63.5 -155.5t63.5 -155.5t155.5 -63.5t156 63.5t64 155.5t-64 155.5t-156 63.5z
M1996 649q144 0 244.5 -101t100.5 -245t-100.5 -245t-244.5 -101t-245 101t-101 245t101 245t245 101zM1996 522q-92 0 -156 -63.5t-64 -155.5t64 -155.5t156 -63.5t155.5 63.5t63.5 155.5t-63.5 155.5t-155.5 63.5z" />
    <glyph glyph-name="guilsinglleft" unicode="&#x2039;" horiz-adv-x="514" 
d="M445 1088l-223 -546l223 -542h-148l-222 542l222 546h148z" />
    <glyph glyph-name="guilsinglright" unicode="&#x203a;" horiz-adv-x="514" 
d="M70 0l223 545l-223 543h148l222 -543l-222 -545h-148z" />
    <glyph glyph-name="fraction" unicode="&#x2044;" horiz-adv-x="340" 
d="M-347 -37l923 1545h112l-925 -1545h-110z" />
    <glyph glyph-name="foursuperior" unicode="&#x2074;" horiz-adv-x="705" 
d="M562 1528v-528h105v-97h-105v-170h-111v170h-432zM451 1000v248l-214 -248h214z" />
    <glyph glyph-name="trademark" unicode="&#x2122;" horiz-adv-x="2048" 
d="M1966 1513v-862h-150v710l-321 -710h-99l-311 710v-710h-149v862h243l267 -597l282 597h238zM770 1513v-137h-305v-725h-150v725h-303v137h758z" />
    <glyph glyph-name="partialdiff" unicode="&#x2202;" horiz-adv-x="1012" 
d="M426 1138l-135 60q132 293 360 293q198 0 279 -237q43 -126 43 -328q0 -251 -68 -460q-83 -256 -251 -382q-144 -109 -290 -109q-149 0 -231 101q-77 94 -77 246q0 236 164 398q199 196 638 204q-3 139 -15 212q-24 136 -86 189q-47 38 -104 38q-143 0 -227 -225z
M854 796q-209 -13 -309 -49q-149 -54 -235 -195q-74 -121 -74 -249q0 -76 46 -132q49 -59 124 -59q112 0 215 98q85 81 140 199q69 151 93 387z" />
    <glyph glyph-name="product" unicode="&#x220f;" horiz-adv-x="1685" 
d="M162 1536h1362v-1962h-191v1788h-978v-1788h-193v1962z" />
    <glyph glyph-name="summation" unicode="&#x2211;" horiz-adv-x="1460" 
d="M139 1536h1237v-164h-988l607 -796l-646 -841h1037v-161h-1264v187l620 808l-603 791v176z" />
    <glyph glyph-name="radical" unicode="&#x221a;" horiz-adv-x="1124" 
d="M1047 1869h74l-312 -1947l-496 1021l-198 -91l-34 64l301 151l405 -823z" />
    <glyph glyph-name="infinity" unicode="&#x221e;" horiz-adv-x="1460" 
d="M687 812q91 113 142 156q92 76 191 76q136 0 215 -94q73 -88 73 -227q0 -145 -70 -235q-77 -100 -218 -100q-100 0 -191 76q-51 42 -142 156q-136 -171 -289 -171q-107 0 -178 81q-68 78 -68 186t69.5 187.5t176.5 79.5q153 0 289 -171zM756 717q83 -128 152 -180
q50 -38 110 -38q87 0 135 65q44 59 44 149q0 93 -44 152q-49 66 -139 66q-73 0 -149 -77q-31 -31 -109 -137zM618 716q-125 157 -220 157q-64 0 -101 -46q-34 -42 -34 -108q0 -65 36 -109q38 -47 101 -47q101 0 218 153z" />
    <glyph glyph-name="integral" unicode="&#x222b;" horiz-adv-x="561" 
d="M201 948q0 207 16 499q10 185 54 292q51 124 164 124q46 0 85.5 -31t39.5 -76q0 -43 -24 -72q-26 -32 -68 -32q-35 0 -76 36q-23 20 -40 20q-40 0 -40 -64q0 -45 9 -145q37 -413 37 -665q0 -64 -15 -567q-9 -305 -84 -410q-55 -77 -141 -77q-53 0 -85.5 34t-32.5 87
q0 99 90 99q36 0 69 -32t49 -32q39 0 39 61q0 43 -9 120q-37 317 -37 831z" />
    <glyph glyph-name="approxequal" unicode="&#x2248;" horiz-adv-x="1124" 
d="M1070 1023v-162q-171 -96 -252 -96q-95 0 -265 77q-183 83 -237 83q-86 0 -262 -105v160q168 96 254 96q97 0 268 -81q175 -83 240 -83q58 0 133 39q21 10 121 72zM1070 651v-162q-171 -96 -252 -96q-95 0 -265 77q-183 83 -237 83q-84 0 -262 -105v160q170 96 254 96
q97 0 268 -81q175 -83 240 -83q58 0 133 39q21 10 121 72z" />
    <glyph glyph-name="approxequal" unicode="&#x22f2;" horiz-adv-x="1124" 
d="M1070 1023v-162q-171 -96 -252 -96q-95 0 -265 77q-183 83 -237 83q-86 0 -262 -105v160q168 96 254 96q97 0 268 -81q175 -83 240 -83q58 0 133 39q21 10 121 72zM1070 651v-162q-171 -96 -252 -96q-95 0 -265 77q-183 83 -237 83q-84 0 -262 -105v160q170 96 254 96
q97 0 268 -81q175 -83 240 -83q58 0 133 39q21 10 121 72z" />
    <glyph glyph-name="notequal" unicode="&#x2260;" horiz-adv-x="1124" 
d="M742 1024h326v-137h-379l-117 -303h496v-137h-549l-187 -484h-138l186 484h-324v137h377l116 303h-493v137h545l186 484h142z" />
    <glyph glyph-name="lessequal" unicode="&#x2264;" horiz-adv-x="1124" 
d="M1079 481v-146l-1033 469v130l1033 471v-147l-839 -390zM1079 231v-137h-1033v137h1033z" />
    <glyph glyph-name="greaterequal" unicode="&#x2265;" horiz-adv-x="1124" 
d="M46 481l839 387l-839 390v147l1033 -471v-130l-1033 -469v146zM1079 231v-137h-1033v137h1033z" />
    <glyph glyph-name="lozenge" unicode="&#x25ca;" horiz-adv-x="1012" 
d="M549 1422l418 -713l-418 -709h-111l-391 709l391 713h111zM495 1325l-340 -616l340 -615l359 615z" />
    <glyph glyph-name="fi" unicode="&#xf001;" horiz-adv-x="997" 
d="M858 1264h-142q-29 138 -167 138q-123 0 -163 -100q-18 -46 -18 -166v-48h226v-123h-226v-965h-142v965h-142v123h142v48q0 129 23 200q33 99 123 154q74 46 179 46q127 0 211 -72q88 -75 96 -200zM716 1088h142v-1088h-142v1088z" />
    <glyph glyph-name="fl" unicode="&#xf002;" horiz-adv-x="993" 
d="M603 1088v-124h-224v-964h-144v964h-143v124h143v36q0 138 20 206q31 101 123 159q75 47 174 47q91 0 167 -44q81 -46 115 -127q31 -73 31 -258v-1107h-143v1115q0 110 -6 143q-14 82 -67 119q-43 29 -99 29q-122 0 -159 -116q-12 -38 -12 -202h224z" />
    <glyph glyph-name="macron" horiz-adv-x="1024" 
d="M-12 1727h1048v-103h-1048v103z" />
    <glyph glyph-name="periodcentered" horiz-adv-x="682" 
d="M602 870q48 0 82 -34t34 -82t-34 -82t-82 -34t-82 34t-34 82t34 82t82 34z" />
    <glyph glyph-name="glyph240" horiz-adv-x="567" 
 />
    <glyph glyph-name="glyph241" horiz-adv-x="567" 
 />
    <glyph glyph-name="pi1" horiz-adv-x="1124" 
d="M0 1063h1124v-158h-162v-905h-189v905h-426v-905h-188v905h-159v158z" />
  </font>
</defs>
</svg>
