<?xml version="1.0" standalone="no"?>
<!DOCTYPE svg PUBLIC "-//W3C//DTD SVG 1.1//EN" "http://www.w3.org/Graphics/SVG/1.1/DTD/svg11.dtd" >
<svg>
<metadata>
Created by FontForge 20110222 at Tue Sep  3 21:36:28 2013
 By Orthosie Webhosting
Copyright (c) 2010, 2011, Natalia Raices&#60;nraices@gmail.com&#62;, with Reserved Font Name "Delius" "Delius Unicase" "Delius Swash Caps".
</metadata>
<defs>
<font id="DeliusUnicaseRegular" horiz-adv-x="814" >
  <font-face 
    font-family="DeliusUnicaseRegular"
    font-weight="400"
    font-stretch="normal"
    units-per-em="1000"
    panose-1="2 0 6 3 0 0 0 0 0 0"
    ascent="800"
    descent="-200"
    x-height="755"
    cap-height="756"
    bbox="0 -236 1193 1016"
    underline-thickness="50"
    underline-position="-150"
    unicode-range="U+0020-F6C3"
  />
<missing-glyph horiz-adv-x="1000" 
 />
    <glyph glyph-name=".notdef" horiz-adv-x="1000" 
 />
    <glyph glyph-name=".null" horiz-adv-x="0" 
 />
    <glyph glyph-name="nonmarkingreturn" horiz-adv-x="333" 
 />
    <glyph glyph-name="space" unicode=" " horiz-adv-x="250" 
 />
    <glyph glyph-name="exclam" unicode="!" horiz-adv-x="279" 
d="M183 467l1 -201q0 -26 -12 -41t-33 -15t-33 15t-12 41l2 201l-8 228q0 30 13.5 47.5t37.5 17.5t37.5 -17.5t13.5 -47.5zM181 95q13 -17 13 -42.5t-17 -46.5t-41 -21t-37.5 18.5t-13.5 43.5t16.5 45t41.5 20t38 -17z" />
    <glyph glyph-name="quotedbl" unicode="&#x22;" horiz-adv-x="403" 
d="M338 704l-12 -108q-2 -43 -9.5 -61t-26.5 -18t-26.5 18t-9.5 61l-12 108q0 26 13 41t35 15t35 -15t13 -41zM161 704l-12 -108q-2 -43 -9.5 -61t-26.5 -18t-26.5 18t-9.5 61l-12 108q0 26 13 41t35 15t35 -15t13 -41z" />
    <glyph glyph-name="numbersign" unicode="#" horiz-adv-x="848" 
d="M686 196l-127 3q-8 -43 -31 -164q-8 -45 -45 -45q-18 0 -28.5 11.5t-10.5 26t35 172.5h-167q-6 -30 -31 -165q-8 -45 -45 -45q-18 0 -28.5 11.5t-10.5 23.5t6.5 43.5t15 71.5t11.5 60l-113 -4q-59 0 -59 42q0 40 59 40l127 -4q6 24 17.5 83t14.5 72l-114 -2q-59 0 -59 39
q0 41 59 41l129 -3q9 43 31 164q8 45 45 45q18 0 28.5 -11.5t10.5 -26.5t-35 -172h167q6 30 31 165q8 45 45 45q17 0 28 -11.5t11 -23.5t-6.5 -43t-15.5 -72t-12 -60l112 4q59 0 59 -41q0 -39 -59 -39q-22 0 -127 3q-28 -130 -32 -155l114 3q59 0 59 -40q0 -42 -59 -42z
M356 431q-29 -138 -32 -157h169q6 24 17.5 83.5t14.5 73.5h-169z" />
    <glyph glyph-name="dollar" unicode="$" horiz-adv-x="614" 
d="M208.5 598q-24.5 -23 -24.5 -52t22.5 -52t67.5 -51q-4 180 -4 187q-37 -9 -61.5 -32zM457 188q0 55 -103 113q0 -2 4 -218q44 12 71.5 39t27.5 66zM500 64q-53 -53 -139 -68q0 -81 -46 -81t-46 78q-79 7 -143 46.5t-64 75.5q0 18 12 30t29.5 12t35.5 -11t32 -24.5
t41 -26.5t59 -17q3 189 3 267q-80 44 -118.5 76t-53 61t-14.5 63q0 62 50.5 110t129.5 60q0 87 46 87t46 -87q64 -8 108.5 -35t44.5 -58q0 -19 -12 -30t-33 -11t-53 21t-58 28q-3 -174 -3 -230q46 -25 73.5 -42t60.5 -44q65 -53 65 -125t-53 -125z" />
    <glyph glyph-name="percent" unicode="%" horiz-adv-x="864" 
d="M707.5 86q19.5 29 19.5 74t-19 74.5t-53.5 29.5t-54 -29t-19.5 -73.5t19.5 -74.5t53.5 -30t53.5 29zM765.5 287q41.5 -49 41.5 -124.5t-43 -126.5t-111.5 -51t-110 49t-41.5 125t43 126.5t111.5 50.5t110 -49zM262.5 462.5q18.5 28.5 18.5 74t-18 75t-52 29.5t-53.5 -29
t-19.5 -74t19 -74.5t53 -29.5t52.5 28.5zM615 700q0 -50 -58 -111q-1 -3 -50 -143.5t-97 -279.5t-52 -148q-13 -33 -46 -33q-16 0 -28 11t-12 29t24 79q105 257 168 451q-18 -3 -43 -3t-62 12q2 -16 2 -27q0 -74 -42 -124.5t-110 -50.5t-109.5 49t-41.5 124.5t43 126.5
t110 51q31 0 59.5 -14t47.5 -31q49 -44 95 -44t72 14q26 97 48 114q11 8 31 8t35.5 -17t15.5 -43z" />
    <glyph glyph-name="ampersand" unicode="&#x26;" horiz-adv-x="825" 
d="M450 370l83 -2q168 0 168 91q0 31 -18.5 51t-40.5 28q-59 20 -59 55q0 18 12 29.5t33 11.5q57 0 111 -53.5t54 -119.5q0 -89 -63.5 -130.5t-157.5 -43.5q18 -42 18 -84q0 -90 -73.5 -154t-189 -64t-193 72.5t-77.5 181.5q0 63 31 122.5t83 98.5q-64 60 -64 130.5
t50.5 122.5t142.5 52q57 0 105.5 -28t48.5 -60q0 -20 -12 -31t-28 -11t-46.5 21.5t-71.5 21.5t-68.5 -23.5t-27.5 -61.5q0 -57 52 -92q44 4 47 4q30 0 49 -14t19 -38.5t-21 -39t-51.5 -14.5t-50.5 10q-42 -25 -67 -68t-25 -94q0 -78 49 -126.5t125 -48.5t123.5 39.5
t47.5 90.5q0 78 -32 78q-18 0 -38.5 -10t-39 -10t-30.5 13.5t-12 32.5q0 30 29.5 47t75.5 17z" />
    <glyph glyph-name="quotesingle" unicode="'" horiz-adv-x="226" 
d="M161 704l-12 -108q-2 -43 -9.5 -61t-26.5 -18t-26.5 18t-9.5 61l-12 108q0 26 13 41t35 15t35 -15t13 -41z" />
    <glyph glyph-name="parenleft" unicode="(" horiz-adv-x="337" 
d="M79.5 209q-22.5 91 -22.5 176t20.5 167.5t51 143t65 100t60 39.5t39.5 -14t14 -31.5t-16.5 -43t-39.5 -58.5t-46 -76t-39.5 -109.5t-16.5 -150t22 -162.5t48.5 -123t48.5 -78.5t22 -45t-7 -19t-22 -8.5q-25 0 -59.5 38.5t-67 101t-55 153.5z" />
    <glyph glyph-name="parenright" unicode=")" horiz-adv-x="337" 
d="M259.5 552.5q20.5 -82.5 20.5 -167.5t-22.5 -176t-55 -153.5t-67 -101t-59.5 -38.5q-15 0 -22 8.5t-7 19t22 45t48.5 78.5t48.5 123t22 162.5t-16.5 150t-39.5 109.5t-46 76t-39.5 58.5t-16.5 43t14 31.5t39.5 14t60 -39.5t65 -100t51 -143z" />
    <glyph glyph-name="asterisk" unicode="*" horiz-adv-x="466" 
d="M199 642l-10 74q0 22 12 35.5t32 13.5t32 -13.5t12 -30.5t-5 -41.5t-5 -37.5q7 5 27 20q39 32 57 32t30 -11t12 -29.5t-16.5 -31t-47.5 -22.5t-36 -13q5 -3 36 -13t47.5 -22.5t16.5 -31.5t-12 -29.5t-26.5 -10.5t-28.5 8t-33.5 23.5t-26.5 20.5l11 -72q0 -22 -12 -36
t-32 -14t-32 14t-12 30.5t5.5 41t5.5 36.5q-7 -5 -26 -20q-40 -32 -58.5 -32t-30.5 10.5t-12 29.5t16.5 31.5t47.5 22.5t36 13q-5 3 -36 13t-47.5 22.5t-16.5 31t12 29.5t26 11t28 -8t33.5 -23.5t26.5 -20.5z" />
    <glyph glyph-name="plus" unicode="+" horiz-adv-x="591" 
d="M108 418l150 -3q0 70 -2 107t-2 39q0 23 11.5 36t30.5 13t31 -13.5t12 -36.5q0 -2 -1 -20q-3 -54 -3 -125l150 2q22 0 36 -12t14 -30t-14 -30t-36 -12l-150 3l4 -159q0 -23 -11.5 -37t-31 -14t-31 14.5t-11.5 37.5l4 159l-150 -3q-22 0 -36 12t-14 30t14 30t36 12z" />
    <glyph glyph-name="comma" unicode="," horiz-adv-x="241" 
d="M172 36q0 -54 -36 -119t-67 -65t-31 26q0 14 15.5 39.5t15.5 45t-4 37.5t-4 40.5t16 43t41.5 20.5t39.5 -18.5t14 -49.5z" />
    <glyph glyph-name="hyphen" unicode="-" horiz-adv-x="488" 
d="M244 336l-119 -3q-22 0 -35.5 12t-13.5 30t13.5 30t35.5 12l119 -3l119 3q22 0 35.5 -12t13.5 -30t-13.5 -30t-35.5 -12z" />
    <glyph glyph-name="period" unicode="." horiz-adv-x="244" 
d="M163.5 102q13.5 -17 13.5 -43.5t-17 -47.5t-41.5 -21t-38.5 18t-14 44t16.5 46.5t42 20.5t39 -17z" />
    <glyph glyph-name="slash" unicode="/" horiz-adv-x="423" 
d="M279.5 822q13.5 13 33.5 13t31.5 -15t11.5 -31t-14 -71.5t-40 -159.5q-99 -387 -137 -578q-12 -64 -52 -64q-22 0 -34.5 14t-12.5 30.5t12 64.5t40 157q66 257 144 605q4 22 17.5 35z" />
    <glyph glyph-name="zero" unicode="0" horiz-adv-x="718" 
d="M550 375q0 125 -51 214t-137 89t-140 -90t-54 -213t54 -213t140 -90t137 89t51 214zM569.5 650q76.5 -115 76.5 -275.5t-76.5 -275t-207.5 -114.5t-210.5 115.5t-79.5 274.5q0 102 33.5 190t101 144t154.5 56q132 0 208.5 -115z" />
    <glyph glyph-name="one" unicode="1" horiz-adv-x="457" 
d="M326 698l-4 -318q0 -101 3.5 -206t3.5 -113q0 -71 -51 -71q-22 0 -34 14t-14.5 29.5t-2.5 32t3 120.5t3 193l-1 246q-44 -65 -70 -104.5t-30.5 -46.5t-11 -16t-11 -14t-10.5 -10q-11 -8 -26.5 -8t-27.5 13t-12 30.5t14.5 40.5t39.5 54.5t27.5 35t6.5 8.5t15 19t31.5 42.5
t30 41.5t22.5 27q22 22 48.5 22t42 -18t15.5 -44z" />
    <glyph glyph-name="two" unicode="2" horiz-adv-x="608" 
d="M306 0l-185 -5q-29 0 -47 13.5t-18 43t36 80t87.5 106.5t103 113t87.5 114t36 104.5t-34.5 78t-84.5 30.5q-28 0 -51 -12.5t-33 -25t-22 -30t-18 -24.5q-16 -21 -37 -21t-34.5 13t-13.5 30q0 42 61 99.5t156 57.5t151 -57t56 -140q0 -52 -41 -122t-91.5 -127.5
t-111.5 -126.5t-85 -105q55 -5 116 -5t125 3.5t82 3.5t34.5 -12.5t16.5 -34.5t-16.5 -34.5t-43.5 -12.5z" />
    <glyph glyph-name="three" unicode="3" horiz-adv-x="618" 
d="M300 750l166 5q27 0 44 -14t17 -36q0 -42 -68.5 -111.5t-109.5 -119.5q95 -25 151 -90t56 -147q0 -100 -69.5 -176t-189.5 -76q-91 0 -160.5 50.5t-69.5 93.5q0 14 10 25.5t25 11.5t33.5 -14.5t36.5 -32.5t54 -32.5t79 -14.5q68 0 111.5 46.5t43.5 116t-49 113.5t-115 50
q-33 -33 -55 -45t-47.5 -12t-39.5 14.5t-14 40t27 50t81 36.5q68 75 157 183q-29 3 -85.5 3t-110.5 -3.5t-70.5 -3.5t-33 12.5t-16.5 34.5t16.5 34.5t43.5 12.5z" />
    <glyph glyph-name="four" unicode="4" horiz-adv-x="638" 
d="M152 327h237q2 72 2 180l-1 124q-129 -153 -238 -304zM477 243l6 -193q0 -27 -13 -43t-36.5 -16t-36.5 16t-13 43l4 197h-69l-228 -5q-26 0 -41 14t-15 35.5t18.5 50t78.5 104.5l204 262q41 52 84 52q26 0 44.5 -16.5t18.5 -53.5q0 -9 -1 -56q-5 -143 -5 -305l51 3
q28 0 44.5 -12.5t16.5 -32.5t-16.5 -32.5t-44.5 -12.5z" />
    <glyph glyph-name="five" unicode="5" horiz-adv-x="635" 
d="M320 750l152 5q27 0 43.5 -12.5t16.5 -34.5t-16.5 -34.5t-33 -12.5t-71 4t-85.5 4t-75.5 -2t-62.5 -2q5 -37 5 -105l-5 -106q68 44 144 44q114 0 177 -70.5t63 -178t-71 -186t-192 -78.5q-95 0 -166 58.5t-71 109.5q0 18 11.5 30t29.5 12q32 0 50 -33q50 -90 153 -90
q69 0 115 54t46 125t-40.5 117.5t-109.5 46.5q-65 0 -143 -56q-27 -19 -43 -19q-50 0 -50 50q0 13 7 71t7 98.5t-6 81.5t-6 58q0 55 66 55z" />
    <glyph glyph-name="six" unicode="6" horiz-adv-x="637" 
d="M436.5 119.5q42.5 47.5 42.5 116.5t-40.5 116.5t-108 47.5t-113.5 -52t-46 -117.5t46.5 -112t111.5 -46.5t107.5 47.5zM512 414q62 -73 62 -173.5t-65 -177.5t-183 -77t-186 84.5t-68 214.5q0 196 111 335.5t278 139.5q37 0 56.5 -12t19.5 -31q0 -48 -65 -48
q-109 0 -190.5 -73.5t-104.5 -179.5q69 71 171 71t164 -73z" />
    <glyph glyph-name="seven" unicode="7" horiz-adv-x="550" 
d="M268 750l166 4q81 0 81 -59q0 -22 -21.5 -65t-64.5 -123q-114 -212 -190 -476q-12 -40 -49 -40q-20 0 -33 14t-13 42t22.5 90t66.5 164.5t81 180t58 119.5t28 62q-52 5 -112.5 5t-120 -3.5t-76.5 -3.5t-33.5 12.5t-16.5 34.5t16.5 34.5t43.5 12.5z" />
    <glyph glyph-name="eight" unicode="8" horiz-adv-x="636" 
d="M434 590q0 37 -35.5 62.5t-80 25.5t-80.5 -26t-36 -62t31 -65t87 -61q54 30 84 59.5t30 66.5zM471 204q0 100 -153 167q-153 -67 -153 -167q0 -59 44 -95t109 -36t109 36t44 95zM567 204q0 -91 -70 -155t-179 -64t-179 64t-70 155q0 133 163 215q-123 72 -123 171
q0 72 59.5 124t149 52t149.5 -52t60 -124q0 -96 -116 -171q156 -83 156 -215z" />
    <glyph glyph-name="nine" unicode="9" horiz-adv-x="635" 
d="M200 631q-43 -47 -43 -116t39.5 -116t107.5 -47t113 51.5t45 117.5t-44.5 111.5t-109.5 45.5t-108 -47zM123 341q-62 76 -62 175.5t68 174t183 74.5t183 -84t68 -215q0 -203 -110.5 -341.5t-278.5 -138.5q-37 0 -56.5 12t-19.5 31q0 46 66 46q109 0 190 75.5t105 186.5
q-72 -72 -173 -72t-163 76z" />
    <glyph glyph-name="colon" unicode=":" horiz-adv-x="263" 
d="M173.5 102q13.5 -17 13.5 -43.5t-17 -47.5t-41.5 -21t-38.5 18t-14 44t16.5 46.5t42 20.5t39 -17zM173.5 487q13.5 -17 13.5 -43t-17 -47.5t-41.5 -21.5t-38.5 18t-14 44t16.5 46.5t42 20.5t39 -17z" />
    <glyph glyph-name="semicolon" unicode=";" horiz-adv-x="273" 
d="M191 36q0 -54 -36 -119t-67 -65t-31 26q0 14 15.5 39.5t15.5 45t-4 37.5t-4 40.5t16 43t41.5 20.5t39.5 -18.5t14 -49.5zM178.5 487q13.5 -17 13.5 -43t-17 -47.5t-41.5 -21.5t-38.5 18t-14 44t16.5 46.5t42 20.5t39 -17z" />
    <glyph glyph-name="less" unicode="&#x3c;" horiz-adv-x="610" 
d="M80 376q0 18 8.5 32t31.5 27.5t41 21.5t61.5 24.5t70 27.5t64.5 27t57.5 24.5t42.5 17.5q42 15 60.5 15t30.5 -10.5t12 -26.5q0 -27 -34 -42q-37 -15 -95 -36.5t-82 -31.5q-152 -60 -152 -70q0 -8 113 -54l38 -16q24 -10 82 -31.5t95 -36.5q34 -15 34 -42
q0 -16 -12 -26.5t-25.5 -10.5t-28 3.5t-37.5 12t-42 17.5q-110 47 -173 71t-80.5 32t-40.5 21.5t-31.5 27.5t-8.5 32z" />
    <glyph glyph-name="equal" unicode="=" horiz-adv-x="652" 
d="M321 258l-184 -3q-22 0 -35.5 12t-13.5 30t13.5 30t35.5 12l184 -3l194 3q22 0 35.5 -12t13.5 -30t-13.5 -30t-35.5 -12zM321 412l-184 -3q-22 0 -35.5 12t-13.5 30t13.5 30t35.5 12l184 -3l194 3q22 0 35.5 -12t13.5 -30t-13.5 -30t-35.5 -12z" />
    <glyph glyph-name="greater" unicode="&#x3e;" horiz-adv-x="610" 
d="M530 376q0 -18 -8.5 -32t-31.5 -27.5t-40.5 -21.5t-61 -24.5t-70 -27.5t-64.5 -27t-57.5 -24.5t-42.5 -17.5q-42 -15 -60.5 -15t-30.5 10.5t-12 26.5q0 27 34 42q37 15 95 36.5t82 31.5q151 60 151 70q0 8 -114 54l-38 16q-24 10 -82 31.5t-95 36.5q-34 15 -34 42
q0 16 12 26.5t25.5 10.5t28 -3.5t37.5 -12t43 -17.5q109 -47 172 -71t81 -32t41 -21.5t31.5 -27.5t8.5 -32z" />
    <glyph glyph-name="question" unicode="?" horiz-adv-x="511" 
d="M259 95q13 -17 13 -42.5t-17 -46.5t-41 -21t-37.5 18.5t-13.5 43.5t16.5 45t41.5 20t38 -17zM451 580q0 -38 -16.5 -74t-32 -54.5t-47.5 -51.5q-30 -25 -45.5 -39.5t-30 -38.5t-14.5 -48q0 -66 -45 -66q-20 0 -33 17.5t-13 46.5t8 53t28 47q25 31 73 74q24 27 36 42
t24 41t12 51q0 43 -32.5 70.5t-73.5 27.5q-61 0 -105 -44q-24 -28 -43.5 -28t-30.5 12.5t-11 29.5q0 38 57.5 78t127.5 40q92 0 149.5 -53.5t57.5 -132.5z" />
    <glyph glyph-name="at" unicode="@" horiz-adv-x="928" 
d="M556 334v119q-49 36 -95.5 36t-80 -41.5t-33.5 -99t20 -96.5t60.5 -39t73 35t55.5 86zM859 369q0 -103 -50.5 -172.5t-121.5 -69.5q-89 0 -117 83q-57 -83 -146 -83q-44 0 -79 21t-55 54q-38 65 -38 140q0 95 58.5 164.5t149.5 69.5q49 0 99 -36q13 36 46 36q54 0 54 -80
q0 -10 -10 -75t-10 -108q0 -104 47 -104q32 0 57.5 38.5t25.5 123.5q0 150 -88.5 228.5t-217.5 78.5t-219 -97t-90 -242.5t77 -229t185 -83.5q53 0 110 22.5t61 22.5q16 0 26 -9.5t10 -24.5q0 -27 -61.5 -59.5t-149.5 -32.5q-149 0 -251 109.5t-102 284t116 300.5t287.5 126
t284 -107t112.5 -289z" />
    <glyph glyph-name="A" unicode="A" horiz-adv-x="682" 
d="M227 328q64 -2 123.5 -2t95.5 2q-106 305 -107 305q-6 0 -85 -229zM471 241l-129 3q-96 0 -140 -2q-11 -33 -31.5 -103.5t-33.5 -109.5t-46 -39q-19 0 -30.5 12t-11.5 26.5t1.5 23.5t7 27t10.5 34q30 86 43 126q-29 0 -45.5 12.5t-16.5 33.5q0 47 74 47h18
q57 160 113 312l6 17q19 55 32 69q26 30 43.5 30t26.5 -3t17 -11t13.5 -17t13 -28t12.5 -35q49 -147 121 -334l36 1q26 0 42.5 -14t16.5 -35q0 -44 -66 -47q10 -32 28 -81q38 -106 38 -122.5t-11.5 -30t-31.5 -13.5q-36 0 -52 39q-17 49 -68 212z" />
    <glyph glyph-name="B" unicode="B" horiz-adv-x="695" 
d="M311 679q-47 0 -95 -12q-3 -52 -3 -224q20 5 67.5 5t84.5 -8q37 2 82 38t45 95q0 41 -44 73.5t-137 32.5zM311 72q105 0 167 37.5t62 108.5q0 56 -51 93.5t-110 47.5q-61 -14 -101 -14t-65 4q0 -190 3 -271q25 -6 95 -6zM637 212q0 -109 -88 -168t-235 -59
q-108 0 -178 23t-70 60.5t53 37.5q3 103 3 275t-4 245q-22 0 -32.5 14t-10.5 32q0 31 48 54q84 39 188 39q71 0 125.5 -18.5t85.5 -48.5q61 -59 61 -124q0 -106 -97 -165q66 -24 108.5 -78.5t42.5 -118.5z" />
    <glyph glyph-name="C" unicode="C" horiz-adv-x="698" 
d="M650 106q0 -36 -74.5 -78.5t-175.5 -42.5q-143 0 -238 114t-95 277t95.5 276t239.5 113q88 0 157.5 -33t69.5 -74q0 -20 -12 -32t-32.5 -12t-54.5 23q-64 41 -128 41q-104 0 -171.5 -89.5t-67.5 -212t67.5 -213.5t165.5 -91t179 49q33 18 44.5 18t21 -9.5t9.5 -23.5z" />
    <glyph glyph-name="D" unicode="D" horiz-adv-x="749" 
d="M568 265q18 54 18 122t-31 135t-98 111.5t-159 44.5q-32 0 -81 -7q-3 -62 -3 -280.5t5 -315.5q24 -3 90 -3t120 26t87.5 69.5t51.5 97.5zM123 376l-5 270q-47 5 -47 44q0 19 23 34t58 24q69 16 154 16t159.5 -33t120.5 -89q96 -115 96 -270q0 -151 -92 -264
q-45 -56 -117 -89.5t-170 -33.5t-167 23t-69 60t53 37z" />
    <glyph glyph-name="E" unicode="E" horiz-adv-x="629" 
d="M509 662l-159 6q-77 0 -137 -5v-222q19 -1 66 -1l179 5q27 0 43 -12.5t16 -33.5q0 -44 -59 -44l-179 4q-43 0 -66 -1v-79q0 -146 4 -192q60 -5 136 -5l159 6q27 0 43.5 -12.5t16.5 -34.5t-16.5 -34.5t-43.5 -12.5l-159 6l-181 -5q-54 0 -54 46q0 35 2.5 114.5t2.5 199.5
q-67 0 -67 44q0 23 19 34.5t48 11.5q-2 187 -7 225q-12 19 -12 40q0 45 62 45l184 -5l159 6q27 0 43.5 -12.5t16.5 -34.5t-16.5 -34.5t-43.5 -12.5z" />
    <glyph glyph-name="F" unicode="F" horiz-adv-x="606" 
d="M279 440l170 5q27 0 43 -12.5t16 -33.5q0 -44 -59 -44l-170 4q-44 0 -67 -1q0 -131 3 -210t3 -87q0 -71 -51 -71t-51 71q0 8 2 47q4 117 4 247q-67 0 -67 44q0 23 19 34.5t48 11.5q-2 187 -7 225q-12 19 -12 40q0 45 62 45l185 -5l160 6q27 0 43.5 -12.5t16.5 -34.5
t-16.5 -34.5t-43.5 -12.5l-160 6q-78 0 -138 -5v-222q19 -1 67 -1z" />
    <glyph glyph-name="G" unicode="G" horiz-adv-x="762" 
d="M521 398l126 6q27 0 43.5 -13t16.5 -38q0 -170 -85.5 -269t-225 -99t-234.5 114t-95 277t98 276t248 113q93 0 169.5 -37t76.5 -80q0 -19 -11.5 -30t-34 -11t-60.5 27q-61 44 -140 44q-108 0 -179 -89t-71 -211.5t68 -214t171 -91.5q85 0 142 63t61 179q-33 3 -84 3
l-135 -5q-27 0 -42 12t-15 32.5t15 33.5t42 13z" />
    <glyph glyph-name="H" unicode="H" horiz-adv-x="758" 
d="M548 353l-172 2q-116 0 -168 -1q0 -79 3 -183.5t3 -109.5q0 -71 -51 -71t-51 71q0 5 3 108t3 182q-64 0 -64 45q0 21 16.5 33.5t47.5 12.5q0 79 -3 160.5t-3 86.5q0 71 51 71t51 -71q0 -5 -3 -88t-3 -162q98 -2 195 -2t145 2q0 79 -2.5 162t-2.5 88q0 71 51 71t51 -71
q0 -5 -3 -86t-3 -160q30 0 47.5 -13t17.5 -34t-17.5 -33.5t-47.5 -12.5q0 -79 3 -181.5t3 -107.5q0 -71 -51 -71t-51 71z" />
    <glyph glyph-name="I" unicode="I" horiz-adv-x="476" 
d="M369 661l-82 4q-4 -97 -4 -278.5t5 -303.5l81 4q27 0 43.5 -12.5t16.5 -34t-16.5 -34t-43.5 -12.5l-131 6l-131 -6q-27 0 -43.5 12.5t-16.5 34t16.5 34t43.5 12.5l81 -5q5 122 5 304t-4 279l-82 -4q-27 0 -43.5 13t-16.5 35t16.5 34.5t43.5 12.5l131 -6l131 6
q27 0 43.5 -12.5t16.5 -34.5t-16.5 -35t-43.5 -13z" />
    <glyph glyph-name="J" unicode="J" horiz-adv-x="563" 
d="M313 750l139 6q27 0 43.5 -12.5t16.5 -34t-19 -34.5t-49 -13q-1 -62 -1 -405q0 -73 -19.5 -128t-52.5 -85q-65 -59 -146 -59t-132.5 34.5t-51.5 67.5q0 19 11.5 30.5t28.5 11.5t33.5 -14t42.5 -28.5t65 -14.5q53 0 92 49.5t39 156.5l-3 389q-59 0 -107 -3t-67 -3
t-35.5 12.5t-16.5 34.5t16.5 34.5t43.5 12.5z" />
    <glyph glyph-name="K" unicode="K" horiz-adv-x="658" 
d="M203 337l5 -290q0 -24 -15 -40.5t-35.5 -16.5t-35 16.5t-14.5 40.5l4 325l-4 330q0 24 14.5 40.5t35 16.5t35.5 -16.5t15 -40.5l-2 -90q-3 -90 -3 -178q24 8 69 8l48 -6q48 40 89.5 120t58.5 155q10 49 48 49q18 0 30 -12t12 -31q0 -66 -51.5 -168t-111.5 -168
q34 -67 81.5 -148t77.5 -119.5t62 -38.5l11 1q7 0 7 -22t-18 -43t-45.5 -21t-54.5 24q-53 49 -206 327q-12 0 -31 -3.5t-41 -3.5t-35 3z" />
    <glyph glyph-name="L" unicode="L" horiz-adv-x="584" 
d="M110 54l4 326q0 131 -3 216t-3 93q0 71 51 71t51 -71q0 -8 -2 -51q-4 -127 -4 -232.5t1 -165t3 -101t2 -52.5q48 -5 104 -5t109 3.5t69.5 3.5t33 -12.5t16.5 -34.5t-16.5 -34.5t-43.5 -12.5l-149 5l-162 -5q-30 0 -45.5 12.5t-15.5 46.5z" />
    <glyph glyph-name="M" unicode="M" horiz-adv-x="862" 
d="M108 48l5 324q0 103 -2.5 212.5t-2.5 112.5q0 29 14.5 46t35.5 17q32 0 50 -39l223 -479q92 194 203 442q22 49 34 62.5t34.5 13.5t37 -16.5t14.5 -46.5q-5 -26 -5 -227t3 -310t3 -112q0 -26 -14 -42t-36.5 -16t-36.5 16t-14 33.5t2 64.5q5 119 5 268v153l-181 -381
q-17 -35 -46 -35t-47 37l-184 379v-153q0 -103 3 -212t3 -112q0 -26 -14 -42t-36.5 -16t-36.5 16t-14 42z" />
    <glyph glyph-name="N" unicode="N" horiz-adv-x="733" 
d="M621 372l3 -310q0 -72 -53 -72q-33 0 -50 31l-317 546q0 -326 2.5 -418.5t2.5 -109t-15 -33t-35.5 -16.5t-35 16.5t-14.5 41.5l4 324q0 103 -2.5 209t-2.5 108q0 71 51 71q37 0 55 -31q291 -500 317 -540q0 283 -3 390t-3 110q0 71 51 71t51 -71q0 -8 -1 -53
q-5 -133 -5 -264z" />
    <glyph glyph-name="O" unicode="O" 
d="M747 376q0 -163 -97.5 -277t-243 -114t-242.5 114t-97 277t98 276t243.5 113t242 -113t96.5 -276zM581.5 164q69.5 92 69.5 213t-69 211.5t-174.5 90.5t-175 -90.5t-69.5 -211t70 -213t174.5 -92.5t174 92z" />
    <glyph glyph-name="P" unicode="P" horiz-adv-x="641" 
d="M109 48l8 334q0 251 -6 251q-22 0 -33 11.5t-11 31t27.5 38.5t67.5 30q82 21 141 21q144 0 220 -71.5t76 -169.5t-76 -169t-194 -71q-78 0 -123 11l5 -247q0 -26 -14 -42t-36.5 -16t-37 16t-14.5 42zM309 679q-65 0 -102 -13q-3 -46 -3 -142.5t2 -139.5q57 -15 125.5 -15
t120 44.5t51.5 110t-51.5 110.5t-142.5 45z" />
    <glyph glyph-name="Q" unicode="Q" horiz-adv-x="794" 
d="M631 376q0 122 -66.5 212.5t-167.5 90.5t-167.5 -90.5t-66.5 -211t67 -213t167 -92.5q33 0 62 9q-16 25 -34 51q-28 40 -28 60t11 31t30.5 11t35.5 -26q18 -30 49 -92q50 42 79 112t29 148zM727 376q0 -107 -42 -196.5t-114 -141.5q18 -26 26 -38q22 -31 22 -51
t-11 -31.5t-30.5 -11.5t-36.5 27l-39 70q-54 -18 -106 -18q-140 0 -234.5 114t-94.5 276.5t95 276t236 113.5t235 -113t94 -276z" />
    <glyph glyph-name="R" unicode="R" horiz-adv-x="676" 
d="M614 76l16 2q9 0 9 -24t-21 -44t-47 -20q-45 0 -86 58q-53 72 -135 253q-41 -6 -92 -6l-52 4q0 -70 3 -139t3 -99q0 -71 -51 -71t-51 71q0 40 3.5 138.5t3.5 197.5t-6 235q-23 0 -33.5 12t-10.5 28q0 43 83 68t148 25q141 0 214 -65.5t73 -160.5q0 -61 -41 -119.5
t-107 -89.5q46 -106 83.5 -166t56.5 -74t37 -14zM489 533q0 66 -47.5 106t-137.5 40q-61 0 -97 -13q-3 -90 -3 -174t1 -97q48 9 88.5 9t86.5 -9q41 9 75 49t34 89z" />
    <glyph glyph-name="S" unicode="S" horiz-adv-x="596" 
d="M542 204q0 -93 -70.5 -156t-182.5 -63q-87 0 -162 42t-75 82q0 18 12 30t30.5 12t37.5 -12.5t35 -27t48.5 -27t73.5 -12.5q68 0 112.5 35t44.5 97q0 41 -38 78t-92 67t-108 61.5t-92 77t-38 98.5q0 73 64 126t151 53t148 -29.5t61 -67.5q0 -19 -12 -30t-32 -11t-39 13
t-47 26t-75 13t-85 -26t-38 -64t38 -70.5t92 -62.5t108 -63t92 -82t38 -107z" />
    <glyph glyph-name="T" unicode="T" horiz-adv-x="563" 
d="M97 756l189 -6l183 6q27 0 43.5 -12.5t16.5 -34.5t-16.5 -34.5t-43.5 -12.5l-134 6q-4 -97 -4 -296l6 -324q0 -26 -14 -42t-36.5 -16t-37 16t-14.5 42l6 324q0 174 -5 296l-139 -6q-27 0 -43.5 12.5t-16.5 34.5t16.5 34.5t43.5 12.5z" />
    <glyph glyph-name="U" unicode="U" horiz-adv-x="733" 
d="M366 -15q-124 0 -190 77t-68 187q-1 52 -1 129t-1.5 147.5t-3 113t-1.5 50.5q0 71 51 71t51 -71q0 -8 -1 -63q-5 -167 -5 -260.5t7 -135.5t24 -80q36 -78 138 -78q146 0 166 177q4 35 4 94.5t-1.5 143t-3 139t-1.5 63.5q0 71 51 71t51 -71q0 -8 -2 -51q-4 -127 -4 -232
t-1 -157q-2 -111 -68.5 -187.5t-190.5 -76.5z" />
    <glyph glyph-name="V" unicode="V" horiz-adv-x="663" 
d="M392 40q-17 -50 -60.5 -50t-60.5 50q-146 410 -155.5 439.5t-33 93.5t-35.5 96.5t-12 46.5t12.5 29t34.5 15q38 0 53 -45q190 -582 197 -582q11 0 201 582q15 45 48 45q22 0 34.5 -15t12.5 -29t-12 -46q-57 -155 -67.5 -187.5t-156.5 -442.5z" />
    <glyph glyph-name="W" unicode="W" horiz-adv-x="949" 
d="M709 38q-17 -48 -61 -48t-60 45q-13 36 -62.5 202.5t-51.5 166.5t-23.5 -73t-48.5 -167t-37 -126q-15 -48 -59 -48t-61 45q-5 13 -23 71.5t-43.5 139.5t-37.5 118.5t-29 89t-28 85t-23 72.5q-24 78 -24 100t13 35.5t31 13.5q40 0 54 -45q62 -197 118 -396.5t57 -199.5
q4 0 49.5 157t59.5 219q5 22 20.5 38.5t37.5 16.5q45 0 59 -51q111 -380 119 -380l35 128q35 128 76 280t51 188q12 45 45 45q23 0 35 -14.5t12 -36.5t-47 -176t-78 -253q-57 -187 -75 -242z" />
    <glyph glyph-name="X" unicode="X" horiz-adv-x="665" 
d="M323 311q-21 -33 -68 -109.5t-57.5 -92t-18.5 -29t-12.5 -19.5t-11.5 -17t-11 -16l-10 -12q-16 -21 -25 -23.5t-22 -2.5t-25 12t-12 26t6.5 28.5t25 43t40.5 60.5q91 134 151 227q-90 160 -148 249q-24 36 -56 36q-18 0 -22 6t-4 17q0 31 18.5 49.5t43.5 18.5t44.5 -13
t46.5 -52q10 -16 135 -233q25 40 93 152.5t82.5 127.5t32.5 15t29.5 -12.5t11.5 -31.5q0 -21 -160 -266q-20 -32 -39 -62q138 -220 175.5 -265t64.5 -45q15 0 18.5 -5.5t3.5 -15.5q0 -31 -18.5 -50.5t-44.5 -19.5q-40 0 -90 66q-27 36 -167 258z" />
    <glyph glyph-name="Y" unicode="Y" horiz-adv-x="597" 
d="M342 303q0 -80 2 -161l3 -81q0 -71 -51 -71t-51 71l3 83q2 83 2 160q-199 342 -212 369t-13 44t12 30t34.5 13t38.5 -21.5t74.5 -135.5t116.5 -202q24 36 84.5 148t70 128.5t13.5 24t11.5 19.5t12 17.5t10.5 11.5q10 10 28 10t29.5 -12t11.5 -29t-14.5 -44.5t-63 -110.5
t-62.5 -106.5t-39.5 -68t-50.5 -86.5z" />
    <glyph glyph-name="Z" unicode="Z" horiz-adv-x="608" 
d="M330 0l-229 -5q-57 0 -57 43q0 20 24.5 61t87.5 136.5t101.5 159.5t74.5 121q74 121 88 148q-45 4 -109 4t-126 -3.5t-79.5 -3.5t-34 12.5t-16.5 34.5t16.5 34.5t43.5 12.5l175 -5l203 5q57 0 57 -41q0 -21 -21 -57t-78 -122.5t-91 -144t-88 -144t-97 -159.5
q57 -5 127.5 -5t132.5 3.5t79.5 3.5t34 -12.5t16.5 -34.5t-16.5 -34.5t-43.5 -12.5z" />
    <glyph glyph-name="bracketleft" unicode="[" horiz-adv-x="428" 
d="M188 0l144 3q27 0 43.5 -12t16.5 -32.5t-16.5 -32.5t-43.5 -12l-94 3l-97 -4q-24 0 -39 12.5t-15 28.5t3 150.5t3 270.5t-3.5 265.5t-3.5 149.5t15 34.5t40 14.5l97 -4l94 3q26 0 43 -12.5t17 -32.5t-17 -32.5t-43 -12.5q-5 0 -23 1q-36 2 -121 2q0 -3 -3 -132.5t-3 -242
t3 -240.5t3 -136z" />
    <glyph glyph-name="backslash" unicode="\" horiz-adv-x="423" 
d="M78.5 820q11.5 15 31.5 15t33.5 -13t17.5 -35q78 -348 125 -531q71 -276 71 -294t-12.5 -32t-34.5 -14q-40 0 -52 64q-38 191 -100 436q-91 356 -91 372.5t11.5 31.5z" />
    <glyph glyph-name="bracketright" unicode="]" horiz-adv-x="428" 
d="M240 752l-144 -3q-27 0 -43.5 12t-16.5 32.5t16.5 32.5t43.5 12l94 -3l97 4q24 0 39 -12.5t15 -28.5t-3 -150.5t-3 -270.5t3.5 -265.5t3.5 -149.5t-15 -34.5t-40 -14.5l-97 4l-94 -3q-26 0 -43 12.5t-17 32.5t17 32.5t43 12.5l144 -3q0 3 3 132.5t3 242t-3 240.5t-3 136z
" />
    <glyph glyph-name="asciicircum" unicode="^" horiz-adv-x="581" 
d="M74 458q22 38 83 136.5t81.5 132t53 33.5t53.5 -35q165 -266 175.5 -288t10.5 -35.5t-12 -25.5t-27 -12q-30 0 -43 27q-37 68 -95 168.5t-62.5 100.5t-62 -99.5t-95.5 -169.5q-14 -27 -36 -27t-34 12t-12 28t22 54z" />
    <glyph glyph-name="underscore" unicode="_" horiz-adv-x="616" 
d="M308 -86l-199 -3q-22 0 -35.5 12t-13.5 30t13.5 30t35.5 12l199 -3l199 3q22 0 35.5 -12t13.5 -30t-13.5 -30t-35.5 -12z" />
    <glyph glyph-name="grave" unicode="`" horiz-adv-x="320" 
d="M80 696q0 17 11.5 30.5t29 13.5t30 -9.5t18 -19t14.5 -29.5t33 -49.5t24 -41.5t-8.5 -20t-24.5 -8q-32 0 -79.5 44.5t-47.5 88.5z" />
    <glyph glyph-name="a" unicode="a" horiz-adv-x="800" 
d="M564 355l-6 245q-85 78 -182 78q-84 0 -148.5 -90t-64.5 -217.5t42 -213t120 -85.5t141 79.5t98 203.5zM643 367q0 -112 14.5 -189.5t35.5 -87.5q8 -4 19 -5.5t16 -4.5t5 -11q0 -36 -20 -59t-53 -23q-44 0 -66 50t-22 128q-34 -76 -100.5 -128t-151.5 -52
q-63 0 -113 34.5t-79 90.5q-61 115 -61 253q0 105 37.5 196.5t109.5 148.5t169 57t173 -69q0 69 51 69q63 0 63 -101q0 -75 -27 -297z" />
    <glyph glyph-name="b" unicode="b" horiz-adv-x="695" 
d="M311 679q-47 0 -95 -12q-3 -52 -3 -224q20 5 67.5 5t84.5 -8q37 2 82 38t45 95q0 41 -44 73.5t-137 32.5zM311 72q105 0 167 37.5t62 108.5q0 56 -51 93.5t-110 47.5q-61 -14 -101 -14t-65 4q0 -190 3 -271q25 -6 95 -6zM637 212q0 -109 -88 -168t-235 -59
q-108 0 -178 23t-70 60.5t53 37.5q3 103 3 275t-4 245q-22 0 -32.5 14t-10.5 32q0 31 48 54q84 39 188 39q71 0 125.5 -18.5t85.5 -48.5q61 -59 61 -124q0 -106 -97 -165q66 -24 108.5 -78.5t42.5 -118.5z" />
    <glyph glyph-name="c" unicode="c" horiz-adv-x="698" 
d="M650 106q0 -36 -74.5 -78.5t-175.5 -42.5q-143 0 -238 114t-95 277t95.5 276t239.5 113q88 0 157.5 -33t69.5 -74q0 -20 -12 -32t-32.5 -12t-54.5 23q-64 41 -128 41q-104 0 -171.5 -89.5t-67.5 -212t67.5 -213.5t165.5 -91t179 49q33 18 44.5 18t21 -9.5t9.5 -23.5z" />
    <glyph glyph-name="d" unicode="d" horiz-adv-x="749" 
d="M568 265q18 54 18 122t-31 135t-98 111.5t-159 44.5q-32 0 -81 -7q-3 -62 -3 -280.5t5 -315.5q24 -3 90 -3t120 26t87.5 69.5t51.5 97.5zM123 376l-5 270q-47 5 -47 44q0 19 23 34t58 24q69 16 154 16t159.5 -33t120.5 -89q96 -115 96 -270q0 -151 -92 -264
q-45 -56 -117 -89.5t-170 -33.5t-167 23t-69 60t53 37z" />
    <glyph glyph-name="e" unicode="e" horiz-adv-x="735" 
d="M615.5 704q71.5 -61 71.5 -147t-45 -141q-82 -101 -257 -101q-71 0 -179 20q9 -108 71.5 -185.5t146.5 -77.5q48 0 89 13t62.5 28.5t41.5 28.5t35 13t25 -10t10 -29t-35 -50t-96.5 -56t-130 -25t-129.5 31t-100 83q-81 108 -87 253q-72 22 -72 71q0 20 11.5 31.5
t26.5 11.5t42 -12q31 134 116.5 222.5t209.5 88.5q101 0 172.5 -61zM591 553q0 47 -38.5 86t-105.5 39t-119 -40q-93 -73 -120 -217q76 -21 171.5 -21t153.5 40t58 113z" />
    <glyph glyph-name="f" unicode="f" horiz-adv-x="606" 
d="M279 440l170 5q27 0 43 -12.5t16 -33.5q0 -44 -59 -44l-170 4q-44 0 -67 -1q0 -131 3 -210t3 -87q0 -71 -51 -71t-51 71q0 8 2 47q4 117 4 247q-67 0 -67 44q0 23 19 34.5t48 11.5q-2 187 -7 225q-12 19 -12 40q0 45 62 45l185 -5l160 6q27 0 43.5 -12.5t16.5 -34.5
t-16.5 -34.5t-43.5 -12.5l-160 6q-78 0 -138 -5v-222q19 -1 67 -1z" />
    <glyph glyph-name="g" unicode="g" horiz-adv-x="762" 
d="M521 398l126 6q27 0 43.5 -13t16.5 -38q0 -170 -85.5 -269t-225 -99t-234.5 114t-95 277t98 276t248 113q93 0 169.5 -37t76.5 -80q0 -19 -11.5 -30t-34 -11t-60.5 27q-61 44 -140 44q-108 0 -179 -89t-71 -211.5t68 -214t171 -91.5q85 0 142 63t61 179q-33 3 -84 3
l-135 -5q-27 0 -42 12t-15 32.5t15 33.5t42 13z" />
    <glyph glyph-name="h" unicode="h" horiz-adv-x="758" 
d="M548 353l-172 2q-116 0 -168 -1q0 -79 3 -183.5t3 -109.5q0 -71 -51 -71t-51 71q0 5 3 108t3 182q-64 0 -64 45q0 21 16.5 33.5t47.5 12.5q0 79 -3 160.5t-3 86.5q0 71 51 71t51 -71q0 -5 -3 -88t-3 -162q98 -2 195 -2t145 2q0 79 -2.5 162t-2.5 88q0 71 51 71t51 -71
q0 -5 -3 -86t-3 -160q30 0 47.5 -13t17.5 -34t-17.5 -33.5t-47.5 -12.5q0 -79 3 -181.5t3 -107.5q0 -71 -51 -71t-51 71z" />
    <glyph glyph-name="i" unicode="i" horiz-adv-x="476" 
d="M369 661l-82 4q-4 -97 -4 -278.5t5 -303.5l81 4q27 0 43.5 -12.5t16.5 -34t-16.5 -34t-43.5 -12.5l-131 6l-131 -6q-27 0 -43.5 12.5t-16.5 34t16.5 34t43.5 12.5l81 -5q5 122 5 304t-4 279l-82 -4q-27 0 -43.5 13t-16.5 35t16.5 34.5t43.5 12.5l131 -6l131 6
q27 0 43.5 -12.5t16.5 -34.5t-16.5 -35t-43.5 -13z" />
    <glyph glyph-name="j" unicode="j" horiz-adv-x="563" 
d="M313 750l139 6q27 0 43.5 -12.5t16.5 -34t-19 -34.5t-49 -13q-1 -62 -1 -405q0 -73 -19.5 -128t-52.5 -85q-65 -59 -146 -59t-132.5 34.5t-51.5 67.5q0 19 11.5 30.5t28.5 11.5t33.5 -14t42.5 -28.5t65 -14.5q53 0 92 49.5t39 156.5l-3 389q-59 0 -107 -3t-67 -3
t-35.5 12.5t-16.5 34.5t16.5 34.5t43.5 12.5z" />
    <glyph glyph-name="k" unicode="k" horiz-adv-x="658" 
d="M203 337l5 -290q0 -24 -15 -40.5t-35.5 -16.5t-35 16.5t-14.5 40.5l4 325l-4 330q0 24 14.5 40.5t35 16.5t35.5 -16.5t15 -40.5l-2 -90q-3 -90 -3 -178q24 8 69 8l48 -6q48 40 89.5 120t58.5 155q10 49 48 49q18 0 30 -12t12 -31q0 -66 -51.5 -168t-111.5 -168
q34 -67 81.5 -148t77.5 -119.5t62 -38.5l11 1q7 0 7 -22t-18 -43t-45.5 -21t-54.5 24q-53 49 -206 327q-12 0 -31 -3.5t-41 -3.5t-35 3z" />
    <glyph glyph-name="l" unicode="l" horiz-adv-x="584" 
d="M110 54l4 326q0 131 -3 216t-3 93q0 71 51 71t51 -71q0 -8 -2 -51q-4 -127 -4 -232.5t1 -165t3 -101t2 -52.5q48 -5 104 -5t109 3.5t69.5 3.5t33 -12.5t16.5 -34.5t-16.5 -34.5t-43.5 -12.5l-149 5l-162 -5q-30 0 -45.5 12.5t-15.5 46.5z" />
    <glyph glyph-name="m" unicode="m" horiz-adv-x="1208" 
d="M1078 460l-7 -242q0 -38 1 -57t8 -40t21 -27q8 -4 19 -5.5t16 -4.5t5 -11q0 -35 -22 -58.5t-52 -23.5q-51 0 -70.5 40t-19.5 119l5 279q0 109 -37 175.5t-103 66.5t-128.5 -88t-87.5 -200l4 -323q0 -34 -11 -51.5t-40 -17.5q-62 0 -62 100t27 292q0 288 -143 288
q-64 0 -126.5 -88t-87.5 -200l4 -323q0 -69 -51 -69q-62 0 -62 100t27 292q0 66 -11.5 177.5t-11.5 137t14 44t38.5 18.5t38.5 -18.5t14 -41.5t-0.5 -55.5t-0.5 -55.5q92 171 234 171q82 0 133.5 -46.5t71.5 -124.5q95 171 235 171q104 0 161 -87.5t57 -212.5z" />
    <glyph glyph-name="n" unicode="n" horiz-adv-x="795" 
d="M665 497l-7 -282q0 -38 1 -57t8 -40t21 -27q8 -4 19 -5.5t16 -4.5t5 -11q0 -35 -22 -58.5t-52 -23.5q-52 0 -71.5 40t-19.5 119l6 284q0 108 -40 174t-112 66t-138.5 -87.5t-92.5 -198.5l4 -328q0 -69 -51 -69q-62 0 -62 104.5t27 292.5q0 65 -11.5 176.5t-11.5 136.5
t14 43.5t38.5 18.5t38.5 -18.5t14 -41.5t-0.5 -55.5t-0.5 -55.5q98 171 248 171q111 0 171.5 -76.5t60.5 -186.5z" />
    <glyph glyph-name="o" unicode="o" 
d="M747 376q0 -163 -97.5 -277t-243 -114t-242.5 114t-97 277t98 276t243.5 113t242 -113t96.5 -276zM581.5 164q69.5 92 69.5 213t-69 211.5t-174.5 90.5t-175 -90.5t-69.5 -211t70 -213t174.5 -92.5t174 92z" />
    <glyph glyph-name="p" unicode="p" horiz-adv-x="641" 
d="M109 48l8 334q0 251 -6 251q-22 0 -33 11.5t-11 31t27.5 38.5t67.5 30q82 21 141 21q144 0 220 -71.5t76 -169.5t-76 -169t-194 -71q-78 0 -123 11l5 -247q0 -26 -14 -42t-36.5 -16t-37 16t-14.5 42zM309 679q-65 0 -102 -13q-3 -46 -3 -142.5t2 -139.5q57 -15 125.5 -15
t120 44.5t51.5 110t-51.5 110.5t-142.5 45z" />
    <glyph glyph-name="q" unicode="q" horiz-adv-x="794" 
d="M631 376q0 122 -66.5 212.5t-167.5 90.5t-167.5 -90.5t-66.5 -211t67 -213t167 -92.5q33 0 62 9q-16 25 -34 51q-28 40 -28 60t11 31t30.5 11t35.5 -26q18 -30 49 -92q50 42 79 112t29 148zM727 376q0 -107 -42 -196.5t-114 -141.5q18 -26 26 -38q22 -31 22 -51
t-11 -31.5t-30.5 -11.5t-36.5 27l-39 70q-54 -18 -106 -18q-140 0 -234.5 114t-94.5 276.5t95 276t236 113.5t235 -113t94 -276z" />
    <glyph glyph-name="r" unicode="r" horiz-adv-x="553" 
d="M187 355l3 -298q0 -69 -51 -69q-62 0 -62 104.5t27 292.5q0 65 -11.5 176.5t-11.5 136.5t14 43.5t38.5 18.5t38.5 -18.5t14 -41.5t-0.5 -55.5t-0.5 -54.5q29 69 89 121.5t122.5 52.5t95.5 -24.5t33 -53t-15.5 -45t-38.5 -16.5t-50.5 25t-44.5 25q-46 0 -109 -106.5
t-80 -213.5z" />
    <glyph glyph-name="s" unicode="s" horiz-adv-x="596" 
d="M542 204q0 -93 -70.5 -156t-182.5 -63q-87 0 -162 42t-75 82q0 18 12 30t30.5 12t37.5 -12.5t35 -27t48.5 -27t73.5 -12.5q68 0 112.5 35t44.5 97q0 41 -38 78t-92 67t-108 61.5t-92 77t-38 98.5q0 73 64 126t151 53t148 -29.5t61 -67.5q0 -19 -12 -30t-32 -11t-39 13
t-47 26t-75 13t-85 -26t-38 -64t38 -70.5t92 -62.5t108 -63t92 -82t38 -107z" />
    <glyph glyph-name="t" unicode="t" horiz-adv-x="563" 
d="M97 756l189 -6l183 6q27 0 43.5 -12.5t16.5 -34.5t-16.5 -34.5t-43.5 -12.5l-134 6q-4 -97 -4 -296l6 -324q0 -26 -14 -42t-36.5 -16t-37 16t-14.5 42l6 324q0 174 -5 296l-139 -6q-27 0 -43.5 12.5t-16.5 34.5t16.5 34.5t43.5 12.5z" />
    <glyph glyph-name="u" unicode="u" horiz-adv-x="809" 
d="M197 646l-11 -332q0 -107 42 -174.5t113.5 -67.5t137 89t90.5 199l-4 328q0 69 51 69q62 0 62 -102t-27 -295q0 -110 14.5 -186.5t35.5 -85.5q8 -4 19.5 -5.5t16.5 -4.5t5 -11q0 -37 -22 -59.5t-56 -22.5q-85 0 -85 173q-100 -173 -252 -173q-113 0 -174.5 91t-61.5 221
l8 239q0 54 -11 100t-11 66.5t16 37.5t42 17q62 0 62 -111z" />
    <glyph glyph-name="v" unicode="v" horiz-adv-x="663" 
d="M392 40q-17 -50 -60.5 -50t-60.5 50q-146 410 -155.5 439.5t-33 93.5t-35.5 96.5t-12 46.5t12.5 29t34.5 15q38 0 53 -45q190 -582 197 -582q11 0 201 582q15 45 48 45q22 0 34.5 -15t12.5 -29t-12 -46q-57 -155 -67.5 -187.5t-156.5 -442.5z" />
    <glyph glyph-name="w" unicode="w" horiz-adv-x="949" 
d="M709 38q-17 -48 -61 -48t-60 45q-13 36 -62.5 202.5t-51.5 166.5t-23.5 -73t-48.5 -167t-37 -126q-15 -48 -59 -48t-61 45q-5 13 -23 71.5t-43.5 139.5t-37.5 118.5t-29 89t-28 85t-23 72.5q-24 78 -24 100t13 35.5t31 13.5q40 0 54 -45q62 -197 118 -396.5t57 -199.5
q4 0 49.5 157t59.5 219q5 22 20.5 38.5t37.5 16.5q45 0 59 -51q111 -380 119 -380l35 128q35 128 76 280t51 188q12 45 45 45q23 0 35 -14.5t12 -36.5t-47 -176t-78 -253q-57 -187 -75 -242z" />
    <glyph glyph-name="x" unicode="x" horiz-adv-x="665" 
d="M323 311q-21 -33 -68 -109.5t-57.5 -92t-18.5 -29t-12.5 -19.5t-11.5 -17t-11 -16l-10 -12q-16 -21 -25 -23.5t-22 -2.5t-25 12t-12 26t6.5 28.5t25 43t40.5 60.5q91 134 151 227q-90 160 -148 249q-24 36 -56 36q-18 0 -22 6t-4 17q0 31 18.5 49.5t43.5 18.5t44.5 -13
t46.5 -52q10 -16 135 -233q25 40 93 152.5t82.5 127.5t32.5 15t29.5 -12.5t11.5 -31.5q0 -21 -160 -266q-20 -32 -39 -62q138 -220 175.5 -265t64.5 -45q15 0 18.5 -5.5t3.5 -15.5q0 -31 -18.5 -50.5t-44.5 -19.5q-40 0 -90 66q-27 36 -167 258z" />
    <glyph glyph-name="y" unicode="y" horiz-adv-x="597" 
d="M342 303q0 -80 2 -161l3 -81q0 -71 -51 -71t-51 71l3 83q2 83 2 160q-199 342 -212 369t-13 44t12 30t34.5 13t38.5 -21.5t74.5 -135.5t116.5 -202q24 36 84.5 148t70 128.5t13.5 24t11.5 19.5t12 17.5t10.5 11.5q10 10 28 10t29.5 -12t11.5 -29t-14.5 -44.5t-63 -110.5
t-62.5 -106.5t-39.5 -68t-50.5 -86.5z" />
    <glyph glyph-name="z" unicode="z" horiz-adv-x="608" 
d="M330 0l-229 -5q-57 0 -57 43q0 20 24.5 61t87.5 136.5t101.5 159.5t74.5 121q74 121 88 148q-45 4 -109 4t-126 -3.5t-79.5 -3.5t-34 12.5t-16.5 34.5t16.5 34.5t43.5 12.5l175 -5l203 5q57 0 57 -41q0 -21 -21 -57t-78 -122.5t-91 -144t-88 -144t-97 -159.5
q57 -5 127.5 -5t132.5 3.5t79.5 3.5t34 -12.5t16.5 -34.5t-16.5 -34.5t-43.5 -12.5z" />
    <glyph glyph-name="braceleft" unicode="{" horiz-adv-x="359" 
d="M194 376q16 -19 24 -32q21 -39 21 -134q0 -42 -7 -93.5t-7 -70t14.5 -29t31.5 -12.5t31.5 -12.5t14.5 -30.5t-12 -32.5t-33 -12.5q-58 0 -101.5 32t-43.5 90q0 27 7.5 83.5t7.5 87.5q0 93 -22 112q-18 -7 -39 -7t-39 14.5t-18 44.5t18.5 44.5t40 14.5t38.5 -7
q22 19 22 112q0 31 -7.5 89.5t-7.5 85.5q0 58 43.5 90t101.5 32q21 0 33 -12.5t12 -32.5t-14.5 -30.5t-31.5 -12.5t-31.5 -12.5t-14.5 -29t7 -72t7 -100t-7.5 -80t-14.5 -45.5t-24 -32z" />
    <glyph glyph-name="bar" unicode="|" horiz-adv-x="258" 
d="M168 324l5 -352q0 -56 -44 -56t-44 56l5 352l-4 380q0 56 43 56t43 -56z" />
    <glyph glyph-name="braceright" unicode="}" horiz-adv-x="359" 
d="M175 376q-17 20 -24 32t-14.5 45.5t-7.5 80t7 100t7 72t-14.5 29t-31.5 12.5t-31.5 12.5t-14.5 30.5t12 32.5t33 12.5q54 0 94.5 -32t40.5 -90q0 -27 -7.5 -85.5t-7.5 -89.5q0 -93 22 -112q17 7 38.5 7t40 -14.5t18.5 -44.5t-18 -44.5t-39.5 -14.5t-38.5 7
q-22 -19 -22 -112q0 -31 7.5 -87.5t7.5 -83.5q0 -58 -40.5 -90t-94.5 -32q-21 0 -33 12.5t-12 32.5t14.5 30.5t31.5 12.5t31.5 12.5t14.5 29t-7 70t-7 98t7 81t14.5 48t23.5 32.5z" />
    <glyph glyph-name="asciitilde" unicode="~" horiz-adv-x="612" 
d="M544 404q0 -29 -42 -60.5t-85.5 -31.5t-99.5 28t-82 28t-60 -29.5t-58 -29.5t-36 11t-12 29q0 33 48 64t103.5 31t112.5 -28.5t82 -28.5t51.5 24.5t43 24.5t25.5 -9.5t9 -22.5z" />
    <glyph glyph-name="nbspace" unicode="&#xa0;" horiz-adv-x="290" 
 />
    <glyph glyph-name="exclamdown" unicode="&#xa1;" horiz-adv-x="257" 
d="M172 208l8 -228q0 -30 -13.5 -47.5t-37.5 -17.5t-37.5 17.5t-13.5 47.5l7 228l-1 201q0 26 12 41t33 15t33 -15t12 -41zM169.5 671.5q13.5 -18.5 13.5 -43.5t-16.5 -45t-41.5 -20t-38 17t-13 42.5t17 46.5t41 21t37.5 -18.5z" />
    <glyph glyph-name="cent" unicode="&#xa2;" horiz-adv-x="718" 
d="M367 74q3 192 3 247.5t-4 311.5q-90 -18 -147 -98.5t-57 -180t57.5 -181t147.5 -99.5zM660 112q0 -30 -60.5 -71.5t-142.5 -51.5q0 -71 -46 -71t-46 75q-132 19 -215 120.5t-83 239t82 237.5t215 123q0 74 46 74t46 -71q81 -5 136.5 -34.5t55.5 -66.5q0 -18 -12 -29
t-32.5 -11t-64 26.5t-85.5 33.5q-4 -128 -4 -281.5t4 -281.5q70 9 134 58q20 15 35 15q37 0 37 -33z" />
    <glyph glyph-name="sterling" unicode="&#xa3;" horiz-adv-x="573" 
d="M390 310l-143 3q6 -88 -10 -133.5t-42 -93.5q35 -4 87 -4t107 3.5t72 3.5t33.5 -12.5t16.5 -34.5t-16.5 -34.5t-43.5 -12.5l-155 5l-154 -5q-28 0 -44.5 15t-16.5 43t18.5 59t37.5 70t19.5 75.5t-0.5 53.5q-8 -1 -31 -1q-55 0 -55 40.5t53 40.5q3 0 10 -0.5t11 -0.5
q-3 16 -10 47q-17 68 -17 107q0 72 52.5 120.5t144.5 48.5q59 0 115 -30t56 -62q0 -16 -11 -30t-30 -14t-57 24.5t-80.5 24.5t-68 -23t-25.5 -59t23 -156l154 3q22 0 36.5 -11t14.5 -29t-14.5 -29.5t-36.5 -11.5z" />
    <glyph glyph-name="currency" unicode="&#xa4;" horiz-adv-x="691" 
d="M440.5 475q-40.5 43 -95.5 43t-95.5 -43t-40.5 -103t40 -103t96 -43t96 43t40 103t-40.5 103zM482 189q-56 -42 -137 -42t-137 42q-8 -9 -19.5 -21t-16 -17t-12 -12.5t-11 -10t-9.5 -4.5q-9 -5 -24.5 -5t-29.5 13t-14 30t12 31.5t67 62.5q-28 53 -28 115t29 117
q-55 48 -67 62.5t-12 31.5t14 30t26.5 13t17.5 -1t10.5 -3.5t9 -5t11 -10t12 -12.5t16 -17t19.5 -21q54 41 136 41t136 -41q53 56 64 63t27.5 7t30.5 -13t14 -30t-12 -31.5t-67 -62.5q29 -55 29 -118.5t-28 -113.5q55 -48 67 -62.5t12 -31.5t-13.5 -30t-24.5 -13t-15 0.5
t-8.5 2t-7.5 3t-8 5.5t-8 7t-10 9.5t-11.5 11t-13.5 14.5t-16 17z" />
    <glyph glyph-name="yen" unicode="&#xa5;" horiz-adv-x="636" 
d="M368 151l2 -103q0 -26 -14 -42t-36.5 -16t-37 16t-14.5 35.5t4 109.5q-80 -2 -138 -2q-22 0 -35.5 11t-13.5 29t13.5 29t34.5 11t141 -3v68q-82 -2 -140 -2q-22 0 -35.5 11t-13.5 29t13.5 29t34 11t52 -0.5t44.5 -0.5q-59 100 -77.5 130t-32 52.5t-21.5 35.5t-15 25.5
t-10.5 19t-6.5 13.5q-3 10 -3 24t14.5 28t36.5 14q12 0 18.5 -4.5t10.5 -7.5t9 -10t8 -11.5t9 -14.5t9.5 -16t10.5 -19.5t55.5 -101t80.5 -134.5q21 32 63.5 110.5t51 93t15.5 27t10.5 19.5t9.5 17t10 15.5t9 12.5t9 10.5t9 6.5q9 7 25.5 7t29.5 -13t13 -28.5t-12 -39.5
q-13 -24 -156 -261l100 1q22 0 35.5 -11t13.5 -29t-13.5 -29t-35.5 -11q-62 0 -146 2v-68q126 3 147 3t34.5 -11t13.5 -29t-13.5 -29t-35.5 -11q-60 0 -144 2z" />
    <glyph glyph-name="brokenbar" unicode="&#xa6;" horiz-adv-x="269" 
d="M173 147l5 -104q0 -24 -12 -38.5t-33 -14.5q-42 0 -42 53l4 104l-3 104q0 53 41 53q21 0 32.5 -14.5t11.5 -38.5zM173 603l5 -104q0 -24 -12 -38.5t-33 -14.5q-42 0 -42 53l4 104l-3 104q0 53 41 53q21 0 32.5 -14.5t11.5 -38.5z" />
    <glyph glyph-name="section" unicode="&#xa7;" horiz-adv-x="576" 
d="M400 276q24 23 24 53.5t-53 65t-99 34.5t-76 -15t-30 -39.5t35.5 -51t133.5 -80.5q41 10 65 33zM483 407.5q32 -36.5 32 -78.5t-26 -78.5t-68 -59.5q59 -42 59 -108t-59 -117t-154 -51q-70 0 -136.5 37t-66.5 74q0 17 11 27t28 10t37 -15q63 -46 121 -46t91 23t33 56
t-32 58.5t-77.5 47.5t-91 46.5t-77.5 60t-32 79.5t34 78t90 48q-89 62 -89 121.5t55.5 102t131 42.5t127.5 -27t52 -63q0 -15 -10.5 -25t-26 -10t-52.5 19t-80 19t-72.5 -16t-29.5 -43t32 -53.5t77.5 -49t91 -47.5t77.5 -61.5z" />
    <glyph glyph-name="dieresis" unicode="&#xa8;" horiz-adv-x="466" 
d="M177.5 690q13.5 -17 13.5 -43.5t-17 -47.5t-41.5 -21t-38.5 18t-14 44t16.5 46.5t42 20.5t39 -17zM372.5 690q13.5 -17 13.5 -43.5t-17 -47.5t-41.5 -21t-38.5 18t-14 44t16.5 46.5t42 20.5t39 -17z" />
    <glyph glyph-name="copyright" unicode="&#xa9;" horiz-adv-x="777" 
d="M554.5 275.5q69.5 71.5 69.5 174t-69.5 173.5t-167 71t-166.5 -71t-69 -173.5t69 -174t166.5 -71.5t167 71.5zM702 449q0 -131 -92 -223.5t-222 -92.5t-222 92.5t-92 223.5t92 223.5t222 92.5t222 -92.5t92 -223.5zM393 644q45 0 82 -18.5t37 -42.5q0 -35 -36 -35
q-14 0 -31 12q-26 15 -47 15q-52 0 -80.5 -38t-28.5 -89.5t31.5 -88.5t77.5 -37q30 0 54 12.5t37 12.5q31 0 31 -31q0 -17 -37 -40t-90 -23q-77 0 -130 58t-53 138.5t51.5 137.5t131.5 57z" />
    <glyph glyph-name="ordfeminine" unicode="&#xaa;" horiz-adv-x="440" 
d="M269 600l-2 66q-29 26 -60 26t-52.5 -28.5t-21.5 -68.5t13 -65.5t37 -25.5t49.5 29t36.5 67zM339 593q0 -74 19 -87q3 -2 10 -3q14 -2 14 -13q0 -24 -15 -38.5t-36 -14.5q-42 0 -54 55q-36 -55 -96 -55t-92 48t-32 111.5t42 114t105 50.5q38 0 67 -22q12 22 38 22
q42 0 42 -63q0 -17 -12 -105z" />
    <glyph glyph-name="guillemotleft" unicode="&#xab;" horiz-adv-x="595" 
d="M385 376q0 -8 57 -49q8 -6 26 -17.5t28 -18.5q27 -20 27 -38t-12 -29.5t-29.5 -11.5t-31 8t-31.5 25t-55.5 47.5t-53.5 48.5t-16 35t16 35t53.5 48.5t52 44t22.5 20.5q20 16 40.5 16t32.5 -11.5t12 -27t-10.5 -26.5t-38.5 -29t-32 -21q-57 -41 -57 -49zM145 376
q0 -8 57 -49q8 -6 26 -17.5t28 -18.5q27 -20 27 -38t-12 -29.5t-29.5 -11.5t-31 8t-31.5 25t-55.5 47.5t-53.5 48.5t-16 35t16 35t53.5 48.5t52 44t22.5 20.5q20 16 40.5 16t32.5 -11.5t12 -27t-10.5 -26.5t-38.5 -29t-32 -21q-57 -41 -57 -49z" />
    <glyph glyph-name="logicalnot" unicode="&#xac;" horiz-adv-x="694" 
d="M604 305l2 -68q0 -22 -12 -35t-31.5 -13t-31.5 13t-12 35l3 97q-88 2 -178 2l-206 -3q-22 0 -36 12t-14 30t14 30t36 12l206 -3l211 3q18 0 34.5 -11.5t16.5 -40.5z" />
    <glyph glyph-name="uni00AD" unicode="&#xad;" horiz-adv-x="428" 
d="M312 219l-99 3l-99 -3q-22 0 -35.5 12t-13.5 30t13.5 30t35.5 12l99 -3l99 3q22 0 35.5 -12t13.5 -30t-13.5 -30t-35.5 -12z" />
    <glyph glyph-name="registered" unicode="&#xae;" horiz-adv-x="776" 
d="M554.5 275.5q69.5 71.5 69.5 174t-69.5 173.5t-167 71t-166.5 -71t-69 -173.5t69 -174t166.5 -71.5t167 71.5zM702 449q0 -131 -92 -223.5t-222 -92.5t-222 92.5t-92 223.5t92 223.5t222 92.5t222 -92.5t92 -223.5zM442.5 488q13.5 16 13.5 37.5t-17.5 37.5t-51 16
t-58.5 -7q0 -14 -1.5 -45t-1.5 -50q16 4 35.5 4t52.5 -11q15 2 28.5 18zM256 461l-5 133q0 53 129 53q75 0 113.5 -37t38.5 -84q0 -72 -76 -110q7 -12 16.5 -28t14.5 -24.5t11 -17.5q12 -16 30.5 -16t18.5 -14q0 -21 -15 -36.5t-32.5 -15.5t-28.5 5.5t-22 19.5
q-17 22 -37 60.5t-26 48.5q-24 -3 -38 -3t-19 1l2 -88q0 -19 -11 -32t-29 -13q-39 0 -39 45z" />
    <glyph glyph-name="macron" unicode="&#xaf;" horiz-adv-x="486" 
d="M243 630l-134 -3q-21 0 -35 12t-14 30t13.5 30t35.5 12l134 -3l134 3q21 0 35 -12t14 -30t-13.5 -30t-35.5 -12z" />
    <glyph glyph-name="degree" unicode="&#xb0;" horiz-adv-x="392" 
d="M255 613q0 35 -15.5 58t-43.5 23t-44 -23t-16 -57.5t16 -57.5t44 -23t43.5 22.5t15.5 57.5zM295 719.5q38 -43.5 38 -106t-38 -106t-99 -43.5t-99 43t-38 106t38 106.5t99 43.5t99 -43.5z" />
    <glyph glyph-name="plusminus" unicode="&#xb1;" horiz-adv-x="635" 
d="M316 91l-190 -3q-22 0 -35.5 12t-13.5 30t13.5 30t35.5 12l190 -3l190 3q22 0 35.5 -12t13.5 -30t-13.5 -30t-35.5 -12zM127 502l152 -3q0 58 -2 87t-2 31q0 23 11.5 36t30.5 13t31 -13.5t12 -36.5q0 -2 -1 -16q-3 -44 -3 -102l152 3q22 0 36 -12t14 -30t-14 -30t-36 -12
l-152 3l4 -131q0 -23 -11.5 -37t-31 -14t-31 14.5t-11.5 37.5l4 131l-152 -3q-22 0 -36 12t-14 30t14 30t36 12z" />
    <glyph glyph-name="twosuperior" unicode="&#xb2;" horiz-adv-x="425" 
d="M208 336l-100 -4q-19 0 -34 11t-15 30t15.5 39.5t50 57t47 52t25.5 30.5t21.5 26t19.5 26q22 30 22 47.5t-14.5 29.5t-36 12t-51 -22t-48.5 -22t-28.5 10t-9.5 30t39.5 48t99.5 28t95.5 -32t35.5 -73q0 -37 -28 -80q-21 -30 -35 -47.5t-26.5 -34.5t-78.5 -93q67 0 102 2
t41 2q50 0 50 -38.5t-50 -38.5z" />
    <glyph glyph-name="threesuperior" unicode="&#xb3;" horiz-adv-x="421" 
d="M202 750l81 3q31 0 46.5 -13t15.5 -29.5t-9.5 -27.5t-35.5 -34.5t-48 -50.5q54 -14 83.5 -50.5t29.5 -88.5t-44.5 -96t-118.5 -44q-55 0 -99.5 31.5t-44.5 56.5q0 35 33 35q18 0 48.5 -24.5t66.5 -24.5t57.5 19.5t21.5 51.5t-23 53.5t-58 25.5q-37 -32 -68 -32
q-45 0 -45 41q0 15 17 30t50 22q61 56 79 75q-12 1 -45 1l-78 -3q-21 0 -34.5 9.5t-13.5 27t13 28.5t35 11z" />
    <glyph glyph-name="acute" unicode="&#xb4;" horiz-adv-x="320" 
d="M240 696q0 -44 -47.5 -88.5t-79.5 -44.5q-16 0 -24.5 8t-8.5 20t24 41.5t33 49.5t14.5 29.5t18 19t30 9.5t29 -13.5t11.5 -30.5z" />
    <glyph glyph-name="mu" unicode="&#xb5;" horiz-adv-x="861" 
d="M118 -12l5 394q0 131 -3 216t-3 93q0 71 51 71t51 -71q0 -6 -1 -53q-5 -139 -5 -331q0 -96 53.5 -165.5t117 -69.5t122 87t84.5 201l-4 328q0 69 51 69q62 0 62 -102t-27 -295q0 -110 14.5 -186.5t35.5 -85.5q8 -4 19.5 -5.5t16.5 -4.5t5 -11q0 -37 -22 -59.5t-56 -22.5
q-85 0 -85 173q-17 -30 -25.5 -44t-32.5 -43.5t-46 -44.5q-60 -41 -137 -41t-141 66q2 -60 2 -63q0 -71 -51 -71t-51 71z" />
    <glyph glyph-name="mu" unicode="&#x3bc;" horiz-adv-x="861" 
d="M118 -12l5 394q0 131 -3 216t-3 93q0 71 51 71t51 -71q0 -6 -1 -53q-5 -139 -5 -331q0 -96 53.5 -165.5t117 -69.5t122 87t84.5 201l-4 328q0 69 51 69q62 0 62 -102t-27 -295q0 -110 14.5 -186.5t35.5 -85.5q8 -4 19.5 -5.5t16.5 -4.5t5 -11q0 -37 -22 -59.5t-56 -22.5
q-85 0 -85 173q-17 -30 -25.5 -44t-32.5 -43.5t-46 -44.5q-60 -41 -137 -41t-141 66q2 -60 2 -63q0 -71 -51 -71t-51 71z" />
    <glyph glyph-name="paragraph" unicode="&#xb6;" horiz-adv-x="652" 
d="M540 696l-5 -430q0 -91 3 -190.5t3 -102.5q0 -26 -12.5 -41.5t-34.5 -15.5t-35 15.5t-13 32.5t2 61q4 132 4 241l-5 410h-95l-5 -410q0 -91 3 -190.5t3 -102.5q0 -57 -47.5 -57t-47.5 57q0 7 2 53q4 138 4 293q-94 5 -152 63.5t-58 143.5q0 106 66 165.5t182 61.5l98 -3
l84 3q26 0 41 -15.5t15 -41.5z" />
    <glyph glyph-name="periodcentered" unicode="&#xb7;" horiz-adv-x="259" 
d="M171.5 427q13.5 -17 13.5 -43t-17 -47.5t-41.5 -21.5t-38.5 18t-14 44t16.5 46.5t42 20.5t39 -17z" />
    <glyph glyph-name="cedilla" unicode="&#xb8;" horiz-adv-x="331" 
d="M276 -133q0 -42 -37.5 -69.5t-89.5 -27.5t-83.5 24.5t-31.5 50.5q0 9 7.5 17t19 8t37 -12t44.5 -12t31 7t12 16.5t-14.5 20t-32 20.5t-32 27.5t-14.5 38.5v43h81v-28q0 -15 16 -30t35.5 -25.5t35.5 -28.5t16 -40z" />
    <glyph glyph-name="onesuperior" unicode="&#xb9;" horiz-adv-x="340" 
d="M259 544l3 -167q0 -21 -11 -33.5t-30 -12.5t-30 12.5t-11 33.5l3 167v92q-11 -11 -24 -24.5t-21 -21.5l-16 -16q-9 -9 -14.5 -13t-11.5 -9q-10 -7 -23.5 -7t-25 9.5t-11.5 22.5t1.5 19t8 14t13.5 15l24 24q17 17 49 51.5t47.5 47t38.5 12.5q44 0 44 -57z" />
    <glyph glyph-name="ordmasculine" unicode="&#xba;" horiz-adv-x="415" 
d="M261 531.5q19 25.5 19 68t-19.5 69.5t-53 27t-53 -27t-19.5 -69.5t19 -68t53.5 -25.5t53.5 25.5zM315 718q42 -47 42 -118.5t-41.5 -117t-108.5 -45.5t-108 45.5t-41 116.5t41.5 118.5t107.5 47.5t108 -47z" />
    <glyph glyph-name="guillemotright" unicode="&#xbb;" horiz-adv-x="594" 
d="M301 376q0 -17 -16 -35t-53.5 -48.5t-52 -44t-22.5 -20.5q-20 -16 -40.5 -16t-32.5 11.5t-12 27t10.5 26.5t38.5 29t32 21q57 41 57 49t-57 49q-8 6 -26 17.5t-27 18.5q-28 20 -28 38t12 29.5t29.5 11.5t31 -8t31.5 -25t55.5 -47.5t53.5 -48.5t16 -35zM541 376
q0 -17 -16 -35t-53.5 -48.5t-52 -44t-22.5 -20.5q-20 -16 -40.5 -16t-32.5 11.5t-12 27t10.5 26.5t38.5 29t32 21q57 41 57 49t-57 49q-8 6 -26 17.5t-27 18.5q-28 20 -28 38t12 29.5t29.5 11.5t31 -8t31.5 -25t55.5 -47.5t53.5 -48.5t16 -35z" />
    <glyph glyph-name="onequarter" unicode="&#xbc;" horiz-adv-x="917" 
d="M540 531q-35 -89 -59.5 -156.5t-111.5 -327.5q-11 -32 -23.5 -44.5t-29.5 -12.5t-30 11t-13 29.5t14.5 58.5t49 127.5t60.5 159t65.5 191t47.5 143.5q16 50 54 50q14 0 27 -11t13 -29.5t-14.5 -59t-49.5 -129.5zM617 192h108q1 34 1 140q-42 -50 -109 -140zM799 125
l3 -85q0 -50 -39.5 -50t-39.5 50l3 88l-165 -2q-22 0 -32 11.5t-10 26t16.5 39t56.5 75.5t47 60t19 24.5t23 29.5q32 42 66 42q23 0 39 -18.5t16 -44.5q0 -1 -1.5 -59t-1.5 -119q4 1 14 1q48 0 48 -34q0 -36 -52 -36zM271 544l3 -167q0 -21 -11.5 -33.5t-30 -12.5t-30 12.5
t-11.5 33.5l3 167v92q-17 -17 -35.5 -38t-27.5 -31q-23 -25 -40 -25t-28.5 10.5t-11.5 24t5 22t12 15.5q41 38 68 69.5t33.5 38.5t15.5 16.5t15 13.5q13 8 29 8q45 0 45 -57z" />
    <glyph glyph-name="onehalf" unicode="&#xbd;" horiz-adv-x="920" 
d="M540 531q-35 -89 -59.5 -156.5t-111.5 -327.5q-11 -32 -23.5 -44.5t-29.5 -12.5t-30 11t-13 29.5t14.5 58.5t49 127.5t60.5 159t65.5 191t47.5 143.5q16 50 54 50q14 0 27 -11t13 -29.5t-14.5 -59t-49.5 -129.5zM271 544l3 -167q0 -21 -11.5 -33.5t-30 -12.5t-30 12.5
t-11.5 33.5l3 167v92q-17 -17 -35.5 -38t-27.5 -31q-23 -25 -40 -25t-28.5 10.5t-11.5 24t5 22t12 15.5q41 38 68 69.5t33.5 38.5t15.5 16.5t15 13.5q13 8 29 8q45 0 45 -57zM671 70l137 5q51 0 51 -39t-51 -39l-103 4l-91 -4q-19 0 -33.5 11.5t-14.5 30.5t9.5 34t43.5 54.5
t46.5 56t26.5 33.5t21 26.5t17 24.5q21 31 21 48.5t-13 29.5t-38 12t-47.5 -22t-38.5 -22t-26 10t-10 30t37 48t94 28t91 -32t34 -69.5t-27 -81t-74 -100t-62 -77.5z" />
    <glyph glyph-name="threequarters" unicode="&#xbe;" horiz-adv-x="968" 
d="M593 531q-35 -89 -59.5 -156.5t-111.5 -327.5q-11 -32 -23.5 -44.5t-29.5 -12.5t-30 11t-13 29.5t14.5 58.5t49 127.5t60.5 159t65.5 191t47.5 143.5q16 50 54 50q14 0 27 -11t13 -29.5t-14.5 -59t-49.5 -129.5zM670 192h108q1 34 1 140q-42 -50 -109 -140zM852 125
l3 -85q0 -50 -39.5 -50t-39.5 50l3 88l-165 -2q-22 0 -32 11.5t-10 26t16.5 39t56.5 75.5t47 60t19 24.5t23 29.5q32 42 66 42q23 0 39 -18.5t16 -44.5q0 -1 -1.5 -59t-1.5 -119q4 1 14 1q48 0 48 -34q0 -36 -52 -36zM203 750l75 2q63 0 63 -43q0 -26 -57 -79
q-25 -24 -32 -32q52 -14 80.5 -50.5t28.5 -88.5t-46 -96t-122 -44q-49 0 -89 31.5t-40 56.5q0 35 33 35q15 0 42 -24.5t61.5 -24.5t57 19.5t22.5 51.5t-21.5 53.5t-53.5 25.5q-21 -32 -59 -32q-19 0 -31.5 10.5t-12.5 28t15.5 32.5t46.5 22q53 52 74 75l-119 -1
q-47 0 -47 35q0 18 12.5 28.5t34.5 10.5z" />
    <glyph glyph-name="questiondown" unicode="&#xbf;" horiz-adv-x="503" 
d="M249 586q-13 17 -13 42.5t17 46.5t41 21t37.5 -18.5t13.5 -43.5t-16.5 -45t-41.5 -20t-38 17zM57 101q0 38 16.5 74t32 54.5t47.5 51.5q30 25 45.5 39.5t30 38.5t14.5 48q0 66 45 66q20 0 33 -17.5t13 -46.5t-8 -53t-28 -48q-25 -30 -73 -73q-24 -27 -36 -42t-24 -41
t-12 -51q0 -43 32.5 -70.5t73.5 -27.5q61 0 105 44q24 28 43.5 28t30.5 -12.5t11 -29.5q0 -38 -57.5 -78t-127.5 -40q-92 0 -149.5 53.5t-57.5 132.5z" />
    <glyph glyph-name="Agrave" unicode="&#xc0;" horiz-adv-x="682" 
d="M227 328q64 -2 123.5 -2t95.5 2q-106 305 -107 305q-6 0 -85 -229zM471 241l-129 3q-96 0 -140 -2q-11 -33 -31.5 -103.5t-33.5 -109.5t-46 -39q-19 0 -30.5 12t-11.5 26.5t1.5 23.5t7 27t10.5 34q30 86 43 126q-29 0 -45.5 12.5t-16.5 33.5q0 47 74 47h18
q57 160 113 312l6 17q19 55 32 69q26 30 43.5 30t26.5 -3t17 -11t13.5 -17t13 -28t12.5 -35q49 -147 121 -334l36 1q26 0 42.5 -14t16.5 -35q0 -44 -66 -47q10 -32 28 -81q38 -106 38 -122.5t-11.5 -30t-31.5 -13.5q-36 0 -52 39q-17 49 -68 212zM231 946q0 17 11.5 30.5
t29 13.5t30 -9.5t18 -19t14.5 -29.5t33 -49.5t24 -41.5t-8.5 -20t-24.5 -8q-32 0 -79.5 44.5t-47.5 88.5z" />
    <glyph glyph-name="Aacute" unicode="&#xc1;" horiz-adv-x="682" 
d="M461 946q0 -44 -47.5 -88.5t-79.5 -44.5q-16 0 -24.5 8t-8.5 20t24 41.5t33 49.5t14.5 29.5t18 19t30 9.5t29 -13.5t11.5 -30.5zM227 328q64 -2 123.5 -2t95.5 2q-106 305 -107 305q-6 0 -85 -229zM471 241l-129 3q-96 0 -140 -2q-11 -33 -31.5 -103.5t-33.5 -109.5
t-46 -39q-19 0 -30.5 12t-11.5 26.5t1.5 23.5t7 27t10.5 34q30 86 43 126q-29 0 -45.5 12.5t-16.5 33.5q0 47 74 47h18q57 160 113 312l6 17q19 55 32 69q26 30 43.5 30t26.5 -3t17 -11t13.5 -17t13 -28t12.5 -35q49 -147 121 -334l36 1q26 0 42.5 -14t16.5 -35
q0 -44 -66 -47q10 -32 28 -81q38 -106 38 -122.5t-11.5 -30t-31.5 -13.5q-36 0 -52 39q-17 49 -68 212z" />
    <glyph glyph-name="Acircumflex" unicode="&#xc2;" horiz-adv-x="682" 
d="M227 328q64 -2 123.5 -2t95.5 2q-106 305 -107 305q-6 0 -85 -229zM471 241l-129 3q-96 0 -140 -2q-11 -33 -31.5 -103.5t-33.5 -109.5t-46 -39q-19 0 -30.5 12t-11.5 26.5t1.5 23.5t7 27t10.5 34q30 86 43 126q-29 0 -45.5 12.5t-16.5 33.5q0 47 74 47h18
q57 160 113 312l6 17q19 55 32 69q26 30 43.5 30t26.5 -3t17 -11t13.5 -17t13 -28t12.5 -35q49 -147 121 -334l36 1q26 0 42.5 -14t16.5 -35q0 -44 -66 -47q10 -32 28 -81q38 -106 38 -122.5t-11.5 -30t-31.5 -13.5q-36 0 -52 39q-17 49 -68 212zM424 842q-69 81 -84 81
t-79 -77q-5 -6 -7 -8l-8 -8q-13 -13 -30.5 -13t-28.5 10.5t-11 29t26 40t52.5 51.5t45.5 46t40.5 16t41 -16t45.5 -46t52.5 -52t26.5 -40t-11 -28.5t-24 -10.5t-21 5q-14 7 -26 20z" />
    <glyph glyph-name="Atilde" unicode="&#xc3;" horiz-adv-x="682" 
d="M539 915q0 -36 -31 -63t-70 -27t-93 31q-44 22 -66 22t-46.5 -29.5t-45 -29.5t-33 12.5t-12.5 30.5q0 36 37 64.5t86 28.5t102 -27.5t70.5 -27.5t38 25t34 25t21.5 -10.5t8 -24.5zM227 328q64 -2 123.5 -2t95.5 2q-106 305 -107 305q-6 0 -85 -229zM471 241l-129 3
q-96 0 -140 -2q-11 -33 -31.5 -103.5t-33.5 -109.5t-46 -39q-19 0 -30.5 12t-11.5 26.5t1.5 23.5t7 27t10.5 34q30 86 43 126q-29 0 -45.5 12.5t-16.5 33.5q0 47 74 47h18q57 160 113 312l6 17q19 55 32 69q26 30 43.5 30t26.5 -3t17 -11t13.5 -17t13 -28t12.5 -35
q49 -147 121 -334l36 1q26 0 42.5 -14t16.5 -35q0 -44 -66 -47q10 -32 28 -81q38 -106 38 -122.5t-11.5 -30t-31.5 -13.5q-36 0 -52 39q-17 49 -68 212z" />
    <glyph glyph-name="Adieresis" unicode="&#xc4;" horiz-adv-x="682" 
d="M227 328q64 -2 123.5 -2t95.5 2q-106 305 -107 305q-6 0 -85 -229zM471 241l-129 3q-96 0 -140 -2q-11 -33 -31.5 -103.5t-33.5 -109.5t-46 -39q-19 0 -30.5 12t-11.5 26.5t1.5 23.5t7 27t10.5 34q30 86 43 126q-29 0 -45.5 12.5t-16.5 33.5q0 47 74 47h18
q57 160 113 312l6 17q19 55 32 69q26 30 43.5 30t26.5 -3t17 -11t13.5 -17t13 -28t12.5 -35q49 -147 121 -334l36 1q26 0 42.5 -14t16.5 -35q0 -44 -66 -47q10 -32 28 -81q38 -106 38 -122.5t-11.5 -30t-31.5 -13.5q-36 0 -52 39q-17 49 -68 212zM285.5 940
q13.5 -17 13.5 -43.5t-17 -47.5t-41.5 -21t-38.5 18t-14 44t16.5 46.5t42 20.5t39 -17zM480.5 940q13.5 -17 13.5 -43.5t-17 -47.5t-41.5 -21t-38.5 18t-14 44t16.5 46.5t42 20.5t39 -17z" />
    <glyph glyph-name="Aring" unicode="&#xc5;" horiz-adv-x="682" 
d="M379 914q0 15 -12 28t-26.5 13t-26 -12.5t-11.5 -28t11 -27.5t26.5 -12t27 12t11.5 27zM414.5 986q29.5 -30 29.5 -72.5t-28.5 -70.5t-74.5 -28t-74.5 28t-28.5 71t29.5 72.5t73.5 29.5t73.5 -30zM227 328q64 -2 123.5 -2t95.5 2q-106 305 -107 305q-6 0 -85 -229z
M471 241l-129 3q-96 0 -140 -2q-11 -33 -31.5 -103.5t-33.5 -109.5t-46 -39q-19 0 -30.5 12t-11.5 26.5t1.5 23.5t7 27t10.5 34q30 86 43 126q-29 0 -45.5 12.5t-16.5 33.5q0 47 74 47h18q57 160 113 312l6 17q19 55 32 69q26 30 43.5 30t26.5 -3t17 -11t13.5 -17t13 -28
t12.5 -35q49 -147 121 -334l36 1q26 0 42.5 -14t16.5 -35q0 -44 -66 -47q10 -32 28 -81q38 -106 38 -122.5t-11.5 -30t-31.5 -13.5q-36 0 -52 39q-17 49 -68 212z" />
    <glyph glyph-name="AE" unicode="&#xc6;" horiz-adv-x="881" 
d="M671 0l-173 -5q-58 0 -67 49q-16 87 -33 198q-26 1 -100 1t-96 -1q-11 -33 -31.5 -103.5t-33.5 -109.5t-46 -39q-19 0 -30.5 12t-11.5 26.5t1.5 23.5t7 27t10.5 34q30 86 43 126q-29 0 -45.5 12.5t-16.5 33.5q0 47 74 47h18q57 160 85.5 237t33.5 91.5t8.5 24t11 24
t14.5 23.5q20 23 42 23l207 -5l129 6q27 0 43.5 -12.5t16.5 -34.5t-16.5 -34.5t-43.5 -12.5l-129 6q-72 0 -129 -5q1 -1 40 -217q34 -2 74 -2l149 5q27 0 43 -12.5t16 -33.5q0 -44 -59 -44l-149 4q-38 0 -58 -1q43 -238 52 -273q79 -7 149 -7l129 6q27 0 43.5 -12.5
t16.5 -34.5t-16.5 -34.5t-43.5 -12.5zM333 623q-6 0 -81 -221l-25 -74q48 -3 78 -3t50.5 0.5t31.5 0.5q-39 237 -54 297z" />
    <glyph glyph-name="Ccedilla" unicode="&#xc7;" horiz-adv-x="698" 
d="M510 -133q0 -42 -37.5 -69.5t-89.5 -27.5t-83.5 24.5t-31.5 50.5q0 9 7.5 17t19 8t37 -12t44.5 -12t31 7t12 16t-14.5 19.5t-31.5 21t-32 33t-15 51.5q-116 28 -187.5 134.5t-71.5 247.5q0 163 95.5 276t239.5 113q88 0 157.5 -33t69.5 -74q0 -20 -12 -32t-31.5 -12
t-55.5 23q-58 41 -128 41q-104 0 -171.5 -89.5t-67.5 -212t67.5 -213.5t165.5 -91t179 49q33 18 44.5 18t21 -9.5t9.5 -23.5q0 -35 -72 -77t-171 -44q3 -17 29 -34t50 -37t24 -47z" />
    <glyph glyph-name="Egrave" unicode="&#xc8;" horiz-adv-x="629" 
d="M509 662l-159 6q-77 0 -137 -5v-222q19 -1 66 -1l179 5q27 0 43 -12.5t16 -33.5q0 -44 -59 -44l-179 4q-43 0 -66 -1v-79q0 -146 4 -192q60 -5 136 -5l159 6q27 0 43.5 -12.5t16.5 -34.5t-16.5 -34.5t-43.5 -12.5l-159 6l-181 -5q-54 0 -54 46q0 35 2.5 114.5t2.5 199.5
q-67 0 -67 44q0 23 19 34.5t48 11.5q-2 187 -7 225q-12 19 -12 40q0 45 62 45l184 -5l159 6q27 0 43.5 -12.5t16.5 -34.5t-16.5 -34.5t-43.5 -12.5zM224 946q0 17 11.5 30.5t29 13.5t30 -9.5t18 -19t14.5 -29.5t33 -49.5t24 -41.5t-8.5 -20t-24.5 -8q-32 0 -79.5 44.5
t-47.5 88.5z" />
    <glyph glyph-name="Eacute" unicode="&#xc9;" horiz-adv-x="629" 
d="M434 946q0 -44 -47.5 -88.5t-79.5 -44.5q-16 0 -24.5 8t-8.5 20t24 41.5t33 49.5t14.5 29.5t18 19t30 9.5t29 -13.5t11.5 -30.5zM509 662l-159 6q-77 0 -137 -5v-222q19 -1 66 -1l179 5q27 0 43 -12.5t16 -33.5q0 -44 -59 -44l-179 4q-43 0 -66 -1v-79q0 -146 4 -192
q60 -5 136 -5l159 6q27 0 43.5 -12.5t16.5 -34.5t-16.5 -34.5t-43.5 -12.5l-159 6l-181 -5q-54 0 -54 46q0 35 2.5 114.5t2.5 199.5q-67 0 -67 44q0 23 19 34.5t48 11.5q-2 187 -7 225q-12 19 -12 40q0 45 62 45l184 -5l159 6q27 0 43.5 -12.5t16.5 -34.5t-16.5 -34.5
t-43.5 -12.5z" />
    <glyph glyph-name="Ecircumflex" unicode="&#xca;" horiz-adv-x="629" 
d="M410 842q-69 81 -84 81t-79 -77q-5 -6 -7 -8l-8 -8q-13 -13 -30.5 -13t-28.5 10.5t-11 29t26 40t52.5 51.5t45.5 46t40.5 16t41 -16t45.5 -46t52.5 -52t26.5 -40t-11 -28.5t-24 -10.5t-21 5q-14 7 -26 20zM509 662l-159 6q-77 0 -137 -5v-222q19 -1 66 -1l179 5
q27 0 43 -12.5t16 -33.5q0 -44 -59 -44l-179 4q-43 0 -66 -1v-79q0 -146 4 -192q60 -5 136 -5l159 6q27 0 43.5 -12.5t16.5 -34.5t-16.5 -34.5t-43.5 -12.5l-159 6l-181 -5q-54 0 -54 46q0 35 2.5 114.5t2.5 199.5q-67 0 -67 44q0 23 19 34.5t48 11.5q-2 187 -7 225
q-12 19 -12 40q0 45 62 45l184 -5l159 6q27 0 43.5 -12.5t16.5 -34.5t-16.5 -34.5t-43.5 -12.5z" />
    <glyph glyph-name="Edieresis" unicode="&#xcb;" horiz-adv-x="629" 
d="M509 662l-159 6q-77 0 -137 -5v-222q19 -1 66 -1l179 5q27 0 43 -12.5t16 -33.5q0 -44 -59 -44l-179 4q-43 0 -66 -1v-79q0 -146 4 -192q60 -5 136 -5l159 6q27 0 43.5 -12.5t16.5 -34.5t-16.5 -34.5t-43.5 -12.5l-159 6l-181 -5q-54 0 -54 46q0 35 2.5 114.5t2.5 199.5
q-67 0 -67 44q0 23 19 34.5t48 11.5q-2 187 -7 225q-12 19 -12 40q0 45 62 45l184 -5l159 6q27 0 43.5 -12.5t16.5 -34.5t-16.5 -34.5t-43.5 -12.5zM275.5 950q13.5 -17 13.5 -43.5t-17 -47.5t-41.5 -21t-38.5 18t-14 44t16.5 46.5t42 20.5t39 -17zM470.5 950
q13.5 -17 13.5 -43.5t-17 -47.5t-41.5 -21t-38.5 18t-14 44t16.5 46.5t42 20.5t39 -17z" />
    <glyph glyph-name="Igrave" unicode="&#xcc;" horiz-adv-x="476" 
d="M369 661l-82 4q-4 -97 -4 -278.5t5 -303.5l81 4q27 0 43.5 -12.5t16.5 -34t-16.5 -34t-43.5 -12.5l-131 6l-131 -6q-27 0 -43.5 12.5t-16.5 34t16.5 34t43.5 12.5l81 -5q5 122 5 304t-4 279l-82 -4q-27 0 -43.5 13t-16.5 35t16.5 34.5t43.5 12.5l131 -6l131 6
q27 0 43.5 -12.5t16.5 -34.5t-16.5 -35t-43.5 -13zM128 946q0 17 11.5 30.5t29 13.5t30 -9.5t18 -19t14.5 -29.5t33 -49.5t24 -41.5t-8.5 -20t-24.5 -8q-32 0 -79.5 44.5t-47.5 88.5z" />
    <glyph glyph-name="Iacute" unicode="&#xcd;" horiz-adv-x="492" 
d="M355 946q0 -44 -47.5 -88.5t-79.5 -44.5q-16 0 -24.5 8t-8.5 20t24 41.5t33 49.5t14.5 29.5t18 19t30 9.5t29 -13.5t11.5 -30.5zM385 661l-90 4q-4 -97 -4 -278.5t5 -303.5l89 5q27 0 43.5 -12.5t16.5 -34.5t-16.5 -34.5t-43.5 -12.5l-139 6l-139 -7q-27 0 -43.5 12.5
t-16.5 34.5t16.5 34.5t43.5 12.5l89 -5q5 122 5 304t-4 279l-90 -4q-27 0 -43.5 12.5t-16.5 34.5t16.5 34.5t43.5 12.5l139 -5l139 6q27 0 43.5 -12.5t16.5 -34.5t-16.5 -35t-43.5 -13z" />
    <glyph glyph-name="Icircumflex" unicode="&#xce;" horiz-adv-x="476" 
d="M324 842q-69 81 -84 81t-79 -77q-5 -6 -7 -8l-8 -8q-13 -13 -30.5 -13t-28.5 10.5t-11 29t26 40t52.5 51.5t45.5 46t40.5 16t41 -16t45.5 -46t52.5 -52t26.5 -40t-11 -28.5t-24 -10.5t-21 5q-14 7 -26 20zM369 661l-82 4q-4 -97 -4 -278.5t5 -303.5l81 4q27 0 43.5 -12.5
t16.5 -34t-16.5 -34t-43.5 -12.5l-131 6l-131 -6q-27 0 -43.5 12.5t-16.5 34t16.5 34t43.5 12.5l81 -5q5 122 5 304t-4 279l-82 -4q-27 0 -43.5 13t-16.5 35t16.5 34.5t43.5 12.5l131 -6l131 6q27 0 43.5 -12.5t16.5 -34.5t-16.5 -35t-43.5 -13z" />
    <glyph glyph-name="Idieresis" unicode="&#xcf;" horiz-adv-x="476" 
d="M369 661l-82 4q-4 -97 -4 -278.5t5 -303.5l81 4q27 0 43.5 -12.5t16.5 -34t-16.5 -34t-43.5 -12.5l-131 6l-131 -6q-27 0 -43.5 12.5t-16.5 34t16.5 34t43.5 12.5l81 -5q5 122 5 304t-4 279l-82 -4q-27 0 -43.5 13t-16.5 35t16.5 34.5t43.5 12.5l131 -6l131 6
q27 0 43.5 -12.5t16.5 -34.5t-16.5 -35t-43.5 -13zM182.5 950q13.5 -17 13.5 -43.5t-17 -47.5t-41.5 -21t-38.5 18t-14 44t16.5 46.5t42 20.5t39 -17zM377.5 950q13.5 -17 13.5 -43.5t-17 -47.5t-41.5 -21t-38.5 18t-14 44t16.5 46.5t42 20.5t39 -17z" />
    <glyph glyph-name="Eth" unicode="&#xd0;" horiz-adv-x="760" 
d="M580 265q18 54 18 122t-31 135t-98 111.5t-159 44.5q-32 0 -81 -7q-3 -55 -3 -260q44 2 72 2t41.5 -11t13.5 -29t-13.5 -29t-41.5 -11t-72 2q0 -175 5 -260q24 -3 90 -3t120 26t87.5 69.5t51.5 97.5zM132 105l3 229q-20 -1 -55.5 -1t-49 11t-13.5 29t13.5 29t39 11
t65.5 -2l-5 235q-47 5 -47 44q0 19 23 34t58 24q69 16 154 16t159.5 -33t120.5 -89q96 -115 96 -270q0 -151 -92 -264q-45 -56 -117 -89.5t-170 -33.5t-167 23t-69 60t53 37z" />
    <glyph glyph-name="Ntilde" unicode="&#xd1;" horiz-adv-x="733" 
d="M621 372l3 -310q0 -72 -53 -72q-33 0 -50 31l-317 546q0 -326 2.5 -418.5t2.5 -109t-15 -33t-35.5 -16.5t-35 16.5t-14.5 41.5l4 324q0 103 -2.5 209t-2.5 108q0 71 51 71q37 0 55 -31q291 -500 317 -540q0 283 -3 390t-3 110q0 71 51 71t51 -71q0 -8 -1 -53
q-5 -133 -5 -264zM572 925q0 -36 -31 -63t-70 -27t-93 31q-44 22 -66 22t-46.5 -29.5t-45 -29.5t-33 12.5t-12.5 30.5q0 36 37 64.5t86 28.5t102 -27.5t70.5 -27.5t38 25t34 25t21.5 -10.5t8 -24.5z" />
    <glyph glyph-name="Ograve" unicode="&#xd2;" 
d="M747 376q0 -163 -97.5 -277t-243 -114t-242.5 114t-97 277t98 276t243.5 113t242 -113t96.5 -276zM581.5 164q69.5 92 69.5 213t-69 211.5t-174.5 90.5t-175 -90.5t-69.5 -211t70 -213t174.5 -92.5t174 92zM297 946q0 17 11.5 30.5t29 13.5t30 -9.5t18 -19t14.5 -29.5
t33 -49.5t24 -41.5t-8.5 -20t-24.5 -8q-32 0 -79.5 44.5t-47.5 88.5z" />
    <glyph glyph-name="Oacute" unicode="&#xd3;" 
d="M747 376q0 -163 -97.5 -277t-243 -114t-242.5 114t-97 277t98 276t243.5 113t242 -113t96.5 -276zM581.5 164q69.5 92 69.5 213t-69 211.5t-174.5 90.5t-175 -90.5t-69.5 -211t70 -213t174.5 -92.5t174 92zM517 946q0 -44 -47.5 -88.5t-79.5 -44.5q-16 0 -24.5 8t-8.5 20
t24 41.5t33 49.5t14.5 29.5t18 19t30 9.5t29 -13.5t11.5 -30.5z" />
    <glyph glyph-name="Ocircumflex" unicode="&#xd4;" 
d="M493 842q-69 81 -83 81q-16 0 -80 -77q-5 -6 -8 -8l-7 -8q-13 -13 -30.5 -13t-28.5 10.5t-11 29t26 40t52.5 51.5t45.5 46t40.5 16t41 -16t45.5 -46t52.5 -52t26.5 -40t-11 -28.5t-24 -10.5t-22 5q-13 7 -25 20zM747 376q0 -163 -97.5 -277t-243 -114t-242.5 114t-97 277
t98 276t243.5 113t242 -113t96.5 -276zM581.5 164q69.5 92 69.5 213t-69 211.5t-174.5 90.5t-175 -90.5t-69.5 -211t70 -213t174.5 -92.5t174 92z" />
    <glyph glyph-name="Otilde" unicode="&#xd5;" 
d="M747 376q0 -163 -97.5 -277t-243 -114t-242.5 114t-97 277t98 276t243.5 113t242 -113t96.5 -276zM581.5 164q69.5 92 69.5 213t-69 211.5t-174.5 90.5t-175 -90.5t-69.5 -211t70 -213t174.5 -92.5t174 92zM605 927q0 -36 -31 -63t-70 -27t-93 31q-44 22 -66 22
t-46.5 -29.5t-45 -29.5t-33 12.5t-12.5 30.5q0 36 37 64.5t86 28.5t102 -27.5t70.5 -27.5t38 25t34 25t21.5 -10.5t8 -24.5z" />
    <glyph glyph-name="Odieresis" unicode="&#xd6;" 
d="M351.5 950q13.5 -17 13.5 -43t-17 -47.5t-41.5 -21.5t-38.5 18t-14 44t16.5 46.5t42 20.5t39 -17zM546.5 950q13.5 -17 13.5 -43t-17 -47.5t-41.5 -21.5t-38.5 18t-14 44t16.5 46.5t42 20.5t39 -17zM747 376q0 -163 -97.5 -277t-243 -114t-242.5 114t-97 277t98 276
t243.5 113t242 -113t96.5 -276zM581.5 164q69.5 92 69.5 213t-69 211.5t-174.5 90.5t-175 -90.5t-69.5 -211t70 -213t174.5 -92.5t174 92z" />
    <glyph glyph-name="multiply" unicode="&#xd7;" horiz-adv-x="563" 
d="M281 322q-3 -3 -42.5 -39.5t-82.5 -79.5q-16 -16 -34 -16t-30 12t-12 28.5t20.5 36.5t65 57.5t62.5 54.5q-18 17 -61 52t-64 55.5t-21 38.5t12.5 29.5t29.5 11.5t38 -18t60.5 -57t58.5 -56q15 13 55.5 53.5t62 59.5t38.5 19t29.5 -11.5t12.5 -29.5t-21 -38t-63 -55
t-61 -53q17 -16 61.5 -53.5t71.5 -62.5q16 -16 16 -32.5t-12 -28.5t-30 -12t-34 16q-53 53 -126 118z" />
    <glyph glyph-name="Oslash" unicode="&#xd8;" 
d="M747 376q0 -163 -97.5 -277t-243.5 -114q-18 0 -54 4q-18 -73 -59 -73q-19 0 -30.5 14t-11.5 36.5t11 53.5q-89 46 -142 142t-53 214q0 163 98 276t243 113q12 0 34 -2q10 40 23 56t34 16t32.5 -14t11.5 -34t-10 -48q97 -42 155.5 -141t58.5 -222zM424 678l-17 1
q-105 0 -174.5 -90.5t-69.5 -212.5q0 -79 33 -151t90 -113q36 112 138 566zM651 376q0 88 -38 163t-102 112q-85 -322 -140 -576q17 -3 36 -3q105 0 174.5 92t69.5 212z" />
    <glyph glyph-name="Ugrave" unicode="&#xd9;" horiz-adv-x="733" 
d="M366 -15q-124 0 -190 77t-68 187q-1 52 -1 129t-1.5 147.5t-3 113t-1.5 50.5q0 71 51 71t51 -71q0 -8 -1 -63q-5 -167 -5 -260.5t7 -135.5t24 -80q36 -78 138 -78q146 0 166 177q4 35 4 94.5t-1.5 143t-3 139t-1.5 63.5q0 71 51 71t51 -71q0 -8 -2 -51q-4 -127 -4 -232
t-1 -157q-2 -111 -68.5 -187.5t-190.5 -76.5zM260 946q0 17 11.5 30.5t29 13.5t30 -9.5t18 -19t14.5 -29.5t33 -49.5t24 -41.5t-8.5 -20t-24.5 -8q-32 0 -79.5 44.5t-47.5 88.5z" />
    <glyph glyph-name="Uacute" unicode="&#xda;" horiz-adv-x="733" 
d="M366 -15q-124 0 -190 77t-68 187q-1 52 -1 129t-1.5 147.5t-3 113t-1.5 50.5q0 71 51 71t51 -71q0 -8 -1 -63q-5 -167 -5 -260.5t7 -135.5t24 -80q36 -78 138 -78q146 0 166 177q4 35 4 94.5t-1.5 143t-3 139t-1.5 63.5q0 71 51 71t51 -71q0 -8 -2 -51q-4 -127 -4 -232
t-1 -157q-2 -111 -68.5 -187.5t-190.5 -76.5zM474 946q0 -44 -47.5 -88.5t-79.5 -44.5q-16 0 -24.5 8t-8.5 20t24 41.5t33 49.5t14.5 29.5t18 19t30 9.5t29 -13.5t11.5 -30.5z" />
    <glyph glyph-name="Ucircumflex" unicode="&#xdb;" horiz-adv-x="733" 
d="M446 842q-69 81 -84 81t-79 -77q-5 -6 -7 -8l-8 -8q-13 -13 -30.5 -13t-28.5 10.5t-11 29t26 40t52.5 51.5t45.5 46t40.5 16t41 -16t45.5 -46t52.5 -52t26.5 -40t-11 -28.5t-24 -10.5t-21 5q-14 7 -26 20zM366 -15q-124 0 -190 77t-68 187q-1 52 -1 129t-1.5 147.5
t-3 113t-1.5 50.5q0 71 51 71t51 -71q0 -8 -1 -63q-5 -167 -5 -260.5t7 -135.5t24 -80q36 -78 138 -78q146 0 166 177q4 35 4 94.5t-1.5 143t-3 139t-1.5 63.5q0 71 51 71t51 -71q0 -8 -2 -51q-4 -127 -4 -232t-1 -157q-2 -111 -68.5 -187.5t-190.5 -76.5z" />
    <glyph glyph-name="Udieresis" unicode="&#xdc;" horiz-adv-x="733" 
d="M366 -15q-124 0 -190 77t-68 187q-1 52 -1 129t-1.5 147.5t-3 113t-1.5 50.5q0 71 51 71t51 -71q0 -8 -1 -63q-5 -167 -5 -260.5t7 -135.5t24 -80q36 -78 138 -78q146 0 166 177q4 35 4 94.5t-1.5 143t-3 139t-1.5 63.5q0 71 51 71t51 -71q0 -8 -2 -51q-4 -127 -4 -232
t-1 -157q-2 -111 -68.5 -187.5t-190.5 -76.5zM304.5 950q13.5 -17 13.5 -43.5t-17 -47.5t-41.5 -21t-38.5 18t-14 44t16.5 46.5t42 20.5t39 -17zM499.5 950q13.5 -17 13.5 -43.5t-17 -47.5t-41.5 -21t-38.5 18t-14 44t16.5 46.5t42 20.5t39 -17z" />
    <glyph glyph-name="Yacute" unicode="&#xdd;" horiz-adv-x="597" 
d="M342 303q0 -80 2 -161l3 -81q0 -71 -51 -71t-51 71l3 83q2 83 2 160q-199 342 -212 369t-13 44t12 30t34.5 13t38.5 -21.5t74.5 -135.5t116.5 -202q24 36 84.5 148t70 128.5t13.5 24t11.5 19.5t12 17.5t10.5 11.5q10 10 28 10t29.5 -12t11.5 -29t-14.5 -44.5t-63 -110.5
t-62.5 -106.5t-39.5 -68t-50.5 -86.5zM408 946q0 -44 -47.5 -88.5t-79.5 -44.5q-16 0 -24.5 8t-8.5 20t24 41.5t33 49.5t14.5 29.5t18 19t30 9.5t29 -13.5t11.5 -30.5z" />
    <glyph glyph-name="Thorn" unicode="&#xde;" horiz-adv-x="607" 
d="M114 375l-6 314q0 71 51 71t51 -71q0 -15 -2.5 -38.5t-2.5 -38.5q45 13 120 13q110 0 177 -61.5t67 -153t-67.5 -152.5t-177.5 -61q-68 0 -119 12q5 -113 5 -148q0 -71 -51 -71t-51 71zM432.5 319q41.5 35 41.5 92.5t-41.5 92t-106 34.5t-120.5 -13q-2 -37 -2 -113.5
t1 -113.5q52 -14 119 -14t108.5 35z" />
    <glyph glyph-name="germandbls" unicode="&#xdf;" horiz-adv-x="604" 
d="M117 426l-40 -1q-20 0 -33.5 10t-13.5 29t13.5 28.5t28 9.5t44.5 -2v75q0 95 52 140t133.5 45t128.5 -45.5t47 -110.5q0 -34 -18.5 -69t-40.5 -59q-60 -62 -60 -87.5t32.5 -53.5t71 -50.5t71 -62.5t32.5 -87q0 -65 -45.5 -107.5t-121.5 -42.5q-54 0 -101 25t-47 54
q0 41 42 41q13 0 47.5 -20.5t61 -20.5t48 19t21.5 49.5t-21.5 53.5t-52 41t-60.5 37.5t-51.5 51t-21.5 66.5t18.5 66t40.5 53t40.5 50t18.5 56.5t-23 49.5t-61 21t-63 -26t-25 -86l1 -518q0 -26 -14 -42t-36.5 -16t-35.5 15.5t-13 39.5z" />
    <glyph glyph-name="agrave" unicode="&#xe0;" horiz-adv-x="800" 
d="M564 355l-6 245q-85 78 -182 78q-84 0 -148.5 -90t-64.5 -217.5t42 -213t120 -85.5t141 79.5t98 203.5zM643 367q0 -112 14.5 -189.5t35.5 -87.5q8 -4 19 -5.5t16 -4.5t5 -11q0 -36 -20 -59t-53 -23q-44 0 -66 50t-22 128q-34 -76 -100.5 -128t-151.5 -52
q-63 0 -113 34.5t-79 90.5q-61 115 -61 253q0 105 37.5 196.5t109.5 148.5t169 57t173 -69q0 69 51 69q63 0 63 -101q0 -75 -27 -297zM241 946q0 17 11.5 30.5t29 13.5t30 -9.5t18 -19t14.5 -29.5t33 -49.5t24 -41.5t-8.5 -20t-24.5 -8q-32 0 -79.5 44.5t-47.5 88.5z" />
    <glyph glyph-name="aacute" unicode="&#xe1;" horiz-adv-x="800" 
d="M492 946q0 -44 -47.5 -88.5t-79.5 -44.5q-16 0 -24.5 8t-8.5 20t24 41.5t33 49.5t14.5 29.5t18 19t30 9.5t29 -13.5t11.5 -30.5zM564 355l-6 245q-85 78 -182 78q-84 0 -148.5 -90t-64.5 -217.5t42 -213t120 -85.5t141 79.5t98 203.5zM643 367q0 -112 14.5 -189.5
t35.5 -87.5q8 -4 19 -5.5t16 -4.5t5 -11q0 -36 -20 -59t-53 -23q-44 0 -66 50t-22 128q-34 -76 -100.5 -128t-151.5 -52q-63 0 -113 34.5t-79 90.5q-61 115 -61 253q0 105 37.5 196.5t109.5 148.5t169 57t173 -69q0 69 51 69q63 0 63 -101q0 -75 -27 -297z" />
    <glyph glyph-name="acircumflex" unicode="&#xe2;" horiz-adv-x="800" 
d="M564 355l-6 245q-85 78 -182 78q-84 0 -148.5 -90t-64.5 -217.5t42 -213t120 -85.5t141 79.5t98 203.5zM643 367q0 -112 14.5 -189.5t35.5 -87.5q8 -4 19 -5.5t16 -4.5t5 -11q0 -36 -20 -59t-53 -23q-44 0 -66 50t-22 128q-34 -76 -100.5 -128t-151.5 -52
q-63 0 -113 34.5t-79 90.5q-61 115 -61 253q0 105 37.5 196.5t109.5 148.5t169 57t173 -69q0 69 51 69q63 0 63 -101q0 -75 -27 -297zM487 842q-69 81 -84 81t-79 -77q-5 -6 -7 -8l-8 -8q-13 -13 -30.5 -13t-28.5 10.5t-11 29t26 40t52.5 51.5t45.5 46t40.5 16t41 -16
t45.5 -46t52.5 -52t26.5 -40t-11 -28.5t-24 -10.5t-21 5q-14 7 -26 20z" />
    <glyph glyph-name="atilde" unicode="&#xe3;" horiz-adv-x="800" 
d="M593 925q0 -36 -31 -63t-70 -27t-93 31q-44 22 -66 22t-46.5 -29.5t-45 -29.5t-33 12.5t-12.5 30.5q0 36 37 64.5t86 28.5t102 -27.5t70.5 -27.5t38 25t34 25t21.5 -10.5t8 -24.5zM564 355l-6 245q-85 78 -182 78q-84 0 -148.5 -90t-64.5 -217.5t42 -213t120 -85.5
t141 79.5t98 203.5zM643 367q0 -112 14.5 -189.5t35.5 -87.5q8 -4 19 -5.5t16 -4.5t5 -11q0 -36 -20 -59t-53 -23q-44 0 -66 50t-22 128q-34 -76 -100.5 -128t-151.5 -52q-63 0 -113 34.5t-79 90.5q-61 115 -61 253q0 105 37.5 196.5t109.5 148.5t169 57t173 -69q0 69 51 69
q63 0 63 -101q0 -75 -27 -297z" />
    <glyph glyph-name="adieresis" unicode="&#xe4;" horiz-adv-x="800" 
d="M564 355l-6 245q-85 78 -182 78q-84 0 -148.5 -90t-64.5 -217.5t42 -213t120 -85.5t141 79.5t98 203.5zM643 367q0 -112 14.5 -189.5t35.5 -87.5q8 -4 19 -5.5t16 -4.5t5 -11q0 -36 -20 -59t-53 -23q-44 0 -66 50t-22 128q-34 -76 -100.5 -128t-151.5 -52
q-63 0 -113 34.5t-79 90.5q-61 115 -61 253q0 105 37.5 196.5t109.5 148.5t169 57t173 -69q0 69 51 69q63 0 63 -101q0 -75 -27 -297zM318.5 950q13.5 -17 13.5 -43.5t-17 -47.5t-41.5 -21t-38.5 18t-14 44t16.5 46.5t42 20.5t39 -17zM513.5 950q13.5 -17 13.5 -43.5
t-17 -47.5t-41.5 -21t-38.5 18t-14 44t16.5 46.5t42 20.5t39 -17z" />
    <glyph glyph-name="aring" unicode="&#xe5;" horiz-adv-x="800" 
d="M444 914q0 15 -12 28t-26.5 13t-26 -12.5t-11.5 -28t11 -27.5t26.5 -12t27 12t11.5 27zM479.5 986q29.5 -30 29.5 -72.5t-28.5 -70.5t-74.5 -28t-74.5 28t-28.5 71t29.5 72.5t73.5 29.5t73.5 -30zM564 355l-6 245q-85 78 -182 78q-84 0 -148.5 -90t-64.5 -217.5t42 -213
t120 -85.5t141 79.5t98 203.5zM643 367q0 -112 14.5 -189.5t35.5 -87.5q8 -4 19 -5.5t16 -4.5t5 -11q0 -36 -20 -59t-53 -23q-44 0 -66 50t-22 128q-34 -76 -100.5 -128t-151.5 -52q-63 0 -113 34.5t-79 90.5q-61 115 -61 253q0 105 37.5 196.5t109.5 148.5t169 57t173 -69
q0 69 51 69q63 0 63 -101q0 -75 -27 -297z" />
    <glyph glyph-name="ae" unicode="&#xe6;" horiz-adv-x="1159" 
d="M994 553q0 47 -35.5 86t-101.5 39q-93 0 -156.5 -78.5t-82.5 -182.5q69 -17 187 -17q80 0 134.5 39t54.5 114zM1021.5 704q68.5 -61 68.5 -148t-43 -142q-79 -99 -249 -99q-106 0 -181 14q9 -103 75 -179.5t146 -76.5q46 0 85 13t59 28q55 42 72 42t26.5 -10t9.5 -29
t-33.5 -50t-92.5 -56t-120 -25q-95 0 -165.5 44.5t-111.5 119.5q-43 -83 -113 -123.5t-155 -40.5q-106 0 -178 71.5t-72 184.5q0 91 75.5 156t180.5 65q61 0 102.5 -7.5t108.5 -26.5q0 134 -52.5 191.5t-133.5 57.5q-39 0 -72 -13t-50 -28q-48 -41 -70 -41q-46 0 -46 42.5
t71.5 84.5t164 42t158 -41t99.5 -109q99 150 272 150q96 0 164.5 -61zM145 239q0 -71 48 -118t110 -47q84 0 147 71t63 198q-95 32 -184.5 32t-136.5 -41t-47 -95z" />
    <glyph glyph-name="ccedilla" unicode="&#xe7;" horiz-adv-x="698" 
d="M510 -133q0 -42 -37.5 -69.5t-89.5 -27.5t-83.5 24.5t-31.5 50.5q0 9 7.5 17t19 8t37 -12t44.5 -12t31 7t12 16t-14.5 19.5t-31.5 21t-32 33t-15 51.5q-116 28 -187.5 134.5t-71.5 247.5q0 163 95.5 276t239.5 113q88 0 157.5 -33t69.5 -74q0 -20 -12 -32t-31.5 -12
t-55.5 23q-58 41 -128 41q-104 0 -171.5 -89.5t-67.5 -212t67.5 -213.5t165.5 -91t179 49q33 18 44.5 18t21 -9.5t9.5 -23.5q0 -35 -72 -77t-171 -44q3 -17 29 -34t50 -37t24 -47z" />
    <glyph glyph-name="egrave" unicode="&#xe8;" horiz-adv-x="735" 
d="M615.5 704q71.5 -61 71.5 -147t-45 -141q-82 -101 -257 -101q-71 0 -179 20q9 -108 71.5 -185.5t146.5 -77.5q48 0 89 13t62.5 28.5t41.5 28.5t35 13t25 -10t10 -29t-35 -50t-96.5 -56t-130 -25t-129.5 31t-100 83q-81 108 -87 253q-72 22 -72 71q0 20 11.5 31.5
t26.5 11.5t42 -12q31 134 116.5 222.5t209.5 88.5q101 0 172.5 -61zM591 553q0 47 -38.5 86t-105.5 39t-119 -40q-93 -73 -120 -217q76 -21 171.5 -21t153.5 40t58 113zM320 946q0 17 11.5 30.5t29 13.5t30 -9.5t18 -19t14.5 -29.5t33 -49.5t24 -41.5t-8.5 -20t-24.5 -8
q-32 0 -79.5 44.5t-47.5 88.5z" />
    <glyph glyph-name="eacute" unicode="&#xe9;" horiz-adv-x="735" 
d="M541 946q0 -44 -47.5 -88.5t-79.5 -44.5q-16 0 -24.5 8t-8.5 20t24 41.5t33 49.5t14.5 29.5t18 19t30 9.5t29 -13.5t11.5 -30.5zM615.5 704q71.5 -61 71.5 -147t-45 -141q-82 -101 -257 -101q-71 0 -179 20q9 -108 71.5 -185.5t146.5 -77.5q48 0 89 13t62.5 28.5
t41.5 28.5t35 13t25 -10t10 -29t-35 -50t-96.5 -56t-130 -25t-129.5 31t-100 83q-81 108 -87 253q-72 22 -72 71q0 20 11.5 31.5t26.5 11.5t42 -12q31 134 116.5 222.5t209.5 88.5q101 0 172.5 -61zM591 553q0 47 -38.5 86t-105.5 39t-119 -40q-93 -73 -120 -217
q76 -21 171.5 -21t153.5 40t58 113z" />
    <glyph glyph-name="ecircumflex" unicode="&#xea;" horiz-adv-x="735" 
d="M615.5 704q71.5 -61 71.5 -147t-45 -141q-82 -101 -257 -101q-71 0 -179 20q9 -108 71.5 -185.5t146.5 -77.5q48 0 89 13t62.5 28.5t41.5 28.5t35 13t25 -10t10 -29t-35 -50t-96.5 -56t-130 -25t-129.5 31t-100 83q-81 108 -87 253q-72 22 -72 71q0 20 11.5 31.5
t26.5 11.5t42 -12q31 134 116.5 222.5t209.5 88.5q101 0 172.5 -61zM591 553q0 47 -38.5 86t-105.5 39t-119 -40q-93 -73 -120 -217q76 -21 171.5 -21t153.5 40t58 113zM517 842q-69 81 -84 81t-79 -77q-5 -6 -7 -8l-8 -8q-13 -13 -30.5 -13t-28.5 10.5t-11 29t26 40
t52.5 51.5t45.5 46t40.5 16t41 -16t45.5 -46t52.5 -52t26.5 -40t-11 -28.5t-24 -10.5t-21 5q-14 7 -26 20z" />
    <glyph glyph-name="edieresis" unicode="&#xeb;" horiz-adv-x="735" 
d="M384.5 950q13.5 -17 13.5 -43t-17 -47.5t-41.5 -21.5t-38.5 18t-14 44t16.5 46.5t42 20.5t39 -17zM579.5 950q13.5 -17 13.5 -43t-17 -47.5t-41.5 -21.5t-38.5 18t-14 44t16.5 46.5t42 20.5t39 -17zM615.5 704q71.5 -61 71.5 -147t-45 -141q-82 -101 -257 -101
q-71 0 -179 20q9 -108 71.5 -185.5t146.5 -77.5q48 0 89 13t62.5 28.5t41.5 28.5t35 13t25 -10t10 -29t-35 -50t-96.5 -56t-130 -25t-129.5 31t-100 83q-81 108 -87 253q-72 22 -72 71q0 20 11.5 31.5t26.5 11.5t42 -12q31 134 116.5 222.5t209.5 88.5q101 0 172.5 -61z
M591 553q0 47 -38.5 86t-105.5 39t-119 -40q-93 -73 -120 -217q76 -21 171.5 -21t153.5 40t58 113z" />
    <glyph glyph-name="igrave" unicode="&#xec;" horiz-adv-x="476" 
d="M369 661l-82 4q-4 -97 -4 -278.5t5 -303.5l81 4q27 0 43.5 -12.5t16.5 -34t-16.5 -34t-43.5 -12.5l-131 6l-131 -6q-27 0 -43.5 12.5t-16.5 34t16.5 34t43.5 12.5l81 -5q5 122 5 304t-4 279l-82 -4q-27 0 -43.5 13t-16.5 35t16.5 34.5t43.5 12.5l131 -6l131 6
q27 0 43.5 -12.5t16.5 -34.5t-16.5 -35t-43.5 -13zM128 946q0 17 11.5 30.5t29 13.5t30 -9.5t18 -19t14.5 -29.5t33 -49.5t24 -41.5t-8.5 -20t-24.5 -8q-32 0 -79.5 44.5t-47.5 88.5z" />
    <glyph glyph-name="iacute" unicode="&#xed;" horiz-adv-x="492" 
d="M385 661l-90 4q-4 -97 -4 -278.5t5 -303.5l89 5q27 0 43.5 -12.5t16.5 -34.5t-16.5 -34.5t-43.5 -12.5l-139 6l-139 -7q-27 0 -43.5 12.5t-16.5 34.5t16.5 34.5t43.5 12.5l89 -5q5 122 5 304t-4 279l-90 -4q-27 0 -43.5 12.5t-16.5 34.5t16.5 34.5t43.5 12.5l139 -5
l139 6q27 0 43.5 -12.5t16.5 -34.5t-16.5 -35t-43.5 -13zM355 946q0 -44 -47.5 -88.5t-79.5 -44.5q-16 0 -24.5 8t-8.5 20t24 41.5t33 49.5t14.5 29.5t18 19t30 9.5t29 -13.5t11.5 -30.5z" />
    <glyph glyph-name="icircumflex" unicode="&#xee;" horiz-adv-x="476" 
d="M324 842q-69 81 -84 81t-79 -77q-5 -6 -7 -8l-8 -8q-13 -13 -30.5 -13t-28.5 10.5t-11 29t26 40t52.5 51.5t45.5 46t40.5 16t41 -16t45.5 -46t52.5 -52t26.5 -40t-11 -28.5t-24 -10.5t-21 5q-14 7 -26 20zM369 661l-82 4q-4 -97 -4 -278.5t5 -303.5l81 4q27 0 43.5 -12.5
t16.5 -34t-16.5 -34t-43.5 -12.5l-131 6l-131 -6q-27 0 -43.5 12.5t-16.5 34t16.5 34t43.5 12.5l81 -5q5 122 5 304t-4 279l-82 -4q-27 0 -43.5 13t-16.5 35t16.5 34.5t43.5 12.5l131 -6l131 6q27 0 43.5 -12.5t16.5 -34.5t-16.5 -35t-43.5 -13z" />
    <glyph glyph-name="idieresis" unicode="&#xef;" horiz-adv-x="476" 
d="M369 661l-82 4q-4 -97 -4 -278.5t5 -303.5l81 4q27 0 43.5 -12.5t16.5 -34t-16.5 -34t-43.5 -12.5l-131 6l-131 -6q-27 0 -43.5 12.5t-16.5 34t16.5 34t43.5 12.5l81 -5q5 122 5 304t-4 279l-82 -4q-27 0 -43.5 13t-16.5 35t16.5 34.5t43.5 12.5l131 -6l131 6
q27 0 43.5 -12.5t16.5 -34.5t-16.5 -35t-43.5 -13zM182.5 950q13.5 -17 13.5 -43.5t-17 -47.5t-41.5 -21t-38.5 18t-14 44t16.5 46.5t42 20.5t39 -17zM377.5 950q13.5 -17 13.5 -43.5t-17 -47.5t-41.5 -21t-38.5 18t-14 44t16.5 46.5t42 20.5t39 -17z" />
    <glyph glyph-name="eth" unicode="&#xf0;" horiz-adv-x="611" 
d="M396 120q41 48 41 115.5t-41 117t-104.5 49.5t-100.5 -44.5t-37 -116t40 -120.5t100.5 -49t101.5 48zM539 300q0 -141 -61.5 -228t-184.5 -87q-105 0 -170 77.5t-65 178t59 174.5t155 74t163 -57q-30 101 -102 163q-2 -2 -22 -25.5t-35 -33.5t-32 -10t-28.5 10.5
t-11.5 23t8.5 24t17 19t25 19.5t19.5 15q-23 13 -60 17.5t-51 9.5q-30 8 -30 37q0 16 14.5 28t41.5 12q73 0 147 -45q43 43 57.5 53.5t31 10.5t28 -10t11.5 -24.5t-8 -26.5t-15 -18.5t-23.5 -18t-19.5 -14.5q69 -61 105 -154t36 -194z" />
    <glyph glyph-name="ntilde" unicode="&#xf1;" horiz-adv-x="795" 
d="M591 927q0 -36 -31 -63t-70 -27t-93 31q-44 22 -66 22t-46.5 -29.5t-45 -29.5t-33 12.5t-12.5 30.5q0 36 37 64.5t86 28.5t102 -27.5t70.5 -27.5t38 25t34 25t21.5 -10.5t8 -24.5zM665 497l-7 -282q0 -38 1 -57t8 -40t21 -27q8 -4 19 -5.5t16 -4.5t5 -11q0 -35 -22 -58.5
t-52 -23.5q-52 0 -71.5 40t-19.5 119l6 284q0 108 -40 174t-112 66t-138.5 -87.5t-92.5 -198.5l4 -328q0 -69 -51 -69q-62 0 -62 104.5t27 292.5q0 65 -11.5 176.5t-11.5 136.5t14 43.5t38.5 18.5t38.5 -18.5t14 -41.5t-0.5 -55.5t-0.5 -55.5q98 171 248 171
q111 0 171.5 -76.5t60.5 -186.5z" />
    <glyph glyph-name="ograve" unicode="&#xf2;" 
d="M297 946q0 17 11.5 30.5t29 13.5t30 -9.5t18 -19t14.5 -29.5t33 -49.5t24 -41.5t-8.5 -20t-24.5 -8q-32 0 -79.5 44.5t-47.5 88.5zM747 376q0 -163 -97.5 -277t-243 -114t-242.5 114t-97 277t98 276t243.5 113t242 -113t96.5 -276zM581.5 164q69.5 92 69.5 213t-69 211.5
t-174.5 90.5t-175 -90.5t-69.5 -211t70 -213t174.5 -92.5t174 92z" />
    <glyph glyph-name="oacute" unicode="&#xf3;" 
d="M517 946q0 -44 -47.5 -88.5t-79.5 -44.5q-16 0 -24.5 8t-8.5 20t24 41.5t33 49.5t14.5 29.5t18 19t30 9.5t29 -13.5t11.5 -30.5zM747 376q0 -163 -97.5 -277t-243 -114t-242.5 114t-97 277t98 276t243.5 113t242 -113t96.5 -276zM581.5 164q69.5 92 69.5 213t-69 211.5
t-174.5 90.5t-175 -90.5t-69.5 -211t70 -213t174.5 -92.5t174 92z" />
    <glyph glyph-name="ocircumflex" unicode="&#xf4;" 
d="M493 842q-69 81 -83 81q-16 0 -80 -77q-5 -6 -8 -8l-7 -8q-13 -13 -30.5 -13t-28.5 10.5t-11 29t26 40t52.5 51.5t45.5 46t40.5 16t41 -16t45.5 -46t52.5 -52t26.5 -40t-11 -28.5t-24 -10.5t-22 5q-13 7 -25 20zM747 376q0 -163 -97.5 -277t-243 -114t-242.5 114t-97 277
t98 276t243.5 113t242 -113t96.5 -276zM581.5 164q69.5 92 69.5 213t-69 211.5t-174.5 90.5t-175 -90.5t-69.5 -211t70 -213t174.5 -92.5t174 92z" />
    <glyph glyph-name="otilde" unicode="&#xf5;" 
d="M747 376q0 -163 -97.5 -277t-243 -114t-242.5 114t-97 277t98 276t243.5 113t242 -113t96.5 -276zM581.5 164q69.5 92 69.5 213t-69 211.5t-174.5 90.5t-175 -90.5t-69.5 -211t70 -213t174.5 -92.5t174 92zM605 927q0 -36 -31 -63t-70 -27t-93 31q-44 22 -66 22
t-46.5 -29.5t-45 -29.5t-33 12.5t-12.5 30.5q0 36 37 64.5t86 28.5t102 -27.5t70.5 -27.5t38 25t34 25t21.5 -10.5t8 -24.5z" />
    <glyph glyph-name="odieresis" unicode="&#xf6;" 
d="M351.5 950q13.5 -17 13.5 -43t-17 -47.5t-41.5 -21.5t-38.5 18t-14 44t16.5 46.5t42 20.5t39 -17zM546.5 950q13.5 -17 13.5 -43t-17 -47.5t-41.5 -21.5t-38.5 18t-14 44t16.5 46.5t42 20.5t39 -17zM747 376q0 -163 -97.5 -277t-243 -114t-242.5 114t-97 277t98 276
t243.5 113t242 -113t96.5 -276zM581.5 164q69.5 92 69.5 213t-69 211.5t-174.5 90.5t-175 -90.5t-69.5 -211t70 -213t174.5 -92.5t174 92z" />
    <glyph glyph-name="divide" unicode="&#xf7;" horiz-adv-x="618" 
d="M352.5 245q13.5 -17 13.5 -43t-17 -47.5t-41.5 -21.5t-38.5 18t-14 44t16.5 46.5t42 20.5t39 -17zM350.5 598q13.5 -17 13.5 -43.5t-17 -47.5t-41.5 -21t-38.5 18t-14 44t16.5 46.5t42 20.5t39 -17zM309 406l197 3q18 0 29.5 -10t11.5 -25t-11.5 -25t-29.5 -10l-197 3
l-197 -3q-18 0 -29.5 10t-11.5 25t11.5 25t29.5 10z" />
    <glyph glyph-name="oslash" unicode="&#xf8;" 
d="M747 376q0 -163 -97.5 -277t-243.5 -114q-18 0 -54 4q-18 -73 -59 -73q-19 0 -30.5 14t-11.5 36.5t11 53.5q-89 46 -142 142t-53 214q0 163 98 276t243 113q12 0 34 -2q10 40 23 56t34 16t32.5 -14t11.5 -34t-10 -48q97 -42 155.5 -141t58.5 -222zM424 678l-17 1
q-105 0 -174.5 -90.5t-69.5 -212.5q0 -79 33 -151t90 -113q36 112 138 566zM651 376q0 88 -38 163t-102 112q-85 -322 -140 -576q17 -3 36 -3q105 0 174.5 92t69.5 212z" />
    <glyph glyph-name="ugrave" unicode="&#xf9;" horiz-adv-x="809" 
d="M197 646l-11 -332q0 -107 42 -174.5t113.5 -67.5t137 89t90.5 199l-4 328q0 69 51 69q62 0 62 -102t-27 -295q0 -110 14.5 -186.5t35.5 -85.5q8 -4 19.5 -5.5t16.5 -4.5t5 -11q0 -37 -22 -59.5t-56 -22.5q-85 0 -85 173q-100 -173 -252 -173q-113 0 -174.5 91t-61.5 221
l8 239q0 54 -11 100t-11 66.5t16 37.5t42 17q62 0 62 -111zM259 946q0 17 11.5 30.5t29 13.5t30 -9.5t18 -19t14.5 -29.5t33 -49.5t24 -41.5t-8.5 -20t-24.5 -8q-32 0 -79.5 44.5t-47.5 88.5z" />
    <glyph glyph-name="uacute" unicode="&#xfa;" horiz-adv-x="809" 
d="M489 946q0 -44 -47.5 -88.5t-79.5 -44.5q-16 0 -24.5 8t-8.5 20t24 41.5t33 49.5t14.5 29.5t18 19t30 9.5t29 -13.5t11.5 -30.5zM197 646l-11 -332q0 -107 42 -174.5t113.5 -67.5t137 89t90.5 199l-4 328q0 69 51 69q62 0 62 -102t-27 -295q0 -110 14.5 -186.5
t35.5 -85.5q8 -4 19.5 -5.5t16.5 -4.5t5 -11q0 -37 -22 -59.5t-56 -22.5q-85 0 -85 173q-100 -173 -252 -173q-113 0 -174.5 91t-61.5 221l8 239q0 54 -11 100t-11 66.5t16 37.5t42 17q62 0 62 -111z" />
    <glyph glyph-name="ucircumflex" unicode="&#xfb;" horiz-adv-x="809" 
d="M197 646l-11 -332q0 -107 42 -174.5t113.5 -67.5t137 89t90.5 199l-4 328q0 69 51 69q62 0 62 -102t-27 -295q0 -110 14.5 -186.5t35.5 -85.5q8 -4 19.5 -5.5t16.5 -4.5t5 -11q0 -37 -22 -59.5t-56 -22.5q-85 0 -85 173q-100 -173 -252 -173q-113 0 -174.5 91t-61.5 221
l8 239q0 54 -11 100t-11 66.5t16 37.5t42 17q62 0 62 -111zM462 842q-69 81 -84 81t-79 -77q-5 -6 -7 -8l-8 -8q-13 -13 -30.5 -13t-28.5 10.5t-11 29t26 40t52.5 51.5t45.5 46t40.5 16t41 -16t45.5 -46t52.5 -52t26.5 -40t-11 -28.5t-24 -10.5t-21 5q-14 7 -26 20z" />
    <glyph glyph-name="udieresis" unicode="&#xfc;" horiz-adv-x="809" 
d="M323.5 950q13.5 -17 13.5 -43t-17 -47.5t-41.5 -21.5t-38.5 18t-14 44t16.5 46.5t42 20.5t39 -17zM518.5 950q13.5 -17 13.5 -43t-17 -47.5t-41.5 -21.5t-38.5 18t-14 44t16.5 46.5t42 20.5t39 -17zM197 646l-11 -332q0 -107 42 -174.5t113.5 -67.5t137 89t90.5 199
l-4 328q0 69 51 69q62 0 62 -102t-27 -295q0 -110 14.5 -186.5t35.5 -85.5q8 -4 19.5 -5.5t16.5 -4.5t5 -11q0 -37 -22 -59.5t-56 -22.5q-85 0 -85 173q-100 -173 -252 -173q-113 0 -174.5 91t-61.5 221l8 239q0 54 -11 100t-11 66.5t16 37.5t42 17q62 0 62 -111z" />
    <glyph glyph-name="yacute" unicode="&#xfd;" horiz-adv-x="597" 
d="M408 946q0 -44 -47.5 -88.5t-79.5 -44.5q-16 0 -24.5 8t-8.5 20t24 41.5t33 49.5t14.5 29.5t18 19t30 9.5t29 -13.5t11.5 -30.5zM342 303q0 -80 2 -161l3 -81q0 -71 -51 -71t-51 71l3 83q2 83 2 160q-199 342 -212 369t-13 44t12 30t34.5 13t38.5 -21.5t74.5 -135.5
t116.5 -202q24 36 84.5 148t70 128.5t13.5 24t11.5 19.5t12 17.5t10.5 11.5q10 10 28 10t29.5 -12t11.5 -29t-14.5 -44.5t-63 -110.5t-62.5 -106.5t-39.5 -68t-50.5 -86.5z" />
    <glyph glyph-name="thorn" unicode="&#xfe;" horiz-adv-x="607" 
d="M114 375l-6 314q0 71 51 71t51 -71q0 -15 -2.5 -38.5t-2.5 -38.5q45 13 120 13q110 0 177 -61.5t67 -153t-67.5 -152.5t-177.5 -61q-68 0 -119 12q5 -113 5 -148q0 -71 -51 -71t-51 71zM432.5 319q41.5 35 41.5 92.5t-41.5 92t-106 34.5t-120.5 -13q-2 -37 -2 -113.5
t1 -113.5q52 -14 119 -14t108.5 35z" />
    <glyph glyph-name="ydieresis" unicode="&#xff;" horiz-adv-x="597" 
d="M342 303q0 -80 2 -161l3 -81q0 -71 -51 -71t-51 71l3 83q2 83 2 160q-199 342 -212 369t-13 44t12 30t34.5 13t38.5 -21.5t74.5 -135.5t116.5 -202q24 36 84.5 148t70 128.5t13.5 24t11.5 19.5t12 17.5t10.5 11.5q10 10 28 10t29.5 -12t11.5 -29t-14.5 -44.5t-63 -110.5
t-62.5 -106.5t-39.5 -68t-50.5 -86.5zM242.5 950q13.5 -17 13.5 -43.5t-17 -47.5t-41.5 -21t-38.5 18t-14 44t16.5 46.5t42 20.5t39 -17zM437.5 950q13.5 -17 13.5 -43.5t-17 -47.5t-41.5 -21t-38.5 18t-14 44t16.5 46.5t42 20.5t39 -17z" />
    <glyph glyph-name="Hbar" unicode="&#x126;" horiz-adv-x="792" 
d="M564 439q0 99 -3 162q-59 2 -166 2t-167 -2q-3 -63 -3 -162q98 -2 194.5 -2t144.5 2zM564 353l-172 2q-115 0 -167 -1q0 -79 3 -183.5t3 -109.5q0 -71 -51 -71t-51 71q0 5 3 108t3 182q-64 0 -64 45q0 21 16.5 33.5t47.5 12.5q0 35 -3 158h-56q-22 0 -35.5 11t-13.5 29
t13.5 29t35.5 11h53q0 80 51 80t51 -81l165 -2l163 2q0 81 51 81t51 -80h55q22 0 35.5 -11t13.5 -29t-13.5 -29t-35.5 -11h-58q-3 -60 -3 -157q30 0 47.5 -13t17.5 -34t-17.5 -33.5t-47.5 -12.5q0 -79 3 -181.5t3 -107.5q0 -71 -51 -71t-51 71z" />
    <glyph glyph-name="hbar" unicode="&#x127;" horiz-adv-x="792" 
d="M564 439q0 99 -3 162q-59 2 -166 2t-167 -2q-3 -63 -3 -162q98 -2 194.5 -2t144.5 2zM564 353l-172 2q-115 0 -167 -1q0 -79 3 -183.5t3 -109.5q0 -71 -51 -71t-51 71q0 5 3 108t3 182q-64 0 -64 45q0 21 16.5 33.5t47.5 12.5q0 35 -3 158h-56q-22 0 -35.5 11t-13.5 29
t13.5 29t35.5 11h53q0 80 51 80t51 -81l165 -2l163 2q0 81 51 81t51 -80h55q22 0 35.5 -11t13.5 -29t-13.5 -29t-35.5 -11h-58q-3 -60 -3 -157q30 0 47.5 -13t17.5 -34t-17.5 -33.5t-47.5 -12.5q0 -79 3 -181.5t3 -107.5q0 -71 -51 -71t-51 71z" />
    <glyph glyph-name="Itilde" unicode="&#x128;" horiz-adv-x="476" 
d="M369 661l-82 4q-4 -97 -4 -278.5t5 -303.5l81 4q27 0 43.5 -12.5t16.5 -34t-16.5 -34t-43.5 -12.5l-131 6l-131 -6q-27 0 -43.5 12.5t-16.5 34t16.5 34t43.5 12.5l81 -5q5 122 5 304t-4 279l-82 -4q-27 0 -43.5 13t-16.5 35t16.5 34.5t43.5 12.5l131 -6l131 6
q27 0 43.5 -12.5t16.5 -34.5t-16.5 -35t-43.5 -13zM437 924q0 -36 -31 -63t-70 -27t-93 31q-44 22 -66 22t-46.5 -29.5t-45 -29.5t-33 12.5t-12.5 30.5q0 36 37 64.5t86 28.5t102 -27.5t70.5 -27.5t38 25t34 25t21.5 -10.5t8 -24.5z" />
    <glyph glyph-name="itilde" unicode="&#x129;" horiz-adv-x="476" 
d="M437 924q0 -36 -31 -63t-70 -27t-93 31q-44 22 -66 22t-46.5 -29.5t-45 -29.5t-33 12.5t-12.5 30.5q0 36 37 64.5t86 28.5t102 -27.5t70.5 -27.5t38 25t34 25t21.5 -10.5t8 -24.5zM369 661l-82 4q-4 -97 -4 -278.5t5 -303.5l81 4q27 0 43.5 -12.5t16.5 -34t-16.5 -34
t-43.5 -12.5l-131 6l-131 -6q-27 0 -43.5 12.5t-16.5 34t16.5 34t43.5 12.5l81 -5q5 122 5 304t-4 279l-82 -4q-27 0 -43.5 13t-16.5 35t16.5 34.5t43.5 12.5l131 -6l131 6q27 0 43.5 -12.5t16.5 -34.5t-16.5 -35t-43.5 -13z" />
    <glyph glyph-name="Idot" unicode="&#x130;" horiz-adv-x="492" 
d="M385 661l-90 4q-4 -97 -4 -278.5t5 -303.5l89 5q27 0 43.5 -12.5t16.5 -34.5t-16.5 -34.5t-43.5 -12.5l-139 6l-139 -7q-27 0 -43.5 12.5t-16.5 34.5t16.5 34.5t43.5 12.5l89 -5q5 122 5 304t-4 279l-90 -4q-27 0 -43.5 12.5t-16.5 34.5t16.5 34.5t43.5 12.5l139 -5
l139 6q27 0 43.5 -12.5t16.5 -34.5t-16.5 -35t-43.5 -13zM290.5 947q13.5 -17 13.5 -43t-17 -47.5t-41.5 -21.5t-38.5 18t-14 44t16.5 46.5t42 20.5t39 -17z" />
    <glyph glyph-name="dotlessi" unicode="&#x131;" horiz-adv-x="492" 
d="M385 661l-90 4q-4 -97 -4 -278.5t5 -303.5l89 5q27 0 43.5 -12.5t16.5 -34.5t-16.5 -34.5t-43.5 -12.5l-139 6l-139 -7q-27 0 -43.5 12.5t-16.5 34.5t16.5 34.5t43.5 12.5l89 -5q5 122 5 304t-4 279l-90 -4q-27 0 -43.5 12.5t-16.5 34.5t16.5 34.5t43.5 12.5l139 -5
l139 6q27 0 43.5 -12.5t16.5 -34.5t-16.5 -35t-43.5 -13z" />
    <glyph glyph-name="IJ" unicode="&#x132;" horiz-adv-x="989" 
d="M737 750l139 6q27 0 43.5 -12.5t16.5 -34t-19 -34.5t-49 -13q-1 -62 -1 -405q0 -73 -19.5 -128t-52.5 -85q-65 -59 -146 -59t-132.5 34.5t-51.5 67.5q0 19 11.5 30.5t28.5 11.5t33.5 -14t42.5 -28.5t65 -14.5q53 0 92 49.5t39 156.5l-3 389q-59 0 -107 -3t-67 -3
t-35.5 12.5t-16.5 34.5t16.5 34.5t43.5 12.5zM369 661l-82 4q-4 -97 -4 -278.5t5 -303.5l81 4q27 0 43.5 -12.5t16.5 -34t-16.5 -34t-43.5 -12.5l-131 6l-131 -6q-27 0 -43.5 12.5t-16.5 34t16.5 34t43.5 12.5l81 -5q5 122 5 304t-4 279l-82 -4q-27 0 -43.5 13t-16.5 35
t16.5 34.5t43.5 12.5l131 -6l131 6q27 0 43.5 -12.5t16.5 -34.5t-16.5 -35t-43.5 -13z" />
    <glyph glyph-name="ij" unicode="&#x133;" horiz-adv-x="989" 
d="M737 750l139 6q27 0 43.5 -12.5t16.5 -34t-19 -34.5t-49 -13q-1 -62 -1 -405q0 -73 -19.5 -128t-52.5 -85q-65 -59 -146 -59t-132.5 34.5t-51.5 67.5q0 19 11.5 30.5t28.5 11.5t33.5 -14t42.5 -28.5t65 -14.5q53 0 92 49.5t39 156.5l-3 389q-59 0 -107 -3t-67 -3
t-35.5 12.5t-16.5 34.5t16.5 34.5t43.5 12.5zM369 661l-82 4q-4 -97 -4 -278.5t5 -303.5l81 4q27 0 43.5 -12.5t16.5 -34t-16.5 -34t-43.5 -12.5l-131 6l-131 -6q-27 0 -43.5 12.5t-16.5 34t16.5 34t43.5 12.5l81 -5q5 122 5 304t-4 279l-82 -4q-27 0 -43.5 13t-16.5 35
t16.5 34.5t43.5 12.5l131 -6l131 6q27 0 43.5 -12.5t16.5 -34.5t-16.5 -35t-43.5 -13z" />
    <glyph glyph-name="Jcircumflex" unicode="&#x134;" horiz-adv-x="563" 
d="M313 750l139 6q27 0 43.5 -12.5t16.5 -34t-19 -34.5t-49 -13q-1 -62 -1 -405q0 -73 -19.5 -128t-52.5 -85q-65 -59 -146 -59t-132.5 34.5t-51.5 67.5q0 19 11.5 30.5t28.5 11.5t33.5 -14t42.5 -28.5t65 -14.5q53 0 92 49.5t39 156.5l-3 389q-59 0 -107 -3t-67 -3
t-35.5 12.5t-16.5 34.5t16.5 34.5t43.5 12.5zM401 842q-69 81 -84 81t-79 -77q-5 -6 -7 -8l-8 -8q-13 -13 -30.5 -13t-28.5 10.5t-11 29t26 40t52.5 51.5t45.5 46t40.5 16t41 -16t45.5 -46t52.5 -52t26.5 -40t-11 -28.5t-24 -10.5t-21 5q-14 7 -26 20z" />
    <glyph glyph-name="jcircumflex" unicode="&#x135;" horiz-adv-x="563" 
d="M401 842q-69 81 -83 81q-16 0 -80 -77q-5 -6 -8 -8l-7 -8q-13 -13 -30.5 -13t-28.5 10.5t-11 29t26 40t52.5 51.5t45.5 46t40.5 16t41 -16t45.5 -46t52.5 -52t26.5 -40t-11 -28.5t-24 -10.5t-22 5q-13 7 -25 20zM313 750l139 6q27 0 43.5 -12.5t16.5 -34t-19 -34.5
t-49 -13q-1 -62 -1 -405q0 -73 -19.5 -128t-52.5 -85q-65 -59 -146 -59t-132.5 34.5t-51.5 67.5q0 19 11.5 30.5t28.5 11.5t33.5 -14t42.5 -28.5t65 -14.5q53 0 92 49.5t39 156.5l-3 389q-59 0 -107 -3t-67 -3t-35.5 12.5t-16.5 34.5t16.5 34.5t43.5 12.5z" />
    <glyph glyph-name="Kcommaaccent" unicode="&#x136;" horiz-adv-x="658" 
d="M203 337l5 -290q0 -24 -15 -40.5t-35.5 -16.5t-35 16.5t-14.5 40.5l4 325l-4 330q0 24 14.5 40.5t35 16.5t35.5 -16.5t15 -40.5l-2 -90q-3 -90 -3 -178q24 8 69 8l48 -6q48 40 89.5 120t58.5 155q10 49 48 49q18 0 30 -12t12 -31q0 -66 -51.5 -168t-111.5 -168
q34 -67 81.5 -148t77.5 -119.5t62 -38.5l11 1q7 0 7 -22t-18 -43t-45.5 -21t-54.5 24q-53 49 -206 327q-12 0 -31 -3.5t-41 -3.5t-35 3zM236 -63.5q12 16.5 34.5 16.5t35 -14.5t12.5 -35.5q0 -44 -41 -91.5t-68 -47.5q-14 0 -23 8t-9 17.5t29 62.5q5 9 11.5 38.5t18.5 46z
" />
    <glyph glyph-name="kcedilla" unicode="&#x137;" horiz-adv-x="658" 
d="M203 337l5 -290q0 -24 -15 -40.5t-35.5 -16.5t-35 16.5t-14.5 40.5l4 325l-4 330q0 24 14.5 40.5t35 16.5t35.5 -16.5t15 -40.5l-2 -90q-3 -90 -3 -178q24 8 69 8l48 -6q48 40 89.5 120t58.5 155q10 49 48 49q18 0 30 -12t12 -31q0 -66 -51.5 -168t-111.5 -168
q34 -67 81.5 -148t77.5 -119.5t62 -38.5l11 1q7 0 7 -22t-18 -43t-45.5 -21t-54.5 24q-53 49 -206 327q-12 0 -31 -3.5t-41 -3.5t-35 3zM236 -63.5q12 16.5 34.5 16.5t35 -14.5t12.5 -35.5q0 -44 -41 -91.5t-68 -47.5q-14 0 -23 8t-9 17.5t29 62.5q5 9 11.5 38.5t18.5 46z
" />
    <glyph glyph-name="kgreenlandic" unicode="&#x138;" horiz-adv-x="658" 
d="M203 337l5 -290q0 -24 -15 -40.5t-35.5 -16.5t-35 16.5t-14.5 40.5l4 325l-4 330q0 24 14.5 40.5t35 16.5t35.5 -16.5t15 -40.5l-2 -90q-3 -90 -3 -178q24 8 69 8l48 -6q48 40 89.5 120t58.5 155q10 49 48 49q18 0 30 -12t12 -31q0 -66 -51.5 -168t-111.5 -168
q34 -67 81.5 -148t77.5 -119.5t62 -38.5l11 1q7 0 7 -22t-18 -43t-45.5 -21t-54.5 24q-53 49 -206 327q-12 0 -31 -3.5t-41 -3.5t-35 3z" />
    <glyph glyph-name="Ldot" unicode="&#x13f;" horiz-adv-x="584" 
d="M110 54l4 326q0 131 -3 216t-3 93q0 71 51 71t51 -71q0 -8 -2 -51q-4 -127 -4 -232.5t1 -165t3 -101t2 -52.5q48 -5 104 -5t109 3.5t69.5 3.5t33 -12.5t16.5 -34.5t-16.5 -34.5t-43.5 -12.5l-149 5l-162 -5q-30 0 -45.5 12.5t-15.5 46.5zM403.5 428q13.5 -17 13.5 -43.5
t-17 -47.5t-41.5 -21t-38.5 18t-14 44t16.5 46.5t42 20.5t39 -17z" />
    <glyph glyph-name="ldot" unicode="&#x140;" horiz-adv-x="584" 
d="M110 54l4 326q0 131 -3 216t-3 93q0 71 51 71t51 -71q0 -8 -2 -51q-4 -127 -4 -232.5t1 -165t3 -101t2 -52.5q48 -5 104 -5t109 3.5t69.5 3.5t33 -12.5t16.5 -34.5t-16.5 -34.5t-43.5 -12.5l-149 5l-162 -5q-30 0 -45.5 12.5t-15.5 46.5zM403.5 428q13.5 -17 13.5 -43.5
t-17 -47.5t-41.5 -21t-38.5 18t-14 44t16.5 46.5t42 20.5t39 -17z" />
    <glyph glyph-name="Lslash" unicode="&#x141;" horiz-adv-x="601" 
d="M130 449l-5 240q0 71 51 71t51 -71q0 -7 -1 -29q-3 -73 -5 -133l59 55q21 17 36 17t27.5 -12.5t12.5 -29.5t-22 -35l-113 -93v-49q0 -158 3 -220t3 -73q48 -5 104.5 -5t109 3.5t69 3.5t33 -12.5t16.5 -34.5t-16.5 -34.5t-43.5 -12.5l-148 5l-163 -5q-30 0 -45.5 12.5
t-15.5 46.5q0 21 1.5 121.5t1.5 174.5l-36 -33q-17 -15 -34 -15t-29 11.5t-12 29.5t20 34z" />
    <glyph glyph-name="lslash" unicode="&#x142;" horiz-adv-x="601" 
d="M130 449l-5 240q0 71 51 71t51 -71q0 -7 -1 -29q-3 -73 -5 -133l59 55q17 17 34 17t29.5 -12.5t12.5 -29.5t-22 -35l-113 -93v-49q0 -158 3 -220t3 -73q48 -5 104.5 -5t109 3.5t69 3.5t33 -12.5t16.5 -34.5t-16.5 -34.5t-43.5 -12.5l-148 5l-163 -5q-30 0 -45.5 12.5
t-15.5 46.5q0 21 1.5 121.5t1.5 174.5l-36 -33q-17 -15 -34 -15t-29 11.5t-12 29.5t20 34z" />
    <glyph glyph-name="Nacute" unicode="&#x143;" horiz-adv-x="733" 
d="M621 372l3 -310q0 -72 -53 -72q-33 0 -50 31l-317 546q0 -326 2.5 -418.5t2.5 -109t-15 -33t-35.5 -16.5t-35 16.5t-14.5 41.5l4 324q0 103 -2.5 209t-2.5 108q0 71 51 71q37 0 55 -31q291 -500 317 -540q0 283 -3 390t-3 110q0 71 51 71t51 -71q0 -8 -1 -53
q-5 -133 -5 -264zM486 947q0 -44 -47.5 -88.5t-79.5 -44.5q-16 0 -24.5 8t-8.5 20t24 41.5t33 49.5t14.5 29.5t18 19t30 9.5t29 -13.5t11.5 -30.5z" />
    <glyph glyph-name="nacute" unicode="&#x144;" horiz-adv-x="795" 
d="M665 497l-7 -282q0 -38 1 -57t8 -40t21 -27q8 -4 19 -5.5t16 -4.5t5 -11q0 -35 -22 -58.5t-52 -23.5q-52 0 -71.5 40t-19.5 119l6 284q0 108 -40 174t-112 66t-138.5 -87.5t-92.5 -198.5l4 -328q0 -69 -51 -69q-62 0 -62 104.5t27 292.5q0 65 -11.5 176.5t-11.5 136.5
t14 43.5t38.5 18.5t38.5 -18.5t14 -41.5t-0.5 -55.5t-0.5 -55.5q98 171 248 171q111 0 171.5 -76.5t60.5 -186.5zM552 946q0 -44 -47.5 -88.5t-79.5 -44.5q-16 0 -24.5 8t-8.5 20t24 41.5t33 49.5t14.5 29.5t18 19t30 9.5t29 -13.5t11.5 -30.5z" />
    <glyph glyph-name="OE" unicode="&#x152;" horiz-adv-x="987" 
d="M873 665l-240 5q-25 0 -41 -2q79 -90 96 -227q98 2 131 2q59 0 59 -44t-59 -44q-28 0 -126 2q-4 -161 -102 -275q64 -2 118 -2l164 5q59 0 59 -45q0 -21 -16 -33t-43 -12l-164 5l-175 -5q-26 0 -41 13q-47 -23 -111 -23q-134 0 -224.5 114.5t-90.5 276.5t91 275.5
t226 113.5q56 0 100 -19q13 9 44 9l192 -5l153 5q27 0 43 -12t16 -33t-16 -33t-43 -12zM535 164.5q62 92.5 62 213t-61.5 210.5t-153.5 90t-155.5 -90t-63.5 -210.5t63.5 -213t155 -92.5t153.5 92.5z" />
    <glyph glyph-name="oe" unicode="&#x153;" horiz-adv-x="1252" 
d="M1097 551q0 47 -38 87t-109 40q-93 0 -156.5 -77t-81.5 -179q75 -21 172.5 -21t155 38.5t57.5 111.5zM545.5 163q68.5 90 68.5 215t-65.5 212.5t-163 87.5t-165.5 -90.5t-68 -214.5t66 -212t162.5 -88t165 90zM1122 703q71 -62 71 -148t-45 -140q-81 -99 -256 -99
q-74 0 -182 20q9 -106 75 -184.5t146 -78.5q48 0 89 13t62 29q57 42 74.5 42t27 -10t9.5 -29t-34.5 -50.5t-96 -57t-124.5 -25.5q-96 0 -166 45t-112 121q-43 -76 -116 -121t-161 -45q-143 0 -235 112.5t-92 275.5t93 277.5t233 114.5q94 0 168 -45.5t116 -124.5
q45 78 117 124t170 46t169 -62z" />
    <glyph glyph-name="Racute" unicode="&#x154;" horiz-adv-x="676" 
d="M434 948q0 -44 -47.5 -88.5t-79.5 -44.5q-16 0 -24.5 8t-8.5 20t24 41.5t33 49.5t14.5 29.5t18 19t30 9.5t29 -13.5t11.5 -30.5zM614 76l16 2q9 0 9 -24t-21 -44t-47 -20q-45 0 -86 58q-53 72 -135 253q-41 -6 -92 -6l-52 4q0 -70 3 -139t3 -99q0 -71 -51 -71t-51 71
q0 40 3.5 138.5t3.5 197.5t-6 235q-23 0 -33.5 12t-10.5 28q0 43 83 68t148 25q141 0 214 -65.5t73 -160.5q0 -61 -41 -119.5t-107 -89.5q46 -106 83.5 -166t56.5 -74t37 -14zM489 533q0 66 -47.5 106t-137.5 40q-61 0 -97 -13q-3 -90 -3 -174t1 -97q48 9 88.5 9t86.5 -9
q41 9 75 49t34 89z" />
    <glyph glyph-name="Rcommaaccent" unicode="&#x156;" horiz-adv-x="676" 
d="M241 -63.5q12 16.5 34.5 16.5t35 -14.5t12.5 -35.5q0 -44 -41 -91.5t-68 -47.5q-14 0 -23 8t-9 17.5t29 62.5q5 9 11.5 38.5t18.5 46zM614 76l16 2q9 0 9 -24t-21 -44t-47 -20q-45 0 -86 58q-53 72 -135 253q-41 -6 -92 -6l-52 4q0 -70 3 -139t3 -99q0 -71 -51 -71
t-51 71q0 40 3.5 138.5t3.5 197.5t-6 235q-23 0 -33.5 12t-10.5 28q0 43 83 68t148 25q141 0 214 -65.5t73 -160.5q0 -61 -41 -119.5t-107 -89.5q46 -106 83.5 -166t56.5 -74t37 -14zM489 533q0 66 -47.5 106t-137.5 40q-61 0 -97 -13q-3 -90 -3 -174t1 -97q48 9 88.5 9
t86.5 -9q41 9 75 49t34 89z" />
    <glyph glyph-name="rcommaaccent" unicode="&#x157;" horiz-adv-x="553" 
d="M94 -63.5q12 16.5 34.5 16.5t35 -14.5t12.5 -35.5q0 -44 -41 -91.5t-68 -47.5q-14 0 -23 8t-9 17.5t29 62.5q5 9 11.5 38.5t18.5 46zM187 355l3 -298q0 -69 -51 -69q-62 0 -62 104.5t27 292.5q0 65 -11.5 176.5t-11.5 136.5t14 43.5t38.5 18.5t38.5 -18.5t14 -41.5
t-0.5 -55.5t-0.5 -54.5q29 69 89 121.5t122.5 52.5t95.5 -24.5t33 -53t-15.5 -45t-38.5 -16.5t-50.5 25t-44.5 25q-46 0 -109 -106.5t-80 -213.5z" />
    <glyph glyph-name="Rcaron" unicode="&#x158;" horiz-adv-x="676" 
d="M614 76l16 2q9 0 9 -24t-21 -44t-47 -20q-45 0 -86 58q-53 72 -135 253q-41 -6 -92 -6l-52 4q0 -70 3 -139t3 -99q0 -71 -51 -71t-51 71q0 40 3.5 138.5t3.5 197.5t-6 235q-23 0 -33.5 12t-10.5 28q0 43 83 68t148 25q141 0 214 -65.5t73 -160.5q0 -61 -41 -119.5
t-107 -89.5q46 -106 83.5 -166t56.5 -74t37 -14zM489 533q0 66 -47.5 106t-137.5 40q-61 0 -97 -13q-3 -90 -3 -174t1 -97q48 9 88.5 9t86.5 -9q41 9 75 49t34 89zM228 981q64 -77 78 -77q16 0 85 80q22 26 41 26t30 -10.5t11 -28.5t-26.5 -40t-52.5 -52t-45.5 -46t-41 -16
t-40.5 16t-45.5 46t-52.5 51.5t-26 40t11 29t23 10.5t17.5 -2t9.5 -4t9 -7l8 -7q2 -3 7 -9z" />
    <glyph glyph-name="rcaron" unicode="&#x159;" horiz-adv-x="553" 
d="M217 981q64 -77 78 -77q16 0 85 80q22 26 41 26t30 -10.5t11 -28.5t-26.5 -40t-52.5 -52t-45.5 -46t-41 -16t-40.5 16t-45.5 46t-52.5 51.5t-26 40t11 29t23 10.5t17.5 -2t9.5 -4t9 -7l8 -7q2 -3 7 -9zM187 355l3 -298q0 -69 -51 -69q-62 0 -62 104.5t27 292.5
q0 65 -11.5 176.5t-11.5 136.5t14 43.5t38.5 18.5t38.5 -18.5t14 -41.5t-0.5 -55.5t-0.5 -54.5q29 69 89 121.5t122.5 52.5t95.5 -24.5t33 -53t-15.5 -45t-38.5 -16.5t-50.5 25t-44.5 25q-46 0 -109 -106.5t-80 -213.5z" />
    <glyph glyph-name="circumflex" unicode="&#x2c6;" horiz-adv-x="470" 
d="M318 592q-69 81 -84 81t-79 -77q-5 -6 -7 -8l-8 -8q-13 -13 -30.5 -13t-28.5 10.5t-11 29t26 40t52.5 51.5t45.5 46t40.5 16t41 -16t45.5 -46t52.5 -52t26.5 -40t-11 -28.5t-24 -10.5t-21 5q-14 7 -26 20z" />
    <glyph glyph-name="caron" unicode="&#x2c7;" horiz-adv-x="470" 
d="M155 731q64 -77 78 -77q16 0 85 80q22 26 41 26t30 -10.5t11 -28.5t-26.5 -40t-52.5 -52t-45.5 -46t-41 -16t-40.5 16t-45.5 46t-52.5 51.5t-26 40t11 29t23 10.5t17.5 -2t9.5 -4t9 -7l8 -7q2 -3 7 -9z" />
    <glyph glyph-name="breve" unicode="&#x2d8;" horiz-adv-x="415" 
d="M328 762q39 0 39 -42.5t-46 -86t-116.5 -43.5t-116.5 43.5t-46 86t38 42.5q17 0 27 -10t20.5 -29.5t17.5 -28.5t23 -18.5t36 -9.5t36.5 9.5t23 18.5t17.5 27q21 41 47 41z" />
    <glyph glyph-name="dotaccent" unicode="&#x2d9;" horiz-adv-x="231" 
d="M157.5 743q13.5 -17 13.5 -43t-17 -47.5t-41.5 -21.5t-38.5 18t-14 44t16.5 46.5t42 20.5t39 -17z" />
    <glyph glyph-name="ring" unicode="&#x2da;" horiz-adv-x="206" 
d="M141 664q0 15 -12 28t-26.5 13t-26 -12.5t-11.5 -28t11 -27.5t26.5 -12t27 12t11.5 27zM176.5 736q29.5 -30 29.5 -72.5t-28.5 -70.5t-74.5 -28t-74.5 28t-28.5 71t29.5 72.5t73.5 29.5t73.5 -30z" />
    <glyph glyph-name="ogonek" unicode="&#x2db;" horiz-adv-x="355" 
d="M314 -154q0 -27 -34 -51.5t-83.5 -24.5t-86 29.5t-36.5 78.5q0 77 100 125h77q-93 -66 -93 -118q0 -18 14 -27.5t33.5 -9.5t45 12t37.5 12t19 -8.5t7 -17.5z" />
    <glyph glyph-name="tilde" unicode="&#x2dc;" horiz-adv-x="557" 
d="M477 665q0 -36 -31 -63t-70 -27t-93 31q-44 22 -66 22t-46.5 -29.5t-45 -29.5t-33 12.5t-12.5 30.5q0 36 37 64.5t86 28.5t102 -27.5t70.5 -27.5t38 25t34 25t21.5 -10.5t8 -24.5z" />
    <glyph glyph-name="Omega" unicode="&#x3a9;" horiz-adv-x="866" 
d="M211 0l-117 -6q-26 0 -41 12.5t-15 33t15 33t39 12.5t71 -2.5t74 -2.5q-124 137 -124 295q0 138 95.5 238t225.5 100t225 -98.5t95 -236.5q0 -162 -124 -299l143 5q26 0 41 -12.5t15 -33t-15 -33t-41 -12.5l-117 6l-107 -6q-26 0 -43 12.5t-17 35.5t29 38
q59 35 100 122.5t41 184t-63.5 168.5t-161 72t-162 -73.5t-64.5 -171t40 -183t101 -118.5q29 -15 29 -38t-17 -35.5t-43 -12.5z" />
    <glyph glyph-name="endash" unicode="&#x2013;" horiz-adv-x="610" 
d="M305 336l-180 -3q-22 0 -35.5 12t-13.5 30t13.5 30t35.5 12l180 -3l180 3q22 0 35.5 -12t13.5 -30t-13.5 -30t-35.5 -12z" />
    <glyph glyph-name="emdash" unicode="&#x2014;" horiz-adv-x="870" 
d="M435 336l-320 -3q-22 0 -35.5 12t-13.5 30t13.5 30t35.5 12l320 -3l320 3q22 0 35.5 -12t13.5 -30t-13.5 -30t-35.5 -12z" />
    <glyph glyph-name="quoteleft" unicode="&#x2018;" horiz-adv-x="254" 
d="M165 636l6 -71q0 -24 -15.5 -44.5t-42.5 -20.5t-40 17t-13 41q0 69 37.5 135t74.5 66q12 0 20.5 -7t8.5 -18t-18 -41.5t-18 -56.5z" />
    <glyph glyph-name="quoteright" unicode="&#x2019;" horiz-adv-x="255" 
d="M94 625l-6 71q0 24 15.5 44.5t42.5 20.5t40 -17t13 -41q0 -69 -37.5 -135t-74.5 -66q-12 0 -20.5 7t-8.5 18t18 41.5t18 56.5z" />
    <glyph glyph-name="quotesinglbase" unicode="&#x201a;" horiz-adv-x="246" 
d="M74 -35l-7 71q0 27 16.5 47.5t42 20.5t38.5 -17t13 -42q0 -63 -25 -124.5t-52 -61.5q-13 0 -21 7.5t-8 20.5z" />
    <glyph glyph-name="quotedblleft" unicode="&#x201c;" horiz-adv-x="453" 
d="M364 637l6 -71q0 -24 -15.5 -44.5t-42.5 -20.5t-40 17t-13 41q0 69 37.5 135t74.5 66q12 0 20.5 -7t8.5 -18t-18 -41.5t-18 -56.5zM165 637l6 -71q0 -24 -15.5 -44.5t-42.5 -20.5t-40 17t-13 41q0 69 37.5 135t74.5 66q12 0 20.5 -7t8.5 -18t-18 -41.5t-18 -56.5z" />
    <glyph glyph-name="quotedblright" unicode="&#x201d;" horiz-adv-x="454" 
d="M94 624l-6 71q0 24 15.5 44.5t42.5 20.5t40 -17t13 -41q0 -69 -37.5 -135t-74.5 -66q-12 0 -20.5 7t-8.5 18t18 41.5t18 56.5zM293 624l-6 71q0 24 15.5 44.5t42.5 20.5t40 -17t13 -41q0 -69 -37.5 -135t-74.5 -66q-12 0 -20.5 7t-8.5 18t18 41.5t18 56.5z" />
    <glyph glyph-name="quotedblbase" unicode="&#x201e;" horiz-adv-x="452" 
d="M280 -32l-7 71q0 27 16.5 47.5t42 20.5t38.5 -17t13 -42q0 -63 -25 -124.5t-52 -61.5q-13 0 -21 7.5t-8 20.5zM74 -32l-7 71q0 27 16.5 47.5t42 20.5t38.5 -17t13 -42q0 -63 -25 -124.5t-52 -61.5q-13 0 -21 7.5t-8 20.5z" />
    <glyph glyph-name="dagger" unicode="&#x2020;" horiz-adv-x="586" 
d="M330 539l157 3q22 0 35.5 -10.5t13.5 -29t-13.5 -29t-35.5 -10.5l-158 3l5 -492q0 -26 -12 -41.5t-32.5 -15.5t-32.5 15.5t-12 41.5l4 492l-149 -3q-22 0 -36 10.5t-14 28.5t14 29t36 11l148 -3l-3 164q0 26 12 41.5t32.5 15.5t32.5 -15.5t12 -41.5z" />
    <glyph glyph-name="daggerdbl" unicode="&#x2021;" horiz-adv-x="607" 
d="M340 295l157 3q22 0 35.5 -11t13.5 -29t-13.5 -29t-35.5 -11l-157 3l5 -248q0 -26 -12 -41.5t-33 -15.5t-33 15t-12 41l5 249l-150 -3q-22 0 -36 11t-14 29t14 29t36 11l151 -3q0 133 -1 172l-149 -3q-22 0 -36 10.5t-14 28.5t14 29t36 11l148 -3l-3 164q0 26 12 41.5
t32.5 15.5t32.5 -15.5t12 -41.5l-4 -164l157 3q22 0 35.5 -10.5t13.5 -29t-13.5 -29t-35.5 -10.5l-158 3v-172z" />
    <glyph glyph-name="bullet" unicode="&#x2022;" horiz-adv-x="323" 
d="M239.5 478q23.5 -32 23.5 -81t-31 -89t-76 -40t-70 33.5t-25 82t31 87.5t77.5 39t70 -32z" />
    <glyph glyph-name="ellipsis" unicode="&#x2026;" horiz-adv-x="646" 
d="M369.5 102q13.5 -17 13.5 -43.5t-17 -47.5t-41.5 -21t-38.5 18t-14 44t16.5 46.5t42 20.5t39 -17zM565.5 102q13.5 -17 13.5 -43.5t-17 -47.5t-41.5 -21t-38.5 18t-14 44t16.5 46.5t42 20.5t39 -17zM163.5 102q13.5 -17 13.5 -43.5t-17 -47.5t-41.5 -21t-38.5 18t-14 44
t16.5 46.5t42 20.5t39 -17z" />
    <glyph glyph-name="perthousand" unicode="&#x2030;" horiz-adv-x="1244" 
d="M1086.5 86q19.5 29 19.5 74t-19 74.5t-53.5 29.5t-54 -29t-19.5 -73.5t19.5 -74.5t53.5 -30t53.5 29zM1144.5 287q41.5 -49 41.5 -124.5t-43 -126.5t-111.5 -51t-110 49t-41.5 125t43 126.5t111.5 50.5t110 -49zM707.5 86q19.5 29 19.5 74t-19 74.5t-53.5 29.5t-54 -29
t-19.5 -73.5t19.5 -74.5t53.5 -30t53.5 29zM765.5 287q41.5 -49 41.5 -124.5t-43 -126.5t-111.5 -51t-110 49t-41.5 125t43 126.5t111.5 50.5t110 -49zM262.5 462.5q18.5 28.5 18.5 74t-18 75t-52 29.5t-53.5 -29t-19.5 -74t19 -74.5t53 -29.5t52.5 28.5zM615 700
q0 -50 -58 -111q-1 -3 -50 -143.5t-97 -279.5t-52 -148q-13 -33 -46 -33q-16 0 -28 11t-12 29t24 79q105 257 168 451q-18 -3 -43 -3t-62 12q2 -16 2 -27q0 -74 -42 -124.5t-110 -50.5t-109.5 49t-41.5 124.5t43 126.5t110 51q31 0 59.5 -14t47.5 -31q49 -44 95 -44t72 14
q26 97 48 114q11 8 31 8t35.5 -17t15.5 -43z" />
    <glyph glyph-name="guilsinglleft" unicode="&#x2039;" horiz-adv-x="355" 
d="M145 376q0 -8 57 -49q8 -6 26 -17.5t28 -18.5q27 -20 27 -38t-12 -29.5t-29.5 -11.5t-31 8t-31.5 25t-55.5 47.5t-53.5 48.5t-16 35t16 35t53.5 48.5t52 44t22.5 20.5q20 16 40.5 16t32.5 -11.5t12 -27t-10.5 -26.5t-38.5 -29t-32 -21q-57 -41 -57 -49z" />
    <glyph glyph-name="guilsinglright" unicode="&#x203a;" horiz-adv-x="355" 
d="M301 376q0 -17 -16 -35t-53.5 -48.5t-52 -44t-22.5 -20.5q-20 -16 -40.5 -16t-32.5 11.5t-12 27t10.5 26.5t38.5 29t32 21q57 41 57 49t-57 49q-8 6 -26 17.5t-27 18.5q-28 20 -28 38t12 29.5t29.5 11.5t31 -8t31.5 -25t55.5 -47.5t53.5 -48.5t16 -35z" />
    <glyph glyph-name="fraction" unicode="&#x2044;" horiz-adv-x="380" 
d="M292 531q-35 -89 -59.5 -156.5t-111.5 -327.5q-11 -32 -23.5 -44.5t-29.5 -12.5t-30 11t-13 29.5t14.5 58.5t49 127.5t60 158.5t111.5 328q11 32 23.5 44.5t29.5 12.5t30 -11t13 -29.5t-14.5 -59t-49.5 -129.5z" />
    <glyph glyph-name="Euro" unicode="&#x20ac;" horiz-adv-x="686" 
d="M232 450l221 3q22 0 35.5 -11t13.5 -29t-13.5 -29t-35.5 -11l-171 3l-172 -3q-22 0 -35.5 11t-13.5 29t13.5 29t35.5 11l36 -1q22 115 93 187.5t176 72.5q77 0 131.5 -32.5t54.5 -69.5q0 -14 -10 -25.5t-27.5 -11.5t-30.5 8.5t-24 18t-35.5 18t-58.5 8.5
q-73 0 -120 -47.5t-63 -128.5zM147 239l-36 -1q-22 0 -36 11.5t-14 29.5t13.5 29t35.5 11l172 -3l171 3q22 0 35.5 -11t13.5 -29t-13.5 -29t-42 -11t-101.5 1.5t-111 1.5q17 -77 64 -123.5t117 -46.5q37 0 67 14t53 27.5t41 13.5t28.5 -11t10.5 -26q0 -31 -59.5 -68
t-140.5 -37q-103 0 -174 70.5t-94 183.5z" />
    <glyph glyph-name="trademark" unicode="&#x2122;" horiz-adv-x="923" 
d="M440 515l-1 194q0 18 11 31.5t26.5 13.5t26.5 -5.5t21.5 -18t19.5 -26t20.5 -37t20.5 -43.5q34 -76 51 -111q13 26 44 101t52.5 107.5t43 32.5t33.5 -13.5t12 -31.5l-1 -167l2 -142v-26q0 -43 -38 -43q-40 0 -40 44q0 1 1 33q2 62 2 190l-83 -181q-10 -21 -30.5 -21
t-31.5 24q-29 64 -90 183l3 -228q0 -44 -40 -44q-37 0 -37 44zM267 544l2 -169q0 -44 -38 -44t-38 44l2 169q0 115 -1 139l-68 -3q-49 0 -49 36.5t49 36.5l14 -1l91 -2q54 0 105 3q49 0 49 -36.5t-49 -36.5l-68 3q-1 -24 -1 -139z" />
    <glyph glyph-name="arrowleft" unicode="&#x2190;" horiz-adv-x="834" 
d="M409 417l318 5q26 0 43 -12.5t17 -32.5t-17 -33t-43 -13l-318 5h-252q46 -41 182 -153q21 -18 21 -37t-11.5 -31t-25 -12t-23 3.5t-23.5 15t-26 22.5q-49 48 -72 68.5t-61.5 56t-69.5 63.5q-22 24 -22 44.5t22 44.5q31 28 69.5 63.5t53 48.5t41.5 38.5t39 37t26 23.5
q23 18 41.5 18t30 -12t11.5 -31t-21 -37q-136 -112 -182 -153h252z" />
    <glyph glyph-name="arrowup" unicode="&#x2191;" horiz-adv-x="594" 
d="M334 377l5 -327q0 -26 -13 -43t-33 -17t-32.5 17t-12.5 43l5 327v252q-41 -46 -153 -182q-18 -21 -37 -21t-31 11.5t-12 25t3.5 23t15 23.5t23.5 26q47 49 67.5 72t56 61.5t63.5 69.5q24 22 44.5 22t44.5 -22q28 -31 63.5 -69.5t48.5 -53t38.5 -41.5t37 -39t22.5 -26
q19 -23 19 -41.5t-12 -30t-31 -11.5t-37 21q-112 136 -153 182v-252z" />
    <glyph glyph-name="arrowright" unicode="&#x2192;" horiz-adv-x="834" 
d="M425 336l-318 -5q-26 0 -43 13t-17 33t17 32.5t43 12.5l318 -5h252q-46 41 -182 153q-21 18 -21 37t11.5 31t25 12t23 -3.5t23.5 -15t26 -23.5q49 -47 72 -67.5t61.5 -56t69.5 -63.5q22 -24 22 -44.5t-22 -44.5q-31 -28 -69.5 -63.5t-53 -48.5t-41.5 -38.5t-39 -37
t-26 -22.5q-23 -19 -41.5 -19t-30 12t-11.5 31t21 37q136 112 182 153h-252z" />
    <glyph glyph-name="arrowdown" unicode="&#x2193;" horiz-adv-x="594" 
d="M346 700l-5 -327v-252q41 46 153 182q18 21 37 21t31 -11.5t12 -25t-3.5 -23t-15 -23.5t-23.5 -26q-47 -49 -67.5 -72t-56 -61.5t-63.5 -69.5q-24 -22 -44.5 -22t-44.5 22q-28 31 -63.5 69.5t-48.5 53t-38.5 41.5t-37 39t-22.5 26q-19 23 -19 41.5t12 30t31 11.5t37 -21
q112 -136 153 -182v252l-5 327q0 26 12.5 43t32.5 17t33 -17t13 -43z" />
    <glyph glyph-name="minus" unicode="&#x2212;" horiz-adv-x="692" 
d="M346 336l-209 -3q-22 0 -35.5 12t-13.5 30t13.5 30t35.5 12l209 -3l209 3q22 0 35.5 -12t13.5 -30t-13.5 -30t-35.5 -12z" />
    <glyph glyph-name="approxequal" unicode="&#x2248;" horiz-adv-x="651" 
d="M563 314q0 -29 -42 -60.5t-85.5 -31.5t-99.5 28t-82 28t-60 -29.5t-58 -29.5t-36 11t-12 29q0 33 48 64t103 31t112 -28.5t82.5 -28.5t52 24.5t43 24.5t25.5 -9.5t9 -22.5zM563 494q0 -29 -42 -60.5t-85.5 -31.5t-99.5 28t-82 28t-60 -29.5t-58 -29.5t-36 11t-12 29
q0 33 48 64t103 31t112 -28.5t82.5 -28.5t52 24.5t43 24.5t25.5 -9.5t9 -22.5z" />
    <glyph glyph-name="notequal" unicode="&#x2260;" horiz-adv-x="618" 
d="M335 328l162 3q22 0 36 -12t14 -30t-14 -30t-36 -12l-212 3q-33 -57 -54.5 -84.5t-41.5 -27.5q-41 0 -41 37q0 16 41 73l-69 -1q-22 0 -35.5 12t-13.5 30t13.5 30t35.5 12l121 -3q7 13 22 36.5t23 39.5l-166 -3q-22 0 -35.5 11.5t-13.5 30t13.5 30t35.5 11.5l214 -3
q4 6 23 37t29 46q19 24 37.5 24t31.5 -11t13 -27.5t-11 -31.5l-26 -35q25 1 56.5 1t45.5 -11.5t14 -30t-14 -30t-36 -11.5l-118 2z" />
    <glyph glyph-name="lessequal" unicode="&#x2264;" horiz-adv-x="627" 
d="M311 89l-190 -3q-22 0 -35.5 12t-13.5 30t13.5 30t35.5 12l190 -3l190 3q22 0 35.5 -12t13.5 -30t-13.5 -30t-35.5 -12zM550 457q0 -18 -8.5 -32t-31.5 -27.5t-40.5 -21.5t-61 -24.5t-70 -27.5t-64.5 -27t-57.5 -24.5t-42.5 -16.5q-42 -16 -60.5 -16t-30.5 10.5t-12 26.5
q0 27 34 42q37 15 95 36.5t82 31.5q151 60 151 70q0 8 -114 55l-38 15q-24 10 -82 31.5t-95 36.5q-34 15 -34 42q0 16 12 26.5t25.5 10.5t28 -3.5t37.5 -12t43 -16.5q109 -48 172 -72t81 -32t41 -21.5t31.5 -27.5t8.5 -32z" />
    <glyph glyph-name="greaterequal" unicode="&#x2265;" horiz-adv-x="627" 
d="M316 167l190 3q22 0 35.5 -12t13.5 -30t-13.5 -30t-35.5 -12l-190 3l-190 -3q-22 0 -35.5 12t-13.5 30t13.5 30t35.5 12zM77 457q0 18 8.5 32t31.5 27.5t41 21.5t61.5 24.5t70 27.5t64.5 27t57.5 24.5t42.5 16.5q42 16 60.5 16t30.5 -10.5t12 -26.5q0 -27 -34 -42
q-37 -15 -95 -36.5t-82 -31.5q-152 -60 -152 -70q0 -8 114 -55l37 -15q24 -10 82 -31.5t95 -36.5q34 -15 34 -42q0 -16 -12 -26.5t-25.5 -10.5t-28 3.5t-37.5 12t-43 16.5q-109 48 -172 72t-80.5 32t-40.5 21.5t-31.5 27.5t-8.5 32z" />
    <glyph glyph-name="commaaccent" unicode="&#xf6c3;" horiz-adv-x="214" 
d="M83 -63.5q12 16.5 34.5 16.5t35 -14.5t12.5 -35.5q0 -44 -41 -91.5t-68 -47.5q-14 0 -23 8t-9 17.5t29 62.5q5 9 11.5 38.5t18.5 46z" />
    <glyph glyph-name="CR" horiz-adv-x="250" 
 />
  </font>
</defs>
</svg>
