<?xml version="1.0" standalone="no"?>
<!DOCTYPE svg PUBLIC "-//W3C//DTD SVG 1.1//EN" "http://www.w3.org/Graphics/SVG/1.1/DTD/svg11.dtd" >
<svg xmlns="http://www.w3.org/2000/svg">
<metadata></metadata>
<defs>
<font id="geoslab703_xbd_btextra_bold" horiz-adv-x="1024" >
<font-face units-per-em="2048" ascent="1638" descent="-410" />
<missing-glyph horiz-adv-x="569" />
<glyph unicode="&#xd;" horiz-adv-x="569" />
<glyph unicode=" "  horiz-adv-x="569" />
<glyph unicode="&#x09;" horiz-adv-x="569" />
<glyph unicode="&#xa0;" horiz-adv-x="569" />
<glyph unicode="!" horiz-adv-x="735" d="M172 1475h389l-33 -951h-323zM367 -25q-88 0 -147.5 59t-59.5 146t59.5 146t147.5 59t147 -58.5t59 -146.5t-59 -146.5t-147 -58.5z" />
<glyph unicode="&#x22;" horiz-adv-x="713" d="M416 1438h223v-561h-223v561zM76 1438h219v-561h-219v561z" />
<glyph unicode="#" horiz-adv-x="1575" d="M707 842l-82 -232h245l82 232h-245zM684 1466h250l-139 -393h235l141 393h250l-139 -393h270l-86 -231h-268l-80 -230h277l-84 -231h-275l-141 -393h-250l139 393h-235l-141 -393h-250l139 393h-274l86 231h270l82 230h-283l86 231h279z" />
<glyph unicode="$" horiz-adv-x="1139" d="M631 234q76 3 124 44.5t48 102.5q0 57 -45.5 94.5t-126.5 46.5v-288zM487 877v266q-65 -8 -101 -44t-36 -93q0 -58 34.5 -90.5t102.5 -38.5zM315 0h-229v426h246q33 -69 72 -111.5t83 -56.5v287q-211 40 -318.5 143.5t-107.5 267.5q0 181 117 295.5t309 120.5v129h144 v-137q58 -13 104.5 -41t79.5 -70l-4 101h231v-385h-245q-29 61 -69 101t-97 63v-273q242 -37 363.5 -147.5t121.5 -294.5q0 -200 -132 -322.5t-353 -126.5v-166h-144v187q-52 12 -96.5 45.5t-75.5 83.5v-119z" />
<glyph unicode="%" horiz-adv-x="1849" d="M1806 379q0 -161 -110 -270t-271 -109q-158 0 -268 110t-110 269t110 270t268 111q160 0 270.5 -110.5t110.5 -270.5zM1427 256q51 0 86 35.5t35 87.5t-35 87.5t-86 35.5t-86.5 -35.5t-35.5 -87.5q0 -51 36 -87t86 -36zM1290 1464h180l-911 -1493h-180zM803 1057 q0 -161 -110 -270t-271 -109q-159 0 -270 110t-111 269t111 269t270 110q160 0 270.5 -110t110.5 -269zM422 934q51 0 87 35.5t36 87.5q0 51 -36 87t-87 36t-86 -35.5t-35 -87.5q0 -51 35 -87t86 -36z" />
<glyph unicode="&#x26;" horiz-adv-x="1522" d="M539 999q58 35 87 74t29 84q0 48 -31 78.5t-79 30.5q-47 0 -78 -30.5t-31 -76.5q0 -44 25 -83.5t78 -76.5zM758 332l-291 325q-47 -45 -69.5 -89t-22.5 -91q0 -88 61 -145.5t156 -57.5q41 0 82 14.5t84 43.5zM952 121q-100 -78 -203 -114t-225 -36q-212 0 -342.5 127.5 t-130.5 333.5q0 128 60.5 229.5t187.5 188.5q-70 71 -102.5 144.5t-32.5 158.5q0 159 104 254.5t279 95.5q173 0 277 -93.5t104 -248.5q0 -101 -54 -184.5t-163 -151.5l262 -309q45 48 67.5 99t22.5 106v8h-72v266h461v-266h-76q-25 -125 -76.5 -224.5t-134.5 -185.5l27 -24 h260v-295h-397z" />
<glyph unicode="'" horiz-adv-x="371" d="M76 1438h219v-561h-219v561z" />
<glyph unicode="(" horiz-adv-x="868" d="M502 -358q-160 213 -238 443t-78 486q0 259 78.5 490.5t237.5 441.5l270 -151q-121 -197 -177 -385t-56 -396q0 -206 56 -394t177 -384z" />
<glyph unicode=")" horiz-adv-x="868" d="M365 -358l-269 151q120 194 176 382t56 396q0 209 -56 397.5t-176 383.5l269 151q159 -212 238 -443.5t79 -488.5q0 -255 -78.5 -485t-238.5 -444z" />
<glyph unicode="*" horiz-adv-x="1139" d="M463 1475h223l-39 -301l275 145l75 -207l-313 -84l236 -207l-168 -141l-185 250l-180 -254l-168 147l236 205l-316 84l78 207l279 -145z" />
<glyph unicode="+" horiz-adv-x="1706" d="M735 1221h238v-494h479v-231h-479v-496h-238v496h-481v231h481v494z" />
<glyph unicode="," horiz-adv-x="569" d="M340 -219h-313l147 508h322z" />
<glyph unicode="-" horiz-adv-x="635" d="M45 346v328h547v-328h-547z" />
<glyph unicode="." horiz-adv-x="569" d="M285 -25q-88 0 -147.5 59t-59.5 146t59.5 146t147.5 59t147.5 -58.5t59.5 -146.5t-59.5 -146.5t-147.5 -58.5z" />
<glyph unicode="/" horiz-adv-x="788" d="M53 -190l527 1693h206l-528 -1693h-205z" />
<glyph unicode="0" horiz-adv-x="1139" d="M696 549v338q0 130 -30 183.5t-99 53.5q-67 0 -97 -54.5t-30 -182.5v-338q0 -130 29.5 -183t97.5 -53q70 0 99.5 53t29.5 183zM90 537v364q0 149 16 223.5t54 132.5q66 102 169.5 154.5t237.5 52.5q136 0 241 -52.5t171 -154.5q37 -57 53.5 -129.5t16.5 -226.5v-364 q0 -154 -16.5 -226.5t-53.5 -130.5q-67 -102 -172 -155.5t-240 -53.5q-133 0 -236.5 53.5t-170.5 155.5q-38 58 -54 133t-16 224z" />
<glyph unicode="1" horiz-adv-x="1139" d="M244 0v268h149v901h-149v267h501v-1168h154v-268h-655z" />
<glyph unicode="2" horiz-adv-x="1139" d="M74 0v301l362 367q153 154 205.5 231.5t52.5 136.5q0 54 -33.5 86.5t-89.5 32.5q-68 0 -106.5 -42t-38.5 -118v-22h-350v24q0 219 131 343t362 124q217 0 345 -112.5t128 -300.5q0 -164 -125.5 -331t-443.5 -413h301v88h289v-395h-989z" />
<glyph unicode="3" horiz-adv-x="1139" d="M63 481h338v-14q0 -91 39.5 -137.5t116.5 -46.5q68 0 111 46t43 120q0 84 -61 121.5t-199 37.5h-21v262h21q136 0 188.5 35t52.5 117q0 60 -39.5 96.5t-103.5 36.5q-73 0 -114.5 -42.5t-41.5 -117.5v-20h-313v10q0 230 127 354.5t362 124.5q213 0 341 -110t128 -289 q0 -116 -68 -195.5t-196 -111.5q139 -16 218 -108.5t79 -239.5q0 -197 -139 -318t-369 -121q-233 0 -367.5 124.5t-134.5 340.5q0 7 1 22.5t1 22.5z" />
<glyph unicode="4" horiz-adv-x="1139" d="M406 0v240h206v141h-569v194l440 861h461v-813h129v-242h-129v-141h129v-240h-667zM627 1216l-295 -593h280v299q0 65 4 140.5t11 153.5z" />
<glyph unicode="5" horiz-adv-x="1139" d="M98 487h338v-26q0 -100 29 -140t96 -40q58 0 88.5 41t30.5 118v117q0 66 -37.5 93.5t-132.5 27.5h-373v758h821v-308h-520v-182q60 25 122.5 37t127.5 12q177 0 259.5 -90t82.5 -282v-199q0 -231 -117.5 -342t-361.5 -111q-245 0 -350 95t-105 317q0 22 0.5 48.5 t1.5 55.5z" />
<glyph unicode="6" horiz-adv-x="1139" d="M698 440v111q0 84 -29 124t-91 40q-63 0 -93 -40.5t-30 -123.5v-111q0 -83 30 -123.5t93 -40.5q62 0 91 40t29 124zM1032 1059h-338q-6 52 -36 82t-74 30q-72 0 -100.5 -53t-28.5 -200v-76q54 60 124.5 91.5t151.5 31.5q158 0 239 -84t81 -250v-221q0 -214 -119.5 -326.5 t-345.5 -112.5q-149 0 -250.5 45t-163.5 140q-34 52 -48.5 131t-14.5 223v418q0 143 14.5 221.5t48.5 130.5q62 94 163.5 139t250.5 45q209 0 327.5 -100.5t118.5 -278.5v-26z" />
<glyph unicode="7" horiz-adv-x="1139" d="M203 0l522 1128h-311v-194h-293v502h938v-361l-471 -1075h-385z" />
<glyph unicode="8" horiz-adv-x="1139" d="M322 768q-109 41 -161 117t-52 192q0 176 125.5 282.5t334.5 106.5q210 0 336.5 -107t126.5 -282q0 -116 -52.5 -192t-160.5 -117q112 -26 178 -117.5t66 -220.5q0 -214 -132 -336.5t-362 -122.5q-228 0 -359.5 123t-131.5 336q0 129 65.5 220.5t178.5 117.5zM569 285 q69 0 117.5 49t48.5 119t-47.5 117.5t-118.5 47.5q-69 0 -116 -47.5t-47 -117.5t47.5 -119t115.5 -49zM569 872q65 0 108.5 43.5t43.5 108.5t-43.5 108.5t-108.5 43.5q-64 0 -107.5 -43.5t-43.5 -108.5t43.5 -108.5t107.5 -43.5z" />
<glyph unicode="9" horiz-adv-x="1139" d="M438 997v-112q0 -84 30.5 -124t92.5 -40q63 0 93 40t30 124v112q0 84 -30 124t-93 40q-62 0 -92.5 -40t-30.5 -124zM104 377h338q6 -52 36 -81.5t75 -29.5q71 0 100 53t29 201v74q-55 -61 -124.5 -92t-149.5 -31q-159 0 -239.5 85t-80.5 251v221q0 213 118.5 324.5 t344.5 111.5q149 0 250 -45t164 -139q34 -54 49.5 -134t15.5 -218v-418q0 -139 -15.5 -220t-49.5 -134q-63 -95 -164 -140t-250 -45q-210 0 -328.5 101t-118.5 278v27z" />
<glyph unicode=":" horiz-adv-x="707" d="M352 586q-87 0 -146 58.5t-59 146.5q0 87 59 145.5t146 58.5q89 0 148 -58.5t59 -145.5q0 -88 -59 -146.5t-148 -58.5zM352 -25q-87 0 -146 59t-59 146q0 88 59 146.5t146 58.5q89 0 148 -58.5t59 -146.5t-59 -146.5t-148 -58.5z" />
<glyph unicode=";" horiz-adv-x="707" d="M369 586q-88 0 -147.5 58.5t-59.5 146.5q0 87 59.5 145.5t147.5 58.5t147 -58.5t59 -145.5q0 -88 -59 -146.5t-147 -58.5zM360 -219h-315l150 508h321z" />
<glyph unicode="&#x3c;" horiz-adv-x="1706" d="M1442 1214v-253l-854 -351l854 -348v-254l-1178 486v233z" />
<glyph unicode="=" horiz-adv-x="1706" d="M254 502h1198v-230h-1198v230zM254 950h1198v-231h-1198v231z" />
<glyph unicode="&#x3e;" horiz-adv-x="1706" d="M264 1214l1178 -487v-233l-1178 -486v254l854 348l-854 351v253z" />
<glyph unicode="?" horiz-adv-x="1233" d="M403 524v359q6 0 25 -1t33 -1q140 0 204 42t64 134q0 65 -32.5 99t-94.5 34q-65 0 -103.5 -41t-39.5 -110l-357 -1q-2 12 -3 23t-1 20q0 84 48 167t135 149q69 52 154 79t179 27q219 0 354.5 -126t135.5 -328q0 -183 -97.5 -297.5t-263.5 -126.5v-101h-340zM569 -25 q-87 0 -145.5 59t-58.5 146q0 88 58.5 146.5t145.5 58.5q89 0 148 -58.5t59 -146.5t-59 -146.5t-148 -58.5z" />
<glyph unicode="@" horiz-adv-x="2048" d="M1161 262q-56 -82 -126.5 -120t-168.5 -38q-163 0 -247 87.5t-84 257.5q0 241 141.5 404t349.5 163q77 0 134 -30.5t95 -92.5l52 92h206l-153 -610q0 -2 -1 -6q-3 -18 -3 -27q0 -30 16 -44.5t47 -14.5q137 0 240.5 143.5t103.5 335.5q0 239 -179.5 390t-467.5 151 q-148 0 -274 -36.5t-230 -109.5q-155 -110 -239 -274.5t-84 -356.5q0 -302 203 -481.5t544 -179.5q164 0 316 47.5t280 138.5l97 -135q-156 -117 -329 -175t-364 -58q-192 0 -354.5 49t-288.5 145q-157 122 -234 281.5t-77 361.5q0 169 53 320.5t156 277.5 q148 183 359.5 278t467.5 95q170 0 320 -46t260 -132q136 -107 203 -243t67 -306q0 -167 -65.5 -307t-190.5 -240q-69 -56 -154 -85.5t-176 -29.5q-106 0 -161 40t-60 120zM1198 696q-9 76 -50 116t-110 40q-103 0 -181.5 -121.5t-78.5 -286.5q0 -83 35 -128.5t98 -45.5 q84 0 148 59t88 158z" />
<glyph unicode="A" horiz-adv-x="1554" d="M4 0v295h125l274 885h-145v295h1038v-295h-143l272 -885h127v-295h-645v295h131l-59 199h-404l-55 -199h129v-295h-645zM635 756h285l-144 467z" />
<glyph unicode="B" horiz-adv-x="1346" d="M569 295h119q107 0 160 43.5t53 130.5q0 86 -54.5 131t-158.5 45h-119v-350zM569 893h119q91 0 136.5 36t45.5 107q0 72 -45.5 108t-136.5 36h-119v-287zM37 0v295h149v885h-149v295h727q231 0 357 -103t126 -289q0 -115 -68 -190.5t-208 -114.5q173 -38 252.5 -126 t79.5 -240q0 -199 -123.5 -305.5t-354.5 -106.5h-788z" />
<glyph unicode="C" horiz-adv-x="1624" d="M1196 541h410q-80 -266 -285 -418t-483 -152q-153 0 -284.5 47t-238.5 140q-129 114 -196.5 261.5t-67.5 317.5q0 171 67 318t197 262q107 92 238.5 139t284.5 47q122 0 225 -40.5t178 -119.5v132h344v-568h-373q-46 118 -137.5 180t-220.5 62q-175 0 -286 -115 t-111 -297q0 -177 109 -293t274 -116q120 0 208 52.5t148 160.5z" />
<glyph unicode="D" horiz-adv-x="1616" d="M41 0v295h149v885h-149v295h700q153 0 264 -18t179 -54q196 -104 288.5 -265.5t92.5 -400.5q0 -236 -93 -398.5t-288 -266.5q-68 -36 -179 -54t-264 -18h-700zM584 1180v-885h114q228 0 345.5 112t117.5 330q0 219 -117 331t-346 112h-114z" />
<glyph unicode="E" horiz-adv-x="1464" d="M49 0v295h150v885h-150v295h1323v-531h-256l-90 236h-442v-240h290v-328h-290v-317h442l90 287h256v-582h-1323z" />
<glyph unicode="F" horiz-adv-x="1382" d="M49 0v295h150v885h-150v295h1299v-531h-256l-88 236h-420v-240h272v-328h-272v-317h194v-295h-729z" />
<glyph unicode="G" horiz-adv-x="1731" d="M1155 539h-186v274h747v-274h-133v-539h-321v193q-91 -112 -206 -167t-259 -55q-137 0 -263.5 48t-224.5 137q-124 112 -191 263t-67 318q0 177 67 324.5t197 261.5q99 86 226.5 133t263.5 47q116 0 208.5 -34t157.5 -101l-4 107h344v-514h-372q-39 95 -114 142.5 t-185 47.5q-168 0 -275.5 -116.5t-107.5 -297.5q0 -185 105 -298t278 -113q106 0 187.5 55t127.5 158z" />
<glyph unicode="H" horiz-adv-x="1597" d="M49 0v295h150v885h-150v295h688v-295h-155v-269h434v269h-156v295h688v-295h-149v-885h149v-295h-688v295h156v323h-434v-323h155v-295h-688z" />
<glyph unicode="I" horiz-adv-x="786" d="M49 0v295h150v885h-150v295h688v-295h-155v-885h155v-295h-688z" />
<glyph unicode="J" horiz-adv-x="782" d="M209 313v867h-150v295h682v-295h-149v-885q0 -228 -18.5 -317t-61.5 -152q-59 -88 -159.5 -130t-252.5 -42q-28 0 -44 0.5t-29 1.5v348h34q48 0 73 6.5t40 22.5q19 19 27 57t8 127v96z" />
<glyph unicode="K" horiz-adv-x="1503" d="M49 0v295h150v885h-150v295h672v-295h-139v-400l348 400h-92v295h624v-295h-104l-391 -420l419 -465h142v-295h-690v295h100l-356 405v-405h139v-295h-672z" />
<glyph unicode="L" horiz-adv-x="1327" d="M49 0v295h150v885h-150v295h682v-295h-147v-885h377l88 287h249v-582h-1249z" />
<glyph unicode="M" horiz-adv-x="1931" d="M51 0v295h148v885h-148v295h690l230 -607l219 607h692v-295h-149v-885h149v-295h-678v295h156v817l-303 -801h-183l-303 801v-817h158v-295h-678z" />
<glyph unicode="N" horiz-adv-x="1593" d="M49 0v295h150v885h-150v295h524l492 -813l-12 518h-158v295h678v-295h-148v-1180h-319l-543 889l8 -594h156v-295h-678z" />
<glyph unicode="O" horiz-adv-x="1677" d="M457 737q0 -177 109 -293t274 -116t274 115.5t109 293.5q0 179 -109.5 295.5t-273.5 116.5t-273.5 -117t-109.5 -295zM51 737q0 172 67 319t197 261q107 93 238 139.5t285 46.5t285.5 -46.5t238.5 -139.5q129 -114 196.5 -262t67.5 -318t-67.5 -317.5t-196.5 -261.5 q-107 -93 -238.5 -140t-285.5 -47q-153 0 -284.5 47t-238.5 140q-129 114 -196.5 261.5t-67.5 317.5z" />
<glyph unicode="P" horiz-adv-x="1346" d="M582 1180v-363h102q118 0 177 45.5t59 136.5t-59 136t-177 45h-102zM49 0v295h150v885h-150v295h756q231 0 365.5 -126t134.5 -341q0 -216 -134.5 -341.5t-365.5 -125.5h-223v-246h155v-295h-688z" />
<glyph unicode="Q" horiz-adv-x="1677" d="M1350 158h231v-297h-401l-86 159q-53 -24 -116.5 -36.5t-139.5 -12.5q-153 0 -284.5 47t-238.5 140q-129 114 -196.5 261.5t-67.5 317.5q0 172 67 319t197 261q107 92 238.5 139t284.5 47q154 0 285.5 -46.5t238.5 -139.5q132 -115 198 -265t66 -333t-69 -323t-207 -238z M1120 457q58 47 86.5 114t28.5 156q0 184 -108.5 303t-274.5 119q-173 0 -284 -115.5t-111 -296.5q0 -177 109 -293t274 -116q21 0 37.5 3.5t29.5 10.5l-98 139l217 133z" />
<glyph unicode="R" horiz-adv-x="1442" d="M584 1180v-312h151q105 0 155 38t50 118t-50 118t-155 38h-151zM51 0v295h148v885h-148v295h910q172 0 279.5 -106.5t107.5 -276.5q0 -123 -59.5 -201.5t-186.5 -126.5q108 -33 146 -78t38 -135v-256h133v-295h-516v344q0 185 -42.5 234t-158.5 49h-118v-332h118v-295 h-651z" />
<glyph unicode="S" horiz-adv-x="1399" d="M403 154l9 -154h-322v500h342q86 -119 161 -169t165 -50q74 0 119 35.5t45 93.5q0 55 -44.5 90t-132.5 49l-157 26q-256 42 -382 157t-126 306q0 200 143 333.5t357 133.5q113 0 199.5 -40t148.5 -122l-4 132h321v-465h-321q-63 108 -129.5 159.5t-143.5 51.5 q-68 0 -112.5 -36.5t-44.5 -90.5q0 -55 47 -88.5t157 -55.5l136 -24q255 -49 378 -163t123 -302q0 -222 -138 -356t-370 -134q-131 0 -236 45.5t-188 137.5z" />
<glyph unicode="T" horiz-adv-x="1309" d="M313 0v295h150v889h-119l-76 -232h-235v523h1243v-523h-236l-75 232h-119v-889h149v-295h-682z" />
<glyph unicode="U" horiz-adv-x="1561" d="M164 510v670h-150v295h688v-295h-155v-617q0 -115 59.5 -175t173.5 -60t173 60t59 175v617h-154v295h686v-295h-147v-670q0 -249 -165.5 -394t-451.5 -145q-285 0 -450.5 145t-165.5 394z" />
<glyph unicode="V" horiz-adv-x="1419" d="M526 0l-395 1180h-115v295h617v-295h-135l211 -721l213 721h-136v295h615v-295h-115l-393 -1180h-367z" />
<glyph unicode="W" horiz-adv-x="2005" d="M1008 629l-197 -629h-309l-385 1180h-101v295h590v-295h-127l197 -654l196 654h-127v295h515v-295h-127l200 -654l207 654h-141v295h590v-295h-105l-395 -1180h-293z" />
<glyph unicode="X" horiz-adv-x="1548" d="M770 631l-215 -336h117v-295h-660v295h133l347 467l-338 418h-115v295h645v-295h-117l207 -271l207 271h-119v295h645v-295h-125l-319 -420l342 -465h131v-295h-662v295h115z" />
<glyph unicode="Y" horiz-adv-x="1503" d="M408 0v295h149v250l-426 635h-115v295h648v-295h-119l213 -349l211 349h-117v295h633v-295h-113l-432 -635v-250h156v-295h-688z" />
<glyph unicode="Z" horiz-adv-x="1391" d="M70 0v295l768 895h-381l-78 -225h-285v510h1215v-273l-797 -917h465l72 293h270v-578h-1249z" />
<glyph unicode="[" horiz-adv-x="895" d="M219 -176v1651h600v-205h-248v-1241h248v-205h-600z" />
<glyph unicode="\" horiz-adv-x="788" d="M530 -190l-526 1693h207l524 -1693h-205z" />
<glyph unicode="]" horiz-adv-x="895" d="M676 -176h-598v205h248v1241h-248v205h598v-1651z" />
<glyph unicode="^" horiz-adv-x="2048" d="M879 1462h288l465 -563h-264l-344 342l-346 -342h-264z" />
<glyph unicode="_" d="M0 -244h1024v-239h-1024v239z" />
<glyph unicode="`" d="M207 1477h287l192 -371h-154z" />
<glyph unicode="a" horiz-adv-x="1305" d="M1137 295h118v-295h-464v125q-50 -76 -120 -113t-163 -37q-196 0 -330.5 147.5t-134.5 362.5q0 228 127.5 369t331.5 141q97 0 169 -36.5t120 -110.5v125h464v-295h-118v-383zM416 479q0 -81 53.5 -133.5t136.5 -52.5q82 0 137.5 53t55.5 133q0 79 -56 133t-137 54 q-83 0 -136.5 -52.5t-53.5 -134.5z" />
<glyph unicode="b" horiz-adv-x="1298" d="M45 0v291h117v889h-117v295h483v-609q59 65 129 97t152 32q194 0 320 -142.5t126 -367.5q0 -215 -134 -362.5t-328 -147.5q-91 0 -160.5 36t-122.5 110v-121h-465zM502 479q0 -80 54.5 -133t135.5 -53q84 0 138.5 52.5t54.5 133.5t-54.5 134t-138.5 53 q-81 0 -135.5 -53.5t-54.5 -133.5z" />
<glyph unicode="c" horiz-adv-x="1165" d="M1096 420q-33 -212 -172 -328.5t-359 -116.5q-231 0 -376.5 143.5t-145.5 370.5q0 221 137 362.5t348 141.5q89 0 155 -29.5t97 -82.5v92h291v-412h-319q-22 52 -64 79.5t-100 27.5q-77 0 -124.5 -49.5t-47.5 -129.5q0 -81 44.5 -128.5t121.5 -47.5q65 0 106 26t64 81 h344z" />
<glyph unicode="d" horiz-adv-x="1294" d="M651 1473h486v-1178h118v-295h-467v121q-53 -74 -121.5 -110t-158.5 -36q-195 0 -330 147.5t-135 362.5q0 224 127 367t322 143q84 0 154.5 -32t125.5 -97v314h-121v293zM416 479q0 -81 53.5 -133.5t136.5 -52.5q82 0 137.5 53t55.5 133q0 79 -56 133t-137 54 q-83 0 -136.5 -52.5t-53.5 -134.5z" />
<glyph unicode="e" horiz-adv-x="1133" d="M422 578h317q-6 74 -45.5 111.5t-111.5 37.5q-73 0 -113.5 -38t-46.5 -111zM1051 240q-84 -130 -203.5 -197.5t-265.5 -67.5q-244 0 -391.5 140t-147.5 372q0 223 150 365.5t387 142.5q222 0 363.5 -148.5t141.5 -385.5q0 -7 -1 -21.5t-1 -21.5h-661q6 -72 48.5 -116 t104.5 -44q49 0 87 20t67 62z" />
<glyph unicode="f" horiz-adv-x="735" d="M59 295h121v383h-121v295h121v135q0 142 14 203.5t48 95.5q36 36 99.5 52t184.5 16q39 0 80.5 -2t83.5 -5v-286q-6 0 -18.5 1t-18.5 1q-63 0 -84.5 -27t-21.5 -121v-63h121v-295h-121v-383h121v-295h-609v295z" />
<glyph unicode="g" horiz-adv-x="1296" d="M1137 158q0 -182 -31 -282t-105 -169q-66 -63 -179.5 -98t-254.5 -35q-138 0 -251 20.5t-187 59.5v297q97 -52 192.5 -77.5t190.5 -25.5q132 0 198 53t66 158q0 11 -0.5 21.5t-3.5 33.5q-57 -51 -125 -75.5t-153 -24.5q-208 0 -329.5 127.5t-121.5 343.5q0 226 126 368 t323 142q85 0 153 -30.5t127 -96.5v105h483v-295h-118v-520zM416 479q0 -81 53.5 -133.5t136.5 -52.5q82 0 137.5 53t55.5 133q0 79 -56 133t-137 54q-83 0 -136.5 -52.5t-53.5 -134.5z" />
<glyph unicode="h" horiz-adv-x="1262" d="M162 1180h-117v295h483v-627q77 75 149.5 111t147.5 36q82 0 143.5 -26t98.5 -76q22 -30 31.5 -73t9.5 -138v-25v-362h117v-295h-484v528q0 95 -21 129.5t-73 34.5q-65 0 -92 -44.5t-27 -162.5v-190h105v-295h-588v295h117v885z" />
<glyph unicode="i" horiz-adv-x="694" d="M90 1106v315h442v-315h-442zM532 295h105v-295h-588v295h119v383h-119v295h483v-678z" />
<glyph unicode="j" horiz-adv-x="653" d="M528 14q0 -138 -12.5 -201t-42.5 -108q-41 -62 -132.5 -97.5t-211.5 -35.5q-26 0 -50.5 1.5t-47.5 4.5v336h22q65 0 87 26t22 146v592h-117v295h483v-959zM86 1106v315h442v-315h-442z" />
<glyph unicode="k" horiz-adv-x="1255" d="M162 1180h-119v295h483v-943l246 181h-133v260h541v-295h-82l-195 -148l238 -235h71v-295h-573v246h133l-246 211v-457h-483v295h119v885z" />
<glyph unicode="l" horiz-adv-x="682" d="M162 1180h-119v295h483v-1180h105v-295h-588v295h119v885z" />
<glyph unicode="m" horiz-adv-x="1761" d="M522 848q69 80 136 113.5t155 33.5q84 0 144 -33t112 -108q64 74 125.5 107.5t130.5 33.5q82 0 143.5 -26t98.5 -76q21 -28 30 -67t9 -124v-45v-362h96v-295h-451v528q0 95 -19 130.5t-67 35.5q-57 0 -80.5 -44.5t-23.5 -164.5v-190h90v-295h-438v528q0 95 -19.5 130.5 t-66.5 35.5q-58 0 -81.5 -44.5t-23.5 -164.5v-190h90v-295h-540v295h96v383h-96v295h450v-125z" />
<glyph unicode="n" horiz-adv-x="1266" d="M532 848q77 75 150.5 111t148.5 36q82 0 142.5 -25.5t97.5 -76.5q22 -30 31.5 -73t9.5 -138v-25v-362h117v-295h-481v528q0 93 -22 128.5t-75 35.5q-65 0 -92 -44.5t-27 -162.5v-190h105v-295h-588v295h119v383h-119v295h483v-125z" />
<glyph unicode="o" horiz-adv-x="1165" d="M414 485q0 -73 48 -121.5t120 -48.5t121 48.5t49 121.5q0 74 -49 123t-121 49t-120 -48.5t-48 -123.5zM43 485q0 217 154 363.5t385 146.5t386.5 -146.5t155.5 -363.5q0 -215 -155.5 -362.5t-386.5 -147.5q-230 0 -384.5 147.5t-154.5 362.5z" />
<glyph unicode="p" horiz-adv-x="1305" d="M889 479q0 82 -54 134.5t-137 52.5q-81 0 -136.5 -54t-55.5 -133q0 -80 55.5 -133t136.5 -53q83 0 137 52.5t54 133.5zM532 973v-105q56 65 128 96t167 31q185 0 310 -144.5t125 -365.5q0 -213 -132 -361.5t-319 -148.5q-89 0 -156 28.5t-123 90.5v-227h127v-293h-610 v293h119v811h-119v295h483z" />
<glyph unicode="q" horiz-adv-x="1305" d="M416 479q0 -81 53.5 -133.5t136.5 -52.5q82 0 137.5 53t55.5 133q0 79 -56 133t-137 54q-83 0 -136.5 -52.5t-53.5 -134.5zM643 -133h129v227q-56 -62 -122.5 -90.5t-155.5 -28.5q-188 0 -319.5 148.5t-131.5 361.5q0 221 124.5 365.5t309.5 144.5q95 0 167 -31t128 -96 v105h483v-295h-118v-811h118v-293h-612v293z" />
<glyph unicode="r" horiz-adv-x="981" d="M532 807l15 4q23 86 74.5 132t123.5 46q87 0 141 -56.5t54 -148.5q0 -86 -55.5 -142t-141.5 -56q-66 0 -113.5 38.5t-78.5 116.5l-19 -6v-440h121v-295h-604v295h119v383h-119v295h483v-166z" />
<glyph unicode="s" horiz-adv-x="1075" d="M360 0h-251v295h239q42 -66 91 -97.5t108 -31.5q40 0 62 19.5t22 56.5q0 25 -19 41.5t-67 31.5l-156 50q-170 53 -235.5 122.5t-65.5 186.5q0 142 100.5 232.5t257.5 90.5q64 0 129 -18t123 -53v47h252v-295h-233q-18 64 -59 96.5t-103 32.5q-44 0 -69 -18t-25 -50 q0 -30 24.5 -50.5t89.5 -41.5l109 -35q195 -63 255 -129.5t60 -189.5q0 -147 -96 -232.5t-264 -85.5q-61 0 -125 16t-154 54v-45z" />
<glyph unicode="t" horiz-adv-x="696" d="M641 0h-143q-233 0 -290.5 49t-57.5 180v449h-127v295h127v307h358v-307h123v-295h-123v-262q0 -75 24 -98t97 -23h12v-295z" />
<glyph unicode="u" horiz-adv-x="1241" d="M723 125q-78 -77 -150.5 -113.5t-146.5 -36.5q-80 0 -141 27t-99 78q-22 30 -31.5 73t-9.5 136v24v365h-118v295h483v-529q0 -95 21 -130t73 -35q65 0 92 44.5t27 161.5v193h-102v295h469v-678h118v-295h-485v125z" />
<glyph unicode="v" horiz-adv-x="1223" d="M397 0l-270 678h-119v295h551v-295h-82l141 -381l136 381h-82v295h542v-295h-118l-271 -678h-428z" />
<glyph unicode="w" horiz-adv-x="1655" d="M946 973l174 -613l94 318h-81v295h514v-295h-117l-209 -678h-371l-123 444l-122 -444h-373l-207 678h-119v295h522v-295h-82l93 -318l168 613h239z" />
<glyph unicode="x" horiz-adv-x="1214" d="M694 788v185h473v-295h-170l-135 -172l191 -211h127v-295h-480v240l-92 116l-90 -116v-240h-479v295h127l190 211l-135 172h-170v295h473v-185l84 -116z" />
<glyph unicode="y" horiz-adv-x="1237" d="M836 -428h-568v295h133l62 133l-328 678h-127v295h561v-295h-88l146 -336l141 336h-80v295h524v-295h-118l-377 -811h119v-295z" />
<glyph unicode="z" horiz-adv-x="1085" d="M997 0h-909v313l512 404h-248l-43 -117h-221v373h909v-307l-522 -412h262l31 127h229v-381z" />
<glyph unicode="{" d="M893 1477v-242q-7 0 -21 1t-20 1q-98 0 -132 -35.5t-34 -146.5v-240q0 -140 -46 -200t-165 -85q120 -24 165.5 -82.5t45.5 -199.5v-242q0 -110 33.5 -145t130.5 -35q7 0 21.5 1t21.5 1v-242q-15 0 -42 -1t-40 -1q-108 0 -179.5 12t-119.5 37q-59 32 -82.5 88.5 t-23.5 192.5v256q0 133 -49.5 187.5t-168.5 54.5q-4 0 -17 -1t-19 -1v241q6 0 18 -1t18 -1q118 0 168 55.5t50 188.5v254q0 136 24 193.5t82 89.5q48 25 120.5 37t180.5 12q12 0 38.5 -1t41.5 -1z" />
<glyph unicode="|" d="M393 1565h240v-2048h-240v2048z" />
<glyph unicode="}" d="M133 1477q15 0 41.5 1t38.5 1q108 0 180 -12t121 -37q58 -32 82.5 -89.5t24.5 -193.5v-254q0 -134 49 -189t168 -55q6 0 18 1t18 1v-241q-6 0 -18 1t-18 1q-119 0 -168 -55t-49 -187v-256q0 -137 -24.5 -194.5t-82.5 -88.5q-45 -24 -113.5 -35.5t-177.5 -11.5 q-14 0 -44 1t-46 1v242q9 0 23 -1t20 -1q97 0 130.5 34.5t33.5 145.5v242q0 140 46 199t165 83q-120 25 -165.5 84t-45.5 201v240q0 111 -33.5 146.5t-126.5 35.5q-7 0 -22.5 -1t-24.5 -1v242z" />
<glyph unicode="~" horiz-adv-x="1706" d="M1530 819v-254q-101 -69 -194 -103t-183 -34q-45 0 -89 7.5t-83 21.5q-13 4 -38 13q-255 89 -382 89q-84 0 -175.5 -37.5t-207.5 -120.5v254q112 73 207.5 108.5t179.5 35.5q63 0 126.5 -12t169.5 -46q16 -5 51 -17q159 -56 247 -56q84 0 173.5 36t197.5 115z" />
<glyph unicode="&#xa1;" horiz-adv-x="735" d="M172 0l33 954h323l33 -954h-389zM160 1298q0 88 59.5 146.5t147.5 58.5t147 -58.5t59 -146.5q0 -87 -59 -145.5t-147 -58.5t-147.5 58.5t-59.5 145.5z" />
<glyph unicode="&#xa2;" horiz-adv-x="1139" d="M457 313l116 410q-4 0 -12 1t-12 1q-83 0 -135 -63.5t-52 -167.5q0 -66 24 -111.5t71 -69.5zM543 302q14 -4 26.5 -5.5t24.5 -1.5q72 0 120.5 40t57.5 105h297q-18 -192 -152.5 -316t-322.5 -124q-31 0 -102 8h-7l-73 -260h-138l82 293q-144 60 -220.5 183t-76.5 294 q0 214 130 354t323 140q29 0 56.5 -3t52.5 -10l69 246h137l-86 -305q21 -12 41.5 -30t40.5 -44v127h230v-411h-297q-14 48 -39.5 78t-61.5 40z" />
<glyph unicode="&#xa3;" horiz-adv-x="1139" d="M66 -29v351q95 27 138.5 87.5t43.5 168.5v75h-178v181h149q-18 83 -27.5 143t-9.5 98q0 172 121.5 280.5t314.5 108.5q196 0 319.5 -110.5t123.5 -284.5q0 -18 -0.5 -29t-2.5 -22h-321q0 82 -24.5 119t-79.5 37q-52 0 -82.5 -31.5t-30.5 -83.5q0 -30 42 -219q1 -5 1 -6 h256v-181h-233q2 -19 3 -39.5t1 -56.5q0 -65 -13.5 -119t-41.5 -100q44 -32 78.5 -47t64.5 -15q58 0 87.5 34.5t31.5 103.5h323v-37q0 -196 -94 -301t-270 -105q-104 0 -194 38t-163 112q-57 -65 -137.5 -101t-195.5 -49z" />
<glyph unicode="&#xa4;" horiz-adv-x="1241" d="M623 1145q-107 0 -184 -77t-77 -183q0 -108 76 -184t185 -76q107 0 183.5 76t76.5 184q0 106 -76.5 183t-183.5 77zM178 1444l203 -201q54 37 113.5 55.5t126.5 18.5q69 0 130 -18.5t113 -55.5l201 201l119 -117l-201 -205q35 -53 52.5 -112t17.5 -125t-17.5 -125.5 t-52.5 -112.5l201 -203l-119 -118l-201 202q-52 -37 -111.5 -55t-129.5 -18t-128.5 17.5t-113.5 55.5l-203 -202l-117 118l201 203q-36 54 -54 113t-18 125q0 67 18.5 126.5t53.5 110.5l-201 205z" />
<glyph unicode="&#xa5;" horiz-adv-x="1292" d="M340 0v268h131v203h-412v168h344l-92 162h-252v168h156l-113 194h-102v264h580v-264h-107l182 -379l179 379h-111v264h567v-264h-100l-117 -194h156v-168h-252l-94 -162h346v-168h-410v-203h135v-268h-614z" />
<glyph unicode="&#xa6;" d="M393 408h240v-758h-240v758zM393 1432h240v-758h-240v758z" />
<glyph unicode="&#xa7;" horiz-adv-x="1139" d="M727 614l-184 179q-40 39 -69.5 56t-57.5 17q-38 0 -62 -22.5t-24 -57.5q0 -22 22.5 -55.5t67.5 -79.5l182 -180q43 -41 71.5 -57.5t55.5 -16.5q38 0 62 23t24 57q0 24 -22.5 59t-65.5 78zM195 115h237v-117h78q52 0 76 15t24 46q0 26 -30 64t-146 145l-155 146 q-112 103 -162.5 192.5t-50.5 181.5q0 112 75.5 187.5t191.5 79.5q-32 42 -48.5 84.5t-16.5 85.5q0 110 91.5 180t238.5 70h379v-336h-238v110h-77q-64 0 -90.5 -13t-26.5 -44q0 -46 123 -156q42 -37 65 -59l158 -148q96 -89 138 -168.5t42 -168.5q0 -126 -68.5 -207.5 t-173.5 -81.5q39 -46 58.5 -94.5t19.5 -98.5q0 -118 -92 -177.5t-274 -59.5h-346v342z" />
<glyph unicode="&#xa8;" d="M567 1157v270h252v-270h-252zM205 1157v270h250v-270h-250z" />
<glyph unicode="&#xa9;" horiz-adv-x="1706" d="M1221 891h-213q-7 67 -47.5 104t-108.5 37q-83 0 -129.5 -77t-46.5 -216q0 -140 47.5 -212t138.5 -72q67 0 106.5 40.5t45.5 114.5h215q-6 -143 -107.5 -230t-263.5 -87q-190 0 -301 117.5t-111 320.5q0 207 111 329t299 122q157 0 257 -80t108 -211zM854 1350 q-126 0 -235 -45.5t-195 -133.5q-88 -89 -135 -201t-47 -233q0 -119 47 -230.5t135 -199.5q87 -87 198 -133.5t232 -46.5t234 47t202 135q86 84 130 193t44 235q0 125 -45 235.5t-131 196.5q-88 89 -198.5 135t-235.5 46zM852 1485q154 0 289.5 -56t242.5 -163 q106 -106 160.5 -240.5t54.5 -288.5q0 -153 -54 -287t-159 -237q-109 -108 -247 -165.5t-287 -57.5q-148 0 -283.5 57t-242.5 164t-163.5 241.5t-56.5 284.5q0 148 57.5 285t164.5 246q105 106 238 161.5t286 55.5z" />
<glyph unicode="&#xaa;" horiz-adv-x="979" d="M852 1001h90v-206h-348v88q-36 -53 -88.5 -79t-124.5 -26q-146 0 -247 103t-101 254q0 159 95 257.5t249 98.5q71 0 125.5 -25.5t91.5 -76.5v88h348v-207h-90v-269zM311 1130q0 -56 41 -93.5t103 -37.5q61 0 103 38t42 93t-42.5 93.5t-102.5 38.5q-62 0 -103 -37.5 t-41 -94.5z" />
<glyph unicode="&#xab;" horiz-adv-x="1204" d="M662 154h-285l-277 331l277 332h285l-279 -332zM1120 154h-282l-279 331l279 332h282l-276 -332z" />
<glyph unicode="&#xac;" horiz-adv-x="1706" d="M254 866h1198v-501h-229v274h-969v227z" />
<glyph unicode="&#xad;" horiz-adv-x="635" d="M45 346v328h547v-328h-547z" />
<glyph unicode="&#xae;" horiz-adv-x="1706" d="M762 1022v-219h80q74 0 110.5 26.5t36.5 79.5q0 59 -38 86t-122 27h-67zM537 1163h329q174 0 264.5 -60t90.5 -177q0 -81 -46 -139t-128 -82l182 -361h-248l-154 326h-65v-326h-225v819zM854 1350q-124 0 -232 -44t-194 -128q-90 -90 -137 -203t-47 -238q0 -121 44 -229 t130 -195q87 -90 199 -138t235 -48q121 0 232.5 45.5t199.5 130.5t134 196.5t46 237.5q0 124 -44 233.5t-128 194.5q-89 91 -200.5 138t-237.5 47zM852 1485q156 0 294 -57.5t245 -167.5q101 -104 154.5 -238t53.5 -285q0 -155 -56.5 -291t-164.5 -239q-109 -105 -245 -161 t-281 -56q-151 0 -287 58t-243 169q-105 108 -160.5 241.5t-55.5 278.5q0 151 59 290t169 247q105 104 237 157.5t281 53.5z" />
<glyph unicode="&#xaf;" d="M205 1206v170h614v-170h-614z" />
<glyph unicode="&#xb0;" horiz-adv-x="674" d="M338 1321q-69 0 -117.5 -48t-48.5 -116q0 -70 48 -118t118 -48q68 0 116 49t48 117t-48 116t-116 48zM338 1466q129 0 220 -91t91 -220q0 -128 -91.5 -219.5t-221.5 -91.5q-129 0 -219 90.5t-90 220.5q0 131 90.5 221t220.5 90z" />
<glyph unicode="&#xb1;" horiz-adv-x="1706" d="M254 213h1198v-231h-1198v231zM735 1241h238v-319h479v-232h-479v-319h-238v319h-481v232h481v319z" />
<glyph unicode="&#xb2;" horiz-adv-x="752" d="M49 575v181l240 221q101 94 135.5 140t34.5 81q0 32 -22.5 51t-59.5 19q-46 0 -71 -25t-25 -69v-15h-232v15q0 131 86.5 205.5t239.5 74.5q143 0 228 -67.5t85 -180.5q0 -98 -82.5 -197.5t-294.5 -248.5h199v53h192v-238h-653z" />
<glyph unicode="&#xb3;" horiz-adv-x="752" d="M41 864h223v-8q0 -54 26.5 -82.5t78.5 -28.5q44 0 72 27.5t28 71.5q0 50 -40 73t-132 23h-12v158h12q89 0 124.5 20.5t35.5 69.5q0 37 -25.5 58.5t-69.5 21.5q-48 0 -75 -25t-27 -69v-13h-207v6q0 138 84 212.5t238 74.5q140 0 225.5 -66t85.5 -174q0 -69 -45.5 -116.5 t-130.5 -67.5q92 -9 144.5 -64.5t52.5 -144.5q0 -117 -92 -189.5t-242 -72.5q-155 0 -243.5 74t-88.5 205v26z" />
<glyph unicode="&#xb4;" d="M817 1477l-325 -371h-154l192 371h287z" />
<glyph unicode="&#xb5;" horiz-adv-x="1315" d="M193 1090h358l-80 -529q-6 -41 -9 -77.5t-3 -65.5q0 -85 35.5 -127.5t107.5 -42.5q88 0 138.5 68.5t74.5 220.5l88 553h357l-175 -1090h-321l18 125q-40 -75 -89.5 -108t-119.5 -33q-59 0 -106.5 31t-77.5 89l-82 -532h-352z" />
<glyph unicode="&#xb6;" d="M997 1479v-123h-106v-1356h-176v1356h-150v-1356h-174v784q-164 6 -263 101t-99 245q0 158 106 253.5t283 95.5h579z" />
<glyph unicode="&#xb7;" horiz-adv-x="569" d="M285 528q-89 0 -148 58t-59 145q0 88 59.5 147.5t147.5 59.5t147.5 -59.5t59.5 -147.5q0 -87 -59 -145t-148 -58z" />
<glyph unicode="&#xb8;" d="M272 -438v137q80 -22 149.5 -33.5t121.5 -11.5q43 0 64.5 17.5t21.5 54.5q0 32 -28.5 47.5t-90.5 15.5q-21 0 -33 -0.5t-22 -1.5v213h114v-84h19q111 0 170 -49.5t59 -142.5q0 -100 -66 -154.5t-188 -54.5q-58 0 -130 11.5t-161 35.5z" />
<glyph unicode="&#xb9;" horiz-adv-x="752" d="M160 575v162h100v541h-100v160h332v-701h102v-162h-434z" />
<glyph unicode="&#xba;" horiz-adv-x="874" d="M311 1135q0 -52 36 -85.5t89 -33.5q55 0 91 33.5t36 85.5q0 51 -36.5 85.5t-90.5 34.5q-53 0 -89 -34.5t-36 -85.5zM33 1135q0 151 115.5 253.5t287.5 102.5q174 0 291 -102.5t117 -253.5t-117 -254t-291 -103q-172 0 -287.5 103t-115.5 254z" />
<glyph unicode="&#xbb;" horiz-adv-x="1204" d="M543 154l278 331l-278 332h284l277 -332l-277 -331h-284zM84 154l276 331l-276 332h283l278 -332l-278 -331h-283z" />
<glyph unicode="&#xbc;" horiz-adv-x="1776" d="M1315 0v135h129v78h-359v109l279 483h289v-457h82v-135h-82v-78h82v-135h-420zM1454 681l-186 -333h176v168q0 30 2.5 69t7.5 96zM375 -29l850 1493h174l-850 -1493h-174zM152 633v149h94v506h-94v150h317v-656h96v-149h-413z" />
<glyph unicode="&#xbd;" horiz-adv-x="1776" d="M1106 0v168l227 207q95 83 129.5 127.5t34.5 77.5q0 30 -21.5 48.5t-56.5 18.5q-43 0 -67.5 -23.5t-24.5 -66.5v-12h-221v14q0 122 83 191t228 69q137 0 218 -63t81 -168q0 -91 -79 -184t-279 -232h188v49h183v-221h-623zM375 -29l850 1493h174l-850 -1493h-174zM152 633 v149h94v506h-94v150h317v-656h96v-149h-413z" />
<glyph unicode="&#xbe;" horiz-adv-x="1778" d="M1315 0v135h129v78h-359v109l279 483h289v-457h82v-135h-82v-78h82v-135h-420zM1454 681l-186 -333h176v168q0 30 2.5 69t7.5 96zM375 -29l850 1493h174l-850 -1493h-174zM41 903h211v-8q0 -51 25.5 -77.5t72.5 -26.5q43 0 71 26t28 68q0 46 -38.5 67t-125.5 21h-15v147 h15q85 0 118 19.5t33 64.5q0 34 -25 55t-65 21q-46 0 -72 -23.5t-26 -66.5v-10h-197v4q0 129 80 198.5t227 69.5q134 0 214.5 -61.5t80.5 -161.5q0 -65 -42.5 -109.5t-123.5 -62.5q88 -8 137.5 -59.5t49.5 -135.5q0 -110 -87.5 -178t-232.5 -68q-147 0 -231 69.5t-84 191.5 q0 4 1 13t1 13z" />
<glyph unicode="&#xbf;" horiz-adv-x="1233" d="M829 954v-358q-6 0 -24 1t-29 1q-143 0 -208.5 -42t-65.5 -134q0 -65 33 -99t96 -34q65 0 103.5 41t39.5 110h356q2 -11 3.5 -22.5t1.5 -20.5q0 -84 -48 -166.5t-135 -148.5q-69 -52 -154 -79.5t-180 -27.5q-218 0 -353.5 126.5t-135.5 328.5q0 183 97.5 297.5 t262.5 126.5v100h340zM662 1503q87 0 146.5 -58.5t59.5 -146.5q0 -87 -59.5 -145.5t-146.5 -58.5q-89 0 -148 58.5t-59 145.5q0 88 59 146.5t148 58.5z" />
<glyph unicode="&#xc0;" horiz-adv-x="1554" d="M4 0v295h125l274 885h-145v295h1038v-295h-143l272 -885h127v-295h-645v295h131l-59 199h-404l-55 -199h129v-295h-645zM635 756h285l-144 467zM473 1956h287l192 -371h-154z" />
<glyph unicode="&#xc1;" horiz-adv-x="1554" d="M4 0v295h125l274 885h-145v295h1038v-295h-143l272 -885h127v-295h-645v295h131l-59 199h-404l-55 -199h129v-295h-645zM635 756h285l-144 467zM1083 1956l-325 -371h-154l192 371h287z" />
<glyph unicode="&#xc2;" horiz-adv-x="1554" d="M4 0v295h125l274 885h-145v295h1038v-295h-143l272 -885h127v-295h-645v295h131l-59 199h-404l-55 -199h129v-295h-645zM635 756h285l-144 467zM456 1585l193 371h256l192 -371h-153l-166 199l-168 -199h-154z" />
<glyph unicode="&#xc3;" horiz-adv-x="1554" d="M4 0v295h125l274 885h-145v295h1038v-295h-143l272 -885h127v-295h-645v295h131l-59 199h-404l-55 -199h129v-295h-645zM635 756h285l-144 467zM1110 1911q-30 -133 -82.5 -193.5t-136.5 -60.5q-19 0 -37.5 3t-38.5 9l-92 27q-23 6 -40 9t-28 3q-33 0 -54.5 -18.5 t-35.5 -59.5h-119q28 126 80.5 186t134.5 60q19 0 42.5 -4t48.5 -11l93 -26q16 -5 30 -7.5t28 -2.5q33 0 55 21.5t33 64.5h119z" />
<glyph unicode="&#xc4;" horiz-adv-x="1554" d="M4 0v295h125l274 885h-145v295h1038v-295h-143l272 -885h127v-295h-645v295h131l-59 199h-404l-55 -199h129v-295h-645zM635 756h285l-144 467zM833 1636v270h252v-270h-252zM471 1636v270h250v-270h-250z" />
<glyph unicode="&#xc5;" horiz-adv-x="1554" d="M635 756h285l-144 467zM575 1751q0 93 64 157t156 64t156.5 -64.5t64.5 -156.5t-64.5 -155.5t-156.5 -63.5q-93 0 -156.5 63.5t-63.5 155.5zM717 1753q0 -34 23 -57t57 -23q32 0 54.5 23.5t22.5 56.5q0 32 -22.5 55t-54.5 23q-33 0 -56.5 -23t-23.5 -55zM4 0v295h125 l274 885h-145v295h1038v-295h-143l272 -885h127v-295h-645v295h131l-59 199h-401l-58 -199h129v-295h-645z" />
<glyph unicode="&#xc6;" horiz-adv-x="2292" d="M1040 752v448h-92l-215 -448h307zM1040 489h-436l-94 -194h141v-295h-651v295h106l492 885h-158v295h1758v-531h-256l-89 236h-436v-240h291v-328h-291v-317h436l89 287h256v-582h-1307v295h149v194z" />
<glyph unicode="&#xc7;" horiz-adv-x="1624" d="M1196 541h410q-80 -266 -285 -418t-483 -152q-153 0 -284.5 47t-238.5 140q-129 114 -196.5 261.5t-67.5 317.5q0 171 67 318t197 262q107 92 238.5 139t284.5 47q122 0 225 -40.5t178 -119.5v132h344v-568h-373q-46 118 -137.5 180t-220.5 62q-175 0 -286 -115 t-111 -297q0 -177 109 -293t274 -116q120 0 208 52.5t148 160.5zM591 -438v137q80 -22 149.5 -33.5t121.5 -11.5q43 0 64.5 17.5t21.5 54.5q0 32 -28.5 47.5t-90.5 15.5q-21 0 -33 -0.5t-22 -1.5v213h114v-84h19q111 0 170 -49.5t59 -142.5q0 -100 -66 -154.5t-188 -54.5 q-58 0 -130 11.5t-161 35.5z" />
<glyph unicode="&#xc8;" horiz-adv-x="1464" d="M49 0v295h150v885h-150v295h1323v-531h-256l-90 236h-442v-240h290v-328h-290v-317h442l90 287h256v-582h-1323zM453 1956h287l192 -371h-154z" />
<glyph unicode="&#xc9;" horiz-adv-x="1464" d="M49 0v295h150v885h-150v295h1323v-531h-256l-90 236h-442v-240h290v-328h-290v-317h442l90 287h256v-582h-1323zM1063 1956l-325 -371h-154l192 371h287z" />
<glyph unicode="&#xca;" horiz-adv-x="1464" d="M49 0v295h150v885h-150v295h1323v-531h-256l-90 236h-442v-240h290v-328h-290v-317h442l90 287h256v-582h-1323zM436 1585l193 371h256l192 -371h-153l-166 199l-168 -199h-154z" />
<glyph unicode="&#xcb;" horiz-adv-x="1464" d="M49 0v295h150v885h-150v295h1323v-531h-256l-90 236h-442v-240h290v-328h-290v-317h442l90 287h256v-582h-1323zM813 1636v270h252v-270h-252zM451 1636v270h250v-270h-250z" />
<glyph unicode="&#xcc;" horiz-adv-x="786" d="M49 0v295h150v885h-150v295h688v-295h-155v-885h155v-295h-688zM88 1956h287l192 -371h-154z" />
<glyph unicode="&#xcd;" horiz-adv-x="786" d="M49 0v295h150v885h-150v295h688v-295h-155v-885h155v-295h-688zM698 1956l-325 -371h-154l192 371h287z" />
<glyph unicode="&#xce;" horiz-adv-x="786" d="M49 0v295h150v885h-150v295h688v-295h-155v-885h155v-295h-688zM71 1585l193 371h256l192 -371h-153l-166 199l-168 -199h-154z" />
<glyph unicode="&#xcf;" horiz-adv-x="786" d="M49 0v295h150v885h-150v295h688v-295h-155v-885h155v-295h-688zM448 1636v270h252v-270h-252zM86 1636v270h250v-270h-250z" />
<glyph unicode="&#xd0;" horiz-adv-x="1616" d="M41 0v295h149v332h-190v276h190v277h-149v295h700q153 0 264 -18t179 -54q196 -104 288.5 -265.5t92.5 -400.5q0 -236 -93 -398.5t-288 -266.5q-68 -36 -179 -54t-264 -18h-700zM584 1180v-277h290v-276h-290v-332h114q228 0 345.5 112t117.5 330q0 219 -117 331 t-346 112h-114z" />
<glyph unicode="&#xd1;" horiz-adv-x="1593" d="M49 0v295h150v885h-150v295h524l492 -813l-12 518h-158v295h678v-295h-148v-1180h-319l-543 889l8 -594h156v-295h-678zM1129 1911q-30 -133 -82.5 -193.5t-136.5 -60.5q-19 0 -37.5 3t-38.5 9l-92 27q-23 6 -40 9t-28 3q-33 0 -54.5 -18.5t-35.5 -59.5h-119 q28 126 80.5 186t134.5 60q19 0 42.5 -4t48.5 -11l93 -26q16 -5 30 -7.5t28 -2.5q33 0 55 21.5t33 64.5h119z" />
<glyph unicode="&#xd2;" horiz-adv-x="1677" d="M457 737q0 -177 109 -293t274 -116t274 115.5t109 293.5q0 179 -109.5 295.5t-273.5 116.5t-273.5 -117t-109.5 -295zM51 737q0 172 67 319t197 261q107 93 238 139.5t285 46.5t285.5 -46.5t238.5 -139.5q129 -114 196.5 -262t67.5 -318t-67.5 -317.5t-196.5 -261.5 q-107 -93 -238.5 -140t-285.5 -47q-153 0 -284.5 47t-238.5 140q-129 114 -196.5 261.5t-67.5 317.5zM535 1956h287l192 -371h-154z" />
<glyph unicode="&#xd3;" horiz-adv-x="1677" d="M457 737q0 -177 109 -293t274 -116t274 115.5t109 293.5q0 179 -109.5 295.5t-273.5 116.5t-273.5 -117t-109.5 -295zM51 737q0 172 67 319t197 261q107 93 238 139.5t285 46.5t285.5 -46.5t238.5 -139.5q129 -114 196.5 -262t67.5 -318t-67.5 -317.5t-196.5 -261.5 q-107 -93 -238.5 -140t-285.5 -47q-153 0 -284.5 47t-238.5 140q-129 114 -196.5 261.5t-67.5 317.5zM1145 1956l-325 -371h-154l192 371h287z" />
<glyph unicode="&#xd4;" horiz-adv-x="1677" d="M457 737q0 -177 109 -293t274 -116t274 115.5t109 293.5q0 179 -109.5 295.5t-273.5 116.5t-273.5 -117t-109.5 -295zM51 737q0 172 67 319t197 261q107 93 238 139.5t285 46.5t285.5 -46.5t238.5 -139.5q129 -114 196.5 -262t67.5 -318t-67.5 -317.5t-196.5 -261.5 q-107 -93 -238.5 -140t-285.5 -47q-153 0 -284.5 47t-238.5 140q-129 114 -196.5 261.5t-67.5 317.5zM518 1585l193 371h256l192 -371h-153l-166 199l-168 -199h-154z" />
<glyph unicode="&#xd5;" horiz-adv-x="1677" d="M457 737q0 -177 109 -293t274 -116t274 115.5t109 293.5q0 179 -109.5 295.5t-273.5 116.5t-273.5 -117t-109.5 -295zM51 737q0 172 67 319t197 261q107 93 238 139.5t285 46.5t285.5 -46.5t238.5 -139.5q129 -114 196.5 -262t67.5 -318t-67.5 -317.5t-196.5 -261.5 q-107 -93 -238.5 -140t-285.5 -47q-153 0 -284.5 47t-238.5 140q-129 114 -196.5 261.5t-67.5 317.5zM1172 1911q-30 -133 -82.5 -193.5t-136.5 -60.5q-19 0 -37.5 3t-38.5 9l-92 27q-23 6 -40 9t-28 3q-33 0 -54.5 -18.5t-35.5 -59.5h-119q28 126 80.5 186t134.5 60 q19 0 42.5 -4t48.5 -11l93 -26q16 -5 30 -7.5t28 -2.5q33 0 55 21.5t33 64.5h119z" />
<glyph unicode="&#xd6;" horiz-adv-x="1677" d="M457 737q0 -177 109 -293t274 -116t274 115.5t109 293.5q0 179 -109.5 295.5t-273.5 116.5t-273.5 -117t-109.5 -295zM51 737q0 172 67 319t197 261q107 93 238 139.5t285 46.5t285.5 -46.5t238.5 -139.5q129 -114 196.5 -262t67.5 -318t-67.5 -317.5t-196.5 -261.5 q-107 -93 -238.5 -140t-285.5 -47q-153 0 -284.5 47t-238.5 140q-129 114 -196.5 261.5t-67.5 317.5zM895 1636v270h252v-270h-252zM533 1636v270h250v-270h-250z" />
<glyph unicode="&#xd7;" horiz-adv-x="1706" d="M430 1214l440 -440l441 440l162 -161l-441 -443l441 -440l-162 -162l-441 441l-440 -441l-162 162l441 440l-441 443z" />
<glyph unicode="&#xd8;" horiz-adv-x="1677" d="M1358 1567h258l-215 -279q113 -113 169 -250t56 -301q0 -170 -68 -319t-196 -260q-104 -92 -237 -139.5t-287 -47.5q-108 0 -203.5 23.5t-188.5 73.5l-129 -158h-260l219 280q-109 110 -167 250.5t-58 296.5q0 172 67 319t197 261q106 94 240 140t299 46q111 0 203.5 -23 t171.5 -71zM1157 989l-493 -629q47 -20 91 -30.5t85 -10.5q169 0 279 118t110 300q0 78 -17.5 139.5t-54.5 112.5zM520 492l490 622q-36 22 -78 32.5t-92 10.5q-167 0 -279 -119.5t-112 -300.5q0 -70 17.5 -130.5t53.5 -114.5z" />
<glyph unicode="&#xd9;" horiz-adv-x="1561" d="M164 510v670h-150v295h688v-295h-155v-617q0 -115 59.5 -175t173.5 -60t173 60t59 175v617h-154v295h686v-295h-147v-670q0 -249 -165.5 -394t-451.5 -145q-285 0 -450.5 145t-165.5 394zM475 1956h287l192 -371h-154z" />
<glyph unicode="&#xda;" horiz-adv-x="1561" d="M164 510v670h-150v295h688v-295h-155v-617q0 -115 59.5 -175t173.5 -60t173 60t59 175v617h-154v295h686v-295h-147v-670q0 -249 -165.5 -394t-451.5 -145q-285 0 -450.5 145t-165.5 394zM1085 1956l-325 -371h-154l192 371h287z" />
<glyph unicode="&#xdb;" horiz-adv-x="1561" d="M164 510v670h-150v295h688v-295h-155v-617q0 -115 59.5 -175t173.5 -60t173 60t59 175v617h-154v295h686v-295h-147v-670q0 -249 -165.5 -394t-451.5 -145q-285 0 -450.5 145t-165.5 394zM458 1585l193 371h256l192 -371h-153l-166 199l-168 -199h-154z" />
<glyph unicode="&#xdc;" horiz-adv-x="1561" d="M164 510v670h-150v295h688v-295h-155v-617q0 -115 59.5 -175t173.5 -60t173 60t59 175v617h-154v295h686v-295h-147v-670q0 -249 -165.5 -394t-451.5 -145q-285 0 -450.5 145t-165.5 394zM835 1636v270h252v-270h-252zM473 1636v270h250v-270h-250z" />
<glyph unicode="&#xdd;" horiz-adv-x="1503" d="M408 0v295h149v250l-426 635h-115v295h648v-295h-119l213 -349l211 349h-117v295h633v-295h-113l-432 -635v-250h156v-295h-688zM1057 1956l-325 -371h-154l192 371h287z" />
<glyph unicode="&#xde;" horiz-adv-x="1346" d="M684 909h-102v-321h102q117 0 176.5 40.5t59.5 121.5q0 80 -59 119.5t-177 39.5zM49 295h150v885h-150v295h682v-246h-149v-58h223q231 0 365.5 -112t134.5 -303q0 -190 -134.5 -302t-365.5 -112h-223v-72h155v-270h-688v295z" />
<glyph unicode="&#xdf;" horiz-adv-x="1282" d="M39 0v295h111v737q0 228 126 344.5t373 116.5q196 0 314 -99t118 -261q0 -90 -42 -164t-128 -133q155 -39 235.5 -147.5t80.5 -280.5q0 -204 -101 -318.5t-280 -114.5q-48 0 -97 10.5t-102 30.5l49 293q5 0 15.5 -1t15.5 -1q67 0 98 35.5t31 112.5q0 99 -54 149t-169 58 v292q59 6 89 37.5t30 87.5q0 51 -32 81t-87 30q-67 0 -93 -41t-26 -188v-961h-475z" />
<glyph unicode="&#xe0;" horiz-adv-x="1305" d="M1137 295h118v-295h-464v125q-50 -76 -120 -113t-163 -37q-196 0 -330.5 147.5t-134.5 362.5q0 228 127.5 369t331.5 141q97 0 169 -36.5t120 -110.5v125h464v-295h-118v-383zM416 479q0 -81 53.5 -133.5t136.5 -52.5q82 0 137.5 53t55.5 133q0 79 -56 133t-137 54 q-83 0 -136.5 -52.5t-53.5 -134.5zM412 1477h287l192 -371h-154z" />
<glyph unicode="&#xe1;" horiz-adv-x="1305" d="M1137 295h118v-295h-464v125q-50 -76 -120 -113t-163 -37q-196 0 -330.5 147.5t-134.5 362.5q0 228 127.5 369t331.5 141q97 0 169 -36.5t120 -110.5v125h464v-295h-118v-383zM416 479q0 -81 53.5 -133.5t136.5 -52.5q82 0 137.5 53t55.5 133q0 79 -56 133t-137 54 q-83 0 -136.5 -52.5t-53.5 -134.5zM1022 1477l-325 -371h-154l192 371h287z" />
<glyph unicode="&#xe2;" horiz-adv-x="1305" d="M1137 295h118v-295h-464v125q-50 -76 -120 -113t-163 -37q-196 0 -330.5 147.5t-134.5 362.5q0 228 127.5 369t331.5 141q97 0 169 -36.5t120 -110.5v125h464v-295h-118v-383zM416 479q0 -81 53.5 -133.5t136.5 -52.5q82 0 137.5 53t55.5 133q0 79 -56 133t-137 54 q-83 0 -136.5 -52.5t-53.5 -134.5zM395 1106l193 371h256l192 -371h-153l-166 199l-168 -199h-154z" />
<glyph unicode="&#xe3;" horiz-adv-x="1305" d="M1137 295h118v-295h-464v125q-50 -76 -120 -113t-163 -37q-196 0 -330.5 147.5t-134.5 362.5q0 228 127.5 369t331.5 141q97 0 169 -36.5t120 -110.5v125h464v-295h-118v-383zM416 479q0 -81 53.5 -133.5t136.5 -52.5q82 0 137.5 53t55.5 133q0 79 -56 133t-137 54 q-83 0 -136.5 -52.5t-53.5 -134.5zM1049 1432q-30 -133 -82.5 -193.5t-136.5 -60.5q-19 0 -37.5 3t-38.5 9l-92 27q-23 6 -40 9t-28 3q-33 0 -54.5 -18.5t-35.5 -59.5h-119q28 126 80.5 186t134.5 60q19 0 42.5 -4t48.5 -11l93 -26q16 -5 30 -7.5t28 -2.5q33 0 55 21.5 t33 64.5h119z" />
<glyph unicode="&#xe4;" horiz-adv-x="1305" d="M1137 295h118v-295h-464v125q-50 -76 -120 -113t-163 -37q-196 0 -330.5 147.5t-134.5 362.5q0 228 127.5 369t331.5 141q97 0 169 -36.5t120 -110.5v125h464v-295h-118v-383zM416 479q0 -81 53.5 -133.5t136.5 -52.5q82 0 137.5 53t55.5 133q0 79 -56 133t-137 54 q-83 0 -136.5 -52.5t-53.5 -134.5zM772 1157v270h252v-270h-252zM410 1157v270h250v-270h-250z" />
<glyph unicode="&#xe5;" horiz-adv-x="1305" d="M614 1253q0 -33 22 -55t56 -22q32 0 55 22.5t23 54.5q0 33 -23 56.5t-55 23.5t-55 -23.5t-23 -56.5zM471 1253q0 93 64.5 157.5t156.5 64.5t155.5 -64.5t63.5 -157.5q0 -92 -63.5 -155.5t-155.5 -63.5t-156.5 64t-64.5 155zM416 479q0 -81 53.5 -133.5t136.5 -52.5 q82 0 137.5 53t55.5 133q0 79 -56 133t-137 54q-83 0 -136.5 -52.5t-53.5 -134.5zM1137 295h118v-295h-464v125q-50 -76 -120 -113t-163 -37q-196 0 -330.5 147.5t-134.5 362.5q0 228 127.5 369t331.5 141q97 0 169 -36.5t120 -110.5v125h464v-295h-118v-383z" />
<glyph unicode="&#xe6;" horiz-adv-x="1763" d="M1040 578h330q-6 74 -48.5 113.5t-117.5 39.5q-74 0 -115.5 -39t-48.5 -114zM389 311q0 -46 44.5 -76t115.5 -30q70 0 114 29.5t44 76.5t-44 78t-112 31q-73 0 -117.5 -30.5t-44.5 -78.5zM1040 418q7 -76 50 -118t114 -42q49 0 86.5 20t67.5 62l323 -100 q-86 -134 -206 -199.5t-281 -65.5q-102 0 -184.5 28.5t-149.5 86.5q-80 -57 -178.5 -86t-214.5 -29q-194 0 -307 86t-113 232t111 243t280 97q77 0 144 -20t120 -58v25q0 96 -54.5 141t-172.5 45q-44 0 -103.5 -14.5t-148.5 -46.5v233q81 29 165.5 43t170.5 14 q108 0 185 -26t128 -80q71 54 155 80t183 26q223 0 364.5 -148.5t141.5 -385.5q0 -7 -1 -21.5t-1 -21.5h-674z" />
<glyph unicode="&#xe7;" horiz-adv-x="1165" d="M1096 420q-33 -212 -172 -328.5t-359 -116.5q-231 0 -376.5 143.5t-145.5 370.5q0 221 137 362.5t348 141.5q89 0 155 -29.5t97 -82.5v92h291v-412h-319q-22 52 -64 79.5t-100 27.5q-77 0 -124.5 -49.5t-47.5 -129.5q0 -81 44.5 -128.5t121.5 -47.5q65 0 106 26t64 81 h344zM317 -438v137q80 -22 149.5 -33.5t121.5 -11.5q43 0 64.5 17.5t21.5 54.5q0 32 -28.5 47.5t-90.5 15.5q-21 0 -33 -0.5t-22 -1.5v213h114v-84h19q111 0 170 -49.5t59 -142.5q0 -100 -66 -154.5t-188 -54.5q-58 0 -130 11.5t-161 35.5z" />
<glyph unicode="&#xe8;" horiz-adv-x="1133" d="M422 578h317q-6 74 -45.5 111.5t-111.5 37.5q-73 0 -113.5 -38t-46.5 -111zM1051 240q-84 -130 -203.5 -197.5t-265.5 -67.5q-244 0 -391.5 140t-147.5 372q0 223 150 365.5t387 142.5q222 0 363.5 -148.5t141.5 -385.5q0 -7 -1 -21.5t-1 -21.5h-661q6 -72 48.5 -116 t104.5 -44q49 0 87 20t67 62zM264 1477h287l192 -371h-154z" />
<glyph unicode="&#xe9;" horiz-adv-x="1133" d="M422 578h317q-6 74 -45.5 111.5t-111.5 37.5q-73 0 -113.5 -38t-46.5 -111zM1051 240q-84 -130 -203.5 -197.5t-265.5 -67.5q-244 0 -391.5 140t-147.5 372q0 223 150 365.5t387 142.5q222 0 363.5 -148.5t141.5 -385.5q0 -7 -1 -21.5t-1 -21.5h-661q6 -72 48.5 -116 t104.5 -44q49 0 87 20t67 62zM874 1477l-325 -371h-154l192 371h287z" />
<glyph unicode="&#xea;" horiz-adv-x="1133" d="M422 578h317q-6 74 -45.5 111.5t-111.5 37.5q-73 0 -113.5 -38t-46.5 -111zM1051 240q-84 -130 -203.5 -197.5t-265.5 -67.5q-244 0 -391.5 140t-147.5 372q0 223 150 365.5t387 142.5q222 0 363.5 -148.5t141.5 -385.5q0 -7 -1 -21.5t-1 -21.5h-661q6 -72 48.5 -116 t104.5 -44q49 0 87 20t67 62zM247 1106l193 371h256l192 -371h-153l-166 199l-168 -199h-154z" />
<glyph unicode="&#xeb;" horiz-adv-x="1133" d="M422 578h317q-6 74 -45.5 111.5t-111.5 37.5q-73 0 -113.5 -38t-46.5 -111zM1051 240q-84 -130 -203.5 -197.5t-265.5 -67.5q-244 0 -391.5 140t-147.5 372q0 223 150 365.5t387 142.5q222 0 363.5 -148.5t141.5 -385.5q0 -7 -1 -21.5t-1 -21.5h-661q6 -72 48.5 -116 t104.5 -44q49 0 87 20t67 62zM624 1157v270h252v-270h-252zM262 1157v270h250v-270h-250z" />
<glyph unicode="&#xec;" horiz-adv-x="694" d="M532 295h105v-295h-588v295h119v383h-119v295h483v-678zM27 1477h287l192 -371h-154z" />
<glyph unicode="&#xed;" horiz-adv-x="694" d="M532 295h105v-295h-588v295h119v383h-119v295h483v-678zM637 1477l-325 -371h-154l192 371h287z" />
<glyph unicode="&#xee;" horiz-adv-x="694" d="M532 295h105v-295h-588v295h119v383h-119v295h483v-678zM10 1106l193 371h256l192 -371h-153l-166 199l-168 -199h-154z" />
<glyph unicode="&#xef;" horiz-adv-x="694" d="M532 295h105v-295h-588v295h119v383h-119v295h483v-678zM387 1157v270h252v-270h-252zM25 1157v270h250v-270h-250z" />
<glyph unicode="&#xf0;" horiz-adv-x="1165" d="M626 984l-96 138l-292 -118l-64 145l266 108l-143 218h311l78 -115l256 102l64 -149l-228 -92l125 -189q138 -209 179.5 -321t41.5 -226q0 -215 -155.5 -362.5t-386.5 -147.5q-230 0 -384.5 147.5t-154.5 362.5q0 140 70 257t194 186q57 31 116 46t120 15q20 0 41.5 -1.5 t41.5 -3.5zM582 657q-73 0 -120.5 -48.5t-47.5 -123.5q0 -73 47.5 -121.5t120.5 -48.5q72 0 121 48.5t49 121.5q0 74 -49 123t-121 49z" />
<glyph unicode="&#xf1;" horiz-adv-x="1266" d="M532 848q77 75 150.5 111t148.5 36q82 0 142.5 -25.5t97.5 -76.5q22 -30 31.5 -73t9.5 -138v-25v-362h117v-295h-481v528q0 93 -22 128.5t-75 35.5q-65 0 -92 -44.5t-27 -162.5v-190h105v-295h-588v295h119v383h-119v295h483v-125zM965 1432q-30 -133 -82.5 -193.5 t-136.5 -60.5q-19 0 -37.5 3t-38.5 9l-92 27q-23 6 -40 9t-28 3q-33 0 -54.5 -18.5t-35.5 -59.5h-119q28 126 80.5 186t134.5 60q19 0 42.5 -4t48.5 -11l93 -26q16 -5 30 -7.5t28 -2.5q33 0 55 21.5t33 64.5h119z" />
<glyph unicode="&#xf2;" horiz-adv-x="1165" d="M414 485q0 -73 48 -121.5t120 -48.5t121 48.5t49 121.5q0 74 -49 123t-121 49t-120 -48.5t-48 -123.5zM43 485q0 217 154 363.5t385 146.5t386.5 -146.5t155.5 -363.5q0 -215 -155.5 -362.5t-386.5 -147.5q-230 0 -384.5 147.5t-154.5 362.5zM279 1477h287l192 -371h-154 z" />
<glyph unicode="&#xf3;" horiz-adv-x="1165" d="M414 485q0 -73 48 -121.5t120 -48.5t121 48.5t49 121.5q0 74 -49 123t-121 49t-120 -48.5t-48 -123.5zM43 485q0 217 154 363.5t385 146.5t386.5 -146.5t155.5 -363.5q0 -215 -155.5 -362.5t-386.5 -147.5q-230 0 -384.5 147.5t-154.5 362.5zM889 1477l-325 -371h-154 l192 371h287z" />
<glyph unicode="&#xf4;" horiz-adv-x="1165" d="M414 485q0 -73 48 -121.5t120 -48.5t121 48.5t49 121.5q0 74 -49 123t-121 49t-120 -48.5t-48 -123.5zM43 485q0 217 154 363.5t385 146.5t386.5 -146.5t155.5 -363.5q0 -215 -155.5 -362.5t-386.5 -147.5q-230 0 -384.5 147.5t-154.5 362.5zM262 1106l193 371h256 l192 -371h-153l-166 199l-168 -199h-154z" />
<glyph unicode="&#xf5;" horiz-adv-x="1165" d="M414 485q0 -73 48 -121.5t120 -48.5t121 48.5t49 121.5q0 74 -49 123t-121 49t-120 -48.5t-48 -123.5zM43 485q0 217 154 363.5t385 146.5t386.5 -146.5t155.5 -363.5q0 -215 -155.5 -362.5t-386.5 -147.5q-230 0 -384.5 147.5t-154.5 362.5zM916 1432 q-30 -133 -82.5 -193.5t-136.5 -60.5q-19 0 -37.5 3t-38.5 9l-92 27q-23 6 -40 9t-28 3q-33 0 -54.5 -18.5t-35.5 -59.5h-119q28 126 80.5 186t134.5 60q19 0 42.5 -4t48.5 -11l93 -26q16 -5 30 -7.5t28 -2.5q33 0 55 21.5t33 64.5h119z" />
<glyph unicode="&#xf6;" horiz-adv-x="1165" d="M414 485q0 -73 48 -121.5t120 -48.5t121 48.5t49 121.5q0 74 -49 123t-121 49t-120 -48.5t-48 -123.5zM43 485q0 217 154 363.5t385 146.5t386.5 -146.5t155.5 -363.5q0 -215 -155.5 -362.5t-386.5 -147.5q-230 0 -384.5 147.5t-154.5 362.5zM639 1157v270h252v-270h-252 zM277 1157v270h250v-270h-250z" />
<glyph unicode="&#xf7;" horiz-adv-x="1706" d="M854 371q68 0 116 -48.5t48 -117.5q0 -68 -47.5 -116t-116.5 -48t-117.5 48t-48.5 116t49 117t117 49zM254 727h1198v-231h-1198v231zM854 1182q67 0 115.5 -49t48.5 -117t-48.5 -116t-117.5 -48t-116.5 48t-47.5 116t49 117t117 49z" />
<glyph unicode="&#xf8;" horiz-adv-x="1165" d="M195 127q-77 76 -114.5 165.5t-37.5 192.5q0 217 154 363.5t385 146.5q65 0 126 -13t123 -40l146 182h209l-217 -276q77 -76 116 -167.5t39 -195.5q0 -215 -155.5 -362.5t-386.5 -147.5q-70 0 -132 14.5t-120 43.5l-144 -180h-211zM414 485q0 -73 48 -121.5t120 -48.5 t121 48.5t49 121.5q0 74 -49 123t-121 49t-120 -48.5t-48 -123.5z" />
<glyph unicode="&#xf9;" horiz-adv-x="1241" d="M723 125q-78 -77 -150.5 -113.5t-146.5 -36.5q-80 0 -141 27t-99 78q-22 30 -31.5 73t-9.5 136v24v365h-118v295h483v-529q0 -95 21 -130t73 -35q65 0 92 44.5t27 161.5v193h-102v295h469v-678h118v-295h-485v125zM285 1477h287l192 -371h-154z" />
<glyph unicode="&#xfa;" horiz-adv-x="1241" d="M723 125q-78 -77 -150.5 -113.5t-146.5 -36.5q-80 0 -141 27t-99 78q-22 30 -31.5 73t-9.5 136v24v365h-118v295h483v-529q0 -95 21 -130t73 -35q65 0 92 44.5t27 161.5v193h-102v295h469v-678h118v-295h-485v125zM895 1477l-325 -371h-154l192 371h287z" />
<glyph unicode="&#xfb;" horiz-adv-x="1241" d="M723 125q-78 -77 -150.5 -113.5t-146.5 -36.5q-80 0 -141 27t-99 78q-22 30 -31.5 73t-9.5 136v24v365h-118v295h483v-529q0 -95 21 -130t73 -35q65 0 92 44.5t27 161.5v193h-102v295h469v-678h118v-295h-485v125zM268 1106l193 371h256l192 -371h-153l-166 199 l-168 -199h-154z" />
<glyph unicode="&#xfc;" horiz-adv-x="1241" d="M723 125q-78 -77 -150.5 -113.5t-146.5 -36.5q-80 0 -141 27t-99 78q-22 30 -31.5 73t-9.5 136v24v365h-118v295h483v-529q0 -95 21 -130t73 -35q65 0 92 44.5t27 161.5v193h-102v295h469v-678h118v-295h-485v125zM645 1157v270h252v-270h-252zM283 1157v270h250v-270 h-250z" />
<glyph unicode="&#xfd;" horiz-adv-x="1237" d="M836 -428h-568v295h133l62 133l-328 678h-127v295h561v-295h-88l146 -336l141 336h-80v295h524v-295h-118l-377 -811h119v-295zM923 1477l-325 -371h-154l192 371h287z" />
<glyph unicode="&#xfe;" horiz-adv-x="1305" d="M698 293q83 0 137 52.5t54 133.5q0 82 -54 134.5t-137 52.5q-81 0 -136.5 -53.5t-55.5 -133.5t55.5 -133t136.5 -53zM168 1180h-119v295h483v-607q58 66 129.5 96.5t165.5 30.5q185 0 310 -144.5t125 -365.5q0 -212 -132.5 -361t-318.5 -149q-91 0 -157.5 28.5 t-121.5 90.5v-227h127v-293h-610v293h119v1313z" />
<glyph unicode="&#xff;" horiz-adv-x="1237" d="M836 -428h-568v295h133l62 133l-328 678h-127v295h561v-295h-88l146 -336l141 336h-80v295h524v-295h-118l-377 -811h119v-295zM673 1157v270h252v-270h-252zM311 1157v270h250v-270h-250z" />
<glyph unicode="&#x106;" horiz-adv-x="1624" d="M1196 541h410q-80 -266 -285 -418t-483 -152q-153 0 -284.5 47t-238.5 140q-129 114 -196.5 261.5t-67.5 317.5q0 171 67 318t197 262q107 92 238.5 139t284.5 47q122 0 225 -40.5t178 -119.5v132h344v-568h-373q-46 118 -137.5 180t-220.5 62q-175 0 -286 -115 t-111 -297q0 -177 109 -293t274 -116q120 0 208 52.5t148 160.5zM1167 1956l-325 -371h-154l192 371h287z" />
<glyph unicode="&#x107;" horiz-adv-x="1165" d="M1096 420q-33 -212 -172 -328.5t-359 -116.5q-231 0 -376.5 143.5t-145.5 370.5q0 221 137 362.5t348 141.5q89 0 155 -29.5t97 -82.5v92h291v-412h-319q-22 52 -64 79.5t-100 27.5q-77 0 -124.5 -49.5t-47.5 -129.5q0 -81 44.5 -128.5t121.5 -47.5q65 0 106 26t64 81 h344zM911 1477l-325 -371h-154l192 371h287z" />
<glyph unicode="&#x10c;" horiz-adv-x="1624" d="M1196 541h410q-80 -266 -285 -418t-483 -152q-153 0 -284.5 47t-238.5 140q-129 114 -196.5 261.5t-67.5 317.5q0 171 67 318t197 262q107 92 238.5 139t284.5 47q122 0 225 -40.5t178 -119.5v132h344v-568h-373q-46 118 -137.5 180t-220.5 62q-175 0 -286 -115 t-111 -297q0 -177 109 -293t274 -116q120 0 208 52.5t148 160.5zM540 1956h154l168 -199l166 199h153l-192 -371h-256z" />
<glyph unicode="&#x10d;" horiz-adv-x="1165" d="M1096 420q-33 -212 -172 -328.5t-359 -116.5q-231 0 -376.5 143.5t-145.5 370.5q0 221 137 362.5t348 141.5q89 0 155 -29.5t97 -82.5v92h291v-412h-319q-22 52 -64 79.5t-100 27.5q-77 0 -124.5 -49.5t-47.5 -129.5q0 -81 44.5 -128.5t121.5 -47.5q65 0 106 26t64 81 h344zM284 1477h154l168 -199l166 199h153l-192 -371h-256z" />
<glyph unicode="&#x111;" horiz-adv-x="1321" d="M606 639q-83 0 -136.5 -50t-53.5 -126q0 -77 53.5 -126.5t136.5 -49.5t138 50t55 126t-55 126t-138 50zM1137 295h118v-295h-467v121q-55 -76 -122.5 -111t-157.5 -35q-191 0 -328 145.5t-137 346.5q0 212 129.5 354t319.5 142q84 0 154.5 -32.5t125.5 -96.5v204h-291 v166h291v70h-121v199h486v-269h184v-166h-184v-743z" />
<glyph unicode="&#x11e;" horiz-adv-x="1731" d="M1155 539h-186v274h747v-274h-133v-539h-321v193q-91 -112 -206 -167t-259 -55q-137 0 -263.5 48t-224.5 137q-124 112 -191 263t-67 318q0 177 67 324.5t197 261.5q99 86 226.5 133t263.5 47q116 0 208.5 -34t157.5 -101l-4 107h344v-514h-372q-39 95 -114 142.5 t-185 47.5q-168 0 -275.5 -116.5t-107.5 -297.5q0 -185 105 -298t278 -113q106 0 187.5 55t127.5 158zM551 1923h131q6 -72 50.5 -105.5t133.5 -33.5t134 34t49 105h130q-12 -159 -87.5 -233t-225.5 -74t-227.5 75.5t-87.5 231.5z" />
<glyph unicode="&#x11f;" horiz-adv-x="1296" d="M1137 158q0 -182 -31 -282t-105 -169q-66 -63 -179.5 -98t-254.5 -35q-138 0 -251 20.5t-187 59.5v297q97 -52 192.5 -77.5t190.5 -25.5q132 0 198 53t66 158q0 11 -0.5 21.5t-3.5 33.5q-57 -51 -125 -75.5t-153 -24.5q-208 0 -329.5 127.5t-121.5 343.5q0 226 126 368 t323 142q85 0 153 -30.5t127 -96.5v105h483v-295h-118v-520zM416 479q0 -81 53.5 -133.5t136.5 -52.5q82 0 137.5 53t55.5 133q0 79 -56 133t-137 54q-83 0 -136.5 -52.5t-53.5 -134.5zM334 1444h131q6 -72 50.5 -105.5t133.5 -33.5t134 34t49 105h130q-12 -159 -87.5 -233 t-225.5 -74t-227.5 75.5t-87.5 231.5z" />
<glyph unicode="&#x130;" horiz-adv-x="786" d="M49 0v295h150v885h-150v295h688v-295h-155v-885h155v-295h-688zM264 1630v281h260v-281h-260z" />
<glyph unicode="&#x131;" horiz-adv-x="694" d="M532 295h105v-295h-588v295h119v383h-119v295h483v-678z" />
<glyph unicode="&#x141;" horiz-adv-x="1327" d="M49 0v295h150v207l-199 -117v307l199 113v375h-150v295h682v-295h-147v-213l254 143v-303l-254 -150v-362h377l88 287h249v-582h-1249z" />
<glyph unicode="&#x142;" horiz-adv-x="702" d="M172 528l-174 -120v282l174 121v369h-119v295h484v-504l172 121v-283l-172 -121v-393h104v-295h-588v295h119v233z" />
<glyph unicode="&#x152;" horiz-adv-x="2228" d="M985 449v575q0 99 -28.5 127.5t-110.5 28.5q-175 0 -285 -123.5t-110 -321.5q0 -193 110.5 -317.5t284.5 -124.5q82 0 110.5 28t28.5 128zM944 0q-193 0 -328.5 29t-244.5 92q-149 86 -233.5 250t-84.5 366q0 205 86 370.5t242 260.5q93 57 221 82t342 25h1190v-531h-256 l-88 236h-424v-240h291v-328h-291v-317h424l88 287h256v-582h-1190z" />
<glyph unicode="&#x153;" horiz-adv-x="1810" d="M416 485q0 -73 48 -121.5t120 -48.5t121 48.5t49 121.5q0 74 -49 123t-121 49t-120 -48.5t-48 -123.5zM1087 578h330q-6 75 -48 114t-116 39t-116.5 -39.5t-49.5 -113.5zM1087 418q7 -76 50.5 -118t115.5 -42q49 0 87 20t67 62l322 -100q-86 -134 -207 -199.5t-281 -65.5 q-90 0 -170.5 26t-150.5 79q-78 -53 -161 -79t-175 -26q-230 0 -385.5 147.5t-155.5 362.5q0 217 154.5 363.5t386.5 146.5q96 0 181 -26.5t157 -79.5q71 54 153.5 80t181.5 26q223 0 364.5 -148.5t141.5 -385.5q0 -7 -1 -21.5t-1 -21.5h-674z" />
<glyph unicode="&#x15e;" horiz-adv-x="1399" d="M403 154l9 -154h-322v500h342q86 -119 161 -169t165 -50q74 0 119 35.5t45 93.5q0 55 -44.5 90t-132.5 49l-157 26q-256 42 -382 157t-126 306q0 200 143 333.5t357 133.5q113 0 199.5 -40t148.5 -122l-4 132h321v-465h-321q-63 108 -129.5 159.5t-143.5 51.5 q-68 0 -112.5 -36.5t-44.5 -90.5q0 -55 47 -88.5t157 -55.5l136 -24q255 -49 378 -163t123 -302q0 -222 -138 -356t-370 -134q-131 0 -236 45.5t-188 137.5zM460 -438v137q80 -22 149.5 -33.5t121.5 -11.5q43 0 64.5 17.5t21.5 54.5q0 32 -28.5 47.5t-90.5 15.5 q-21 0 -33 -0.5t-22 -1.5v213h114v-84h19q111 0 170 -49.5t59 -142.5q0 -100 -66 -154.5t-188 -54.5q-58 0 -130 11.5t-161 35.5z" />
<glyph unicode="&#x15f;" horiz-adv-x="1075" d="M360 0h-251v295h239q42 -66 91 -97.5t108 -31.5q40 0 62 19.5t22 56.5q0 25 -19 41.5t-67 31.5l-156 50q-170 53 -235.5 122.5t-65.5 186.5q0 142 100.5 232.5t257.5 90.5q64 0 129 -18t123 -53v47h252v-295h-233q-18 64 -59 96.5t-103 32.5q-44 0 -69 -18t-25 -50 q0 -30 24.5 -50.5t89.5 -41.5l109 -35q195 -63 255 -129.5t60 -189.5q0 -147 -96 -232.5t-264 -85.5q-61 0 -125 16t-154 54v-45zM299 -438v137q80 -22 149.5 -33.5t121.5 -11.5q43 0 64.5 17.5t21.5 54.5q0 32 -28.5 47.5t-90.5 15.5q-21 0 -33 -0.5t-22 -1.5v213h114v-84 h19q111 0 170 -49.5t59 -142.5q0 -100 -66 -154.5t-188 -54.5q-58 0 -130 11.5t-161 35.5z" />
<glyph unicode="&#x160;" horiz-adv-x="1399" d="M403 154l9 -154h-322v500h342q86 -119 161 -169t165 -50q74 0 119 35.5t45 93.5q0 55 -44.5 90t-132.5 49l-157 26q-256 42 -382 157t-126 306q0 200 143 333.5t357 133.5q113 0 199.5 -40t148.5 -122l-4 132h321v-465h-321q-63 108 -129.5 159.5t-143.5 51.5 q-68 0 -112.5 -36.5t-44.5 -90.5q0 -55 47 -88.5t157 -55.5l136 -24q255 -49 378 -163t123 -302q0 -222 -138 -356t-370 -134q-131 0 -236 45.5t-188 137.5zM378 1956h154l168 -199l166 199h153l-192 -371h-256z" />
<glyph unicode="&#x161;" horiz-adv-x="1075" d="M360 0h-251v295h239q42 -66 91 -97.5t108 -31.5q40 0 62 19.5t22 56.5q0 25 -19 41.5t-67 31.5l-156 50q-170 53 -235.5 122.5t-65.5 186.5q0 142 100.5 232.5t257.5 90.5q64 0 129 -18t123 -53v47h252v-295h-233q-18 64 -59 96.5t-103 32.5q-44 0 -69 -18t-25 -50 q0 -30 24.5 -50.5t89.5 -41.5l109 -35q195 -63 255 -129.5t60 -189.5q0 -147 -96 -232.5t-264 -85.5q-61 0 -125 16t-154 54v-45zM217 1477h154l168 -199l166 199h153l-192 -371h-256z" />
<glyph unicode="&#x178;" horiz-adv-x="1503" d="M408 0v295h149v250l-426 635h-115v295h648v-295h-119l213 -349l211 349h-117v295h633v-295h-113l-432 -635v-250h156v-295h-688zM807 1636v270h252v-270h-252zM445 1636v270h250v-270h-250z" />
<glyph unicode="&#x17d;" horiz-adv-x="1391" d="M70 0v295l768 895h-381l-78 -225h-285v510h1215v-273l-797 -917h465l72 293h270v-578h-1249zM374 1956h154l168 -199l166 199h153l-192 -371h-256z" />
<glyph unicode="&#x17e;" horiz-adv-x="1085" d="M997 0h-909v313l512 404h-248l-43 -117h-221v373h909v-307l-522 -412h262l31 127h229v-381zM221 1477h154l168 -199l166 199h153l-192 -371h-256z" />
<glyph unicode="&#x192;" horiz-adv-x="1139" d="M18 -63q43 -13 77 -20t55 -7q68 0 106.5 44.5t50.5 137.5l70 537h-234v215h258l25 184q31 221 141 329.5t305 108.5q56 0 113 -9t117 -27l-45 -287q-47 15 -85.5 23t-66.5 8q-79 0 -114.5 -51.5t-53.5 -207.5l-8 -71h262v-215h-289l-49 -420q-38 -325 -143 -463.5 t-309 -138.5q-51 0 -105 8t-116 25z" />
<glyph unicode="&#x2c6;" d="M190 1106l193 371h256l192 -371h-153l-166 199l-168 -199h-154z" />
<glyph unicode="&#x2c7;" d="M190 1477h154l168 -199l166 199h153l-192 -371h-256z" />
<glyph unicode="&#x2d8;" d="M197 1444h131q6 -72 50.5 -105.5t133.5 -33.5t134 34t49 105h130q-12 -159 -87.5 -233t-225.5 -74t-227.5 75.5t-87.5 231.5z" />
<glyph unicode="&#x2d9;" d="M383 1151v281h260v-281h-260z" />
<glyph unicode="&#x2da;" d="M397 1358q0 -48 33 -80.5t82 -32.5q48 0 81.5 33t33.5 80t-33.5 81t-81.5 34t-81.5 -34t-33.5 -81zM242 1360q0 114 78 192t192 78t193 -78.5t79 -191.5q0 -114 -79 -193.5t-193 -79.5t-192 79t-78 194z" />
<glyph unicode="&#x2db;" d="M633 0q-63 -58 -91 -104.5t-28 -92.5q0 -41 18.5 -60t57.5 -19h102v-191h-74q-156 0 -221 45.5t-65 151.5q0 76 46.5 141t145.5 129h109z" />
<glyph unicode="&#x2dc;" d="M844 1432q-30 -133 -82.5 -193.5t-136.5 -60.5q-19 0 -37.5 3t-38.5 9l-92 27q-23 6 -40 9t-28 3q-33 0 -54.5 -18.5t-35.5 -59.5h-119q28 126 80.5 186t134.5 60q19 0 42.5 -4t48.5 -11l93 -26q16 -5 30 -7.5t28 -2.5q33 0 55 21.5t33 64.5h119z" />
<glyph unicode="&#x2dd;" d="M569 1106l156 371h254l-291 -371h-119zM397 1477h246l-252 -371h-110z" />
<glyph unicode="&#x3a9;" horiz-adv-x="1645" d="M1266 307h333v-307h-636v352q92 82 142 196.5t50 246.5q0 182 -90 288.5t-244 106.5q-153 0 -243.5 -107.5t-90.5 -289.5q0 -132 50 -246.5t143 -194.5v-352h-635v307h332q-132 95 -200 229.5t-68 299.5q0 303 195.5 489t516.5 186q323 0 518 -185t195 -490 q0 -165 -68 -299.5t-200 -229.5z" />
<glyph unicode="&#x3c0;" horiz-adv-x="1530" d="M1538 1090l-39 -232h-178l-135 -858h-357l134 858h-232l-135 -858h-354l133 858h-27q-42 0 -70.5 -35.5t-36.5 -97.5h-235q33 209 124.5 287t311.5 78h1096z" />
<glyph unicode="&#x2013;" d="M0 389v242h1024v-242h-1024z" />
<glyph unicode="&#x2014;" horiz-adv-x="2048" d="M0 631h2048v-242h-2048v242z" />
<glyph unicode="&#x2018;" horiz-adv-x="553" d="M358 1024h-313l131 451h322z" />
<glyph unicode="&#x2019;" horiz-adv-x="553" d="M360 1024h-315l133 451h322z" />
<glyph unicode="&#x201a;" horiz-adv-x="553" d="M360 -162h-315l133 451h322z" />
<glyph unicode="&#x201c;" horiz-adv-x="1096" d="M903 1024h-315l133 451h321zM360 1024h-315l133 451h322z" />
<glyph unicode="&#x201d;" horiz-adv-x="1096" d="M903 1024h-315l133 451h321zM360 1024h-315l133 451h322z" />
<glyph unicode="&#x201e;" horiz-adv-x="1096" d="M360 -162h-315l133 451h322zM903 -162h-315l133 451h321z" />
<glyph unicode="&#x2020;" horiz-adv-x="1139" d="M440 -240v1000h-166v-107h-217v437h217v-107h166v279h-106v213h469v-213h-107v-279h168v107h217v-437h-217v107h-168v-1000h-256z" />
<glyph unicode="&#x2021;" horiz-adv-x="1139" d="M696 412h168v106h217v-436h-217v106h-168v-215h107v-213h-469v213h106v215h-166v-106h-217v436h217v-106h166v411h-166v-106h-217v436h217v-106h166v215h-106v213h469v-213h-107v-215h168v106h217v-436h-217v106h-168v-411z" />
<glyph unicode="&#x2022;" horiz-adv-x="1208" d="M307 762q0 123 87 209t210 86q122 0 208.5 -86.5t86.5 -208.5t-87.5 -209.5t-209.5 -87.5q-123 0 -209 87t-86 210z" />
<glyph unicode="&#x2026;" horiz-adv-x="2048" d="M342 -25q-88 0 -147.5 59t-59.5 146t59.5 146t147.5 59t147.5 -58.5t59.5 -146.5t-59.5 -146.5t-147.5 -58.5zM1024 -25q-88 0 -147.5 59t-59.5 146t59.5 146t147.5 59t147.5 -58.5t59.5 -146.5t-59.5 -146.5t-147.5 -58.5zM1708 -25q-88 0 -147.5 59t-59.5 146t59.5 146 t147.5 59t147.5 -58.5t59.5 -146.5t-59.5 -146.5t-147.5 -58.5z" />
<glyph unicode="&#x2030;" horiz-adv-x="2750" d="M2329 256q51 0 86.5 35.5t35.5 87.5t-35.5 87.5t-86.5 35.5t-86 -35.5t-35 -87.5q0 -51 35 -87t86 -36zM2707 379q0 -161 -109 -270t-269 -109t-270.5 110t-110.5 269t111 270t270 111t268.5 -110.5t109.5 -270.5zM1427 256q51 0 86 35.5t35 87.5t-35 87.5t-86 35.5 t-86.5 -35.5t-35.5 -87.5q0 -51 36 -87t86 -36zM1806 379q0 -161 -110 -270t-271 -109q-158 0 -268 110t-110 269t110 270t268 111q160 0 270.5 -110.5t110.5 -270.5zM1290 1464h180l-911 -1493h-180zM422 934q51 0 87 35.5t36 87.5q0 51 -36 87t-87 36t-86 -35.5t-35 -87.5 q0 -51 35 -87t86 -36zM803 1057q0 -161 -110 -270t-271 -109q-159 0 -270 110t-111 269t111 269t270 110q160 0 270.5 -110t110.5 -269z" />
<glyph unicode="&#x2039;" horiz-adv-x="743" d="M662 154h-285l-277 331l277 332h285l-279 -332z" />
<glyph unicode="&#x203a;" horiz-adv-x="743" d="M84 154l276 331l-276 332h283l278 -332l-278 -331h-283z" />
<glyph unicode="&#x20a3;" horiz-adv-x="2363" d="M49 0v295h150v885h-150v295h1299v-531h-256l-88 236h-420v-240h272v-328h-272v-317h194v-295h-729zM1914 807l15 4q23 86 74.5 132t123.5 46q87 0 141 -56.5t54 -148.5q0 -86 -55.5 -142t-141.5 -56q-66 0 -113.5 38.5t-78.5 116.5l-19 -6v-440h121v-295h-604v295h119 v383h-119v295h483v-166z" />
<glyph unicode="&#x2122;" horiz-adv-x="1706" d="M797 1464h223l113 -303l114 303h221v-551h-155v390l-146 -390h-65l-150 390v-390h-155v551zM188 1464h502v-127h-164v-424h-174v424h-164v127z" />
<glyph unicode="&#x2202;" horiz-adv-x="1114" d="M766 684q21 113 32 206t11 150q0 87 -29.5 148t-68.5 61q-35 0 -132 -93t-180 -93q-48 0 -80 33.5t-32 83.5q0 69 93 125.5t220 56.5q210 0 332.5 -161t122.5 -441q0 -344 -162.5 -564.5t-417.5 -220.5q-182 0 -299 116.5t-117 299.5q0 203 119.5 336t298.5 133 q101 0 170.5 -42.5t118.5 -133.5zM698 532q0 114 -36.5 176t-104.5 62q-96 0 -160.5 -136.5t-64.5 -346.5q0 -116 36.5 -176t106.5 -60q97 0 160 135.5t63 345.5z" />
<glyph unicode="&#x2206;" horiz-adv-x="1468" d="M733 1059l-262 -774h526zM537 1473h395l541 -1473h-1475z" />
<glyph unicode="&#x220f;" horiz-adv-x="1645" d="M145 1473h1348v-1866h-399v1532h-549v-1532h-400v1866z" />
<glyph unicode="&#x2211;" horiz-adv-x="1520" d="M72 1473h1335v-302h-838l596 -608l-587 -651h895v-305h-1424v184l684 756l-661 665v261z" />
<glyph unicode="&#x2212;" horiz-adv-x="1706" d="M254 729h1198v-235h-1198v235z" />
<glyph unicode="&#x2215;" horiz-adv-x="342" d="M-342 -29l850 1493h174l-850 -1493h-174z" />
<glyph unicode="&#x2219;" horiz-adv-x="569" d="M285 528q-89 0 -148 58t-59 145q0 88 59.5 147.5t147.5 59.5t147.5 -59.5t59.5 -147.5q0 -87 -59 -145t-148 -58z" />
<glyph unicode="&#x221a;" horiz-adv-x="1366" d="M1155 1714h215v-149h-96l-590 -1606h-119l-307 846l-145 -55l-37 129l360 127l223 -635z" />
<glyph unicode="&#x221e;" horiz-adv-x="1706" d="M956 561q43 -67 102 -101t132 -34q90 0 146.5 50.5t56.5 129.5q0 77 -51.5 127.5t-127.5 50.5q-72 0 -131.5 -50.5t-126.5 -172.5zM752 657q-43 67 -101 100.5t-133 33.5q-90 0 -146.5 -50t-56.5 -129q0 -77 51 -127.5t128 -50.5q71 0 132 52.5t126 170.5zM856 442 q-68 -130 -147.5 -193t-176.5 -63q-139 0 -238 121.5t-99 300.5q0 188 87.5 305t227.5 117q90 0 166.5 -56.5t175.5 -199.5q71 132 150 195t174 63q140 0 238.5 -121t98.5 -301q0 -189 -87.5 -306.5t-227.5 -117.5q-91 0 -166 55t-176 201z" />
<glyph unicode="&#x222b;" horiz-adv-x="1249" d="M362 -248q99 0 119 667q3 101 4 154q17 523 130.5 753t349.5 230q105 0 170 -53t65 -137q0 -64 -41 -103.5t-106 -39.5q-64 0 -96.5 38.5t-32.5 112.5q0 38 -7.5 49t-25.5 11q-101 0 -124 -667q-2 -60 -3 -91q-11 -329 -30.5 -472.5t-57.5 -244.5q-62 -166 -159.5 -249 t-229.5 -83q-107 0 -171.5 52t-64.5 139q0 65 42 104t112 39q60 0 92.5 -36t32.5 -103q0 -12 -2 -24v-3q0 -24 8 -33.5t26 -9.5z" />
<glyph unicode="&#x2248;" horiz-adv-x="1706" d="M1530 602v-254q-105 -71 -196 -104t-181 -33t-283 65.5t-309 65.5q-82 0 -172.5 -37t-210.5 -121v254q111 74 209 109t195 35q115 0 304.5 -65.5t272.5 -65.5t170 35t201 116zM1530 1036v-254q-107 -70 -197 -102.5t-178 -32.5q-91 0 -284 64.5t-310 64.5q-84 0 -172 -36 t-211 -122v256q112 74 209 108t195 34q115 0 304.5 -65.5t272.5 -65.5t170.5 35.5t200.5 115.5z" />
<glyph unicode="&#x2260;" horiz-adv-x="1706" d="M1194 1251l168 -137l-135 -168h225v-221h-377l-180 -227h557v-222h-704l-246 -307l-170 137l135 170h-213v222h360l183 227h-543v221h694z" />
<glyph unicode="&#x2264;" horiz-adv-x="1706" d="M256 213h1196v-229h-1196v229zM1450 1257v-239l-776 -240l776 -239v-240l-1194 379v201z" />
<glyph unicode="&#x2265;" horiz-adv-x="1706" d="M256 213h1196v-229h-1196v229zM258 1257l1192 -378v-201l-1192 -379v240l776 239l-776 240v239z" />
<glyph unicode="&#x25ca;" horiz-adv-x="1012" d="M506 1409l-385 -817l385 -825l385 825zM506 1653l500 -1061l-500 -1069l-500 1069z" />
<glyph unicode="&#xe000;" horiz-adv-x="975" d="M0 975h975v-975h-975v975z" />
<glyph unicode="&#xf000;" horiz-adv-x="1618" d="M836 1216q-1 6 -1.5 14t-0.5 23q0 124 95 229.5t236 131.5q1 -10 1.5 -23t0.5 -39q0 -131 -103.5 -234.5t-203.5 -103.5h-8q-3 0 -7.5 1t-8.5 1zM1505 403q-114 -247 -205 -342.5t-204 -95.5q-50 0 -131.5 33t-122.5 33q-45 0 -131 -33t-127 -33q-64 0 -128.5 44 t-129.5 132q-102 140 -157.5 295.5t-55.5 300.5q0 219 125 356.5t323 137.5q68 0 155 -34t124 -34q34 0 121.5 35t152.5 35q110 0 198 -40t161 -124q-102 -65 -151.5 -145.5t-49.5 -182.5q0 -113 60 -200t173 -138z" />
<glyph unicode="&#xf001;" horiz-adv-x="1395" d="M59 295h121v383h-121v295h121v135q0 142 14 203.5t48 95.5q36 36 99.5 52t184.5 16q39 0 80.5 -2t83.5 -5v-286q-6 0 -18.5 1t-18.5 1q-63 0 -84.5 -27t-21.5 -121v-63h121v-295h-121v-383h121v-295h-609v295zM799 1106v315h442v-315h-442zM1241 295h105v-295h-588v295 h119v383h-119v295h483v-678z" />
<glyph unicode="&#xf002;" horiz-adv-x="1395" d="M59 295h121v383h-121v295h121v135q0 142 14 203.5t48 95.5q36 36 99.5 52t184.5 16q39 0 80.5 -2t83.5 -5v-286q-6 0 -18.5 1t-18.5 1q-63 0 -84.5 -27t-21.5 -121v-63h121v-295h-121v-383h121v-295h-609v295zM877 1180h-119v295h483v-1180h105v-295h-588v295h119v885z " />
</font>
</defs>
</svg>
