<?xml version="1.0" standalone="no"?>
<!DOCTYPE svg PUBLIC "-//W3C//DTD SVG 1.1//EN" "http://www.w3.org/Graphics/SVG/1.1/DTD/svg11.dtd" >
<svg>
<metadata>
Created by FontForge 20110222 at Mon Sep  2 04:25:48 2013
 By Orthosie Webhosting
Copyright 1990-1993 Bitstream Inc.  All rights reserved.
</metadata>
<defs>
<font id="News705BTRoman" horiz-adv-x="1024" >
  <font-face 
    font-family="News705BTRoman"
    font-weight="400"
    font-stretch="normal"
    units-per-em="2048"
    panose-1="2 4 6 4 5 5 5 2 3 4"
    ascent="1638"
    descent="-410"
    x-height="1063"
    cap-height="1489"
    bbox="-342 -483 2574 1991"
    underline-thickness="111"
    underline-position="-127"
    unicode-range="U+0020-F002"
  />
<missing-glyph horiz-adv-x="1229" 
d="M102 -362v1806h1024v-1806h-1024zM217 -248h795v1577h-795v-1577z" />
    <glyph glyph-name=".notdef" horiz-adv-x="1229" 
d="M102 -362v1806h1024v-1806h-1024zM217 -248h795v1577h-795v-1577z" />
    <glyph glyph-name=".null" horiz-adv-x="0" 
 />
    <glyph glyph-name="nonmarkingreturn" horiz-adv-x="569" 
 />
    <glyph glyph-name="space" unicode=" " horiz-adv-x="569" 
 />
    <glyph glyph-name="exclam" unicode="!" horiz-adv-x="688" 
d="M381 504h-63q-2 284 -45.5 573.5t-43.5 298.5q0 67 33.5 106.5t87.5 39.5q52 0 85.5 -38.5t33.5 -99.5q0 -19 -43.5 -310.5t-44.5 -569.5zM217 96q0 52 37.5 88.5t89.5 36.5t87.5 -36t35.5 -89q0 -52 -35.5 -88.5t-87.5 -36.5t-89.5 36.5t-37.5 88.5z" />
    <glyph glyph-name="quotedbl" unicode="&#x22;" horiz-adv-x="686" 
d="M526 860h-34l-70 459q-1 7 -1.5 14.5t-0.5 22.5q0 51 22.5 78.5t65.5 27.5q42 0 66 -27t24 -75q0 -16 -0.5 -24.5t-1.5 -16.5zM195 860h-35l-70 459q-2 17 -3 26t-1 15q0 48 24 75t66 27q44 0 67 -27.5t23 -78.5q0 -16 -0.5 -23.5t-1.5 -14.5z" />
    <glyph glyph-name="numbersign" unicode="#" horiz-adv-x="1575" 
d="M702 864l-98 -276h283l96 276h-281zM760 1458h155l-161 -454h276l162 454h156l-162 -454h301l-49 -140h-301l-97 -276h320l-49 -139h-320l-162 -453h-155l162 453h-279l-162 -453h-153l159 453h-313l51 139h312l98 276h-336l51 140h334z" />
    <glyph glyph-name="dollar" unicode="$" horiz-adv-x="1139" 
d="M596 633v-518q138 16 215.5 82.5t77.5 167.5t-75.5 170t-217.5 98zM506 930v454q-113 -15 -175.5 -72.5t-62.5 -146.5q0 -88 60.5 -148t177.5 -87zM505 0q-214 9 -336 91t-122 216q0 72 38.5 114t104.5 42q57 0 94.5 -32.5t37.5 -80.5q0 -46 -37 -91t-37 -60
q0 -39 71 -64.5t187 -25.5v559q-212 66 -316 175t-104 265q0 170 108.5 269t311.5 116v238h90v-238q196 -10 308 -87t112 -198q0 -65 -36 -103t-97 -38q-53 0 -86 30t-33 77q0 33 22.5 77.5t22.5 57.5q0 32 -59 53.5t-154 21.5v-489q243 -71 362 -189.5t119 -287.5
q0 -180 -121.5 -286t-359.5 -132v-266h-90z" />
    <glyph glyph-name="percent" unicode="%" horiz-adv-x="1827" 
d="M1554 758q-52 0 -94 -29.5t-86 -97.5q-68 -103 -112.5 -226t-44.5 -194q0 -72 37 -112t104 -40q50 0 97.5 24t90.5 71q76 81 121 197.5t45 230.5q0 80 -43 128t-115 48zM1051 295q0 92 29.5 179t86.5 161q71 92 163.5 142t189.5 50q117 0 183 -69t66 -193
q0 -92 -32.5 -190t-91.5 -187q-64 -94 -146.5 -143t-175.5 -49q-125 0 -198.5 80.5t-73.5 218.5zM708 1307q-43 17 -77 39.5t-61 51.5q-7 2 -12.5 2.5t-16.5 0.5q-47 0 -88 -33t-86 -106q-63 -100 -102.5 -212.5t-39.5 -179.5q0 -73 37 -113t105 -40q137 0 241.5 150.5
t104.5 365.5q0 12 -1 28t-4 46zM430 -27l766 1377q-88 -52 -151.5 -74.5t-120.5 -22.5q-32 0 -69 8t-85 25q0 -7 1 -22.5t1 -22.5q0 -253 -129.5 -422.5t-314.5 -169.5q-124 0 -196.5 78.5t-72.5 212.5q0 94 34.5 187.5t99.5 175.5q66 81 153.5 126.5t177.5 45.5
q68 0 120.5 -27t96.5 -84q49 -25 92.5 -37t86.5 -12q89 0 188 50.5t205 150.5h82l-869 -1543h-96z" />
    <glyph glyph-name="ampersand" unicode="&#x26;" horiz-adv-x="1690" 
d="M653 989q82 53 122 119t40 145q0 83 -37.5 135t-95.5 52q-61 0 -94 -46.5t-33 -133.5q0 -60 23.5 -125t74.5 -146zM508 791q-92 -36 -139 -102.5t-47 -162.5q0 -55 17.5 -113t51.5 -112q63 -97 136.5 -148t152.5 -51q60 0 117.5 22t115.5 66q-118 142 -219.5 292.5
t-185.5 308.5zM475 862q-49 101 -72.5 184.5t-23.5 155.5q0 146 86.5 233t232.5 87q136 0 214.5 -70t78.5 -190q0 -102 -74.5 -188t-222.5 -154q96 -167 190.5 -309t186.5 -257q75 105 115.5 188t40.5 134q0 54 -37 77t-127 23h-14v80h512v-80h-21q-71 0 -114 -22.5
t-83 -84.5q-3 -5 -16 -34q-81 -185 -201 -352q74 -88 121 -122t90 -34q52 0 92.5 42.5t71.5 129.5l74 -25q-30 -145 -111 -224t-198 -79q-70 0 -138.5 35.5t-152.5 114.5q-100 -75 -205 -113.5t-211 -38.5q-198 0 -323 123.5t-125 317.5q0 153 93.5 269.5t270.5 182.5z" />
    <glyph glyph-name="quotesingle" unicode="'" horiz-adv-x="352" 
d="M195 860h-35l-70 459q0 2 -1 8q-3 20 -3 29q0 50 23.5 78t66.5 28q42 0 66 -27t24 -75q0 -7 -0.5 -15t-3.5 -27z" />
    <glyph glyph-name="parenleft" unicode="(" horiz-adv-x="688" 
d="M627 1468q-176 -163 -261 -373.5t-85 -480.5q0 -281 81 -481t265 -373v-57q-278 166 -407.5 386t-129.5 523q0 297 132 519.5t405 386.5v-50z" />
    <glyph glyph-name="parenright" unicode=")" horiz-adv-x="688" 
d="M59 -248q176 163 260 372t84 480q0 285 -80.5 484.5t-263.5 371.5v58q278 -167 407.5 -387t129.5 -523q0 -297 -132 -519.5t-405 -385.5v49z" />
    <glyph glyph-name="asterisk" unicode="*" 
d="M526 1079v-14q0 -76 38 -166.5t38 -114.5q0 -43 -24 -68.5t-66 -25.5q-43 0 -67.5 23.5t-24.5 64.5q0 28 37 115.5t37 163.5v24q-85 -49 -134 -120q-1 -2 -2 -3v0q-78 -106 -133 -106q-36 0 -63 27.5t-27 64.5q0 47 36 71.5t116 31.5q69 5 114 19.5t76 41.5
q-68 48 -198 61q-19 1 -29 2q-53 5 -84 32t-31 69q0 36 26 63t62 27q56 0 117 -86q10 -14 16 -23q28 -38 63 -68t79 -52v10q0 75 -39 168t-39 123q0 38 25.5 63t66.5 25q44 0 67 -23t23 -65q0 -27 -37 -117t-37 -166l1 -20l9 6q86 55 128 116l4 7q71 102 131 102
q32 0 59 -29.5t27 -64.5q0 -36 -31 -64.5t-74 -32.5h-3q-171 -14 -234 -67q74 -50 202 -59q19 -2 28 -3q50 -4 81 -32.5t31 -71.5q0 -34 -28 -61t-62 -27q-54 0 -124 98q-5 7 -7 10q-32 44 -65.5 72.5t-74.5 48.5z" />
    <glyph glyph-name="plus" unicode="+" horiz-adv-x="1706" 
d="M782 1221h142v-541h528v-139h-528v-541h-142v541h-528v139h528v541z" />
    <glyph glyph-name="comma" unicode="," horiz-adv-x="569" 
d="M186 -371l-39 37q96 92 144.5 164t48.5 121q0 17 -6.5 27.5t-18.5 11.5q-9 0 -22.5 -2t-18.5 -2q-61 0 -97 32.5t-36 87.5q0 59 36.5 96.5t94.5 37.5q75 0 119.5 -57t44.5 -152q0 -105 -62.5 -205.5t-187.5 -196.5z" />
    <glyph glyph-name="hyphen" unicode="-" horiz-adv-x="688" 
d="M76 469v160h534v-160h-534z" />
    <glyph glyph-name="period" unicode="." horiz-adv-x="569" 
d="M113 109q0 52 36 88t89 36q52 0 88 -36t36 -88q0 -53 -36 -89t-88 -36q-53 0 -89 36t-36 89z" />
    <glyph glyph-name="slash" unicode="/" horiz-adv-x="569" 
d="M471 1522h104l-524 -1712h-104z" />
    <glyph glyph-name="zero" unicode="0" horiz-adv-x="1139" 
d="M313 764q0 -404 56.5 -547t199.5 -143t199.5 143t56.5 547q0 363 -57.5 507t-196.5 144q-141 0 -199.5 -142.5t-58.5 -508.5zM72 762q0 356 131 555t364 199q235 0 367.5 -199t132.5 -555q0 -382 -128 -585.5t-368 -203.5t-369.5 204.5t-129.5 584.5z" />
    <glyph glyph-name="one" unicode="1" horiz-adv-x="1139" 
d="M487 236v888q0 75 -42.5 103t-163.5 28q-33 0 -51.5 -0.5t-34.5 -1.5v82q144 8 244 46.5t167 111.5h105v-1257q0 -80 42 -113t146 -33q21 0 70 3q8 1 12 1v-94h-786v94q15 -1 31 -1.5t46 -0.5q115 0 165 34t50 110z" />
    <glyph glyph-name="two" unicode="2" horiz-adv-x="1139" 
d="M70 0v197q51 48 147 136q288 265 375 361q97 109 141.5 205.5t44.5 198.5q0 144 -80.5 231.5t-214.5 87.5q-89 0 -163 -47.5t-74 -91.5q0 -31 58 -54q13 -5 19 -7q49 -20 71 -48.5t22 -72.5q0 -65 -43 -105.5t-111 -40.5q-83 0 -130.5 53.5t-47.5 145.5q0 161 128.5 264
t334.5 103q214 0 342.5 -111.5t128.5 -296.5q0 -120 -47.5 -212.5t-186.5 -219.5q-54 -50 -222.5 -194.5t-280.5 -245.5v-25h460q131 0 166 44t41 200h94l-18 -455h-954z" />
    <glyph glyph-name="three" unicode="3" horiz-adv-x="1139" 
d="M678 797q182 -62 264 -155t82 -234q0 -199 -139.5 -317t-374.5 -118q-207 0 -333 86t-126 224q0 88 45.5 139t124.5 51q72 0 115 -37.5t43 -99.5q0 -24 -13 -46.5t-38 -41.5q-8 -6 -24 -15q-48 -29 -48 -61q0 -40 59 -70t144 -30q154 0 238.5 87t84.5 247
q0 181 -95.5 262t-317.5 88v92q208 8 293.5 73.5t85.5 215.5q0 130 -75.5 204t-207.5 74q-76 0 -127 -27t-51 -63q0 -13 45 -53t45 -84q0 -52 -39.5 -85.5t-101.5 -33.5q-74 0 -118 42.5t-44 113.5q0 127 118.5 209t309.5 82q225 0 356 -99t131 -266q0 -126 -73.5 -205.5
t-237.5 -130.5v-18z" />
    <glyph glyph-name="four" unicode="4" horiz-adv-x="1139" 
d="M627 594l16 686l-16 10l-486 -674v-22h486zM627 236v186h-600v196l637 875h184v-899h221v-172h-221v-186q0 -85 31.5 -115.5t117.5 -30.5q19 0 64 3q8 1 12 1v-94h-690v94h6q47 -4 68 -4q94 0 132 33t38 113z" />
    <glyph glyph-name="five" unicode="5" horiz-adv-x="1139" 
d="M242 725h-95l58 768h753v-199h-669l-27 -346l21 -4q56 54 129 79.5t172 25.5q211 0 345 -144.5t134 -376.5q0 -260 -147 -407.5t-406 -147.5q-191 0 -309.5 87.5t-118.5 226.5q0 89 42.5 139.5t117.5 50.5q67 0 107 -37.5t40 -101.5q0 -27 -10.5 -49.5t-32.5 -38.5
q-9 -6 -27 -17q-47 -26 -47 -57q0 -41 56.5 -69.5t142.5 -28.5q179 0 263.5 109.5t84.5 342.5q0 186 -85.5 290t-237.5 104q-90 0 -152 -48.5t-102 -150.5z" />
    <glyph glyph-name="six" unicode="6" horiz-adv-x="1139" 
d="M328 455q0 -182 64 -282.5t179 -100.5q116 0 179 101t63 288q0 198 -62.5 305.5t-177.5 107.5q-120 0 -182.5 -106.5t-62.5 -312.5zM346 909l21 -10q63 39 124 57.5t125 18.5q199 0 319 -131t120 -348q0 -246 -127 -384.5t-353 -138.5q-239 0 -373 187t-134 522
q0 389 164.5 610t451.5 221q157 0 261 -73.5t104 -179.5q0 -75 -40.5 -121.5t-103.5 -46.5q-74 0 -119 38t-45 99q0 65 64 125q12 11 12 14q0 19 -41 39t-92 20q-163 0 -246.5 -127.5t-91.5 -390.5z" />
    <glyph glyph-name="seven" unicode="7" horiz-adv-x="1139" 
d="M791 1268h-379q-79 0 -112 -9t-54 -30q-23 -23 -35 -72.5t-21 -195.5h-102l16 555h72q40 -21 63 -28t46 -7h731v-187q-155 -250 -232 -483.5t-77 -448.5q0 -49 2 -116t2 -84q0 -98 -33.5 -143.5t-104.5 -45.5q-75 0 -110 46.5t-35 146.5q0 110 50 279.5t136 336.5
q75 146 167.5 299.5t92.5 167.5q0 11 -16 15t-67 4z" />
    <glyph glyph-name="eight" unicode="8" horiz-adv-x="1139" 
d="M350 1135q0 -135 56.5 -207t162.5 -72q104 0 159.5 69.5t55.5 200.5q0 140 -55 214.5t-158 74.5q-106 0 -163.5 -72.5t-57.5 -207.5zM305 395q0 -150 68.5 -235.5t189.5 -85.5q130 0 198 84t68 243q0 166 -67.5 256.5t-190.5 90.5q-130 0 -198 -89.5t-68 -263.5zM739 803
q0 -9 58.5 -32t101.5 -50q86 -54 129 -134t43 -186q0 -194 -134.5 -311t-361.5 -117q-235 0 -373.5 115t-138.5 309q0 90 32.5 163t97.5 130q49 44 127.5 74t78.5 35q0 14 -49 33t-76 34q-83 49 -123 121t-40 170q0 161 123.5 260t328.5 99q215 0 339 -98.5t124 -266.5
q0 -77 -29 -140t-88 -112q-39 -33 -104.5 -59.5t-65.5 -36.5z" />
    <glyph glyph-name="nine" unicode="9" horiz-adv-x="1139" 
d="M805 1030q0 182 -64 282.5t-180 100.5t-179 -101t-63 -288q0 -200 63 -306t181 -106q117 0 179.5 108t62.5 310zM786 580l-20 8q-64 -38 -125.5 -56t-124.5 -18q-198 0 -318 130.5t-120 346.5q0 245 127 383.5t352 138.5q239 0 373.5 -185.5t134.5 -520.5
q0 -388 -164.5 -610t-451.5 -222q-157 0 -261 74t-104 180q0 75 40 121.5t103 46.5q75 0 118.5 -37.5t43.5 -101.5q0 -66 -62 -123q-12 -12 -12 -14q0 -19 41.5 -39.5t92.5 -20.5q163 0 246.5 128t90.5 391z" />
    <glyph glyph-name="colon" unicode=":" horiz-adv-x="688" 
d="M207 938q0 52 36.5 88.5t88.5 36.5t88.5 -36.5t36.5 -88.5t-36.5 -88.5t-88.5 -36.5t-88.5 36.5t-36.5 88.5zM207 109q0 52 36.5 88t88.5 36t88.5 -36t36.5 -88q0 -53 -36.5 -89t-88.5 -36t-88.5 36t-36.5 89z" />
    <glyph glyph-name="semicolon" unicode=";" horiz-adv-x="688" 
d="M219 938q0 52 36.5 88.5t88.5 36.5t88.5 -36.5t36.5 -88.5t-36.5 -88.5t-88.5 -36.5t-88.5 36.5t-36.5 88.5zM240 -371l-39 37q93 91 141.5 163.5t48.5 121.5q0 18 -7 28.5t-17 10.5q-9 0 -23 -2t-18 -2q-62 0 -97.5 32.5t-35.5 87.5q0 59 37 96.5t96 37.5
q74 0 118.5 -57t44.5 -152q0 -105 -62 -205.5t-187 -196.5z" />
    <glyph glyph-name="less" unicode="&#x3c;" horiz-adv-x="1706" 
d="M1442 1159v-153l-969 -396l969 -393v-154l-1178 484v129z" />
    <glyph glyph-name="equal" unicode="=" horiz-adv-x="1706" 
d="M254 481h1198v-139h-1198v139zM254 879h1198v-140h-1198v140z" />
    <glyph glyph-name="greater" unicode="&#x3e;" horiz-adv-x="1706" 
d="M264 1159l1178 -483v-129l-1178 -484v154l971 393l-971 396v153z" />
    <glyph glyph-name="question" unicode="?" horiz-adv-x="1143" 
d="M565 508h-65q0 103 4 161t14 87q11 35 32 72t77 112l4 6q114 155 114 264q0 107 -64.5 171.5t-172.5 64.5q-63 0 -118.5 -26t-55.5 -46q0 -12 37 -30q24 -12 38 -21q29 -18 42.5 -42t13.5 -58q0 -53 -35 -87t-90 -34q-67 0 -108.5 45t-41.5 121q0 105 105 179.5t260 74.5
q176 0 278.5 -87.5t102.5 -236.5q0 -153 -202 -329q-30 -26 -46 -40q-74 -66 -98.5 -129t-24.5 -178v-14zM666 96q0 -52 -36.5 -88.5t-88.5 -36.5q-53 0 -89 36.5t-36 88.5t36 88.5t89 36.5q52 0 88.5 -36.5t36.5 -88.5z" />
    <glyph glyph-name="at" unicode="@" horiz-adv-x="2019" 
d="M1186 332q-62 -105 -138 -156t-169 -51q-129 0 -206 92t-77 246q0 109 49.5 216t140.5 195q68 65 146 99.5t155 34.5q90 0 146 -48.5t76 -142.5l51 174h158l-172 -612l-4 -12q-15 -56 -15 -86q0 -51 23.5 -79t66.5 -28q33 0 80.5 20t89.5 52q119 90 179.5 228.5
t60.5 318.5q0 133 -52.5 245t-156.5 201q-90 77 -214 118.5t-267 41.5q-180 0 -335.5 -61.5t-275.5 -180.5q-126 -124 -190 -287t-64 -358q0 -182 57 -313t179 -234q109 -92 254 -141t307 -49q170 0 327 51.5t300 155.5l33 -41q-147 -110 -312.5 -166t-345.5 -56
q-189 0 -345.5 45.5t-274.5 135.5q-151 113 -230.5 276.5t-79.5 360.5q0 203 86.5 380.5t251.5 313.5q134 111 294.5 167t342.5 56q346 0 555 -188.5t209 -499.5q0 -159 -58.5 -298t-166.5 -237q-59 -52 -126 -80t-134 -28q-96 0 -149 53t-60 156zM1104 961
q-54 0 -98.5 -30.5t-90.5 -99.5q-71 -107 -113 -233.5t-42 -228.5q0 -86 39.5 -138.5t101.5 -52.5q65 0 122.5 43.5t111.5 132.5q55 93 88.5 204t33.5 198q0 92 -42 148.5t-111 56.5z" />
    <glyph glyph-name="A" unicode="A" horiz-adv-x="1518" 
d="M426 569h514l-229 594l-27 17zM-45 0v80q98 10 146 45t94 141l514 1223h114l525 -1288q27 -69 66 -92t140 -29v-80h-661v79q111 4 154 22t43 59q0 8 -2.5 18t-6.5 21l-108 274h-590l-86 -244q-8 -23 -11 -35.5t-3 -19.5q0 -46 45.5 -68.5t144.5 -26.5v-79h-518z" />
    <glyph glyph-name="B" unicode="B" horiz-adv-x="1571" 
d="M72 0v80q157 9 197 34.5t40 96.5v1079q0 61 -40 84.5t-197 32.5v82h723q262 0 410.5 -95.5t148.5 -263.5q0 -136 -98 -223.5t-293 -126.5v-16q238 -35 355.5 -129.5t117.5 -249.5q0 -76 -26.5 -140.5t-76.5 -111.5q-76 -72 -191 -102.5t-358 -30.5h-712zM547 1284v-455
q26 -2 54.5 -3t76.5 -1q220 0 319 70t99 225q0 142 -93 214.5t-274 72.5q-117 0 -149.5 -24.5t-32.5 -98.5zM547 215q0 -80 37 -106.5t182 -26.5q194 0 296.5 80t102.5 231q0 171 -110.5 247.5t-360.5 76.5q-25 0 -76.5 -3t-70.5 -3v-496z" />
    <glyph glyph-name="C" unicode="C" horiz-adv-x="1458" 
d="M1360 440q-89 -232 -240.5 -351.5t-357.5 -119.5q-128 0 -241 45.5t-202 132.5q-108 108 -167.5 262.5t-59.5 331.5q0 173 56 322t163 260q92 96 202.5 145.5t236.5 49.5q80 0 197 -34q7 -2 11 -3q37 -11 100 -41.5t89 -30.5q30 0 48.5 27t29.5 86h90l14 -555h-90
q-51 222 -170.5 344.5t-284.5 122.5q-204 0 -318 -179t-114 -501q0 -329 118 -513t327 -184q167 0 292 108.5t189 307.5z" />
    <glyph glyph-name="D" unicode="D" horiz-adv-x="1688" 
d="M94 0v80q162 11 200 37t38 100v1073q0 61 -40.5 84.5t-196.5 32.5l-1 82h723q168 0 298.5 -50t232.5 -153q109 -111 162 -248.5t53 -312.5q0 -154 -52.5 -289t-150.5 -235q-104 -106 -234.5 -153.5t-318.5 -47.5h-713zM569 209q0 -76 34 -100.5t149 -24.5
q272 0 411.5 161.5t139.5 477.5q0 368 -141 526t-470 158q-69 0 -96 -26t-27 -91v-1081z" />
    <glyph glyph-name="E" unicode="E" horiz-adv-x="1575" 
d="M1352 1004q-32 212 -162 308.5t-383 96.5q-165 0 -209.5 -25t-44.5 -106v-449h9q44 -4 65 -4q146 0 216 70.5t77 222.5h98q-6 -88 -9 -172.5t-3 -165.5q0 -115 2.5 -195.5t9.5 -148.5h-98q-7 165 -77 236t-227 71q-25 0 -38.5 -0.5t-24.5 -1.5v-479q0 -119 38 -150.5
t175 -31.5q296 0 434.5 102.5t171.5 343.5h88l-22 -526h-1360v80q160 9 199.5 36.5t39.5 100.5v1073q0 61 -40.5 84.5t-198.5 32.5v82h1343l19 -492z" />
    <glyph glyph-name="F" unicode="F" horiz-adv-x="1575" 
d="M334 215v1075q0 61 -40.5 84.5t-196.5 32.5l-1 82h1368l41 -498l-82 -4q-59 227 -195.5 324.5t-396.5 97.5q-169 0 -214.5 -25.5t-45.5 -105.5v-449q17 -2 37 -3t58 -1q156 0 228.5 69t78.5 224h98q-9 -153 -11.5 -221.5t-2.5 -116.5q0 -75 3.5 -158.5t10.5 -184.5
l-98 -1q-6 168 -78.5 238.5t-237.5 70.5q-25 0 -79 -3l-7 -1v-524q0 -125 248 -135q27 -1 41 -2v-80h-764l1 80q157 7 197 34t40 101z" />
    <glyph glyph-name="G" unicode="G" horiz-adv-x="1577" 
d="M872 690h666v-94q-13 1 -27 1.5t-38 0.5q-85 0 -113.5 -26.5t-28.5 -112.5v-486h-96q-10 57 -31.5 88t-50.5 31q-17 0 -70 -30q-36 -21 -57 -31q-60 -29 -127.5 -44.5t-138.5 -15.5q-126 0 -243 47.5t-206 135.5q-108 107 -166.5 260.5t-58.5 333.5q0 174 55.5 323
t161.5 260q92 96 202.5 145.5t235.5 49.5q52 0 101.5 -8t107.5 -27q37 -11 100 -42.5t89 -31.5q29 0 49.5 28.5t28.5 78.5h90l14 -518h-90q-64 209 -182 322.5t-273 113.5q-204 0 -318 -181t-114 -507q0 -327 123 -512t338 -185q139 0 217 89t78 249q0 108 -47.5 154.5
t-157.5 46.5h-23v94z" />
    <glyph glyph-name="H" unicode="H" horiz-adv-x="1800" 
d="M1231 1290q0 64 -40 88t-183 29v82h698v-82q-158 -9 -199 -32.5t-41 -84.5v-1091q0 -62 42 -86t198 -34v-79h-698v80q149 9 186 32t37 87v520h-660v-520q0 -64 37.5 -87t185.5 -32l1 -80h-699l1 80q157 7 197 30.5t40 88.5v1091q0 61 -40.5 84.5t-196.5 32.5l-1 82h699
l-1 -82q-143 -5 -183 -28.5t-40 -88.5v-477h660v477z" />
    <glyph glyph-name="I" unicode="I" horiz-adv-x="895" 
d="M106 0l1 80q141 5 182 29t41 90v1091q0 65 -40 88.5t-183 28.5l-1 82h682v-82q-145 -6 -184 -29t-39 -88v-1091q0 -64 37.5 -87t185.5 -32v-80h-682z" />
    <glyph glyph-name="J" unicode="J" horiz-adv-x="1063" 
d="M1014 1489l-1 -82q-151 -6 -192 -29t-41 -88v-903q0 -193 -119 -305.5t-323 -112.5q-171 0 -274 89t-103 233q0 92 47 146.5t127 54.5q70 0 111 -42t41 -112q0 -31 -11 -57t-32 -50q-24 -26 -64.5 -39.5t-40.5 -21.5q0 -32 50.5 -61t117.5 -29q125 0 180.5 62.5
t55.5 203.5v944q0 59 -41 82t-221 35v82h733z" />
    <glyph glyph-name="K" unicode="K" horiz-adv-x="1686" 
d="M563 776l19 -26l571 530q14 14 23.5 33.5t9.5 34.5q0 31 -39.5 44t-158.5 15l-1 82h639v-82q-111 -6 -196.5 -43t-180.5 -125l-327 -305l510 -703l1 -1q102 -140 250 -150v-80h-696l1 80q119 2 160.5 15.5t41.5 45.5q0 9 -4 19.5t-15 25.5l-423 586l-185 -174v-399
q0 -64 37 -87t186 -32v-80h-698v79q157 10 197.5 36.5t40.5 99.5v1075q0 61 -40.5 84.5t-197.5 32.5v82h698v-82q-145 -6 -184 -29t-39 -88v-514z" />
    <glyph glyph-name="L" unicode="L" horiz-adv-x="1460" 
d="M573 229q0 -83 40.5 -112t207.5 -29q244 0 354.5 105.5t141.5 369.5h84l-15 -563h-1288l1 80q152 7 195.5 34t43.5 97v1079q0 61 -41 84.5t-198 32.5l-1 82h760v-82h-7q-278 -6 -278 -117v-1061z" />
    <glyph glyph-name="M" unicode="M" horiz-adv-x="1913" 
d="M66 0v80q162 9 199.5 36.5t37.5 106.5v1067q0 62 -38.5 85t-198.5 32v82h569l307 -1098h25l313 1098h547l-1 -82q-142 -5 -181 -28.5t-39 -88.5v-1091q0 -64 36.5 -87t183.5 -32l1 -80h-670l1 80q160 9 198.5 36.5t38.5 104.5v1161h-49l-404 -1382h-111l-376 1382h-47
v-1183q0 -65 35 -88.5t187 -30.5l1 -80h-565z" />
    <glyph glyph-name="N" unicode="N" horiz-adv-x="1806" 
d="M424 199q0 -63 36 -86.5t187 -32.5v-80h-565v79q162 10 199.5 37.5t37.5 104.5v1069q0 62 -36 84t-201 33v82h496l772 -1102h18v903q0 62 -33 84.5t-190 32.5v82h565v-82q-152 -7 -194.5 -31t-42.5 -86v-1321h-125l-906 1295h-18v-1065z" />
    <glyph glyph-name="O" unicode="O" horiz-adv-x="1571" 
d="M365 748q0 -346 105 -519.5t314 -173.5q210 0 316 172.5t106 513.5q0 346 -106 521.5t-316 175.5q-206 0 -312.5 -175t-106.5 -515zM102 764q0 166 63.5 319t178.5 265q89 85 201 130.5t235 45.5q129 0 246 -48.5t207 -138.5q115 -114 175 -264.5t60 -320.5
q0 -164 -55.5 -313.5t-159.5 -266.5q-91 -102 -202.5 -152.5t-245.5 -50.5q-151 0 -270.5 51t-217.5 156q-104 114 -159.5 265t-55.5 323z" />
    <glyph glyph-name="P" unicode="P" horiz-adv-x="1458" 
d="M545 1274v-502q30 -2 62 -3t83 -1q247 0 356 76.5t109 247.5q0 152 -102 233.5t-293 81.5q-143 0 -179 -26t-36 -107zM307 225v1065q0 61 -40 84.5t-197 32.5v82h723q291 0 457.5 -109t166.5 -299q0 -205 -165 -307t-498 -102q-56 0 -108 2t-101 6v-481q0 -64 38 -87
t207 -32l1 -80h-721v80q162 9 199.5 36t37.5 109z" />
    <glyph glyph-name="Q" unicode="Q" horiz-adv-x="1577" 
d="M889 -25q-27 -3 -52 -4.5t-49 -1.5q-113 0 -209.5 31t-181.5 94q-140 106 -219.5 282t-79.5 386q0 167 63.5 319t178.5 262q89 86 202.5 132.5t235.5 46.5q124 0 241.5 -49.5t209.5 -139.5q116 -116 175.5 -269t59.5 -335q0 -223 -96 -391.5t-297 -298.5
q17 -105 59.5 -154t114.5 -49q46 0 93 29t102 90l63 -43q-84 -150 -166.5 -212t-191.5 -62q-123 0 -187 84.5t-69 252.5zM536 146q-3 22 -4.5 42t-1.5 39q0 120 63 189t171 69q121 0 196 -85t85 -234q80 103 118.5 242.5t38.5 332.5q0 339 -106.5 512.5t-315.5 173.5
q-207 0 -313.5 -172.5t-106.5 -509.5q0 -204 43.5 -352t132.5 -247zM899 82q11 31 17 60.5t6 54.5q0 86 -47.5 143t-116.5 57q-71 0 -113.5 -45.5t-42.5 -122.5q0 -75 50.5 -119t138.5 -44q23 0 50 4t58 12z" />
    <glyph glyph-name="R" unicode="R" horiz-adv-x="1698" 
d="M559 1284v-454q41 -4 77.5 -5.5t65.5 -1.5q239 0 346 71t107 226q0 140 -98.5 213.5t-284.5 73.5q-142 0 -177.5 -24.5t-35.5 -98.5zM324 217v1073q0 61 -41 84.5t-199 32.5v82h719q288 0 451 -98.5t163 -270.5q0 -143 -100 -233t-285 -111v-20q126 -28 197.5 -106
t101.5 -222q12 -60 23 -158q16 -157 80 -157q46 0 72 52.5t26 145.5h76v-12q0 -155 -68 -241.5t-190 -86.5q-138 0 -199.5 88.5t-75.5 327.5q-1 14 -2 39q-12 203 -59 254q-29 32 -80 46.5t-131 14.5h-244v-542q0 -64 37 -87t186 -32v-80h-698v79q160 10 200 37.5t40 100.5z
" />
    <glyph glyph-name="S" unicode="S" horiz-adv-x="1343" 
d="M242 -30h-82q-2 167 -11.5 301t-27.5 241h86q115 -229 245.5 -339t286.5 -110q121 0 202 74t81 180t-71 173.5t-310 156.5q-280 105 -377.5 207.5t-97.5 265.5q0 180 121 291t321 111q110 0 223.5 -38t124.5 -38q32 0 50.5 19t23.5 56h76q3 -102 11.5 -214.5t23.5 -239.5
l-76 -10q-87 190 -198 284.5t-249 94.5q-111 0 -185.5 -68.5t-74.5 -169.5q0 -94 61 -153.5t290 -143.5q182 -66 255 -105.5t121 -86.5q67 -66 100.5 -143.5t33.5 -168.5q0 -186 -131 -307t-334 -121q-67 0 -134.5 13t-132.5 38q-34 14 -85 44t-68 30q-34 0 -59.5 -34
t-32.5 -90z" />
    <glyph glyph-name="T" unicode="T" horiz-adv-x="1460" 
d="M842 199q0 -105 257 -119h7v-80h-766v80h7q257 14 257 119v1193q-10 2 -20.5 2.5t-30.5 0.5q-171 0 -268 -107.5t-125 -326.5h-92l18 528h1280l18 -528h-92q-25 217 -124.5 325.5t-272.5 108.5q-21 0 -32 -0.5t-21 -2.5v-1193z" />
    <glyph glyph-name="U" unicode="U" horiz-adv-x="1747" 
d="M553 475q0 -198 96.5 -302.5t278.5 -104.5q201 0 305 123t104 362v737q0 62 -37 85t-183 32l-1 82h553v-82q-151 -9 -187 -31.5t-36 -85.5v-733q0 -292 -143 -440t-426 -148q-273 0 -417.5 130.5t-144.5 375.5v817q0 60 -40.5 83t-196.5 32v82h698v-82
q-143 -5 -183 -28.5t-40 -86.5v-817z" />
    <glyph glyph-name="V" unicode="V" horiz-adv-x="1495" 
d="M1182 1253q6 17 9 31.5t3 26.5q0 48 -43 70.5t-143 25.5v82h512v-82q-101 -11 -151 -50.5t-87 -139.5l-467 -1248h-113l-520 1315q-28 71 -67.5 93.5t-136.5 29.5l-1 82h656l-1 -82q-110 -3 -152 -21.5t-42 -60.5q0 -6 2.5 -16t7.5 -24l363 -974h20z" />
    <glyph glyph-name="W" unicode="W" horiz-adv-x="2032" 
d="M709 -31h-111l-385 1323q-16 56 -51 80.5t-115 34.5v82h551v-82h-12q-71 0 -105.5 -19.5t-34.5 -60.5q0 -8 2.5 -19.5t6.5 -23.5l256 -881h18l225 772q3 12 4.5 21.5t2.5 15.5q0 31 -20 80.5t-46 79.5q-16 19 -46.5 27t-92.5 8v82h563v-82h-12q-76 0 -110 -20.5
t-34 -65.5q0 -10 1.5 -21t5.5 -23l249 -874h19l239 850q3 9 4.5 20t1.5 23q0 59 -37 84t-130 27v82h456v-82q-75 -6 -120.5 -49t-71.5 -135l-365 -1254h-96l-301 1039h-14z" />
    <glyph glyph-name="X" unicode="X" horiz-adv-x="1688" 
d="M541 305q-27 -38 -42.5 -74t-15.5 -61q0 -41 38 -59t132 -21v-90h-594v90q99 0 165.5 33.5t154.5 146.5l344 447v16l-404 565q-34 49 -83 70t-146 27v94h680v-82q-88 -2 -127 -16t-39 -43q0 -9 3.5 -18.5t13.5 -22.5l243 -361h23l227 330q7 10 10.5 22t3.5 27
q0 40 -40 59.5t-127 22.5v82h600v-82q-104 0 -179 -37.5t-143 -124.5l-299 -387v-20l451 -625q44 -62 95.5 -84.5t147.5 -24.5v-104h-712v90q101 2 142.5 18.5t41.5 53.5q0 10 -2 17.5t-6 12.5l-303 435h-25z" />
    <glyph glyph-name="Y" unicode="Y" horiz-adv-x="1688" 
d="M971 199q0 -64 38 -87t207 -32l1 -80h-730l1 80q170 7 208.5 32.5t38.5 98.5v356l-454 707q-47 72 -93.5 99t-127.5 34l-1 82h674v-82q-125 -6 -158.5 -20.5t-33.5 -49.5q0 -10 3.5 -20.5t10.5 -22.5l360 -602h19l334 549q8 15 12 29t4 28q0 51 -46.5 77t-150.5 32v82
h527v-82q-124 0 -235 -179l-15 -24l-393 -637v-368z" />
    <glyph glyph-name="Z" unicode="Z" horiz-adv-x="1352" 
d="M63 0v104l922 1274v23h-287q-198 0 -303 -98t-153 -328l-88 8l30 506h1076v-115l-910 -1253v-33h385q171 0 273 99t163 327h80l-28 -514h-1160z" />
    <glyph glyph-name="bracketleft" unicode="[" horiz-adv-x="688" 
d="M119 -266v1755h495v-82h-305v-1591h305v-82h-495z" />
    <glyph glyph-name="backslash" unicode="\" horiz-adv-x="569" 
d="M2 1522h102l523 -1712h-103z" />
    <glyph glyph-name="bracketright" unicode="]" horiz-adv-x="688" 
d="M559 1489v-1755h-493v82h303v1591h-303v82h493z" />
    <glyph glyph-name="asciicircum" unicode="^" horiz-adv-x="2048" 
d="M926 1462h194l512 -565h-98l-512 420l-514 -420h-96z" />
    <glyph glyph-name="underscore" unicode="_" 
d="M0 -340h1024v-143h-1024v143z" />
    <glyph glyph-name="grave" unicode="`" 
d="M688 1210h-67l-330 205q-31 20 -46.5 40.5t-15.5 41.5q0 32 20.5 52t53.5 20q20 0 40.5 -12t55.5 -48z" />
    <glyph glyph-name="a" unicode="a" horiz-adv-x="1214" 
d="M795 535q-231 -18 -337 -78.5t-106 -173.5q0 -77 47.5 -123.5t124.5 -46.5q130 0 200.5 92.5t70.5 263.5v66zM793 145q-103 -89 -199.5 -132.5t-194.5 -43.5q-129 0 -207.5 75t-78.5 196q0 171 175 268.5t505 109.5v164q0 115 -67.5 177.5t-190.5 62.5q-58 0 -95 -20
t-37 -50q0 -18 17.5 -57t17.5 -64q0 -49 -37 -80.5t-96 -31.5q-60 0 -95.5 34.5t-35.5 92.5q0 111 105 180.5t278 69.5q213 0 318.5 -85t105.5 -257v-582q0 -31 14 -47t41 -16q15 0 41.5 11t40.5 11q11 0 16.5 -4t6.5 -12q0 -45 -61 -88t-128 -43q-59 0 -98.5 39.5
t-60.5 121.5z" />
    <glyph glyph-name="b" unicode="b" horiz-adv-x="1255" 
d="M657 958q-130 0 -200 -111.5t-70 -320.5q0 -210 71.5 -325t203.5 -115q125 0 194.5 118t69.5 333q0 202 -70 311.5t-199 109.5zM174 1311q0 71 -23 96t-85 25q-5 0 -17.5 -1t-19.5 -1v79h28q58 0 139 10.5t193 32.5v-637l17 -12q53 95 132.5 144t178.5 49
q188 0 317 -163.5t129 -408.5q0 -235 -137.5 -394t-337.5 -159q-98 0 -175 48t-144 151l-23 -6l-110 -193h-70q4 47 6 110t2 210v158v862z" />
    <glyph glyph-name="c" unicode="c" horiz-adv-x="1102" 
d="M922 240l59 -45q-95 -114 -196 -170t-212 -56q-200 0 -338.5 159.5t-138.5 395.5q0 246 143.5 410t358.5 164q162 0 271.5 -82.5t109.5 -198.5q0 -85 -38.5 -133.5t-104.5 -48.5q-62 0 -99 36t-37 97q0 56 44 105t44 53q0 31 -44 55.5t-109 24.5q-149 0 -226 -121
t-77 -357q0 -205 81 -326.5t216 -121.5q71 0 142 38.5t151 121.5z" />
    <glyph glyph-name="d" unicode="d" horiz-adv-x="1315" 
d="M319 537q0 -215 69.5 -333t195.5 -118q131 0 203.5 115.5t72.5 326.5q0 208 -70.5 319t-201.5 111q-128 0 -198.5 -109.5t-70.5 -311.5zM899 164l-22 6q-68 -103 -145 -151t-175 -48q-200 0 -337.5 159t-137.5 394q0 245 129 408.5t317 163.5q100 0 179 -49t133 -144
l18 12v396q0 70 -23.5 95.5t-86.5 25.5q-5 0 -17.5 -1t-19.5 -1v79h20q73 0 161 11t185 32q-5 -51 -6.5 -76.5t-1.5 -48.5v-1216q0 -74 20 -96.5t78 -22.5h29v-80h-25q-50 0 -116 -10t-156 -31v193z" />
    <glyph glyph-name="e" unicode="e" horiz-adv-x="1214" 
d="M1114 256q-95 -148 -207.5 -216.5t-261.5 -68.5q-238 0 -391.5 157.5t-153.5 401.5q0 241 150.5 403.5t370.5 162.5q215 0 349 -147.5t134 -387.5v-24l-766 -1q3 -213 102.5 -340.5t261.5 -127.5q100 0 182.5 56.5t153.5 174.5zM868 619q-7 186 -72.5 284t-181.5 98
q-121 0 -190 -95.5t-86 -287.5z" />
    <glyph glyph-name="f" unicode="f" horiz-adv-x="764" 
d="M446 201q0 -73 25.5 -98t99.5 -25q29 0 45.5 0.5t30.5 1.5v-80h-559v80h29q67 0 90.5 24.5t23.5 96.5v723h-135v82h135q4 263 113 404.5t309 141.5q134 0 215.5 -57.5t81.5 -151.5q0 -63 -35.5 -101t-95.5 -38q-51 0 -84 29t-33 74q0 36 31 74t31 46q0 26 -28 40t-79 14
q-108 0 -160.5 -93.5t-52.5 -285.5q0 -38 0.5 -58t2.5 -38h239v-82h-240v-723z" />
    <glyph glyph-name="g" unicode="g" horiz-adv-x="1104" 
d="M166 -106q0 -78 88 -121t248 -43q195 0 300 45t105 129q0 72 -99.5 107.5t-299.5 35.5q-167 0 -254.5 -39.5t-87.5 -113.5zM301 762q0 -112 64.5 -182t166.5 -70q107 0 170.5 68.5t63.5 183.5q0 113 -62.5 178.5t-168.5 65.5q-103 0 -168.5 -68.5t-65.5 -175.5zM829 1001
q64 -55 94.5 -116t30.5 -131q0 -143 -115.5 -239.5t-289.5 -96.5q-46 0 -94 9t-101 28q-47 -30 -71.5 -63t-24.5 -68q0 -94 249 -102q28 0 44 -1q264 -8 382 -72t118 -198q0 -149 -149 -233.5t-415 -84.5q-218 0 -337 63t-119 177q0 73 54 123t181 92q-86 45 -118.5 83.5
t-32.5 92.5q0 55 39 104.5t129 106.5q-86 56 -128 124.5t-42 152.5q0 153 116 248.5t306 95.5q62 0 121 -15.5t116 -46.5q71 88 117 119t98 31q51 0 85 -25t34 -61q0 -37 -23.5 -60.5t-58.5 -23.5q-28 0 -70.5 17.5t-56.5 17.5q-19 0 -36 -12t-32 -36z" />
    <glyph glyph-name="h" unicode="h" horiz-adv-x="1335" 
d="M242 201v1083q0 109 -29 131.5t-123 24.5v71q103 4 188.5 14t159.5 27v-675l17 -15q62 116 150 175t200 59q143 0 225 -81t82 -222v-592q0 -71 23.5 -97t85.5 -26q6 0 18 1t18 1v-80h-503v80q6 0 18 -1t19 -1q62 0 85 25t23 98v571q0 102 -40 155.5t-116 53.5
q-45 0 -90.5 -25.5t-87.5 -74.5q-52 -64 -81 -142t-29 -155v-383q0 -70 24 -96.5t86 -26.5q6 0 18.5 1t18.5 1v-80h-506v80q6 0 18.5 -1t18.5 -1q62 0 85.5 25t23.5 98z" />
    <glyph glyph-name="i" unicode="i" horiz-adv-x="766" 
d="M252 1421q0 51 36 87t87 36t88 -36t37 -87q0 -52 -36.5 -87.5t-88.5 -35.5q-51 0 -87 36t-36 87zM492 201q0 -71 23 -97t85 -26q6 0 18.5 1t18.5 1v-80h-504v80q6 0 18.5 -1t18.5 -1q62 0 85.5 25t23.5 98v608q0 119 -30 142.5t-124 25.5v71q103 4 193 14.5t174 29.5
v-891z" />
    <glyph glyph-name="j" unicode="j" horiz-adv-x="758" 
d="M299 1421q0 51 36 87t87 36t87 -36t36 -87q0 -52 -35.5 -87.5t-87.5 -35.5q-51 0 -87 36t-36 87zM537 45q0 -189 -94.5 -300.5t-254.5 -111.5q-97 0 -161 57.5t-64 143.5q0 61 34.5 97t92.5 36q46 0 76.5 -28t30.5 -70q0 -34 -21.5 -67.5t-21.5 -43.5q0 -18 16 -30.5
t41 -12.5q58 0 85.5 46t27.5 145v913q0 110 -29.5 133t-122.5 25v71q102 4 191 14.5t174 29.5v-1047z" />
    <glyph glyph-name="k" unicode="k" horiz-adv-x="1214" 
d="M229 1274q0 118 -29 141t-124 25v71q117 5 209.5 15.5t156.5 25.5v-999l334 301q10 9 16.5 23.5t6.5 29.5q0 37 -37.5 54.5t-122.5 19.5v82h541l-1 -82q-71 -5 -133 -34t-124 -87l-211 -192l342 -494q35 -50 73 -71t94 -23l1 -80h-510v80q71 4 93.5 14.5t22.5 36.5
q0 8 -2.5 16.5t-7.5 16.5l-260 364l-115 -98v-229q0 -71 23.5 -97t85.5 -26q6 0 18.5 1t18.5 1v-80h-504v80q6 0 18.5 -1t18.5 -1q62 0 85 25t23 98v1073z" />
    <glyph glyph-name="l" unicode="l" horiz-adv-x="735" 
d="M262 1274v10q0 109 -29 131.5t-122 24.5v71q115 5 205 15t161 26v-1351q0 -71 23.5 -97t85.5 -26q6 0 18 1t19 1v-80h-506v80q6 0 18 -1t19 -1q62 0 85 25t23 98v1073z" />
    <glyph glyph-name="m" unicode="m" horiz-adv-x="1896" 
d="M250 201v618q0 110 -30 133.5t-121 24.5l-1 71q119 6 199 16t133 28v-228l19 -14q64 115 144.5 173t174.5 58q103 0 170 -57t96 -170h25q75 116 157 171.5t177 55.5q128 0 202 -80.5t74 -220.5v-579q0 -72 21.5 -97.5t78.5 -25.5q5 0 16 1t17 1v-80h-456v80h26
q60 0 81.5 24t21.5 97v561q0 102 -37 153.5t-111 51.5q-104 0 -184 -115t-80 -274v-377q0 -72 20.5 -97.5t75.5 -25.5q4 0 14 1t17 1v-80h-459v80h27q60 0 81 24t21 97v561q0 102 -37 153.5t-110 51.5q-104 0 -184 -115t-80 -274v-377q0 -73 19.5 -98t74.5 -25q5 0 15.5 1
t16.5 1v-80h-471v80q7 0 19 -1t18 -1q62 0 85.5 25t23.5 98z" />
    <glyph glyph-name="n" unicode="n" horiz-adv-x="1325" 
d="M899 762q0 101 -40.5 153t-119.5 52q-113 0 -198.5 -115.5t-85.5 -273.5v-377q0 -71 23 -97t85 -26q6 0 18.5 1t18.5 1v-80h-504v80q6 0 18.5 -1t18.5 -1q62 0 85.5 25t23.5 98v618q0 110 -29.5 133t-122.5 25v71q87 2 173.5 12.5t174.5 31.5v-228l17 -14
q74 116 163 173.5t193 57.5q139 0 220 -81t81 -220v-579q0 -71 23.5 -97t85.5 -26q6 0 18 1t18 1v-80h-503v80q6 0 18 -1t19 -1q62 0 85 25t23 98v561z" />
    <glyph glyph-name="o" unicode="o" horiz-adv-x="1219" 
d="M340 512q0 -213 71 -329.5t199 -116.5q129 0 199 118t70 336q0 231 -69 356t-196 125q-134 0 -204 -124.5t-70 -364.5zM614 -29q-96 0 -183.5 36.5t-158.5 105.5q-82 79 -126 186.5t-44 230.5q0 114 39 218t111 184q75 81 165 122.5t191 41.5q98 0 184.5 -37.5
t157.5 -110.5q83 -86 124.5 -192t41.5 -234q0 -116 -43.5 -221t-124.5 -184q-66 -67 -157.5 -106.5t-176.5 -39.5z" />
    <glyph glyph-name="p" unicode="p" horiz-adv-x="1327" 
d="M451 535q0 -206 70 -316t202 -110q128 0 198 108.5t70 308.5q0 213 -69.5 329t-196.5 116q-131 0 -202.5 -114t-71.5 -322zM453 -166q0 -73 24 -97t101 -24q7 0 26.5 1t30.5 1v-80h-541v80q8 0 20 -1t17 -1q63 0 86 25t23 96v975q0 119 -30.5 143t-123.5 25v71
q86 2 173 12.5t175 31.5l-2 -199l31 -4q62 100 135 147t166 47q197 0 331 -154.5t134 -387.5q0 -240 -129 -390.5t-332 -150.5q-88 0 -157.5 38.5t-139.5 127.5l-18 -14v-318z" />
    <glyph glyph-name="q" unicode="q" horiz-adv-x="1255" 
d="M594 131q130 0 200 108.5t70 311.5q0 204 -71.5 315t-202.5 111q-126 0 -195 -114.5t-69 -321.5q0 -197 70 -303.5t198 -106.5zM1075 -166q0 -70 23 -95.5t86 -25.5q6 0 18.5 1t20.5 1v-80h-574v80q11 0 31 -1t29 -1q92 0 122.5 25t30.5 96v338l-8 10
q-65 -91 -145.5 -136.5t-176.5 -45.5q-186 0 -315 158.5t-129 394.5q0 228 138.5 383.5t336.5 155.5q97 0 176.5 -49t143.5 -148l20 6l113 195h69q-5 -73 -7.5 -168.5t-2.5 -315.5v-778z" />
    <glyph glyph-name="r" unicode="r" horiz-adv-x="985" 
d="M94 1048q97 4 182 14.5t162 29.5v-240l23 -4q62 116 142 176.5t171 60.5q89 0 149 -52t60 -130q0 -64 -40 -105.5t-103 -41.5q-55 0 -88 31.5t-33 82.5q0 22 10 50t10 34q0 13 -4.5 20t-13.5 7q-29 0 -60.5 -18t-62.5 -52q-63 -69 -100 -155t-37 -158v-397
q0 -71 23.5 -97t84.5 -26q6 0 18.5 1t18.5 1v-80h-504v80q7 0 19 -1t18 -1q62 0 85.5 25t23.5 98v608q0 119 -30.5 143t-122.5 25z" />
    <glyph glyph-name="s" unicode="s" horiz-adv-x="989" 
d="M190 -16h-69l-10 381h75q78 -166 154 -235t178 -69q95 0 159 49t64 119q0 119 -251 216q-23 9 -36 14q-193 75 -258 147t-65 189q0 132 86 216.5t221 84.5q77 0 165.5 -39t98.5 -39q20 0 35.5 17t24.5 48h61l4 -321h-67q-54 113 -136.5 176t-174.5 63q-74 0 -122 -42.5
t-48 -106.5q0 -59 44 -98.5t189 -91.5q220 -80 295.5 -158t75.5 -201q0 -147 -97.5 -240.5t-248.5 -93.5q-89 0 -178 42t-95 42q-31 0 -48.5 -16t-25.5 -53z" />
    <glyph glyph-name="t" unicode="t" horiz-adv-x="762" 
d="M201 981h-172v57q127 74 204 186t99 255h82v-416h268v-82h-268v-750q0 -71 28.5 -109t81.5 -38q58 0 93.5 50.5t41.5 141.5h95q-14 -153 -87 -229t-208 -76q-125 0 -191.5 84.5t-66.5 241.5v684z" />
    <glyph glyph-name="u" unicode="u" horiz-adv-x="1337" 
d="M213 809q0 115 -28 140.5t-119 27.5v70q88 3 178 13.5t182 29.5v-789q0 -101 40.5 -153t119.5 -52q113 0 198.5 115.5t85.5 273.5v334q0 108 -28 131.5t-117 26.5v69q92 4 181 14.5t177 29.5v-846q0 -108 28.5 -131.5t116.5 -26.5l1 -71q-95 -4 -180 -14.5t-162 -29.5
v228l-17 12q-73 -115 -162 -172t-194 -57q-139 0 -220 80.5t-81 220.5v526z" />
    <glyph glyph-name="v" unicode="v" horiz-adv-x="1102" 
d="M580 -29h-82l-355 901q-23 59 -52 83t-78 26l-1 82h473v-82h-18q-63 0 -89 -13t-26 -44q0 -4 1 -9.5t3 -14.5l228 -644h20l234 596q4 10 6 21.5t2 25.5q0 42 -28 62t-87 20h-26v82h372v-82h-14q-39 0 -60.5 -15.5t-37.5 -56.5z" />
    <glyph glyph-name="w" unicode="w" horiz-adv-x="1673" 
d="M590 -29h-78l-356 932q-15 36 -36 52t-69 26v82h422v-82q-54 -2 -81 -17t-27 -44q0 -7 1.5 -14.5t4.5 -17.5l225 -626h18l185 498q2 6 3 14t1 25q0 19 -18 64.5t-42 76.5q-12 17 -34 26.5t-59 14.5l-1 82h436v-82h-8q-51 0 -78.5 -17t-27.5 -49q0 -13 7 -40q0 -2 1 -5
l180 -608h19l221 598q3 8 4.5 16t1.5 17q0 40 -32 61.5t-97 26.5v82h342v-82q-43 -15 -73 -48t-50 -87l-338 -875h-72l-229 684h-22z" />
    <glyph glyph-name="x" unicode="x" horiz-adv-x="1219" 
d="M674 588l291 -400q32 -42 71.5 -69.5t83.5 -38.5v-80h-463l1 80q51 2 76.5 14t25.5 35q0 5 -3 12t-7 12l-199 271l-184 -238q-6 -7 -9.5 -19.5t-3.5 -27.5q0 -25 30.5 -40t88.5 -20v-79h-397v80q53 8 95 35t85 80l250 309l-291 379q-35 43 -76 69t-79 29l-1 82h463v-82
h-20q-42 0 -62 -11t-20 -34q0 -5 2 -10t6 -11l199 -256l186 226q6 7 9 18.5t3 24.5q0 25 -31.5 39t-88.5 14v82h399l-1 -82q-48 -3 -90.5 -27.5t-88.5 -76.5z" />
    <glyph glyph-name="y" unicode="y" horiz-adv-x="1100" 
d="M600 12q-76 -187 -173.5 -282t-215.5 -95q-93 0 -148 49.5t-55 131.5q0 63 40 106t99 43q51 0 85 -33.5t34 -83.5q0 -25 -13 -57t-13 -39q0 -8 8 -13t22 -5q24 0 57 25t64 67q44 59 73.5 122.5t29.5 90.5q-1 11 -3.5 21t-6.5 19l-339 795q-25 61 -54 84t-78 25l-1 80h475
v-80h-16q-64 0 -91.5 -14t-27.5 -45q0 -5 1.5 -10.5t4.5 -11.5l242 -603h16l222 556q4 8 7 21t3 25q0 42 -28.5 62t-88.5 20h-26v80h374v-80h-18q-36 0 -58 -17.5t-40 -62.5z" />
    <glyph glyph-name="z" unicode="z" horiz-adv-x="989" 
d="M98 0v80l541 881v20h-217q-103 0 -154 -59t-65 -195h-68v344q21 -4 43 -6t62 -2h39h598v-82l-547 -885v-16h270q93 0 143.5 61.5t75.5 208.5h68l-10 -362q-52 5 -96.5 8.5t-65.5 3.5h-617z" />
    <glyph glyph-name="braceleft" unicode="{" 
d="M848 1516v-53q-136 -2 -186 -55t-50 -210v-141q0 -227 -59 -308.5t-217 -113.5q159 -32 217.5 -113.5t58.5 -308.5v-141q0 -157 49.5 -209t186.5 -54v-53h-10q-219 0 -301 74t-82 272v207q0 161 -59 221.5t-218 73.5v64q161 13 219 73.5t58 221.5v206q0 199 82 273
t301 74h10z" />
    <glyph glyph-name="bar" unicode="|" 
d="M438 1565h150v-2048h-150v2048z" />
    <glyph glyph-name="braceright" unicode="}" 
d="M176 1516h10q220 0 302.5 -74t82.5 -273v-206q0 -161 58 -221.5t219 -73.5v-64q-161 -13 -219 -73.5t-58 -221.5v-207q0 -198 -82.5 -272t-302.5 -74h-10v53q137 2 186.5 54.5t49.5 208.5v141q0 227 58.5 308.5t217.5 113.5q-158 32 -217 113.5t-59 308.5v141
q0 157 -50 210t-186 55v53z" />
    <glyph glyph-name="asciitilde" unicode="~" horiz-adv-x="1706" 
d="M1530 770v-156q-104 -72 -199 -106.5t-190 -34.5q-93 0 -256 58q-22 8 -34 12q-5 2 -15 5q-176 60 -273 60q-84 0 -175 -37t-210 -120v155q106 72 202 108t185 36q62 0 127.5 -13.5t163.5 -48.5q16 -5 47 -17q159 -57 240 -57q88 0 179.5 37t207.5 119z" />
    <glyph glyph-name="nonbreakingspace" unicode="&#xa0;" horiz-adv-x="1139" 
 />
    <glyph glyph-name="exclamdown" unicode="&#xa1;" horiz-adv-x="688" 
d="M305 989h63q2 -284 45.5 -573.5t43.5 -298.5q0 -67 -33.5 -106.5t-87.5 -39.5q-52 0 -85.5 38.5t-33.5 99.5q0 19 43.5 310.5t44.5 569.5zM469 1397q0 -52 -36.5 -88.5t-88.5 -36.5t-88.5 36.5t-36.5 88.5t36.5 88.5t88.5 36.5t88.5 -36.5t36.5 -88.5z" />
    <glyph glyph-name="cent" unicode="&#xa2;" horiz-adv-x="1139" 
d="M461 203l266 614v10q0 31 9 54t26 37q10 7 32.5 19t22.5 21q0 30 -45.5 52t-114.5 22q-147 0 -225 -123.5t-78 -357.5q0 -110 26.5 -195t80.5 -153zM948 268l60 -45q-99 -117 -195 -170t-211 -53q-25 0 -54.5 4.5t-72.5 15.5l-133 -305h-90l143 336q-134 82 -204 210.5
t-70 293.5q0 248 147.5 411.5t370.5 163.5q54 0 104 -12.5t99 -38.5l108 252h97l-134 -305q45 -34 69 -79t24 -93q0 -64 -38.5 -104.5t-99.5 -40.5q-22 0 -42 7t-38 21l-258 -594q32 -18 60.5 -26t58.5 -8q74 0 147.5 39t151.5 120z" />
    <glyph glyph-name="sterling" unicode="&#xa3;" horiz-adv-x="1139" 
d="M266 727h-207v88h192q-2 39 -3.5 77.5t-1.5 74.5q0 277 106.5 413t323.5 136q168 0 275.5 -77.5t107.5 -193.5q0 -82 -38.5 -129t-105.5 -47q-60 0 -98.5 35t-38.5 90q0 45 39 96t39 64q0 26 -45.5 46.5t-112.5 20.5q-117 0 -178 -69.5t-61 -202.5q0 -44 7.5 -128
t22.5 -206h312v-88h-313q2 -36 3 -53.5t1 -32.5q0 -76 -13 -144.5t-39 -134.5q-11 -28 -35 -71t-24 -60q0 -8 6 -12t21 -4q10 0 49 7t67 7q49 0 142 -28.5t139 -28.5q43 0 78 15t61 44q16 20 39 58q34 57 61 57q17 0 28 -13t11 -32q0 -134 -88 -231t-217 -97q-68 0 -134 20
t-175 79q-8 4 -22 13q-66 38 -97 38q-18 0 -37 -14.5t-66 -72.5q-2 -2 -7 -8q-46 -53 -88 -53q-39 0 -67 32t-28 77q0 33 18 54.5t62 39.5q12 5 36 14q136 53 136 187q0 72 -11 160.5t-32 187.5z" />
    <glyph glyph-name="currency" unicode="&#xa4;" horiz-adv-x="1241" 
d="M623 1190q-126 0 -215 -89t-89 -214q0 -126 89 -215.5t215 -89.5q125 0 214 89.5t89 215.5q0 125 -89 214t-214 89zM162 1423l205 -204q57 43 120 64.5t134 21.5t134.5 -21.5t121.5 -64.5l204 204l82 -80l-205 -206q41 -55 61.5 -118t20.5 -134q0 -73 -20 -135.5
t-62 -116.5l205 -205l-82 -82l-204 205q-59 -44 -122 -65t-132 -21q-72 0 -135.5 21.5t-120.5 64.5l-205 -205l-82 82l207 205q-41 51 -62.5 116t-21.5 136q0 70 21 133t63 119l-207 206z" />
    <glyph glyph-name="yen" unicode="&#xa5;" horiz-adv-x="1554" 
d="M879 201q0 -64 38 -87t207 -32v-82h-694l1 82q170 8 207.5 33t37.5 98v356l-39 60h-567v82h516l-137 213h-379v82h329l-176 274q-46 71 -93.5 98.5t-129.5 35.5v79h641v-80q-127 -6 -161 -20.5t-34 -49.5q0 -10 4 -22t11 -23l360 -610h19l334 559q8 13 12 28t4 34
q0 47 -48.5 72.5t-148.5 31.5v80h527v-80q-125 0 -241 -191l-7 -11l-125 -205h340v-82h-387l-133 -213h520v-82h-569l-39 -60v-368z" />
    <glyph glyph-name="brokenbar" unicode="&#xa6;" 
d="M438 408h150v-758h-150v758zM438 1432h150v-758h-150v758z" />
    <glyph glyph-name="section" unicode="&#xa7;" 
d="M254 788q0 -53 28 -101.5t113 -127.5q80 -76 131.5 -106.5t96.5 -30.5q62 0 103.5 39t41.5 98q0 46 -29 95t-98 116q-80 78 -137 113t-105 35q-59 0 -102 -38.5t-43 -91.5zM619 370q98 -80 145 -153.5t47 -144.5q0 -111 -92.5 -181.5t-239.5 -70.5q-129 0 -214 60
t-85 147q0 56 32 90.5t83 34.5q44 0 73 -28.5t29 -70.5q0 -37 -32.5 -72t-32.5 -44q0 -30 40.5 -49t106.5 -19q81 0 130.5 41.5t49.5 107.5q0 50 -41 107.5t-145 146.5l-180 156q-90 78 -133 147t-43 136q0 112 78 183t208 75q-105 91 -146.5 157t-41.5 136q0 114 87 187
t226 73q122 0 200.5 -60t78.5 -149q0 -52 -32.5 -86.5t-82.5 -34.5q-42 0 -72 26.5t-30 63.5q0 33 32.5 71.5t32.5 51.5q0 27 -37.5 47.5t-91.5 20.5q-75 0 -118 -39t-43 -105q0 -55 36 -109t156 -157l176 -152q89 -75 131.5 -145.5t42.5 -142.5q0 -111 -78 -179.5
t-210 -73.5z" />
    <glyph glyph-name="dieresis" unicode="&#xa8;" 
d="M604 1364q0 40 29.5 70t68.5 30q40 0 70.5 -30t30.5 -70q0 -42 -29 -70t-72 -28q-42 0 -70 28t-28 70zM223 1364q0 40 29.5 70t69.5 30q39 0 69.5 -30t30.5 -70q0 -42 -29 -70t-71 -28q-43 0 -71 28t-28 70z" />
    <glyph glyph-name="copyright" unicode="&#xa9;" horiz-adv-x="1683" 
d="M1122 1098h37l2 -316h-43q-32 135 -103 204t-177 69q-119 0 -179.5 -93.5t-60.5 -277.5q0 -187 66.5 -284t193.5 -97q84 0 153.5 44t127.5 132l39 -26q-61 -105 -148 -158t-199 -53q-173 0 -292 124t-119 304q0 183 118.5 307.5t290.5 124.5q75 0 149.5 -33t80.5 -33
q27 0 42 14.5t21 47.5zM844 1305q-123 0 -238 -49t-203 -138q-88 -90 -134 -202.5t-46 -237.5q0 -127 46.5 -239t136.5 -201q91 -90 201.5 -136.5t234.5 -46.5q126 0 237 46.5t199 136.5q89 90 136.5 204t47.5 236q0 123 -48 241t-134 203q-86 86 -201 134.5t-235 48.5z
M844 1391q138 0 269 -54.5t230 -152.5q100 -99 154.5 -232t54.5 -274q0 -140 -53.5 -269.5t-155.5 -232.5q-99 -101 -228 -155t-273 -54q-142 0 -270 53.5t-232 155.5q-103 102 -156 229t-53 273q0 141 53.5 270t155.5 232q100 101 230.5 156t273.5 55z" />
    <glyph glyph-name="ordfeminine" unicode="&#xaa;" horiz-adv-x="911" 
d="M596 1120q-173 -12 -252.5 -54.5t-79.5 -121.5q0 -54 35.5 -86.5t93.5 -32.5q97 0 150 64.5t53 183.5v47zM594 848q-75 -62 -148 -92.5t-147 -30.5q-97 0 -156 52t-59 136q0 120 132 188.5t378 76.5v114q0 81 -50 124.5t-143 43.5q-43 0 -70.5 -13.5t-27.5 -33.5
q0 -14 13.5 -41.5t13.5 -44.5q0 -34 -28 -56t-73 -22t-71.5 24t-26.5 64q0 79 79 127.5t208 48.5q159 0 238 -59.5t79 -179.5v-408q0 -22 11 -33.5t32 -11.5q10 0 30 8.5t32 8.5q8 0 12 -3.5t4 -9.5q0 -30 -45.5 -61t-95.5 -31q-44 0 -74 28.5t-47 86.5z" />
    <glyph glyph-name="guillemotleft" unicode="&#xab;" horiz-adv-x="1143" 
d="M535 547l366 346q14 14 24 20.5t17 6.5q7 -1 9.5 -7t2.5 -20q0 -30 -57 -109.5t-192 -236.5q132 -150 189.5 -230.5t57.5 -115.5q0 -12 -2.5 -17.5t-7.5 -5.5q-9 0 -25 16q-7 7 -12 11zM172 547l367 346q14 14 23.5 20.5t17.5 6.5q6 -1 9 -7.5t3 -19.5q0 -30 -58.5 -112
t-189.5 -234q130 -146 188 -228t58 -118q0 -11 -2.5 -16.5t-7.5 -6.5q-9 0 -26 16l-11 11z" />
    <glyph glyph-name="logicalnot" unicode="&#xac;" horiz-adv-x="1706" 
d="M254 860h1198v-502h-137v363h-1061v139z" />
    <glyph glyph-name="sfthyphen" unicode="&#xad;" horiz-adv-x="688" 
d="M76 469v160h534v-160h-534z" />
    <glyph glyph-name="registered" unicode="&#xae;" horiz-adv-x="1683" 
d="M738 721q13 -1 28 -1.5t35 -0.5q105 0 163 45t58 127q0 72 -50 116t-134 44q-51 0 -76 -17.5t-25 -52.5zM467 1094h397q144 0 231 -54t87 -141q0 -83 -66 -131.5t-219 -75.5q95 -28 145 -76.5t70 -130.5q6 -23 11 -65q12 -88 57 -88q31 0 47 33.5t16 97.5h45v-19
q0 -84 -41 -129t-119 -45q-49 0 -84 16t-51 46q-20 37 -22 110t-8 97q-19 71 -66.5 105t-130.5 34h-29v-246q0 -51 25.5 -72t93.5 -27v-44h-389v44q69 4 95 25.5t26 73.5v516q0 53 -26 74.5t-95 26.5v45zM844 1305q-123 0 -238 -49t-203 -138q-88 -90 -134 -202.5
t-46 -237.5q0 -127 46.5 -239t136.5 -201q89 -90 199.5 -136.5t236.5 -46.5q125 0 237 47t199 136q88 90 135 203t47 237q0 125 -47.5 242t-132.5 202q-86 86 -201 134.5t-235 48.5zM844 1391q140 0 273 -56t233 -157q97 -99 149.5 -230.5t52.5 -275.5q0 -139 -56 -270
t-161 -234q-100 -99 -228 -150t-276 -51q-134 0 -261.5 54.5t-229.5 154.5q-102 101 -155.5 229t-53.5 273q0 142 53 270.5t154 231.5q100 101 231.5 156t274.5 55z" />
    <glyph glyph-name="macron" unicode="&#xaf;" 
d="M254 1303v124h516v-124h-516z" />
    <glyph glyph-name="degree" unicode="&#xb0;" horiz-adv-x="674" 
d="M338 1362q-81 0 -138 -56t-57 -137t57 -138.5t138 -57.5t136.5 57.5t55.5 138.5t-55.5 137t-136.5 56zM338 1456q118 0 202.5 -84.5t84.5 -204.5q0 -119 -84 -202.5t-205 -83.5t-204 83t-83 203t85 204.5t204 84.5z" />
    <glyph glyph-name="plusminus" unicode="&#xb1;" horiz-adv-x="1706" 
d="M254 170h1198v-141h-1198v141zM782 1192h142v-340h528v-139h-528v-340h-142v340h-528v139h528v340z" />
    <glyph glyph-name="twosuperior" unicode="&#xb2;" horiz-adv-x="752" 
d="M45 596v119q31 26 89 74q197 164 257 223q65 66 94 124t29 119q0 87 -53 139t-142 52q-59 0 -108 -29t-49 -55q0 -17 36 -31l15 -6q32 -11 46.5 -28t14.5 -44q0 -39 -28.5 -63.5t-73.5 -24.5q-54 0 -85.5 33t-31.5 88q0 96 85 157.5t220 61.5q142 0 227 -66.5t85 -176.5
q0 -73 -31.5 -128.5t-122.5 -132.5q-31 -25 -143.5 -112.5t-190.5 -151.5v-14h305q86 0 109.5 26.5t28.5 118.5h61l-12 -272h-631z" />
    <glyph glyph-name="threesuperior" unicode="&#xb3;" horiz-adv-x="752" 
d="M446 1073q120 -36 175 -92t55 -141q0 -118 -92.5 -189t-247.5 -71q-136 0 -218.5 51.5t-82.5 134.5q0 53 29.5 84t80.5 31q47 0 76 -23.5t29 -60.5q0 -14 -9 -27.5t-23 -23.5q-6 -4 -17 -10q-31 -19 -31 -38q0 -23 39 -41t94 -18q102 0 157.5 52.5t55.5 148.5
q0 109 -62.5 157t-209.5 52v55q137 5 193.5 44.5t56.5 129.5q0 79 -50 123.5t-137 44.5q-50 0 -84.5 -16.5t-34.5 -38.5q0 -9 30 -32.5t30 -49.5q0 -32 -25.5 -52t-66.5 -20q-49 0 -78 26t-29 68q0 77 78 125.5t205 48.5q148 0 234.5 -59.5t86.5 -159.5q0 -75 -49 -123
t-158 -78v-12z" />
    <glyph glyph-name="acute" unicode="&#xb4;" 
d="M336 1210l289 299q35 36 55.5 48t40.5 12q33 0 53.5 -20t20.5 -52q0 -21 -15.5 -41.5t-46.5 -40.5l-330 -205h-67z" />
    <glyph glyph-name="mu" unicode="&#xb5;" horiz-adv-x="1169" 
d="M166 195q-33 -143 -64 -355q-37 -260 -116 -260q-43 0 -65.5 24.5t-22.5 69.5q0 44 70 277t110 422l108 512h168l-100 -475q-9 -40 -13.5 -74.5t-4.5 -59.5q0 -70 41.5 -108.5t119.5 -38.5q97 0 154 54.5t82 172.5l112 529h173l-115 -532q-9 -43 -14 -75.5t-5 -52.5
q0 -48 26.5 -74t76.5 -26q44 0 81 25t58 69q13 27 27 73q17 56 39 56q9 0 15.5 -8t6.5 -21q0 -34 -13.5 -88t-35.5 -100q-39 -78 -92.5 -117t-122.5 -39q-81 0 -125.5 55t-44.5 154v13q-52 -115 -123 -168.5t-172 -53.5q-95 0 -151 56t-68 164z" />
    <glyph glyph-name="paragraph" unicode="&#xb6;" 
d="M958 1479v-86h-120v-1393h-111v1393h-176v-1393h-113v782q-170 8 -271 102.5t-101 245.5q0 157 107.5 253t285.5 96h499z" />
    <glyph glyph-name="glyph121" unicode="&#xb7;" horiz-adv-x="569" 
d="M160 760q0 53 36 90t89 37q52 0 88.5 -37.5t36.5 -89.5q0 -54 -36.5 -91.5t-88.5 -37.5q-53 0 -89 37.5t-36 91.5z" />
    <glyph glyph-name="cedilla" unicode="&#xb8;" 
d="M246 -371l35 78q60 -34 118.5 -53t104.5 -19q64 0 92.5 22t28.5 71q0 42 -29.5 66t-83.5 24q-13 0 -28.5 -1.5t-32.5 -4.5v188h63v-112q16 2 31.5 3.5t29.5 2.5q87 0 135 -43.5t48 -120.5q0 -82 -58.5 -129t-160.5 -47q-55 0 -122 17t-171 58z" />
    <glyph glyph-name="onesuperior" unicode="&#xb9;" horiz-adv-x="752" 
d="M322 737v533q0 45 -28.5 62.5t-109.5 17.5q-21 0 -32.5 -0.5t-22.5 -1.5v48q93 5 159 28t111 67h70v-754q0 -48 28 -68t97 -20q12 0 47 4h6v-57h-518v57q10 -1 20.5 -1.5t30.5 -0.5q76 0 109 20.5t33 65.5z" />
    <glyph glyph-name="ordmasculine" unicode="&#xba;" horiz-adv-x="913" 
d="M256 1104q0 -150 53 -231.5t150 -81.5q96 0 148 83t52 236q0 162 -51.5 249t-146.5 87q-101 0 -153 -87t-52 -255zM461 725q-72 0 -138.5 26t-117.5 74q-62 55 -94.5 129.5t-32.5 161.5q0 80 28.5 153t81.5 130q57 56 125 85t144 29q73 0 138 -26.5t118 -77.5
q62 -60 93.5 -133.5t31.5 -163.5q0 -82 -33 -156t-94 -129q-49 -46 -117 -74t-133 -28z" />
    <glyph glyph-name="guillemotright" unicode="&#xbb;" horiz-adv-x="1143" 
d="M594 551l-367 -346q-14 -14 -23.5 -20.5t-17.5 -6.5q-5 0 -8.5 7t-3.5 20q0 30 58.5 112t189.5 234q-130 146 -188 228t-58 118q0 11 2.5 16.5t7.5 6.5q9 0 25 -16q8 -7 12 -11zM956 551l-368 -346q-14 -14 -24 -20.5t-17 -6.5q-5 0 -7.5 5.5t-2.5 21.5q0 30 58 112
t189 234q-133 150 -190 230.5t-57 115.5q0 11 3 16.5t9 6.5q9 0 26 -17q6 -6 11 -10z" />
    <glyph glyph-name="onequarter" unicode="&#xbc;" horiz-adv-x="1776" 
d="M1454 332l10 385l-10 6l-307 -377v-14h307zM1454 131v105h-379v110l402 490h116v-504h140v-96h-140v-105q0 -47 20 -63.5t75 -16.5q17 0 26.5 0.5t19.5 1.5l1 -53h-435l1 53q8 -1 18 -1.5t27 -0.5q59 0 83.5 18t24.5 62zM475 -27h-100l925 1543h99zM305 786v498
q0 42 -26 58t-103 16h-55v45q92 5 155 26.5t105 61.5h65v-705q0 -43 27 -61t92 -18q21 0 31.5 0.5t19.5 1.5v-54h-495v53q9 0 19.5 -0.5t29.5 -0.5q72 0 103.5 18.5t31.5 60.5z" />
    <glyph glyph-name="onehalf" unicode="&#xbd;" horiz-adv-x="1776" 
d="M1102 0v111l56 45q211 173 274 233q60 59 88 113.5t28 111.5q0 82 -50.5 131.5t-133.5 49.5q-57 0 -103.5 -27.5t-46.5 -52.5q1 -17 35 -28l15 -5q29 -11 43 -27.5t14 -40.5q0 -36 -27 -59t-69 -23q-52 0 -82.5 30t-30.5 81q0 90 80.5 147.5t210.5 57.5q135 0 216 -62
t81 -165q0 -70 -30.5 -121.5t-117.5 -120.5q-34 -28 -140.5 -110t-176.5 -138v-12h291q82 0 104 24.5t27 110.5h59l-12 -254h-602zM475 -27h-100l925 1543h99zM305 786v498q0 42 -26 58t-103 16h-55v45q92 5 155 26.5t105 61.5h65v-705q0 -43 27 -61t92 -18q21 0 31.5 0.5
t19.5 1.5v-54h-495v53q9 0 19.5 -0.5t29.5 -0.5q72 0 103.5 18.5t31.5 60.5z" />
    <glyph glyph-name="threequarters" unicode="&#xbe;" horiz-adv-x="1778" 
d="M1454 332l10 385l-10 6l-307 -377v-14h307zM1454 131v105h-379v110l402 490h116v-504h140v-96h-140v-105q0 -47 20 -63.5t75 -16.5q17 0 26.5 0.5t19.5 1.5l1 -53h-435l1 53q8 -1 18 -1.5t27 -0.5q59 0 83.5 18t24.5 62zM475 -27h-100l925 1543h99zM428 1102
q115 -35 166 -87t51 -132q0 -110 -88 -176t-235 -66q-131 0 -210 47.5t-79 124.5q0 50 28 78.5t78 28.5q46 0 73.5 -21t27.5 -55q0 -14 -9 -27t-25 -23q-5 -3 -14 -8q-30 -17 -30 -34q0 -22 37 -39t90 -17q97 0 151 49t54 138q0 100 -60.5 145.5t-201.5 50.5l-1 51
q132 5 186 41.5t54 120.5q0 73 -47.5 114.5t-130.5 41.5q-48 0 -80.5 -15.5t-32.5 -35.5q0 -8 29 -30t29 -46q0 -30 -25 -49t-66 -19q-45 0 -72.5 24.5t-27.5 63.5q0 72 74 117t194 45q142 0 225 -54.5t83 -148.5q0 -70 -46.5 -115t-148.5 -73v-10z" />
    <glyph glyph-name="questiondown" unicode="&#xbf;" horiz-adv-x="1143" 
d="M475 1397q0 52 36.5 88.5t88.5 36.5t88.5 -36.5t36.5 -88.5t-36.5 -88.5t-88.5 -36.5t-88.5 36.5t-36.5 88.5zM578 985h63q0 -116 -4 -169t-12 -79q-20 -61 -102 -172l-9 -12l-1 -1q-116 -157 -116 -269q0 -108 64 -172t172 -64q62 0 118 26.5t56 45.5q0 12 -37 31
q-24 12 -37 20q-30 19 -43.5 42.5t-13.5 55.5q0 53 35 88t90 35q67 0 108 -45t41 -121q0 -105 -103.5 -179.5t-258.5 -74.5q-177 0 -280 87.5t-103 236.5q0 152 201 326q32 28 49 43q74 66 98.5 129t24.5 178v14z" />
    <glyph glyph-name="Agrave" unicode="&#xc0;" horiz-adv-x="1518" 
d="M426 569h514l-229 594l-27 17zM-45 0v80q98 10 146 45t94 141l514 1223h114l525 -1288q27 -69 66 -92t140 -29v-80h-661v79q111 4 154 22t43 59q0 8 -2.5 18t-6.5 21l-108 274h-590l-86 -244q-8 -23 -11 -35.5t-3 -19.5q0 -46 45.5 -68.5t144.5 -26.5v-79h-518zM940 1632
h-67l-330 205q-31 20 -46.5 40.5t-15.5 41.5q0 32 20.5 52t53.5 20q20 0 40.5 -12t55.5 -48z" />
    <glyph glyph-name="Aacute" unicode="&#xc1;" horiz-adv-x="1518" 
d="M426 569h514l-229 594l-27 17zM-45 0v80q98 10 146 45t94 141l514 1223h114l525 -1288q27 -69 66 -92t140 -29v-80h-661v79q111 4 154 22t43 59q0 8 -2.5 18t-6.5 21l-108 274h-590l-86 -244q-8 -23 -11 -35.5t-3 -19.5q0 -46 45.5 -68.5t144.5 -26.5v-79h-518zM588 1632
l289 299q35 36 55.5 48t40.5 12q33 0 53.5 -20t20.5 -52q0 -21 -15.5 -41.5t-46.5 -40.5l-330 -205h-67z" />
    <glyph glyph-name="Acircumflex" unicode="&#xc2;" horiz-adv-x="1518" 
d="M426 569h514l-229 594l-27 17zM-45 0v80q98 10 146 45t94 141l514 1223h114l525 -1288q27 -69 66 -92t140 -29v-80h-661v79q111 4 154 22t43 59q0 8 -2.5 18t-6.5 21l-108 274h-590l-86 -244q-8 -23 -11 -35.5t-3 -19.5q0 -46 45.5 -68.5t144.5 -26.5v-79h-518zM473 1632
l232 349h118l232 -349h-58l-233 211l-233 -211h-58z" />
    <glyph glyph-name="Atilde" unicode="&#xc3;" horiz-adv-x="1518" 
d="M426 569h514l-229 594l-27 17zM-45 0v80q98 10 146 45t94 141l514 1223h114l525 -1288q27 -69 66 -92t140 -29v-80h-661v79q111 4 154 22t43 59q0 8 -2.5 18t-6.5 21l-108 274h-590l-86 -244q-8 -23 -11 -35.5t-3 -19.5q0 -46 45.5 -68.5t144.5 -26.5v-79h-518z
M1051 1929q-20 -103 -68.5 -155t-126.5 -52q-21 0 -67 11q-4 1 -7 2l-109 29q-11 2 -23.5 4t-24.5 2q-39 0 -60.5 -20t-36.5 -71h-51q19 106 68 158.5t129 52.5q17 0 32.5 -2t30.5 -6l110 -28q24 -6 36.5 -8.5t19.5 -2.5q36 0 58 20t36 66h54z" />
    <glyph glyph-name="Adieresis" unicode="&#xc4;" horiz-adv-x="1518" 
d="M426 569h514l-229 594l-27 17zM-45 0v80q98 10 146 45t94 141l514 1223h114l525 -1288q27 -69 66 -92t140 -29v-80h-661v79q111 4 154 22t43 59q0 8 -2.5 18t-6.5 21l-108 274h-590l-86 -244q-8 -23 -11 -35.5t-3 -19.5q0 -46 45.5 -68.5t144.5 -26.5v-79h-518zM856 1786
q0 40 29.5 70t68.5 30q40 0 70.5 -30t30.5 -70q0 -42 -29 -70t-72 -28q-42 0 -70 28t-28 70zM475 1786q0 40 29.5 70t69.5 30q39 0 69.5 -30t30.5 -70q0 -42 -29 -70t-71 -28q-43 0 -71 28t-28 70z" />
    <glyph glyph-name="Aring" unicode="&#xc5;" horiz-adv-x="1518" 
d="M623 1751q0 -59 40.5 -100t98.5 -41q57 0 98 41.5t41 99.5q0 57 -41 98t-98 41t-98 -41t-41 -98zM539 1749q0 94 64 158.5t159 64.5q94 0 158.5 -64.5t64.5 -158.5t-64.5 -158.5t-158.5 -64.5t-158.5 64.5t-64.5 158.5zM426 569h514l-229 594l-27 17zM-45 0v80
q100 11 148 44.5t92 137.5l514 1204h114l525 -1267q27 -68 66.5 -90.5t139.5 -28.5v-80h-661v79q116 4 156.5 20.5t40.5 56.5q0 9 -2.5 19.5t-6.5 21.5l-108 270h-590l-86 -242l-3 -9q-11 -33 -11 -44q0 -45 44.5 -67t145.5 -26v-79h-518z" />
    <glyph glyph-name="AE" unicode="&#xc6;" horiz-adv-x="2224" 
d="M958 1331q0 33 -9.5 48.5t-30.5 15.5q-16 0 -30.5 -11t-31.5 -36l-416 -652h518v635zM182 287q-22 -35 -35.5 -70t-13.5 -55q0 -38 27.5 -56t99.5 -26v-80h-414v80q54 13 101.5 53.5t93.5 112.5l602 950q14 21 21.5 43.5t7.5 44.5q0 57 -52 87t-163 36v82h1607l19 -492
l-88 7q-32 212 -161.5 308.5t-383.5 96.5q-165 0 -209.5 -25t-44.5 -106v-449h10q43 -4 64 -4q146 0 216 70.5t77 222.5h98q-7 -113 -10.5 -199.5t-3.5 -138.5q0 -96 3.5 -181t10.5 -162l-98 -1q-7 165 -77 236t-226 71q-26 0 -39.5 -0.5t-24.5 -1.5v-479q0 -119 38 -150.5
t175 -31.5q296 0 434.5 102.5t171.5 343.5h88l-22 -526h-1360v79q159 10 198 37t39 101v391h-571z" />
    <glyph glyph-name="Ccedilla" unicode="&#xc7;" horiz-adv-x="1458" 
d="M1360 440q-89 -232 -240.5 -351.5t-357.5 -119.5q-128 0 -241 45.5t-202 132.5q-108 108 -167.5 262.5t-59.5 331.5q0 173 56 322t163 260q92 96 202.5 145.5t236.5 49.5q80 0 197 -34q7 -2 11 -3q37 -11 100 -41.5t89 -30.5q30 0 48.5 27t29.5 86h90l14 -555h-90
q-51 222 -170.5 344.5t-284.5 122.5q-204 0 -318 -179t-114 -501q0 -329 118 -513t327 -184q167 0 292 108.5t189 307.5zM482 -371l35 78q60 -34 118.5 -53t104.5 -19q64 0 92.5 22t28.5 71q0 42 -29.5 66t-83.5 24q-13 0 -28.5 -1.5t-32.5 -4.5v188h63v-112q16 2 31.5 3.5
t29.5 2.5q87 0 135 -43.5t48 -120.5q0 -82 -58.5 -129t-160.5 -47q-55 0 -122 17t-171 58z" />
    <glyph glyph-name="Egrave" unicode="&#xc8;" horiz-adv-x="1575" 
d="M1352 1004q-32 212 -162 308.5t-383 96.5q-165 0 -209.5 -25t-44.5 -106v-449h9q44 -4 65 -4q146 0 216 70.5t77 222.5h98q-6 -88 -9 -172.5t-3 -165.5q0 -115 2.5 -195.5t9.5 -148.5h-98q-7 165 -77 236t-227 71q-25 0 -38.5 -0.5t-24.5 -1.5v-479q0 -119 38 -150.5
t175 -31.5q296 0 434.5 102.5t171.5 343.5h88l-22 -526h-1360v80q160 9 199.5 36.5t39.5 100.5v1073q0 61 -40.5 84.5t-198.5 32.5v82h1343l19 -492zM1010 1632h-67l-330 205q-31 20 -46.5 40.5t-15.5 41.5q0 32 20.5 52t53.5 20q20 0 40.5 -12t55.5 -48z" />
    <glyph glyph-name="Eacute" unicode="&#xc9;" horiz-adv-x="1575" 
d="M1352 1004q-32 212 -162 308.5t-383 96.5q-165 0 -209.5 -25t-44.5 -106v-449h9q44 -4 65 -4q146 0 216 70.5t77 222.5h98q-6 -88 -9 -172.5t-3 -165.5q0 -115 2.5 -195.5t9.5 -148.5h-98q-7 165 -77 236t-227 71q-25 0 -38.5 -0.5t-24.5 -1.5v-479q0 -119 38 -150.5
t175 -31.5q296 0 434.5 102.5t171.5 343.5h88l-22 -526h-1360v80q160 9 199.5 36.5t39.5 100.5v1073q0 61 -40.5 84.5t-198.5 32.5v82h1343l19 -492zM658 1632l289 299q35 36 55.5 48t40.5 12q33 0 53.5 -20t20.5 -52q0 -21 -15.5 -41.5t-46.5 -40.5l-330 -205h-67z" />
    <glyph glyph-name="Ecircumflex" unicode="&#xca;" horiz-adv-x="1575" 
d="M1352 1004q-32 212 -162 308.5t-383 96.5q-165 0 -209.5 -25t-44.5 -106v-449h9q44 -4 65 -4q146 0 216 70.5t77 222.5h98q-6 -88 -9 -172.5t-3 -165.5q0 -115 2.5 -195.5t9.5 -148.5h-98q-7 165 -77 236t-227 71q-25 0 -38.5 -0.5t-24.5 -1.5v-479q0 -119 38 -150.5
t175 -31.5q296 0 434.5 102.5t171.5 343.5h88l-22 -526h-1360v80q160 9 199.5 36.5t39.5 100.5v1073q0 61 -40.5 84.5t-198.5 32.5v82h1343l19 -492zM543 1632l232 349h118l232 -349h-58l-233 211l-233 -211h-58z" />
    <glyph glyph-name="Edieresis" unicode="&#xcb;" horiz-adv-x="1575" 
d="M1352 1004q-32 212 -162 308.5t-383 96.5q-165 0 -209.5 -25t-44.5 -106v-449h9q44 -4 65 -4q146 0 216 70.5t77 222.5h98q-6 -88 -9 -172.5t-3 -165.5q0 -115 2.5 -195.5t9.5 -148.5h-98q-7 165 -77 236t-227 71q-25 0 -38.5 -0.5t-24.5 -1.5v-479q0 -119 38 -150.5
t175 -31.5q296 0 434.5 102.5t171.5 343.5h88l-22 -526h-1360v80q160 9 199.5 36.5t39.5 100.5v1073q0 61 -40.5 84.5t-198.5 32.5v82h1343l19 -492zM926 1786q0 40 29.5 70t68.5 30q40 0 70.5 -30t30.5 -70q0 -42 -29 -70t-72 -28q-42 0 -70 28t-28 70zM545 1786
q0 40 29.5 70t69.5 30q39 0 69.5 -30t30.5 -70q0 -42 -29 -70t-71 -28q-43 0 -71 28t-28 70z" />
    <glyph glyph-name="Igrave" unicode="&#xcc;" horiz-adv-x="895" 
d="M106 0l1 80q141 5 182 29t41 90v1091q0 65 -40 88.5t-183 28.5l-1 82h682v-82q-145 -6 -184 -29t-39 -88v-1091q0 -64 37.5 -87t185.5 -32v-80h-682zM625 1632h-67l-330 205q-31 20 -46.5 40.5t-15.5 41.5q0 32 20.5 52t53.5 20q20 0 40.5 -12t55.5 -48z" />
    <glyph glyph-name="Iacute" unicode="&#xcd;" horiz-adv-x="895" 
d="M106 0l1 80q141 5 182 29t41 90v1091q0 65 -40 88.5t-183 28.5l-1 82h682v-82q-145 -6 -184 -29t-39 -88v-1091q0 -64 37.5 -87t185.5 -32v-80h-682zM273 1632l289 299q35 36 55.5 48t40.5 12q33 0 53.5 -20t20.5 -52q0 -21 -15.5 -41.5t-46.5 -40.5l-330 -205h-67z" />
    <glyph glyph-name="Icircumflex" unicode="&#xce;" horiz-adv-x="895" 
d="M106 0l1 80q141 5 182 29t41 90v1091q0 65 -40 88.5t-183 28.5l-1 82h682v-82q-145 -6 -184 -29t-39 -88v-1091q0 -64 37.5 -87t185.5 -32v-80h-682zM158 1632l232 349h118l232 -349h-58l-233 211l-233 -211h-58z" />
    <glyph glyph-name="Idieresis" unicode="&#xcf;" horiz-adv-x="895" 
d="M106 0l1 80q141 5 182 29t41 90v1091q0 65 -40 88.5t-183 28.5l-1 82h682v-82q-145 -6 -184 -29t-39 -88v-1091q0 -64 37.5 -87t185.5 -32v-80h-682zM541 1786q0 40 29.5 70t68.5 30q40 0 70.5 -30t30.5 -70q0 -42 -29 -70t-72 -28q-42 0 -70 28t-28 70zM160 1786
q0 40 29.5 70t69.5 30q39 0 69.5 -30t30.5 -70q0 -42 -29 -70t-71 -28q-43 0 -71 28t-28 70z" />
    <glyph glyph-name="Eth" unicode="&#xd0;" horiz-adv-x="1698" 
d="M575 209q0 -76 34.5 -100.5t150.5 -24.5q272 0 410.5 161.5t138.5 477.5q0 368 -141 526t-470 158q-69 0 -96 -26t-27 -91v-479h394v-90h-394v-512zM100 0v80q163 11 201.5 37t38.5 100v504h-352v90h352v479q0 61 -41 84.5t-198 32.5l-1 82h725q169 0 299 -50t232 -153
q109 -110 161 -247.5t52 -313.5q0 -156 -51.5 -290.5t-149.5 -233.5q-104 -106 -235 -153.5t-320 -47.5h-713z" />
    <glyph glyph-name="Ntilde" unicode="&#xd1;" horiz-adv-x="1806" 
d="M424 199q0 -63 36 -86.5t187 -32.5v-80h-565v79q162 10 199.5 37.5t37.5 104.5v1069q0 62 -36 84t-201 33v82h496l772 -1102h18v903q0 62 -33 84.5t-190 32.5v82h565v-82q-152 -7 -194.5 -31t-42.5 -86v-1321h-125l-906 1295h-18v-1065zM1190 1929q-20 -103 -68.5 -155
t-126.5 -52q-21 0 -67 11q-4 1 -7 2l-109 29q-11 2 -23.5 4t-24.5 2q-39 0 -60.5 -20t-36.5 -71h-51q19 106 68 158.5t129 52.5q17 0 32.5 -2t30.5 -6l110 -28q24 -6 36.5 -8.5t19.5 -2.5q36 0 58 20t36 66h54z" />
    <glyph glyph-name="Ograve" unicode="&#xd2;" horiz-adv-x="1571" 
d="M365 748q0 -346 105 -519.5t314 -173.5q210 0 316 172.5t106 513.5q0 346 -106 521.5t-316 175.5q-206 0 -312.5 -175t-106.5 -515zM102 764q0 166 63.5 319t178.5 265q89 85 201 130.5t235 45.5q129 0 246 -48.5t207 -138.5q115 -114 175 -264.5t60 -320.5
q0 -164 -55.5 -313.5t-159.5 -266.5q-91 -102 -202.5 -152.5t-245.5 -50.5q-151 0 -270.5 51t-217.5 156q-104 114 -159.5 265t-55.5 323zM962 1632h-67l-330 205q-31 20 -46.5 40.5t-15.5 41.5q0 32 20.5 52t53.5 20q20 0 40.5 -12t55.5 -48z" />
    <glyph glyph-name="Oacute" unicode="&#xd3;" horiz-adv-x="1571" 
d="M365 748q0 -346 105 -519.5t314 -173.5q210 0 316 172.5t106 513.5q0 346 -106 521.5t-316 175.5q-206 0 -312.5 -175t-106.5 -515zM102 764q0 166 63.5 319t178.5 265q89 85 201 130.5t235 45.5q129 0 246 -48.5t207 -138.5q115 -114 175 -264.5t60 -320.5
q0 -164 -55.5 -313.5t-159.5 -266.5q-91 -102 -202.5 -152.5t-245.5 -50.5q-151 0 -270.5 51t-217.5 156q-104 114 -159.5 265t-55.5 323zM610 1632l289 299q35 36 55.5 48t40.5 12q33 0 53.5 -20t20.5 -52q0 -21 -15.5 -41.5t-46.5 -40.5l-330 -205h-67z" />
    <glyph glyph-name="Ocircumflex" unicode="&#xd4;" horiz-adv-x="1571" 
d="M365 748q0 -346 105 -519.5t314 -173.5q210 0 316 172.5t106 513.5q0 346 -106 521.5t-316 175.5q-206 0 -312.5 -175t-106.5 -515zM102 764q0 166 63.5 319t178.5 265q89 85 201 130.5t235 45.5q129 0 246 -48.5t207 -138.5q115 -114 175 -264.5t60 -320.5
q0 -164 -55.5 -313.5t-159.5 -266.5q-91 -102 -202.5 -152.5t-245.5 -50.5q-151 0 -270.5 51t-217.5 156q-104 114 -159.5 265t-55.5 323zM495 1632l232 349h118l232 -349h-58l-233 211l-233 -211h-58z" />
    <glyph glyph-name="Otilde" unicode="&#xd5;" horiz-adv-x="1571" 
d="M365 748q0 -346 105 -519.5t314 -173.5q210 0 316 172.5t106 513.5q0 346 -106 521.5t-316 175.5q-206 0 -312.5 -175t-106.5 -515zM102 764q0 166 63.5 319t178.5 265q89 85 201 130.5t235 45.5q129 0 246 -48.5t207 -138.5q115 -114 175 -264.5t60 -320.5
q0 -164 -55.5 -313.5t-159.5 -266.5q-91 -102 -202.5 -152.5t-245.5 -50.5q-151 0 -270.5 51t-217.5 156q-104 114 -159.5 265t-55.5 323zM1073 1929q-20 -103 -68.5 -155t-126.5 -52q-21 0 -67 11q-4 1 -7 2l-109 29q-11 2 -23.5 4t-24.5 2q-39 0 -60.5 -20t-36.5 -71h-51
q19 106 68 158.5t129 52.5q17 0 32.5 -2t30.5 -6l110 -28q24 -6 36.5 -8.5t19.5 -2.5q36 0 58 20t36 66h54z" />
    <glyph glyph-name="Odieresis" unicode="&#xd6;" horiz-adv-x="1571" 
d="M365 748q0 -346 105 -519.5t314 -173.5q210 0 316 172.5t106 513.5q0 346 -106 521.5t-316 175.5q-206 0 -312.5 -175t-106.5 -515zM102 764q0 166 63.5 319t178.5 265q89 85 201 130.5t235 45.5q129 0 246 -48.5t207 -138.5q115 -114 175 -264.5t60 -320.5
q0 -164 -55.5 -313.5t-159.5 -266.5q-91 -102 -202.5 -152.5t-245.5 -50.5q-151 0 -270.5 51t-217.5 156q-104 114 -159.5 265t-55.5 323zM878 1786q0 40 29.5 70t68.5 30q40 0 70.5 -30t30.5 -70q0 -42 -29 -70t-72 -28q-42 0 -70 28t-28 70zM497 1786q0 40 29.5 70
t69.5 30q39 0 69.5 -30t30.5 -70q0 -42 -29 -70t-71 -28q-43 0 -71 28t-28 70z" />
    <glyph glyph-name="multiply" unicode="&#xd7;" horiz-adv-x="1706" 
d="M391 1178l469 -469l469 469l98 -99l-469 -469l469 -469l-98 -96l-469 467l-469 -467l-98 96l469 469l-469 469z" />
    <glyph glyph-name="Oslash" unicode="&#xd8;" horiz-adv-x="1571" 
d="M371 123q-135 119 -202 271.5t-67 338.5q0 141 37.5 267.5t110.5 234.5q92 135 233.5 211t300.5 76q87 0 170.5 -25t165.5 -76l111 189h100l-139 -240q141 -121 208.5 -275.5t67.5 -355.5q0 -156 -56 -304t-159 -261q-92 -102 -209.5 -154.5t-252.5 -52.5
q-85 0 -170.5 24.5t-178.5 76.5l-143 -244h-100zM1055 1307q-67 56 -131.5 83t-135.5 27q-210 0 -325 -174.5t-115 -494.5q0 -147 25.5 -267t77.5 -217zM1114 1233l-606 -1047q55 -56 127 -85t156 -29q204 0 318 175.5t114 493.5q0 164 -27 284.5t-82 207.5z" />
    <glyph glyph-name="Ugrave" unicode="&#xd9;" horiz-adv-x="1747" 
d="M553 475q0 -198 96.5 -302.5t278.5 -104.5q201 0 305 123t104 362v737q0 62 -37 85t-183 32l-1 82h553v-82q-151 -9 -187 -31.5t-36 -85.5v-733q0 -292 -143 -440t-426 -148q-273 0 -417.5 130.5t-144.5 375.5v817q0 60 -40.5 83t-196.5 32v82h698v-82
q-143 -5 -183 -28.5t-40 -86.5v-817zM1106 1632h-67l-330 205q-31 20 -46.5 40.5t-15.5 41.5q0 32 20.5 52t53.5 20q20 0 40.5 -12t55.5 -48z" />
    <glyph glyph-name="Uacute" unicode="&#xda;" horiz-adv-x="1747" 
d="M553 475q0 -198 96.5 -302.5t278.5 -104.5q201 0 305 123t104 362v737q0 62 -37 85t-183 32l-1 82h553v-82q-151 -9 -187 -31.5t-36 -85.5v-733q0 -292 -143 -440t-426 -148q-273 0 -417.5 130.5t-144.5 375.5v817q0 60 -40.5 83t-196.5 32v82h698v-82
q-143 -5 -183 -28.5t-40 -86.5v-817zM754 1632l289 299q35 36 55.5 48t40.5 12q33 0 53.5 -20t20.5 -52q0 -21 -15.5 -41.5t-46.5 -40.5l-330 -205h-67z" />
    <glyph glyph-name="Ucircumflex" unicode="&#xdb;" horiz-adv-x="1747" 
d="M553 475q0 -198 96.5 -302.5t278.5 -104.5q201 0 305 123t104 362v737q0 62 -37 85t-183 32l-1 82h553v-82q-151 -9 -187 -31.5t-36 -85.5v-733q0 -292 -143 -440t-426 -148q-273 0 -417.5 130.5t-144.5 375.5v817q0 60 -40.5 83t-196.5 32v82h698v-82
q-143 -5 -183 -28.5t-40 -86.5v-817zM639 1632l232 349h118l232 -349h-58l-233 211l-233 -211h-58z" />
    <glyph glyph-name="Udieresis" unicode="&#xdc;" horiz-adv-x="1747" 
d="M553 475q0 -198 96.5 -302.5t278.5 -104.5q201 0 305 123t104 362v737q0 62 -37 85t-183 32l-1 82h553v-82q-151 -9 -187 -31.5t-36 -85.5v-733q0 -292 -143 -440t-426 -148q-273 0 -417.5 130.5t-144.5 375.5v817q0 60 -40.5 83t-196.5 32v82h698v-82
q-143 -5 -183 -28.5t-40 -86.5v-817zM1022 1786q0 40 29.5 70t68.5 30q40 0 70.5 -30t30.5 -70q0 -42 -29 -70t-72 -28q-42 0 -70 28t-28 70zM641 1786q0 40 29.5 70t69.5 30q39 0 69.5 -30t30.5 -70q0 -42 -29 -70t-71 -28q-43 0 -71 28t-28 70z" />
    <glyph glyph-name="Yacute" unicode="&#xdd;" horiz-adv-x="1688" 
d="M971 199q0 -64 38 -87t207 -32l1 -80h-730l1 80q170 7 208.5 32.5t38.5 98.5v356l-454 707q-47 72 -93.5 99t-127.5 34l-1 82h674v-82q-125 -6 -158.5 -20.5t-33.5 -49.5q0 -10 3.5 -20.5t10.5 -22.5l360 -602h19l334 549q8 15 12 29t4 28q0 51 -46.5 77t-150.5 32v82
h527v-82q-124 0 -235 -179l-15 -24l-393 -637v-368zM668 1632l289 299q35 36 55.5 48t40.5 12q33 0 53.5 -20t20.5 -52q0 -21 -15.5 -41.5t-46.5 -40.5l-330 -205h-67z" />
    <glyph glyph-name="Thorn" unicode="&#xde;" horiz-adv-x="1464" 
d="M545 434q30 -2 62 -3t83 -1q246 0 355.5 77.5t109.5 248.5q0 152 -101 232.5t-294 80.5q-145 0 -180 -26t-35 -107v-502zM70 1489h712v-82q-152 -8 -194.5 -32t-42.5 -85v-139h248q291 0 457.5 -109t166.5 -299q0 -205 -165 -307t-498 -102q-56 0 -108 2t-101 6v-143
q0 -62 35.5 -85t210.5 -34v-80h-721v80q162 9 199.5 36t37.5 109v1065q0 60 -37.5 82.5t-199.5 34.5v82z" />
    <glyph glyph-name="germandbls" unicode="&#xdf;" horiz-adv-x="1325" 
d="M227 1108q0 201 124 322.5t329 121.5q192 0 307 -88t115 -235q0 -69 -24 -120t-79 -97q-30 -27 -85.5 -55t-55.5 -42q0 -15 61.5 -37.5t98.5 -46.5q103 -65 152 -159.5t49 -229.5q0 -213 -111.5 -342t-294.5 -129q-122 0 -191 56.5t-69 154.5q0 62 38 105t93 43
q48 0 79.5 -29.5t31.5 -75.5q0 -37 -34 -73.5t-34 -42.5q0 -20 18.5 -33t49.5 -13q102 0 145 72.5t43 251.5q0 221 -38 320.5t-130 136.5q-34 13 -118 15q-19 1 -29 1q-24 0 -37 9.5t-13 27.5q1 32 65 40q39 4 60 11q69 25 97 79.5t28 162.5q0 134 -53 199t-162 65
q-53 0 -100 -21t-74 -57q-21 -28 -30 -71t-9 -160v-1145h-358v82h29q68 0 92 25t24 98v903z" />
    <glyph glyph-name="agrave" unicode="&#xe0;" horiz-adv-x="1214" 
d="M795 535q-231 -18 -337 -78.5t-106 -173.5q0 -77 47.5 -123.5t124.5 -46.5q130 0 200.5 92.5t70.5 263.5v66zM793 145q-103 -89 -199.5 -132.5t-194.5 -43.5q-129 0 -207.5 75t-78.5 196q0 171 175 268.5t505 109.5v164q0 115 -67.5 177.5t-190.5 62.5q-58 0 -95 -20
t-37 -50q0 -18 17.5 -57t17.5 -64q0 -49 -37 -80.5t-96 -31.5q-60 0 -95.5 34.5t-35.5 92.5q0 111 105 180.5t278 69.5q213 0 318.5 -85t105.5 -257v-582q0 -31 14 -47t41 -16q15 0 41.5 11t40.5 11q11 0 16.5 -4t6.5 -12q0 -45 -61 -88t-128 -43q-59 0 -98.5 39.5
t-60.5 121.5zM756 1210h-67l-330 205q-31 20 -46.5 40.5t-15.5 41.5q0 32 20.5 52t53.5 20q20 0 40.5 -12t55.5 -48z" />
    <glyph glyph-name="aacute" unicode="&#xe1;" horiz-adv-x="1214" 
d="M795 535q-231 -18 -337 -78.5t-106 -173.5q0 -77 47.5 -123.5t124.5 -46.5q130 0 200.5 92.5t70.5 263.5v66zM793 145q-103 -89 -199.5 -132.5t-194.5 -43.5q-129 0 -207.5 75t-78.5 196q0 171 175 268.5t505 109.5v164q0 115 -67.5 177.5t-190.5 62.5q-58 0 -95 -20
t-37 -50q0 -18 17.5 -57t17.5 -64q0 -49 -37 -80.5t-96 -31.5q-60 0 -95.5 34.5t-35.5 92.5q0 111 105 180.5t278 69.5q213 0 318.5 -85t105.5 -257v-582q0 -31 14 -47t41 -16q15 0 41.5 11t40.5 11q11 0 16.5 -4t6.5 -12q0 -45 -61 -88t-128 -43q-59 0 -98.5 39.5
t-60.5 121.5zM404 1210l289 299q35 36 55.5 48t40.5 12q33 0 53.5 -20t20.5 -52q0 -21 -15.5 -41.5t-46.5 -40.5l-330 -205h-67z" />
    <glyph glyph-name="acircumflex" unicode="&#xe2;" horiz-adv-x="1214" 
d="M795 535q-231 -18 -337 -78.5t-106 -173.5q0 -77 47.5 -123.5t124.5 -46.5q130 0 200.5 92.5t70.5 263.5v66zM793 145q-103 -89 -199.5 -132.5t-194.5 -43.5q-129 0 -207.5 75t-78.5 196q0 171 175 268.5t505 109.5v164q0 115 -67.5 177.5t-190.5 62.5q-58 0 -95 -20
t-37 -50q0 -18 17.5 -57t17.5 -64q0 -49 -37 -80.5t-96 -31.5q-60 0 -95.5 34.5t-35.5 92.5q0 111 105 180.5t278 69.5q213 0 318.5 -85t105.5 -257v-582q0 -31 14 -47t41 -16q15 0 41.5 11t40.5 11q11 0 16.5 -4t6.5 -12q0 -45 -61 -88t-128 -43q-59 0 -98.5 39.5
t-60.5 121.5zM289 1210l232 349h118l232 -349h-58l-233 211l-233 -211h-58z" />
    <glyph glyph-name="atilde" unicode="&#xe3;" horiz-adv-x="1214" 
d="M795 535q-231 -18 -337 -78.5t-106 -173.5q0 -77 47.5 -123.5t124.5 -46.5q130 0 200.5 92.5t70.5 263.5v66zM793 145q-103 -89 -199.5 -132.5t-194.5 -43.5q-129 0 -207.5 75t-78.5 196q0 171 175 268.5t505 109.5v164q0 115 -67.5 177.5t-190.5 62.5q-58 0 -95 -20
t-37 -50q0 -18 17.5 -57t17.5 -64q0 -49 -37 -80.5t-96 -31.5q-60 0 -95.5 34.5t-35.5 92.5q0 111 105 180.5t278 69.5q213 0 318.5 -85t105.5 -257v-582q0 -31 14 -47t41 -16q15 0 41.5 11t40.5 11q11 0 16.5 -4t6.5 -12q0 -45 -61 -88t-128 -43q-59 0 -98.5 39.5
t-60.5 121.5zM867 1507q-20 -103 -68.5 -155t-126.5 -52q-21 0 -67 11q-4 1 -7 2l-109 29q-11 2 -23.5 4t-24.5 2q-39 0 -60.5 -20t-36.5 -71h-51q19 106 68 158.5t129 52.5q17 0 32.5 -2t30.5 -6l110 -28q24 -6 36.5 -8.5t19.5 -2.5q36 0 58 20t36 66h54z" />
    <glyph glyph-name="adieresis" unicode="&#xe4;" horiz-adv-x="1214" 
d="M795 535q-231 -18 -337 -78.5t-106 -173.5q0 -77 47.5 -123.5t124.5 -46.5q130 0 200.5 92.5t70.5 263.5v66zM793 145q-103 -89 -199.5 -132.5t-194.5 -43.5q-129 0 -207.5 75t-78.5 196q0 171 175 268.5t505 109.5v164q0 115 -67.5 177.5t-190.5 62.5q-58 0 -95 -20
t-37 -50q0 -18 17.5 -57t17.5 -64q0 -49 -37 -80.5t-96 -31.5q-60 0 -95.5 34.5t-35.5 92.5q0 111 105 180.5t278 69.5q213 0 318.5 -85t105.5 -257v-582q0 -31 14 -47t41 -16q15 0 41.5 11t40.5 11q11 0 16.5 -4t6.5 -12q0 -45 -61 -88t-128 -43q-59 0 -98.5 39.5
t-60.5 121.5zM672 1364q0 40 29.5 70t68.5 30q40 0 70.5 -30t30.5 -70q0 -42 -29 -70t-72 -28q-42 0 -70 28t-28 70zM291 1364q0 40 29.5 70t69.5 30q39 0 69.5 -30t30.5 -70q0 -42 -29 -70t-71 -28q-43 0 -71 28t-28 70z" />
    <glyph glyph-name="aring" unicode="&#xe5;" horiz-adv-x="1214" 
d="M459 1403q0 -63 43 -106.5t106 -43.5t106.5 43.5t43.5 106.5q0 61 -44 105t-106 44t-105.5 -43.5t-43.5 -105.5zM369 1403q0 101 69 170t170 69q102 0 172 -69t70 -170t-70 -171.5t-172 -70.5q-101 0 -170 70t-69 172zM791 145q-101 -89 -197.5 -132.5t-194.5 -43.5
q-129 0 -207.5 75t-78.5 196q0 171 175 268.5t505 109.5v164q0 115 -67.5 177.5t-190.5 62.5q-58 0 -95 -20t-37 -50q0 -18 17.5 -57t17.5 -64q0 -49 -37 -80.5t-96 -31.5q-60 0 -95.5 34.5t-35.5 92.5q0 111 105 180.5t278 69.5q213 0 318.5 -85t105.5 -257v-582
q0 -31 14 -47t41 -16q15 0 41.5 11t40.5 11q11 0 16.5 -4t6.5 -12q0 -45 -61 -88t-128 -43q-59 0 -98.5 39.5t-62.5 121.5zM791 534q-229 -17 -334 -77.5t-105 -173.5q0 -77 47.5 -123.5t124.5 -46.5q129 0 198 92t69 264q0 7 1 21.5t1 21.5q0 9 -0.5 13.5t-1.5 8.5z" />
    <glyph glyph-name="ae" unicode="&#xe6;" horiz-adv-x="1786" 
d="M760 534q-225 -19 -324.5 -78.5t-99.5 -172.5q0 -76 45.5 -123t120.5 -47q124 0 192 94t68 266q0 24 -0.5 36.5t-1.5 24.5zM1478 612q-7 186 -72.5 284.5t-180.5 98.5q-121 0 -190.5 -96t-86.5 -287h530zM807 172q-91 -100 -195.5 -151.5t-218.5 -51.5q-122 0 -199 74
t-77 188q0 179 162 277t479 110v164q0 114 -61.5 177t-172.5 63q-63 0 -96 -19t-33 -55q0 -14 15.5 -52t15.5 -65q0 -48 -35.5 -80t-89.5 -32q-56 0 -89.5 35.5t-33.5 93.5q0 106 96 177t242 71q121 0 210.5 -36.5t150.5 -111.5q74 71 155.5 106.5t171.5 35.5
q206 0 332.5 -147.5t126.5 -389.5v-21h-715q3 -212 96.5 -338t245.5 -126q94 0 170 56t142 175l69 -45q-87 -144 -190.5 -213.5t-233.5 -69.5q-125 0 -233 49.5t-207 151.5z" />
    <glyph glyph-name="ccedilla" unicode="&#xe7;" horiz-adv-x="1102" 
d="M922 240l59 -45q-95 -114 -196 -170t-212 -56q-200 0 -338.5 159.5t-138.5 395.5q0 246 143.5 410t358.5 164q162 0 271.5 -82.5t109.5 -198.5q0 -85 -38.5 -133.5t-104.5 -48.5q-62 0 -99 36t-37 97q0 56 44 105t44 53q0 31 -44 55.5t-109 24.5q-149 0 -226 -121
t-77 -357q0 -205 81 -326.5t216 -121.5q71 0 142 38.5t151 121.5zM285 -371l35 78q60 -34 118.5 -53t104.5 -19q64 0 92.5 22t28.5 71q0 42 -29.5 66t-83.5 24q-13 0 -28.5 -1.5t-32.5 -4.5v188h63v-112q16 2 31.5 3.5t29.5 2.5q87 0 135 -43.5t48 -120.5q0 -82 -58.5 -129
t-160.5 -47q-55 0 -122 17t-171 58z" />
    <glyph glyph-name="egrave" unicode="&#xe8;" horiz-adv-x="1214" 
d="M1114 256q-95 -148 -207.5 -216.5t-261.5 -68.5q-238 0 -391.5 157.5t-153.5 401.5q0 241 150.5 403.5t370.5 162.5q215 0 349 -147.5t134 -387.5v-24l-766 -1q3 -213 102.5 -340.5t261.5 -127.5q100 0 182.5 56.5t153.5 174.5zM868 619q-7 186 -72.5 284t-181.5 98
q-121 0 -190 -95.5t-86 -287.5zM815 1210h-67l-330 205q-31 20 -46.5 40.5t-15.5 41.5q0 32 20.5 52t53.5 20q20 0 40.5 -12t55.5 -48z" />
    <glyph glyph-name="eacute" unicode="&#xe9;" horiz-adv-x="1214" 
d="M1114 256q-95 -148 -207.5 -216.5t-261.5 -68.5q-238 0 -391.5 157.5t-153.5 401.5q0 241 150.5 403.5t370.5 162.5q215 0 349 -147.5t134 -387.5v-24l-766 -1q3 -213 102.5 -340.5t261.5 -127.5q100 0 182.5 56.5t153.5 174.5zM868 619q-7 186 -72.5 284t-181.5 98
q-121 0 -190 -95.5t-86 -287.5zM463 1210l289 299q35 36 55.5 48t40.5 12q33 0 53.5 -20t20.5 -52q0 -21 -15.5 -41.5t-46.5 -40.5l-330 -205h-67z" />
    <glyph glyph-name="ecircumflex" unicode="&#xea;" horiz-adv-x="1214" 
d="M1114 256q-95 -148 -207.5 -216.5t-261.5 -68.5q-238 0 -391.5 157.5t-153.5 401.5q0 241 150.5 403.5t370.5 162.5q215 0 349 -147.5t134 -387.5v-24l-766 -1q3 -213 102.5 -340.5t261.5 -127.5q100 0 182.5 56.5t153.5 174.5zM868 619q-7 186 -72.5 284t-181.5 98
q-121 0 -190 -95.5t-86 -287.5zM348 1210l232 349h118l232 -349h-58l-233 211l-233 -211h-58z" />
    <glyph glyph-name="edieresis" unicode="&#xeb;" horiz-adv-x="1214" 
d="M1114 256q-95 -148 -207.5 -216.5t-261.5 -68.5q-238 0 -391.5 157.5t-153.5 401.5q0 241 150.5 403.5t370.5 162.5q215 0 349 -147.5t134 -387.5v-24l-766 -1q3 -213 102.5 -340.5t261.5 -127.5q100 0 182.5 56.5t153.5 174.5zM868 619q-7 186 -72.5 284t-181.5 98
q-121 0 -190 -95.5t-86 -287.5zM731 1364q0 40 29.5 70t68.5 30q40 0 70.5 -30t30.5 -70q0 -42 -29 -70t-72 -28q-42 0 -70 28t-28 70zM350 1364q0 40 29.5 70t69.5 30q39 0 69.5 -30t30.5 -70q0 -42 -29 -70t-71 -28q-43 0 -71 28t-28 70z" />
    <glyph glyph-name="igrave" unicode="&#xec;" horiz-adv-x="766" 
d="M492 201q0 -71 23 -97t85 -26q6 0 18.5 1t18.5 1v-80h-504v80q6 0 18.5 -1t18.5 -1q62 0 85.5 25t23.5 98v608q0 119 -30 142.5t-124 25.5v71q103 4 193 14.5t174 29.5v-891zM536 1210h-67l-330 205q-31 20 -46.5 40.5t-15.5 41.5q0 32 20.5 52t53.5 20q20 0 40.5 -12
t55.5 -48z" />
    <glyph glyph-name="iacute" unicode="&#xed;" horiz-adv-x="766" 
d="M492 201q0 -71 23 -97t85 -26q6 0 18.5 1t18.5 1v-80h-504v80q6 0 18.5 -1t18.5 -1q62 0 85.5 25t23.5 98v608q0 119 -30 142.5t-124 25.5v71q103 4 193 14.5t174 29.5v-891zM184 1210l289 299q35 36 55.5 48t40.5 12q33 0 53.5 -20t20.5 -52q0 -21 -15.5 -41.5
t-46.5 -40.5l-330 -205h-67z" />
    <glyph glyph-name="icircumflex" unicode="&#xee;" horiz-adv-x="766" 
d="M492 201q0 -71 23 -97t85 -26q6 0 18.5 1t18.5 1v-80h-504v80q6 0 18.5 -1t18.5 -1q62 0 85.5 25t23.5 98v608q0 119 -30 142.5t-124 25.5v71q103 4 193 14.5t174 29.5v-891zM69 1210l232 349h118l232 -349h-58l-233 211l-233 -211h-58z" />
    <glyph glyph-name="idieresis" unicode="&#xef;" horiz-adv-x="766" 
d="M492 201q0 -71 23 -97t85 -26q6 0 18.5 1t18.5 1v-80h-504v80q6 0 18.5 -1t18.5 -1q62 0 85.5 25t23.5 98v608q0 119 -30 142.5t-124 25.5v71q103 4 193 14.5t174 29.5v-891zM452 1364q0 40 29.5 70t68.5 30q40 0 70.5 -30t30.5 -70q0 -42 -29 -70t-72 -28q-42 0 -70 28
t-28 70zM71 1364q0 40 29.5 70t69.5 30q39 0 69.5 -30t30.5 -70q0 -42 -29 -70t-71 -28q-43 0 -71 28t-28 70z" />
    <glyph glyph-name="eth" unicode="&#xf0;" horiz-adv-x="1219" 
d="M614 948q-131 0 -203.5 -116.5t-72.5 -329.5t70.5 -327t201.5 -114q129 0 199 112t70 319q0 219 -69 337.5t-196 118.5zM772 993q-33 72 -67 136t-68 120l-309 -127l-35 78l295 123q-25 38 -55.5 79t-75.5 97l71 62q39 -36 79.5 -77.5t107.5 -115.5l291 117l30 -76
l-264 -109q180 -234 262 -420.5t82 -359.5q0 -96 -25 -179.5t-75 -154.5q-71 -97 -181 -156t-221 -59q-214 0 -363 154t-149 377q0 108 38.5 205.5t111.5 175.5q71 74 160.5 114.5t181.5 40.5q47 0 91.5 -11t86.5 -34z" />
    <glyph glyph-name="ntilde" unicode="&#xf1;" horiz-adv-x="1325" 
d="M899 762q0 101 -40.5 153t-119.5 52q-113 0 -198.5 -115.5t-85.5 -273.5v-377q0 -71 23 -97t85 -26q6 0 18.5 1t18.5 1v-80h-504v80q6 0 18.5 -1t18.5 -1q62 0 85.5 25t23.5 98v618q0 110 -29.5 133t-122.5 25v71q87 2 173.5 12.5t174.5 31.5v-228l17 -14
q74 116 163 173.5t193 57.5q139 0 220 -81t81 -220v-579q0 -71 23.5 -97t85.5 -26q6 0 18 1t18 1v-80h-503v80q6 0 18 -1t19 -1q62 0 85 25t23 98v561zM973 1507q-20 -103 -68.5 -155t-126.5 -52q-21 0 -67 11q-4 1 -7 2l-109 29q-11 2 -23.5 4t-24.5 2q-39 0 -60.5 -20
t-36.5 -71h-51q19 106 68 158.5t129 52.5q17 0 32.5 -2t30.5 -6l110 -28q24 -6 36.5 -8.5t19.5 -2.5q36 0 58 20t36 66h54z" />
    <glyph glyph-name="ograve" unicode="&#xf2;" horiz-adv-x="1219" 
d="M340 512q0 -213 71 -329.5t199 -116.5q129 0 199 118t70 336q0 231 -69 356t-196 125q-134 0 -204 -124.5t-70 -364.5zM614 -29q-96 0 -183.5 36.5t-158.5 105.5q-82 79 -126 186.5t-44 230.5q0 114 39 218t111 184q75 81 165 122.5t191 41.5q98 0 184.5 -37.5
t157.5 -110.5q83 -86 124.5 -192t41.5 -234q0 -116 -43.5 -221t-124.5 -184q-66 -67 -157.5 -106.5t-176.5 -39.5zM786 1210h-67l-330 205q-31 20 -46.5 40.5t-15.5 41.5q0 32 20.5 52t53.5 20q20 0 40.5 -12t55.5 -48z" />
    <glyph glyph-name="oacute" unicode="&#xf3;" horiz-adv-x="1219" 
d="M340 512q0 -213 71 -329.5t199 -116.5q129 0 199 118t70 336q0 231 -69 356t-196 125q-134 0 -204 -124.5t-70 -364.5zM614 -29q-96 0 -183.5 36.5t-158.5 105.5q-82 79 -126 186.5t-44 230.5q0 114 39 218t111 184q75 81 165 122.5t191 41.5q98 0 184.5 -37.5
t157.5 -110.5q83 -86 124.5 -192t41.5 -234q0 -116 -43.5 -221t-124.5 -184q-66 -67 -157.5 -106.5t-176.5 -39.5zM434 1210l289 299q35 36 55.5 48t40.5 12q33 0 53.5 -20t20.5 -52q0 -21 -15.5 -41.5t-46.5 -40.5l-330 -205h-67z" />
    <glyph glyph-name="ocircumflex" unicode="&#xf4;" horiz-adv-x="1219" 
d="M340 512q0 -213 71 -329.5t199 -116.5q129 0 199 118t70 336q0 231 -69 356t-196 125q-134 0 -204 -124.5t-70 -364.5zM614 -29q-96 0 -183.5 36.5t-158.5 105.5q-82 79 -126 186.5t-44 230.5q0 114 39 218t111 184q75 81 165 122.5t191 41.5q98 0 184.5 -37.5
t157.5 -110.5q83 -86 124.5 -192t41.5 -234q0 -116 -43.5 -221t-124.5 -184q-66 -67 -157.5 -106.5t-176.5 -39.5zM319 1210l232 349h118l232 -349h-58l-233 211l-233 -211h-58z" />
    <glyph glyph-name="otilde" unicode="&#xf5;" horiz-adv-x="1219" 
d="M340 512q0 -213 71 -329.5t199 -116.5q129 0 199 118t70 336q0 231 -69 356t-196 125q-134 0 -204 -124.5t-70 -364.5zM614 -29q-96 0 -183.5 36.5t-158.5 105.5q-82 79 -126 186.5t-44 230.5q0 114 39 218t111 184q75 81 165 122.5t191 41.5q98 0 184.5 -37.5
t157.5 -110.5q83 -86 124.5 -192t41.5 -234q0 -116 -43.5 -221t-124.5 -184q-66 -67 -157.5 -106.5t-176.5 -39.5zM897 1507q-20 -103 -68.5 -155t-126.5 -52q-21 0 -67 11q-4 1 -7 2l-109 29q-11 2 -23.5 4t-24.5 2q-39 0 -60.5 -20t-36.5 -71h-51q19 106 68 158.5
t129 52.5q17 0 32.5 -2t30.5 -6l110 -28q24 -6 36.5 -8.5t19.5 -2.5q36 0 58 20t36 66h54z" />
    <glyph glyph-name="odieresis" unicode="&#xf6;" horiz-adv-x="1219" 
d="M340 512q0 -213 71 -329.5t199 -116.5q129 0 199 118t70 336q0 231 -69 356t-196 125q-134 0 -204 -124.5t-70 -364.5zM614 -29q-96 0 -183.5 36.5t-158.5 105.5q-82 79 -126 186.5t-44 230.5q0 114 39 218t111 184q75 81 165 122.5t191 41.5q98 0 184.5 -37.5
t157.5 -110.5q83 -86 124.5 -192t41.5 -234q0 -116 -43.5 -221t-124.5 -184q-66 -67 -157.5 -106.5t-176.5 -39.5zM702 1364q0 40 29.5 70t68.5 30q40 0 70.5 -30t30.5 -70q0 -42 -29 -70t-72 -28q-42 0 -70 28t-28 70zM321 1364q0 40 29.5 70t69.5 30q39 0 69.5 -30
t30.5 -70q0 -42 -29 -70t-71 -28q-43 0 -71 28t-28 70z" />
    <glyph glyph-name="divide" unicode="&#xf7;" horiz-adv-x="1706" 
d="M854 367q51 0 88 -37t37 -88q0 -52 -36.5 -88.5t-88.5 -36.5q-53 0 -89 36t-36 89q0 51 37 88t88 37zM254 680h1198v-139h-1198v139zM854 1106q51 0 88 -37.5t37 -89.5q0 -51 -36.5 -88t-88.5 -37t-88.5 36.5t-36.5 88.5t37 89.5t88 37.5z" />
    <glyph glyph-name="oslash" unicode="&#xf8;" horiz-adv-x="1208" 
d="M311 72q-106 84 -158.5 195t-52.5 249q0 121 39 228t113 190q72 81 166.5 126.5t189.5 45.5q53 0 107.5 -16t111.5 -48l111 205h94l-133 -250q111 -93 164 -204.5t53 -249.5q0 -244 -149.5 -410t-364.5 -166q-55 0 -109 15.5t-108 46.5l-121 -228h-94zM770 934
q-37 35 -77.5 52.5t-86.5 17.5q-127 0 -197.5 -126t-70.5 -354q0 -83 13 -157.5t40 -145.5zM442 135q37 -37 76.5 -54.5t85.5 -17.5q135 0 205 122t70 360q0 88 -14.5 163t-43.5 144z" />
    <glyph glyph-name="ugrave" unicode="&#xf9;" horiz-adv-x="1337" 
d="M213 809q0 115 -28 140.5t-119 27.5v70q88 3 178 13.5t182 29.5v-789q0 -101 40.5 -153t119.5 -52q113 0 198.5 115.5t85.5 273.5v334q0 108 -28 131.5t-117 26.5v69q92 4 181 14.5t177 29.5v-846q0 -108 28.5 -131.5t116.5 -26.5l1 -71q-95 -4 -180 -14.5t-162 -29.5
v228l-17 12q-73 -115 -162 -172t-194 -57q-139 0 -220 80.5t-81 220.5v526zM829 1210h-67l-330 205q-31 20 -46.5 40.5t-15.5 41.5q0 32 20.5 52t53.5 20q20 0 40.5 -12t55.5 -48z" />
    <glyph glyph-name="uacute" unicode="&#xfa;" horiz-adv-x="1337" 
d="M213 809q0 115 -28 140.5t-119 27.5v70q88 3 178 13.5t182 29.5v-789q0 -101 40.5 -153t119.5 -52q113 0 198.5 115.5t85.5 273.5v334q0 108 -28 131.5t-117 26.5v69q92 4 181 14.5t177 29.5v-846q0 -108 28.5 -131.5t116.5 -26.5l1 -71q-95 -4 -180 -14.5t-162 -29.5
v228l-17 12q-73 -115 -162 -172t-194 -57q-139 0 -220 80.5t-81 220.5v526zM477 1210l289 299q35 36 55.5 48t40.5 12q33 0 53.5 -20t20.5 -52q0 -21 -15.5 -41.5t-46.5 -40.5l-330 -205h-67z" />
    <glyph glyph-name="ucircumflex" unicode="&#xfb;" horiz-adv-x="1337" 
d="M213 809q0 115 -28 140.5t-119 27.5v70q88 3 178 13.5t182 29.5v-789q0 -101 40.5 -153t119.5 -52q113 0 198.5 115.5t85.5 273.5v334q0 108 -28 131.5t-117 26.5v69q92 4 181 14.5t177 29.5v-846q0 -108 28.5 -131.5t116.5 -26.5l1 -71q-95 -4 -180 -14.5t-162 -29.5
v228l-17 12q-73 -115 -162 -172t-194 -57q-139 0 -220 80.5t-81 220.5v526zM362 1210l232 349h118l232 -349h-58l-233 211l-233 -211h-58z" />
    <glyph glyph-name="udieresis" unicode="&#xfc;" horiz-adv-x="1337" 
d="M213 809q0 115 -28 140.5t-119 27.5v70q88 3 178 13.5t182 29.5v-789q0 -101 40.5 -153t119.5 -52q113 0 198.5 115.5t85.5 273.5v334q0 108 -28 131.5t-117 26.5v69q92 4 181 14.5t177 29.5v-846q0 -108 28.5 -131.5t116.5 -26.5l1 -71q-95 -4 -180 -14.5t-162 -29.5
v228l-17 12q-73 -115 -162 -172t-194 -57q-139 0 -220 80.5t-81 220.5v526zM745 1364q0 40 29.5 70t68.5 30q40 0 70.5 -30t30.5 -70q0 -42 -29 -70t-72 -28q-42 0 -70 28t-28 70zM364 1364q0 40 29.5 70t69.5 30q39 0 69.5 -30t30.5 -70q0 -42 -29 -70t-71 -28
q-43 0 -71 28t-28 70z" />
    <glyph glyph-name="yacute" unicode="&#xfd;" horiz-adv-x="1100" 
d="M600 12q-76 -187 -173.5 -282t-215.5 -95q-93 0 -148 49.5t-55 131.5q0 63 40 106t99 43q51 0 85 -33.5t34 -83.5q0 -25 -13 -57t-13 -39q0 -8 8 -13t22 -5q24 0 57 25t64 67q44 59 73.5 122.5t29.5 90.5q-1 11 -3.5 21t-6.5 19l-339 795q-25 61 -54 84t-78 25l-1 80h475
v-80h-16q-64 0 -91.5 -14t-27.5 -45q0 -5 1.5 -10.5t4.5 -11.5l242 -603h16l222 556q4 8 7 21t3 25q0 42 -28.5 62t-88.5 20h-26v80h374v-80h-18q-36 0 -58 -17.5t-40 -62.5zM375 1210l289 299q35 36 55.5 48t40.5 12q33 0 53.5 -20t20.5 -52q0 -21 -15.5 -41.5t-46.5 -40.5
l-330 -205h-67z" />
    <glyph glyph-name="thorn" unicode="&#xfe;" horiz-adv-x="1327" 
d="M725 971q-134 0 -204 -115.5t-70 -335.5q0 -195 71.5 -303t200.5 -108q128 0 198 108.5t70 308.5q0 212 -70 328.5t-196 116.5zM240 1274q0 118 -29.5 141t-124.5 25v71q117 5 207.5 15.5t159.5 25.5v-659l10 -4q65 104 137.5 149t173.5 45q77 0 161 -37.5t142 -99.5
q75 -78 113.5 -180t38.5 -225q0 -240 -129 -390.5t-332 -150.5q-90 0 -159.5 39t-137.5 127l-18 -14v-318q0 -72 25 -96.5t102 -24.5q7 0 25.5 1t29.5 1v-80h-541v80h33q66 0 89.5 24.5t23.5 94.5v1440z" />
    <glyph glyph-name="ydieresis" unicode="&#xff;" horiz-adv-x="1100" 
d="M600 12q-76 -187 -173.5 -282t-215.5 -95q-93 0 -148 49.5t-55 131.5q0 63 40 106t99 43q51 0 85 -33.5t34 -83.5q0 -25 -13 -57t-13 -39q0 -8 8 -13t22 -5q24 0 57 25t64 67q44 59 73.5 122.5t29.5 90.5q-1 11 -3.5 21t-6.5 19l-339 795q-25 61 -54 84t-78 25l-1 80h475
v-80h-16q-64 0 -91.5 -14t-27.5 -45q0 -5 1.5 -10.5t4.5 -11.5l242 -603h16l222 556q4 8 7 21t3 25q0 42 -28.5 62t-88.5 20h-26v80h374v-80h-18q-36 0 -58 -17.5t-40 -62.5zM643 1364q0 40 29.5 70t68.5 30q40 0 70.5 -30t30.5 -70q0 -42 -29 -70t-72 -28q-42 0 -70 28
t-28 70zM262 1364q0 40 29.5 70t69.5 30q39 0 69.5 -30t30.5 -70q0 -42 -29 -70t-71 -28q-43 0 -71 28t-28 70z" />
    <glyph glyph-name="Cacute" unicode="&#x106;" horiz-adv-x="1458" 
d="M1360 440q-89 -232 -240.5 -351.5t-357.5 -119.5q-128 0 -241 45.5t-202 132.5q-108 108 -167.5 262.5t-59.5 331.5q0 173 56 322t163 260q92 96 202.5 145.5t236.5 49.5q80 0 197 -34q7 -2 11 -3q37 -11 100 -41.5t89 -30.5q30 0 48.5 27t29.5 86h90l14 -555h-90
q-51 222 -170.5 344.5t-284.5 122.5q-204 0 -318 -179t-114 -501q0 -329 118 -513t327 -184q167 0 292 108.5t189 307.5zM596 1632l289 299q35 36 55.5 48t40.5 12q33 0 53.5 -20t20.5 -52q0 -21 -15.5 -41.5t-46.5 -40.5l-330 -205h-67z" />
    <glyph glyph-name="cacute" unicode="&#x107;" horiz-adv-x="1102" 
d="M922 240l59 -45q-95 -114 -196 -170t-212 -56q-200 0 -338.5 159.5t-138.5 395.5q0 246 143.5 410t358.5 164q162 0 271.5 -82.5t109.5 -198.5q0 -85 -38.5 -133.5t-104.5 -48.5q-62 0 -99 36t-37 97q0 56 44 105t44 53q0 31 -44 55.5t-109 24.5q-149 0 -226 -121
t-77 -357q0 -205 81 -326.5t216 -121.5q71 0 142 38.5t151 121.5zM420 1210l289 299q35 36 55.5 48t40.5 12q33 0 53.5 -20t20.5 -52q0 -21 -15.5 -41.5t-46.5 -40.5l-330 -205h-67z" />
    <glyph glyph-name="Ccaron" unicode="&#x10c;" horiz-adv-x="1458" 
d="M1360 440q-89 -232 -240.5 -351.5t-357.5 -119.5q-128 0 -241 45.5t-202 132.5q-108 108 -167.5 262.5t-59.5 331.5q0 173 56 322t163 260q92 96 202.5 145.5t236.5 49.5q80 0 197 -34q7 -2 11 -3q37 -11 100 -41.5t89 -30.5q30 0 48.5 27t29.5 86h90l14 -555h-90
q-51 222 -170.5 344.5t-284.5 122.5q-204 0 -318 -179t-114 -501q0 -329 118 -513t327 -184q167 0 292 108.5t189 307.5zM481 1981h58l233 -211l233 211h58l-232 -349h-118z" />
    <glyph glyph-name="ccaron" unicode="&#x10d;" horiz-adv-x="1102" 
d="M922 240l59 -45q-95 -114 -196 -170t-212 -56q-200 0 -338.5 159.5t-138.5 395.5q0 246 143.5 410t358.5 164q162 0 271.5 -82.5t109.5 -198.5q0 -85 -38.5 -133.5t-104.5 -48.5q-62 0 -99 36t-37 97q0 56 44 105t44 53q0 31 -44 55.5t-109 24.5q-149 0 -226 -121
t-77 -357q0 -205 81 -326.5t216 -121.5q71 0 142 38.5t151 121.5zM305 1559h58l233 -211l233 211h58l-232 -349h-118z" />
    <glyph glyph-name="dcroat" unicode="&#x111;" horiz-adv-x="1325" 
d="M899 164l-22 6q-68 -103 -145 -151t-175 -48q-199 0 -337 158.5t-138 394.5q0 244 129.5 408t316.5 164q100 0 181 -51t131 -142l18 12v297h-389v78h389v21q0 71 -23.5 95t-91.5 24h-32v79h18q71 0 159.5 11t188.5 32q-5 -51 -6.5 -76.5t-1.5 -48.5v-137h256v-78h-256
v-1001q0 -75 20 -97t78 -22h29v-80h-25q-52 0 -118 -10t-154 -31v193zM319 537q0 -215 69.5 -333t195.5 -118q131 0 203.5 115.5t72.5 326.5q0 207 -70.5 318.5t-201.5 111.5q-129 0 -199 -109t-70 -312z" />
    <glyph glyph-name="Gbreve" unicode="&#x11e;" horiz-adv-x="1577" 
d="M872 690h666v-94q-13 1 -27 1.5t-38 0.5q-85 0 -113.5 -26.5t-28.5 -112.5v-486h-96q-10 57 -31.5 88t-50.5 31q-17 0 -70 -30q-36 -21 -57 -31q-60 -29 -127.5 -44.5t-138.5 -15.5q-126 0 -243 47.5t-206 135.5q-108 107 -166.5 260.5t-58.5 333.5q0 174 55.5 323
t161.5 260q92 96 202.5 145.5t235.5 49.5q52 0 101.5 -8t107.5 -27q37 -11 100 -42.5t89 -31.5q29 0 49.5 28.5t28.5 78.5h90l14 -518h-90q-64 209 -182 322.5t-273 113.5q-204 0 -318 -181t-114 -507q0 -327 123 -512t338 -185q139 0 217 89t78 249q0 108 -47.5 154.5
t-157.5 46.5h-23v94zM495 1942h51q17 -74 75 -108t167 -34t166 33.5t74 108.5h51q-20 -134 -94 -202.5t-197 -68.5q-122 0 -197 69t-96 202z" />
    <glyph glyph-name="gbreve" unicode="&#x11f;" horiz-adv-x="1104" 
d="M166 -106q0 -78 88 -121t248 -43q195 0 300 45t105 129q0 72 -99.5 107.5t-299.5 35.5q-167 0 -254.5 -39.5t-87.5 -113.5zM301 762q0 -112 64.5 -182t166.5 -70q107 0 170.5 68.5t63.5 183.5q0 113 -62.5 178.5t-168.5 65.5q-103 0 -168.5 -68.5t-65.5 -175.5zM829 1001
q64 -55 94.5 -116t30.5 -131q0 -143 -115.5 -239.5t-289.5 -96.5q-46 0 -94 9t-101 28q-47 -30 -71.5 -63t-24.5 -68q0 -94 249 -102q28 0 44 -1q264 -8 382 -72t118 -198q0 -149 -149 -233.5t-415 -84.5q-218 0 -337 63t-119 177q0 73 54 123t181 92q-86 45 -118.5 83.5
t-32.5 92.5q0 55 39 104.5t129 106.5q-86 56 -128 124.5t-42 152.5q0 153 116 248.5t306 95.5q62 0 121 -15.5t116 -46.5q71 88 117 119t98 31q51 0 85 -25t34 -61q0 -37 -23.5 -60.5t-58.5 -23.5q-28 0 -70.5 17.5t-56.5 17.5q-19 0 -36 -12t-32 -36zM260 1520h51
q17 -74 75 -108t167 -34t166 33.5t74 108.5h51q-20 -134 -94 -202.5t-197 -68.5q-122 0 -197 69t-96 202z" />
    <glyph glyph-name="Idotaccent" unicode="&#x130;" horiz-adv-x="895" 
d="M106 0l1 80q141 5 182 29t41 90v1091q0 65 -40 88.5t-183 28.5l-1 82h682v-82q-145 -6 -184 -29t-39 -88v-1091q0 -64 37.5 -87t185.5 -32v-80h-682zM349 1784q0 41 29.5 70.5t70.5 29.5t70.5 -29.5t29.5 -70.5q0 -42 -29.5 -71t-70.5 -29t-70.5 29t-29.5 71z" />
    <glyph glyph-name="dotlessi" unicode="&#x131;" horiz-adv-x="766" 
d="M492 201q0 -71 23 -97t85 -26q6 0 18.5 1t18.5 1v-80h-504v80q6 0 18.5 -1t18.5 -1q62 0 85.5 25t23.5 98v608q0 119 -30 142.5t-124 25.5v71q103 4 193 14.5t174 29.5v-891z" />
    <glyph glyph-name="Lslash" unicode="&#x141;" horiz-adv-x="1470" 
d="M584 229q0 -84 39.5 -112.5t205.5 -28.5q244 0 354.5 105.5t141.5 369.5h86l-16 -563h-1286v80q151 7 194 34t43 97v426l-356 -250v105l356 245v553q0 61 -40.5 84.5t-196.5 32.5v82h757v-82h-7q-275 -6 -275 -117v-409l420 290v-102l-420 -295v-545z" />
    <glyph glyph-name="lslash" unicode="&#x142;" horiz-adv-x="754" 
d="M272 664l-290 -201v90l290 207v524q0 109 -29 131.5t-122 24.5v71q110 4 198 14t166 27v-657l287 199v-90l-287 -205v-598q0 -71 23.5 -97t85.5 -26q6 0 18.5 1t18.5 1v-80h-504v80q6 0 18.5 -1t18.5 -1q62 0 85 25t23 98v463z" />
    <glyph glyph-name="OE" unicode="&#x152;" horiz-adv-x="2380" 
d="M1122 1235q0 97 -53.5 133.5t-204.5 36.5q-240 0 -373 -165t-133 -464q0 -335 138.5 -513.5t398.5 -178.5q113 0 170 31.5t57 93.5v1026zM1362 830q13 -2 27 -2.5t41 -0.5q149 0 220 69t79 222h98q-7 -101 -11 -187.5t-4 -150.5q0 -169 13 -322q2 -19 2 -22h-98
q-7 164 -77.5 235.5t-226.5 71.5q-25 0 -38.5 -0.5t-24.5 -1.5v-479q0 -119 38 -150.5t175 -31.5q295 0 433 102t173 344h88l-22 -526h-1319q-379 0 -602.5 204t-223.5 548q0 121 32.5 231t96.5 205q108 159 277.5 230t445.5 71h1276l19 -492l-88 7q-32 212 -162 308.5
t-383 96.5q-165 0 -209.5 -25t-44.5 -106v-448z" />
    <glyph glyph-name="oe" unicode="&#x153;" horiz-adv-x="1901" 
d="M354 530q0 -226 65.5 -345t188.5 -119q121 0 187.5 118.5t66.5 335.5q0 232 -65 358t-185 126q-124 0 -191 -123t-67 -351zM1585 613q-8 186 -73 284t-181 98q-121 0 -190 -96t-86 -287zM952 131q-81 -79 -166 -119.5t-174 -40.5q-86 0 -172.5 37.5t-154.5 104.5
q-82 80 -125 187.5t-43 229.5q0 116 38.5 220t110.5 184q71 80 157 121t183 41q95 0 183.5 -42t171.5 -126q90 85 179.5 126.5t184.5 41.5q204 0 331.5 -147t127.5 -386v-31h-729q3 -212 98 -338t250 -126q95 0 172.5 55t146.5 174l70 -43q-87 -146 -195 -214.5t-251 -68.5
q-114 0 -212.5 40t-181.5 120z" />
    <glyph glyph-name="Scedilla" unicode="&#x15e;" horiz-adv-x="1343" 
d="M242 -30h-82q-2 167 -11.5 301t-27.5 241h86q115 -229 245.5 -339t286.5 -110q121 0 202 74t81 180t-71 173.5t-310 156.5q-280 105 -377.5 207.5t-97.5 265.5q0 180 121 291t321 111q110 0 223.5 -38t124.5 -38q32 0 50.5 19t23.5 56h76q3 -102 11.5 -214.5t23.5 -239.5
l-76 -10q-87 190 -198 284.5t-249 94.5q-111 0 -185.5 -68.5t-74.5 -169.5q0 -94 61 -153.5t290 -143.5q182 -66 255 -105.5t121 -86.5q67 -66 100.5 -143.5t33.5 -168.5q0 -186 -131 -307t-334 -121q-67 0 -134.5 13t-132.5 38q-34 14 -85 44t-68 30q-34 0 -59.5 -34
t-32.5 -90zM406 -371l35 78q60 -34 118.5 -53t104.5 -19q64 0 92.5 22t28.5 71q0 42 -29.5 66t-83.5 24q-13 0 -28.5 -1.5t-32.5 -4.5v188h63v-112q16 2 31.5 3.5t29.5 2.5q87 0 135 -43.5t48 -120.5q0 -82 -58.5 -129t-160.5 -47q-55 0 -122 17t-171 58z" />
    <glyph glyph-name="scedilla" unicode="&#x15f;" horiz-adv-x="989" 
d="M190 -16h-69l-10 381h75q78 -166 154 -235t178 -69q95 0 159 49t64 119q0 119 -251 216q-23 9 -36 14q-193 75 -258 147t-65 189q0 132 86 216.5t221 84.5q77 0 165.5 -39t98.5 -39q20 0 35.5 17t24.5 48h61l4 -321h-67q-54 113 -136.5 176t-174.5 63q-74 0 -122 -42.5
t-48 -106.5q0 -59 44 -98.5t189 -91.5q220 -80 295.5 -158t75.5 -201q0 -147 -97.5 -240.5t-248.5 -93.5q-89 0 -178 42t-95 42q-31 0 -48.5 -16t-25.5 -53zM230 -371l35 78q60 -34 118.5 -53t104.5 -19q64 0 92.5 22t28.5 71q0 42 -29.5 66t-83.5 24q-13 0 -28.5 -1.5
t-32.5 -4.5v188h63v-112q16 2 31.5 3.5t29.5 2.5q87 0 135 -43.5t48 -120.5q0 -82 -58.5 -129t-160.5 -47q-55 0 -122 17t-171 58z" />
    <glyph glyph-name="Scaron" unicode="&#x160;" horiz-adv-x="1343" 
d="M242 -30h-82q-2 167 -11.5 301t-27.5 241h86q115 -229 245.5 -339t286.5 -110q121 0 202 74t81 180t-71 173.5t-310 156.5q-280 105 -377.5 207.5t-97.5 265.5q0 180 121 291t321 111q110 0 223.5 -38t124.5 -38q32 0 50.5 19t23.5 56h76q3 -102 11.5 -214.5t23.5 -239.5
l-76 -10q-87 190 -198 284.5t-249 94.5q-111 0 -185.5 -68.5t-74.5 -169.5q0 -94 61 -153.5t290 -143.5q182 -66 255 -105.5t121 -86.5q67 -66 100.5 -143.5t33.5 -168.5q0 -186 -131 -307t-334 -121q-67 0 -134.5 13t-132.5 38q-34 14 -85 44t-68 30q-34 0 -59.5 -34
t-32.5 -90zM381 1981h58l233 -211l233 211h58l-232 -349h-118z" />
    <glyph glyph-name="scaron" unicode="&#x161;" horiz-adv-x="989" 
d="M190 -16h-69l-10 381h75q78 -166 154 -235t178 -69q95 0 159 49t64 119q0 119 -251 216q-23 9 -36 14q-193 75 -258 147t-65 189q0 132 86 216.5t221 84.5q77 0 165.5 -39t98.5 -39q20 0 35.5 17t24.5 48h61l4 -321h-67q-54 113 -136.5 176t-174.5 63q-74 0 -122 -42.5
t-48 -106.5q0 -59 44 -98.5t189 -91.5q220 -80 295.5 -158t75.5 -201q0 -147 -97.5 -240.5t-248.5 -93.5q-89 0 -178 42t-95 42q-31 0 -48.5 -16t-25.5 -53zM205 1559h58l233 -211l233 211h58l-232 -349h-118z" />
    <glyph glyph-name="Ydieresis" unicode="&#x178;" horiz-adv-x="1688" 
d="M971 199q0 -64 38 -87t207 -32l1 -80h-730l1 80q170 7 208.5 32.5t38.5 98.5v356l-454 707q-47 72 -93.5 99t-127.5 34l-1 82h674v-82q-125 -6 -158.5 -20.5t-33.5 -49.5q0 -10 3.5 -20.5t10.5 -22.5l360 -602h19l334 549q8 15 12 29t4 28q0 51 -46.5 77t-150.5 32v82
h527v-82q-124 0 -235 -179l-15 -24l-393 -637v-368zM936 1786q0 40 29.5 70t68.5 30q40 0 70.5 -30t30.5 -70q0 -42 -29 -70t-72 -28q-42 0 -70 28t-28 70zM555 1786q0 40 29.5 70t69.5 30q39 0 69.5 -30t30.5 -70q0 -42 -29 -70t-71 -28q-43 0 -71 28t-28 70z" />
    <glyph glyph-name="Zcaron" unicode="&#x17d;" horiz-adv-x="1352" 
d="M63 0v104l922 1274v23h-287q-198 0 -303 -98t-153 -328l-88 8l30 506h1076v-115l-910 -1253v-33h385q171 0 273 99t163 327h80l-28 -514h-1160zM385 1981h58l233 -211l233 211h58l-232 -349h-118z" />
    <glyph glyph-name="zcaron" unicode="&#x17e;" horiz-adv-x="989" 
d="M98 0v80l541 881v20h-217q-103 0 -154 -59t-65 -195h-68v344q21 -4 43 -6t62 -2h39h598v-82l-547 -885v-16h270q93 0 143.5 61.5t75.5 208.5h68l-10 -362q-52 5 -96.5 8.5t-65.5 3.5h-617zM205 1559h58l233 -211l233 211h58l-232 -349h-118z" />
    <glyph glyph-name="florin" unicode="&#x192;" horiz-adv-x="1139" 
d="M494 877h-209v75h221q45 289 144.5 426.5t262.5 137.5q99 0 160.5 -45t61.5 -115q0 -57 -34 -92t-87 -35t-84 29t-31 79q0 19 8 43t8 31q0 15 -10 23t-28 8q-85 0 -125 -107.5t-52 -382.5h222v-75h-220q-41 -729 -150 -999.5t-339 -270.5q-96 0 -158.5 48t-62.5 120
q0 59 34.5 96t90.5 37q52 0 85.5 -30t33.5 -77q0 -23 -9.5 -50t-9.5 -34q0 -15 11 -23.5t32 -8.5q58 0 96.5 56t57.5 169q13 80 33 403t47 564z" />
    <glyph glyph-name="circumflex" unicode="&#x2c6;" 
d="M221 1210l232 349h118l232 -349h-58l-233 211l-233 -211h-58z" />
    <glyph glyph-name="caron" unicode="&#x2c7;" 
d="M221 1559h58l233 -211l233 211h58l-232 -349h-118z" />
    <glyph glyph-name="breve" unicode="&#x2d8;" 
d="M219 1520h51q17 -74 75 -108t167 -34t166 33.5t74 108.5h51q-20 -134 -94 -202.5t-197 -68.5q-122 0 -197 69t-96 202z" />
    <glyph glyph-name="dotaccent" unicode="&#x2d9;" 
d="M412 1362q0 41 29.5 70.5t70.5 29.5t70.5 -29.5t29.5 -70.5q0 -42 -29.5 -71t-70.5 -29t-70.5 29t-29.5 71z" />
    <glyph glyph-name="ring" unicode="&#x2da;" 
d="M362 1427q0 -63 43.5 -106t106.5 -43t106.5 43t43.5 106q0 62 -44.5 107t-105.5 45q-62 0 -106 -44.5t-44 -107.5zM272 1427q0 102 69.5 172t170.5 70t171.5 -70t70.5 -172q0 -101 -70 -170t-172 -69q-101 0 -170.5 69t-69.5 170z" />
    <glyph glyph-name="ogonek" unicode="&#x2db;" 
d="M676 31q-92 -72 -137 -138t-45 -129q0 -53 28 -85.5t74 -32.5q41 0 70 17.5t49 53.5l28 -18q-35 -72 -89.5 -110t-121.5 -38q-69 0 -114 41t-45 103q0 87 62.5 169.5t191.5 166.5h49z" />
    <glyph glyph-name="tilde" unicode="&#x2dc;" 
d="M799 1507q-20 -103 -68.5 -155t-126.5 -52q-21 0 -67 11q-4 1 -7 2l-109 29q-11 2 -23.5 4t-24.5 2q-39 0 -60.5 -20t-36.5 -71h-51q19 106 68 158.5t129 52.5q17 0 32.5 -2t30.5 -6l110 -28q24 -6 36.5 -8.5t19.5 -2.5q36 0 58 20t36 66h54z" />
    <glyph glyph-name="hungarumlaut" unicode="&#x2dd;" 
d="M594 1206l143 279q24 44 45.5 63t46.5 19q28 0 48 -20t20 -48q0 -15 -10.5 -34.5t-30.5 -41.5l-203 -217h-59zM319 1206l144 279q24 44 45.5 63t46.5 19q28 0 48 -20t20 -48q0 -15 -10.5 -34.5t-30.5 -41.5l-205 -217h-58z" />
    <glyph glyph-name="Omega" unicode="&#x3a9;" horiz-adv-x="1569" 
d="M1112 231v-26h311l60 184h61l-117 -389h-505q120 216 181.5 435t61.5 427q0 277 -95.5 418t-283.5 141q-189 0 -284.5 -140t-95.5 -419q0 -209 61 -426t182 -436h-506l-116 389h61l59 -184h312v26q-165 183 -237 335t-72 311q0 267 183 443.5t453 176.5t452.5 -177
t182.5 -443q0 -158 -71.5 -309t-237.5 -337z" />
    <glyph glyph-name="pi" unicode="&#x3c0;" horiz-adv-x="1389" 
d="M1370 885l-43 -199h-340q-33 -137 -37 -401q-1 -58 -2 -87q-3 -125 -32.5 -183t-90.5 -58q-42 0 -64 28t-22 83q0 58 77 259t114 359h-387q-35 -142 -40 -414q-1 -49 -1 -73q-4 -127 -33 -184.5t-90 -57.5q-42 0 -63 28t-21 83q0 59 76 260t112 358h-188
q-91 0 -135.5 -41.5t-67.5 -152.5h-57q40 218 124 305.5t251 87.5h960z" />
    <glyph glyph-name="endash" unicode="&#x2013;" 
d="M0 494v110h1024v-110h-1024z" />
    <glyph glyph-name="emdash" unicode="&#x2014;" horiz-adv-x="2048" 
d="M0 604h2048v-110h-2048v110z" />
    <glyph glyph-name="quoteleft" unicode="&#x2018;" horiz-adv-x="569" 
d="M391 1554l39 -34q-95 -93 -143.5 -165t-48.5 -120q0 -18 6.5 -28.5t17.5 -10.5q9 0 23 1t18 1q62 0 97.5 -32t35.5 -87q0 -59 -36.5 -96t-94.5 -37q-74 0 -119 56.5t-45 152.5q0 105 62 204t188 195z" />
    <glyph glyph-name="quoteright" unicode="&#x2019;" horiz-adv-x="569" 
d="M182 946l-39 37q96 92 144.5 164t48.5 121q0 17 -6.5 26.5t-18.5 10.5q-9 0 -23.5 -1t-19.5 -1q-61 0 -96 31.5t-35 86.5q0 59 36.5 96t94.5 37q75 0 119.5 -55.5t44.5 -150.5q0 -106 -62.5 -206t-187.5 -196z" />
    <glyph glyph-name="quotesinglbase" unicode="&#x201a;" horiz-adv-x="569" 
d="M186 -371l-39 37q96 92 144.5 164t48.5 121q0 17 -6.5 27.5t-18.5 11.5q-9 0 -22.5 -2t-18.5 -2q-61 0 -97 32.5t-36 87.5q0 59 36.5 96.5t94.5 37.5q75 0 119.5 -57t44.5 -152q0 -105 -62.5 -205.5t-187.5 -196.5z" />
    <glyph glyph-name="quotedblleft" unicode="&#x201c;" horiz-adv-x="1036" 
d="M356 1554l39 -34q-95 -93 -143.5 -165t-48.5 -120q0 -18 7 -28.5t17 -10.5q9 0 23 1t18 1q62 0 97.5 -32t35.5 -87q0 -59 -36.5 -96t-94.5 -37q-74 0 -119 56.5t-45 152.5q0 105 62 204t188 195zM872 1554l39 -34q-93 -91 -141.5 -163.5t-48.5 -121.5q0 -18 7 -28.5
t17 -10.5q9 0 23 1t18 1q62 0 98 -32t36 -87q0 -58 -37.5 -95.5t-96.5 -37.5q-74 0 -118.5 56.5t-44.5 152.5q0 105 62 204t187 195z" />
    <glyph glyph-name="quotedblright" unicode="&#x201d;" horiz-adv-x="1036" 
d="M662 946l-39 37q95 92 143.5 164t48.5 121q0 17 -7 27t-17 10q-9 0 -23 -1t-18 -1q-62 0 -98 31.5t-36 86.5q0 59 37.5 96t96.5 37q74 0 118.5 -55.5t44.5 -150.5q0 -105 -62.5 -205t-188.5 -197zM143 946l-39 37q96 92 144.5 164t48.5 121q0 17 -6.5 26.5t-18.5 10.5
q-9 0 -23.5 -1t-19.5 -1q-61 0 -96 31.5t-35 86.5q0 59 36.5 96t94.5 37q75 0 119.5 -55.5t44.5 -150.5q0 -106 -62.5 -206t-187.5 -196z" />
    <glyph glyph-name="quotedblbase" unicode="&#x201e;" horiz-adv-x="1036" 
d="M662 -379l-39 35q95 92 143.5 164t48.5 121q0 17 -6.5 27.5t-17.5 11.5q-9 0 -23 -2.5t-18 -2.5q-62 0 -98 33t-36 88q0 59 37.5 96t96.5 37q74 0 118.5 -56.5t44.5 -152.5q0 -103 -62.5 -202t-188.5 -197zM145 -371l-39 37q94 91 142.5 163.5t48.5 121.5q0 18 -6 28.5
t-17 10.5q-9 0 -23.5 -2t-19.5 -2q-60 0 -95.5 32.5t-35.5 87.5q0 59 37 96.5t94 37.5q75 0 119.5 -57t44.5 -152q0 -105 -62 -205.5t-188 -196.5z" />
    <glyph glyph-name="dagger" unicode="&#x2020;" 
d="M489 -215q0 237 -23.5 450.5t-72.5 413.5q49 75 74 167.5t24 201.5q-73 -4 -165.5 -45t-126.5 -41q-50 0 -78.5 27t-28.5 75q0 47 30 76t79 29q32 0 126 -40t165 -40v28q0 101 -43 208.5t-43 121.5q0 47 30 76t80 29q48 0 77.5 -29t29.5 -76q0 -14 -43 -121.5t-43 -208.5
v-28q70 0 164 40t126 40q49 0 79 -29t30 -76q0 -48 -28.5 -75t-78.5 -27q-34 0 -126.5 41t-165.5 45q0 -109 24.5 -201.5t73.5 -167.5q-47 -167 -71 -382.5t-26 -481.5h-49z" />
    <glyph glyph-name="daggerdbl" unicode="&#x2021;" 
d="M391 647q47 76 71.5 159.5t24.5 164.5v39h-16q-56 0 -145 -39t-129 -39q-50 0 -78.5 27t-28.5 75q0 47 31 76t82 29q26 0 118 -37t166 -39v20q0 112 -42 220t-42 114q0 48 29.5 76.5t79.5 28.5q49 0 79 -29t30 -76q0 -9 -42 -113t-42 -206v-35q71 3 163 39.5t119 36.5
q52 0 83.5 -29t31.5 -76q0 -48 -29 -75t-80 -27q-34 0 -125.5 38t-162.5 42q3 -117 26.5 -206.5t69.5 -158.5q-47 -73 -71.5 -156t-24.5 -165v-39h16q56 0 144 39t128 39q51 0 80 -27.5t29 -75.5q0 -47 -31.5 -75.5t-83.5 -28.5q-26 0 -116.5 36.5t-165.5 38.5v-20
q0 -112 42 -220t42 -113q-2 -49 -31.5 -77t-79.5 -28q-48 0 -77.5 28.5t-29.5 75.5q0 9 42 113t42 207v34q-73 -3 -165 -39t-119 -36q-51 0 -82 28.5t-31 75.5q0 48 28.5 75.5t78.5 27.5q33 0 126 -39.5t164 -42.5q-4 118 -28 208.5t-68 155.5z" />
    <glyph glyph-name="bullet" unicode="&#x2022;" horiz-adv-x="1208" 
d="M307 762q0 123 87 209t210 86q122 0 208.5 -86.5t86.5 -208.5t-87.5 -209.5t-209.5 -87.5q-123 0 -209 87t-86 210z" />
    <glyph glyph-name="ellipsis" unicode="&#x2026;" horiz-adv-x="2048" 
d="M170 109q0 52 36 88t89 36q52 0 88 -36t36 -88q0 -53 -36 -89t-88 -36q-53 0 -89 36t-36 89zM852 109q0 52 36 88t89 36q52 0 88 -36t36 -88q0 -53 -36 -89t-88 -36q-53 0 -89 36t-36 89zM1536 109q0 52 36 88t89 36q52 0 88 -36t36 -88q0 -53 -36 -89t-88 -36
q-53 0 -89 36t-36 89z" />
    <glyph glyph-name="perthousand" unicode="&#x2030;" horiz-adv-x="2634" 
d="M1858 295q0 92 29.5 179t86.5 161q71 92 163.5 142t189.5 50q117 0 182 -69t65 -193q0 -92 -32.5 -190t-92.5 -187q-63 -94 -145.5 -143t-175.5 -49q-125 0 -197.5 80.5t-72.5 218.5zM2361 758q-53 0 -96 -30t-86 -97q-67 -102 -111.5 -225t-44.5 -195t37 -112t103 -40
q50 0 97 24t91 71q76 82 122 198.5t46 229.5q0 80 -43 128t-115 48zM1554 758q-52 0 -94 -29.5t-86 -97.5q-68 -103 -112.5 -226t-44.5 -194q0 -72 37 -112t104 -40q50 0 97.5 24t90.5 71q76 81 121 197.5t45 230.5q0 80 -43 128t-115 48zM1051 295q0 92 29.5 179t86.5 161
q71 92 163.5 142t189.5 50q117 0 183 -69t66 -193q0 -92 -32.5 -190t-91.5 -187q-64 -94 -146.5 -143t-175.5 -49q-125 0 -198.5 80.5t-73.5 218.5zM708 1307q-43 17 -77 39.5t-61 51.5q-7 2 -12.5 2.5t-16.5 0.5q-47 0 -88 -33t-86 -106q-63 -100 -102.5 -212.5
t-39.5 -179.5q0 -73 37 -113t105 -40q137 0 241.5 150.5t104.5 365.5q0 12 -1 28t-4 46zM430 -27l766 1377q-88 -52 -151.5 -74.5t-120.5 -22.5q-32 0 -69 8t-85 25q0 -7 1 -22.5t1 -22.5q0 -253 -129.5 -422.5t-314.5 -169.5q-124 0 -196.5 78.5t-72.5 212.5
q0 94 34.5 187.5t99.5 175.5q66 81 153.5 126.5t177.5 45.5q68 0 120.5 -27t96.5 -84q49 -25 92.5 -37t86.5 -12q89 0 188 50.5t205 150.5h82l-869 -1543h-96z" />
    <glyph glyph-name="guilsinglleft" unicode="&#x2039;" horiz-adv-x="688" 
d="M444 205l-370 342l368 346q14 14 24 20.5t17 6.5q7 -1 9.5 -7t3.5 -20q0 -30 -57.5 -109.5t-192.5 -236.5q133 -150 190.5 -230.5t57.5 -115.5q0 -10 -4 -16.5t-9 -6.5q-9 0 -24 15q-8 8 -13 12z" />
    <glyph glyph-name="guilsinglright" unicode="&#x203a;" horiz-adv-x="688" 
d="M485 551l-366 -346q-14 -14 -24 -20.5t-17 -6.5q-6 0 -9 6.5t-3 20.5q0 30 58 112t189 234q-129 146 -187 228t-58 118q0 12 2.5 17.5t7.5 5.5q9 0 26 -17q6 -6 11 -10z" />
    <glyph glyph-name="franc" unicode="&#x20a3;" horiz-adv-x="2560" 
d="M334 215v1075q0 61 -40.5 84.5t-196.5 32.5l-1 82h1368l41 -498l-82 -4q-59 227 -195.5 324.5t-396.5 97.5q-169 0 -214.5 -25.5t-45.5 -105.5v-449q17 -2 37 -3t58 -1q156 0 228.5 69t78.5 224h98q-9 -153 -11.5 -221.5t-2.5 -116.5q0 -75 3.5 -158.5t10.5 -184.5
l-98 -1q-6 168 -78.5 238.5t-237.5 70.5q-25 0 -79 -3l-7 -1v-524q0 -125 248 -135q27 -1 41 -2v-80h-764l1 80q157 7 197 34t40 101zM1669 1048q97 4 182 14.5t162 29.5v-240l23 -4q62 116 142 176.5t171 60.5q89 0 149 -52t60 -130q0 -64 -40 -105.5t-103 -41.5
q-55 0 -88 31.5t-33 82.5q0 22 10 50t10 34q0 13 -4.5 20t-13.5 7q-29 0 -60.5 -18t-62.5 -52q-63 -69 -100 -155t-37 -158v-397q0 -71 23.5 -97t84.5 -26q6 0 18.5 1t18.5 1v-80h-504v80q7 0 19 -1t18 -1q62 0 85.5 25t23.5 98v608q0 119 -30.5 143t-122.5 25z" />
    <glyph glyph-name="trademark" unicode="&#x2122;" horiz-adv-x="1683" 
d="M780 1442h191l137 -391l143 391h181v-25l-30 -2q-21 -2 -31.5 -15t-10.5 -38v-375q0 -25 10.5 -38t31.5 -15l30 -2v-29h-240v29l31 2q21 2 32 15.5t11 37.5v387l-172 -473h-21l-172 475v-389q0 -24 11 -37.5t32 -15.5l33 -2v-29h-197v29l34 2q20 2 31 15.5t11 37.5v371
q0 24 -11 37.5t-31 15.5l-34 4v27zM250 1442h444l11 -182h-27q-8 78 -40.5 114.5t-94.5 36.5h-17v-424q0 -24 10.5 -37.5t30.5 -15.5l33 -2v-29h-254v29l31 2q21 2 32 15.5t11 37.5v424h-17q-64 0 -96.5 -36t-40.5 -115h-26z" />
    <glyph glyph-name="partialdiff" unicode="&#x2202;" horiz-adv-x="1059" 
d="M756 621q15 87 22.5 168.5t7.5 156.5q0 129 -36.5 194.5t-108.5 65.5q-55 0 -127 -58t-108 -58t-60 22t-24 53q0 62 72 111t173 49q180 0 287 -155t107 -418q0 -335 -144.5 -556t-357.5 -221q-152 0 -253.5 108t-101.5 271q0 198 110.5 326.5t272.5 128.5
q101 0 166 -45.5t103 -142.5zM707 494q0 116 -43.5 178.5t-122.5 62.5q-109 0 -179.5 -129t-70.5 -336q0 -116 43 -177.5t123 -61.5q109 0 179.5 130t70.5 333z" />
    <glyph glyph-name="Delta" unicode="&#x2206;" horiz-adv-x="1350" 
d="M602 1174l-389 -957h768zM666 1497h30l600 -1497h-1243z" />
    <glyph glyph-name="product" unicode="&#x220f;" horiz-adv-x="1630" 
d="M53 1473h1522v-74h-191v-1718h191v-74h-596v74h192v1718h-714v-1718h192v-74h-596v74h191v1718h-191v74z" />
    <glyph glyph-name="summation" unicode="&#x2211;" horiz-adv-x="1462" 
d="M16 1473h1162l110 -365h-78l-73 227q-11 34 -41.5 49t-98.5 15h-690l809 -832v-37l-825 -735h887q61 0 79 13t29 51l72 229h78l-148 -481h-1272v41l920 815l-920 956v54z" />
    <glyph glyph-name="minus" unicode="&#x2212;" horiz-adv-x="1706" 
d="M254 682h1198v-141h-1198v141z" />
    <glyph glyph-name="fraction" unicode="&#x2215;" horiz-adv-x="342" 
d="M-242 -27h-100l926 1543h98z" />
    <glyph glyph-name="periodcentered" unicode="&#x2219;" horiz-adv-x="569" 
d="M160 760q0 53 36 90t89 37q52 0 88.5 -37.5t36.5 -89.5q0 -54 -36.5 -91.5t-88.5 -37.5q-53 0 -89 37.5t-36 91.5z" />
    <glyph glyph-name="radical" unicode="&#x221a;" horiz-adv-x="1305" 
d="M1116 1661h189v-96h-115l-594 -1606h-66l-319 883l-125 -45l-25 80l283 98l256 -709z" />
    <glyph glyph-name="infinity" unicode="&#x221e;" horiz-adv-x="1706" 
d="M915 559q50 -89 116.5 -133.5t150.5 -44.5q101 0 165 67.5t64 172.5q0 101 -59 168t-148 67q-81 0 -146.5 -66.5t-142.5 -230.5zM793 666q-49 88 -115.5 132t-151.5 44q-101 0 -165 -66.5t-64 -171.5q0 -101 59 -168t148 -67q81 0 146.5 66t142.5 231zM864 483
q-71 -136 -148.5 -199t-172.5 -63q-135 0 -228.5 112t-93.5 277q0 175 83.5 283t217.5 108q95 0 170 -61.5t150 -202.5q68 138 147 203.5t176 65.5q133 0 227.5 -113t94.5 -279q0 -174 -83.5 -281.5t-217.5 -107.5q-95 0 -168.5 58.5t-153.5 199.5z" />
    <glyph glyph-name="integral" unicode="&#x222b;" horiz-adv-x="1067" 
d="M311 -262q106 0 120 688q2 108 3 165q12 515 107 737t297 222q80 0 130 -42t50 -107q0 -54 -32 -85.5t-87 -31.5q-42 0 -70 19t-40 54q-6 15 -10.5 51t-20.5 36q-107 0 -121 -619q-4 -193 -8 -303q-17 -479 -111.5 -686t-290.5 -207q-79 0 -129.5 41.5t-50.5 106.5
q0 56 34 87.5t95 31.5q33 0 57 -14.5t39 -42.5q10 -18 15 -59.5t24 -41.5z" />
    <glyph glyph-name="approxequal" unicode="&#x2248;" horiz-adv-x="1706" 
d="M1530 586v-156q-105 -73 -199.5 -107t-189.5 -34t-285 67.5t-293 67.5q-82 0 -171.5 -36t-213.5 -122v156q108 73 204 109t183 36q115 0 305 -68.5t273 -68.5q88 0 177 35.5t210 120.5zM1530 954v-155q-105 -73 -199.5 -107.5t-189.5 -34.5t-285 68t-293 68
q-83 0 -171.5 -36t-213.5 -122v156q106 72 202 107.5t185 35.5q116 0 305.5 -67.5t272.5 -67.5q87 0 175 34.5t212 120.5z" />
    <glyph glyph-name="notequal" unicode="&#x2260;" horiz-adv-x="1706" 
d="M1208 1194l105 -82l-187 -235h326v-136h-416l-205 -262h621v-135h-709l-249 -317l-105 84l184 233h-319v135h408l204 262h-612v136h702z" />
    <glyph glyph-name="lessequal" unicode="&#x2264;" horiz-adv-x="1706" 
d="M262 162h1184v-139h-1184v139zM1444 1206v-147l-936 -309l936 -306v-149l-1182 395v121z" />
    <glyph glyph-name="greaterequal" unicode="&#x2265;" horiz-adv-x="1706" 
d="M262 162h1184v-139h-1184v139zM262 1206l1184 -395v-121l-1184 -395v149l938 306l-938 309v147z" />
    <glyph glyph-name="lozenge" unicode="&#x25ca;" horiz-adv-x="1012" 
d="M506 1409l-385 -817l385 -825l385 825zM506 1653l500 -1061l-500 -1069l-500 1069z" />
    <glyph glyph-name="apple" unicode="&#xf000;" horiz-adv-x="1618" 
d="M836 1216q-1 6 -1.5 14t-0.5 23q0 124 95 229.5t236 131.5q1 -10 1.5 -23t0.5 -39q0 -131 -103.5 -234.5t-203.5 -103.5h-8q-3 0 -7.5 1t-8.5 1zM1505 403q-114 -247 -205 -342.5t-204 -95.5q-50 0 -131.5 33t-122.5 33q-45 0 -131 -33t-127 -33q-64 0 -128.5 44
t-129.5 132q-102 140 -157.5 295.5t-55.5 300.5q0 219 125 356.5t323 137.5q68 0 155 -34t124 -34q34 0 121.5 35t152.5 35q110 0 198 -40t161 -124q-102 -65 -151.5 -145.5t-49.5 -182.5q0 -113 60 -200t173 -138z" />
    <glyph glyph-name="fi" unicode="&#xf001;" horiz-adv-x="1327" 
d="M868 776q0 108 -23.5 129t-109.5 21h-289v-725q0 -75 27.5 -100t108.5 -25h14v-76h-506v80h29q67 0 90.5 24.5t23.5 96.5v725h-135v80h135q2 263 128.5 404.5t361.5 141.5q149 0 240.5 -58t91.5 -151q0 -63 -40 -101t-106 -38q-55 0 -91 29t-36 74q0 36 33 73t33 47
q0 27 -28.5 40.5t-84.5 13.5q-142 0 -217.5 -97.5t-75.5 -283.5q0 -37 1 -57t3 -37h367q69 0 136 8t132 24v-852q0 -68 22 -90t87 -22q4 0 16.5 1t20.5 1v-76h-492v76h23q65 0 87.5 21t22.5 89v590z" />
    <glyph glyph-name="fl" unicode="&#xf002;" horiz-adv-x="1327" 
d="M883 1006v187q-46 10 -69 34.5t-23 64.5q0 42 31.5 79t31.5 52q0 25 -35 41.5t-92 16.5q-137 0 -210 -101.5t-73 -294.5q0 -31 0.5 -47.5t2.5 -31.5h436zM883 924h-437v-723q0 -69 23 -96t80 -27q17 0 27 0.5t18 0.5v-79h-506v80h29q67 0 91.5 25t24.5 96v723h-137v82
h137q5 259 130 402.5t346 143.5q38 0 106 -11t98 -11q33 0 79 5.5t105 16.5l1 -1351q0 -71 23 -97t85 -26q6 0 18.5 1t18.5 1v-80h-506v80q6 0 18.5 -1t18.5 -1q62 0 85.5 25t23.5 98v723z" />
    </font>
</defs>
</svg>
