<?xml version="1.0" standalone="no"?>
<!DOCTYPE svg PUBLIC "-//W3C//DTD SVG 1.1//EN" "http://www.w3.org/Graphics/SVG/1.1/DTD/svg11.dtd" >
<svg xmlns="http://www.w3.org/2000/svg">
<metadata></metadata>
<defs>
<font id="passion_onebold" horiz-adv-x="1153" >
<font-face units-per-em="2048" ascent="1638" descent="-410" />
<missing-glyph horiz-adv-x="389" />
<glyph horiz-adv-x="2048" />
<glyph horiz-adv-x="2048" />
<glyph unicode="&#xd;" horiz-adv-x="681" />
<glyph unicode=" "  horiz-adv-x="389" />
<glyph unicode="&#x09;" horiz-adv-x="389" />
<glyph unicode="&#xa0;" horiz-adv-x="389" />
<glyph unicode="!" horiz-adv-x="675" d="M168 1272h410l-31 -912h-354zM174 143q0 84 44 124t156.5 40t155.5 -40t43 -124t-44 -123.5t-154.5 -39.5t-155.5 39.5t-45 123.5z" />
<glyph unicode="&#x22;" horiz-adv-x="999" d="M74 829l141 191q-68 14 -97.5 47t-29.5 114t51 120.5t161 39.5t157 -46t47 -154.5t-66.5 -187.5t-185.5 -150zM520 829l142 191q-68 14 -97.5 47t-29.5 114t51 120.5t160.5 39.5t156.5 -46t47 -154.5t-66.5 -187.5t-185.5 -150z" />
<glyph unicode="#" horiz-adv-x="1134" d="M41 305v279h160l10 55h-121v274h160l51 299h332l-45 -299h47l45 299h332l-45 -299h127v-274h-168l-11 -55h132v-279h-173l-47 -305h-325l43 305h-51l-48 -305h-342l52 305h-115zM528 573h58l14 76h-57z" />
<glyph unicode="$" horiz-adv-x="1079" d="M66 862q0 322 305 406v186h342v-170q184 -18 266 -33l-47 -360q-256 51 -336 51t-80 -49q0 -18 12.5 -25.5t18.5 -11.5t23.5 -10t28.5 -11.5t73.5 -31t94.5 -40.5t87 -50q160 -104 160 -316q0 -143 -80 -250.5t-221 -142.5v-172h-342v158q-139 12 -269 45l29 346 q274 -70 371 -70q63 0 63 45q0 20 -15 32.5t-45 27t-87.5 38t-96 41t-92.5 54.5q-163 112 -163 313z" />
<glyph unicode="%" horiz-adv-x="1902" d="M41 830.5q0 238.5 73.5 350t284.5 111.5t284 -110.5t73 -351t-73 -349t-283 -108.5t-284.5 109.5t-74.5 348zM330 817q0 -125 8 -166t23.5 -53t41.5 -12q45 0 55.5 48t10.5 183v88q0 70 -7 88.5t-16.5 39t-41 20.5t-46.5 -13q-29 -20 -28 -196v-27zM598 0l406 1272h303 l-408 -1272h-301zM1147 437.5q0 238.5 73.5 350t284.5 111.5t284 -110.5t73 -351t-73 -349t-283 -108.5t-284.5 109.5t-74.5 348zM1436 424q0 -125 8 -166t23.5 -53t41.5 -12q45 0 55.5 48t10.5 183v88q0 70 -7 88t-16.5 38.5t-41 20.5t-46.5 -12q-29 -20 -28 -196v-27z" />
<glyph unicode="&#x26;" horiz-adv-x="1421" d="M59 377q0 141 58.5 218t173.5 120q-102 115 -103 272q0 326 440.5 326t440.5 -334q0 -133 -50 -200.5t-192 -153.5l150 -162h10v192h324v-149q0 -152 -109 -234v-8h174l-37 -284h-192q-145 0 -240 61h-14q-68 -35 -143 -48t-218 -13q-246 0 -359.5 91t-113.5 306z M467 373q0 -100 104 -101h109v9l-176 178q-37 -23 -37 -86zM580 915q0 -27 7 -37t9 -14t9 -11t10 -9t12.5 -11.5t13.5 -11.5q37 29 50.5 45t13.5 45q0 61 -62.5 61.5t-62.5 -57.5z" />
<glyph unicode="'" horiz-adv-x="516" d="M78 829l141 191q-68 14 -97.5 47t-29.5 114t51.5 120.5t161 39.5t156.5 -46t47 -154.5t-66.5 -187.5t-185.5 -150z" />
<glyph unicode="(" horiz-adv-x="794" d="M49 516q0 260 96 450.5t297 354.5l320 -98q-242 -322 -242 -691.5t242 -752.5l-332 -80q-186 182 -283.5 369.5t-97.5 447.5z" />
<glyph unicode=")" horiz-adv-x="794" d="M33 -221q244 354 243.5 736t-243.5 706l321 100q197 -164 294 -357.5t97 -446.5t-99 -446.5t-284 -371.5z" />
<glyph unicode="*" horiz-adv-x="956" d="M49 950l66 242l204 -45l21 199h285l16 -199l190 43l76 -240l-188 -61l137 -187l-227 -131l-144 154l-137 -152l-227 132l115 182z" />
<glyph unicode="+" horiz-adv-x="974" d="M66 428v332h256v256h331v-256h256v-332h-256v-256h-331v256h-256z" />
<glyph unicode="," horiz-adv-x="626" d="M98 -203l142 191q-68 14 -97.5 47t-29.5 113.5t51 120.5t160.5 40t156.5 -46t47 -154.5t-66.5 -187.5t-185.5 -150z" />
<glyph unicode="-" horiz-adv-x="825" d="M66 367v331h694v-331h-694z" />
<glyph unicode="." horiz-adv-x="595" d="M98 143q0 84 44 124t157 40t156 -40t43 -124t-44 -123.5t-155 -39.5t-156 39.5t-45 123.5z" />
<glyph unicode="/" horiz-adv-x="854" d="M-31 -291l496 1553h420l-498 -1553h-418z" />
<glyph unicode="0" horiz-adv-x="1103" d="M41 633q0 168 20.5 281.5t75.5 203.5q106 174 415.5 174t414.5 -174q55 -90 75.5 -202.5t20.5 -281.5t-20.5 -281.5t-75.5 -200.5q-102 -172 -412.5 -172t-415.5 172q-55 88 -76.5 200.5t-21.5 280.5zM455 614q0 -170 11 -232.5t32.5 -79.5t60.5 -17q66 0 80 67t14 262 v39q0 248 -43 281q-23 16 -53.5 16t-46.5 -7t-26.5 -28.5t-16.5 -40.5q-12 -37 -12 -131v-129z" />
<glyph unicode="1" horiz-adv-x="665" d="M8 926v231l228 115h339v-1272h-423v926h-144z" />
<glyph unicode="2" horiz-adv-x="960" d="M8 1200q242 92 468 92t339 -102.5t113 -280.5t-68.5 -299t-228.5 -286v-9h301v-315h-875l-20 221q20 20 92 90t96.5 94.5t78.5 82t75.5 88t62.5 91t41 136.5q0 98 -96 98q-90 0 -311 -59z" />
<glyph unicode="3" horiz-adv-x="960" d="M8 1188q217 104 445.5 104t346.5 -94t118 -264q0 -94 -35 -155.5t-115 -106.5v-8q168 -74 168 -291q0 -188 -123 -290.5t-358 -102.5q-113 0 -200 18t-218 68l90 315q221 -68 281 -68q80 0 79.5 89.5t-94.5 89.5h-180v286h178q70 0 70 82t-82 82q-57 0 -279 -76z" />
<glyph unicode="4" horiz-adv-x="1122" d="M16 492l447 770h506v-723h153l-16 -299h-137v-240h-424v240h-496zM403 530h152v267h-8z" />
<glyph unicode="5" horiz-adv-x="966" d="M61 43l33 350q276 -72 332.5 -71.5t75 23t18.5 69.5q0 88 -59 88q-31 0 -47 -33l-351 41v752h809v-326h-409v-133q55 16 125 16q346 0 346 -385q0 -455 -465 -454q-219 0 -408 63z" />
<glyph unicode="6" horiz-adv-x="1048" d="M33 545q0 387 209 567t690 180l-27 -336q-354 0 -428 -165q66 14 160 14q193 0 298 -93.5t105 -299t-114.5 -319t-372.5 -113.5t-389 144t-131 421zM455 459q0 -182 104 -183q84 0 84 119q0 61 -23.5 89t-74.5 28t-86 -8q-4 -33 -4 -45z" />
<glyph unicode="7" horiz-adv-x="952" d="M4 915v347h940v-199l-393 -1063h-473l377 915h-451z" />
<glyph unicode="8" horiz-adv-x="1062" d="M29 354q0 106 42 170t130 105v8q-84 57 -122 127t-38 178q0 162 131 256t359.5 94t357.5 -90t129 -252q0 -113 -35 -179t-121 -124v-8q172 -82 172 -270.5t-129 -288.5t-368.5 -100t-373.5 96t-134 278zM442 377q1 -109 93 -109q84 0 83 84q0 41 -24.5 69t-83.5 64 q-68 -53 -68 -108zM455 903q0 -41 22.5 -65.5t75.5 -59.5q76 59 76 111q0 92 -90 92q-84 0 -84 -78z" />
<glyph unicode="9" horiz-adv-x="1042" d="M8 848q0 209 119 326.5t377 117.5t382 -133t124 -416q0 -193 -46 -331t-149 -236q-205 -197 -711 -196l17 309q203 0 300 40t138 132q-74 -12 -156 -12q-193 0 -294 95t-101 304zM403 848q0 -66 21.5 -95.5t75 -29.5t92.5 12v37q0 98 -18.5 144.5t-84.5 46.5 q-86 0 -86 -115z" />
<glyph unicode=":" horiz-adv-x="595" d="M98 143q0 84 44 124t157 40t156 -40t43 -124t-44 -123.5t-155 -39.5t-156 39.5t-45 123.5zM98 741q0 84 44 124t157 40t156 -40t43 -124t-44 -123.5t-155 -39.5t-156 39.5t-45 123.5z" />
<glyph unicode=";" horiz-adv-x="626" d="M98 -203l142 191q-68 14 -97.5 47t-29.5 113.5t51 120.5t160.5 40t156.5 -46t47 -154.5t-66.5 -187.5t-185.5 -150zM113 741q0 84 44 124t156.5 40t155.5 -40t43 -124t-44 -123.5t-154.5 -39.5t-155.5 39.5t-45 123.5z" />
<glyph unicode="&#x3c;" horiz-adv-x="1021" d="M66 424v315l890 353v-328l-487 -180l487 -197v-326z" />
<glyph unicode="=" horiz-adv-x="929" d="M74 190v302h782v-302h-782zM74 573v301h782v-301h-782z" />
<glyph unicode="&#x3e;" horiz-adv-x="1021" d="M66 61v326l487 197l-487 180v328l890 -353v-315z" />
<glyph unicode="?" horiz-adv-x="808" d="M49 883v356q195 43 344 43q391 0 391 -373q0 -170 -84 -262q-43 -47 -88 -77.5t-116 -69.5v-140h-342v228q0 66 27.5 106.5t91 68.5t87 48t23.5 55q0 59 -70 60q-41 0 -264 -43zM125 143q0 84 44 124t156.5 40t155.5 -40t43 -124t-44 -123.5t-154.5 -39.5t-155.5 39.5 t-45 123.5z" />
<glyph unicode="@" horiz-adv-x="1959" d="M49 475q0 420 258 656.5t703.5 236.5t673 -212t227.5 -585q0 -592 -545 -591q-106 0 -166.5 17t-112.5 62h-14q-98 -80 -246.5 -79.5t-225.5 79t-77 217.5q0 172 116 240t368 86v37q0 37 -39 37q-104 0 -359 -64l-45 316q328 78 512.5 78t265 -70t80.5 -219l-12 -410 q0 -45 49 -45q119 0 119 307q0 248 -131 380t-449.5 132t-468 -149.5t-149.5 -454.5t147.5 -436t450.5 -131q184 0 430 31v-265q-225 -45 -471 -45q-889 0 -889 844zM913 301q1 -57 48 -57q59 0 59 61v78q-106 -14 -107 -82z" />
<glyph unicode="A" d="M0 0l264 1272h625l264 -1272h-430l-41 197h-227l-43 -197h-412zM485 461h166l-78 426h-8z" />
<glyph unicode="B" d="M82 0v1272h571q229 0 339 -82t110 -252t-144 -262v-8q166 -76 166 -295q0 -373 -462 -373h-580zM518 254h60q55 0 73.5 23.5t18.5 99.5t-19.5 107.5t-72.5 31.5h-60v-262zM518 741h62q36 0 53.5 25t17.5 85t-17.5 87t-55.5 27h-60v-224z" />
<glyph unicode="C" horiz-adv-x="952" d="M41 627.5q0 322.5 135 493.5t440 171q178 0 357 -69l-68 -365q-203 60 -277 60h-2q-74 0 -108 -71q-35 -71 -35 -226.5t35 -226t117 -70.5t272 45l66 -326q-201 -63 -387 -63q-285 0 -415 162.5t-130 485z" />
<glyph unicode="D" horiz-adv-x="1226" d="M82 0v1272h504q326 0 461 -156.5t135 -451.5q0 -664 -607 -664h-493zM518 319h51q105 0 135.5 72t30.5 239t-33.5 237.5t-140.5 70.5h-43v-619z" />
<glyph unicode="E" horiz-adv-x="944" d="M82 0v1272h840l-29 -338h-373v-154h326v-295h-326v-174h402l-29 -311h-811z" />
<glyph unicode="F" horiz-adv-x="901" d="M82 0v1272h840l-29 -338h-373v-174h283v-295h-283v-465h-438z" />
<glyph unicode="G" horiz-adv-x="1212" d="M43 627q0 324 130 494.5t439 170.5q229 0 435 -63l-68 -385q-229 63 -328.5 63t-131.5 -65.5t-32 -223t30 -231.5t126 -74q37 0 98 13v123h-102v282h483v-731h-309l-31 66h-8q-106 -86 -252 -86q-479 0 -479 647z" />
<glyph unicode="H" horiz-adv-x="1255" d="M82 0v1272h438v-475h221v475h433v-1272h-433v449h-221v-449h-438z" />
<glyph unicode="I" horiz-adv-x="620" d="M94 0v1272h432v-1272h-432z" />
<glyph unicode="J" horiz-adv-x="667" d="M8 283h103q23 0 29.5 8t6.5 26v955h431v-1006q0 -164 -84 -225t-314 -61h-149z" />
<glyph unicode="K" horiz-adv-x="1130" d="M82 0v1272h416v-504h22l162 504h469l-264 -662l243 -610h-481l-129 422h-22v-422h-416z" />
<glyph unicode="L" horiz-adv-x="845" d="M82 0v1272h438v-942h354l-28 -330h-764z" />
<glyph unicode="M" horiz-adv-x="1544" d="M78 0l49 1272h545l96 -576h18l95 576h538l47 -1272h-387v606h-10l-121 -606h-358l-119 606h-10v-606h-383z" />
<glyph unicode="N" horiz-adv-x="1243" d="M82 0v1272h432l242 -518h12v518h393v-1272h-418l-258 502h-14v-502h-389z" />
<glyph unicode="O" horiz-adv-x="1247" d="M41 644q0 341 136 494.5t448.5 153.5t446.5 -151.5t134 -492.5t-138 -504.5t-446.5 -163.5t-444.5 161.5t-136 502.5zM487 580q0 -172 27 -223.5t117 -51.5t112.5 49t22.5 219v95q0 168 -26.5 220t-114.5 52t-113 -51t-25 -219v-90z" />
<glyph unicode="P" horiz-adv-x="1075" d="M82 0v1272h496q252 0 366.5 -102.5t114.5 -338t-110.5 -335t-348.5 -99.5h-88v-397h-430zM504 662h53q47 0 64.5 32.5t17.5 110.5t-19.5 110.5t-72.5 32.5h-43v-286z" />
<glyph unicode="Q" horiz-adv-x="1255" d="M37 649q0 336 137 489.5t448.5 153.5t445.5 -151.5t134 -485.5q0 -227 -58.5 -357t-193.5 -212v-8h291l-27 -289h-86q-199 0 -331 80l-183 111q-313 0 -445 166.5t-132 502.5zM483 580q0 -172 27 -223.5t117 -51.5t112.5 49t22.5 219v95q0 168 -26.5 220t-115 52 t-113 -51t-24.5 -219v-90z" />
<glyph unicode="R" d="M82 0v1272h543q238 0 350 -99.5t112 -310.5q0 -123 -39.5 -195.5t-123.5 -127.5l190 -539h-452l-127 438h-33v-438h-420zM494 688h51q47 0 66.5 27.5t19.5 97.5t-20.5 96.5t-63.5 26.5h-53v-248z" />
<glyph unicode="S" horiz-adv-x="989" d="M20 864.5q0 202.5 123 315t341 112.5t450 -41l-47 -360q-256 51 -336 51t-80 -49q0 -18 12.5 -25.5t18.5 -11.5t23.5 -10t28.5 -11.5t73.5 -31t94.5 -40.5t87 -50q160 -104 160 -307t-121 -314.5t-347.5 -111.5t-443.5 55l29 346q274 -70 371 -70q63 0 63 45 q0 20 -15.5 32.5t-45 27t-87 38t-96 41t-92.5 54.5q-164 113 -164 315.5z" />
<glyph unicode="T" horiz-adv-x="974" d="M-20 926l18 346h997l-24 -346h-271v-926h-436v926h-284z" />
<glyph unicode="U" horiz-adv-x="1255" d="M86 422v850h446v-821q0 -111 99.5 -111t99.5 113v819h438v-846q0 -225 -141 -335.5t-405 -110.5q-537 0 -537 442z" />
<glyph unicode="V" horiz-adv-x="1175" d="M20 1272h474l98 -780h24l89 780h450l-246 -1272h-628z" />
<glyph unicode="W" horiz-adv-x="1544" d="M41 1272h401l52 -584h18l78 584h387l86 -584h14l39 584h387l-135 -1272h-487l-97 516h-16l-82 -516h-487z" />
<glyph unicode="X" horiz-adv-x="1173" d="M0 0l246 647l-221 625h477l94 -357h16l105 357h426l-205 -627l236 -645h-469l-115 346h-19l-122 -346h-449z" />
<glyph unicode="Y" horiz-adv-x="1097" d="M0 1272h461l90 -467h12l86 467h449l-336 -869v-403h-436v406z" />
<glyph unicode="Z" horiz-adv-x="1079" d="M25 1272h997l14 -215l-368 -731h387v-326h-963l-14 219l393 703h-424z" />
<glyph unicode="[" horiz-adv-x="776" d="M106 -281v1573h580v-288h-147v-998h147v-287h-580z" />
<glyph unicode="\" horiz-adv-x="854" d="M-31 1262h420l496 -1553h-418z" />
<glyph unicode="]" horiz-adv-x="778" d="M90 6h152v998h-152v288h582v-1573h-582v287z" />
<glyph unicode="^" horiz-adv-x="1024" d="M170 1047l160 268h364l160 -268h-268l-72 106l-74 -106h-270z" />
<glyph unicode="_" horiz-adv-x="819" d="M0 -45h819v-236h-819v236z" />
<glyph unicode="`" horiz-adv-x="1024" d="M225 1325h412l139 -266h-291z" />
<glyph unicode="a" horiz-adv-x="1021" d="M29 276q0 172 115.5 240t367.5 86v37q0 37 -39 37q-104 0 -358 -64l-64 324q293 70 504 70t292 -69.5t81 -219.5l-13 -410q0 -29 21.5 -38t77.5 -9l-39 -272q-123 -8 -166 -8q-150 0 -217 79h-14q-97 -80 -245 -80q-1 1 -2 1q-149 0 -225.5 78.5t-76.5 217.5zM418 301 q0 -57 47 -57q59 0 59 61v78q-106 -14 -106 -82z" />
<glyph unicode="b" horiz-adv-x="1069" d="M61 0v1313h412v-348q86 41 189 41q227 0 301.5 -114t74.5 -378q0 -135 -15 -226t-56 -165q-80 -143 -318 -143q-147 0 -235 63l-17 -43h-336zM483 279q37 -8 66 -9q43 0 53 46t10 162t-12 164t-53 48q-27 0 -64 -16v-395z" />
<glyph unicode="c" horiz-adv-x="813" d="M31 477.5q0 235.5 118.5 382t346.5 146.5q166 0 313 -56l-43 -323q-160 57 -216 57t-73.5 -49t-17.5 -151.5t16.5 -148.5t77.5 -46t195 26l45 -284q-180 -51 -304 -51q-227 0 -342.5 131t-115.5 366.5z" />
<glyph unicode="d" horiz-adv-x="1112" d="M31 497.5q0 247.5 99 378t286 130.5q106 0 172 -33v340h411v-1006q0 -27 19.5 -37t68.5 -10l-36 -272q-107 -8 -177 -8q-160 0 -219 79h-8q-93 -79 -220 -79h-3q-213 0 -303 135t-90 382.5zM459 483.5q0 -116.5 10 -163t52 -46.5t67 9v397q-35 14 -66 14q-41 0 -52 -47 t-11 -163.5z" />
<glyph unicode="e" horiz-adv-x="1026" d="M31 493.5q0 243.5 128 378t376.5 134.5t352 -102.5t103.5 -293.5q0 -76 -16 -229h-514q8 -111 135 -111q59 0 311 43l35 -276q-217 -57 -405 -57q-246 0 -376 135t-130 378.5zM453 567h147v33q0 76 -72 76q-43 0 -59 -26.5t-16 -82.5z" />
<glyph unicode="f" horiz-adv-x="679" d="M2 676v276h98v99q0 276 330 276q137 0 305 -10l-33 -322q-139 12 -158.5 12.5t-19.5 -20.5v-35h174l-22 -276h-148v-676h-428v676h-98z" />
<glyph unicode="g" horiz-adv-x="1050" d="M29 188.5q0 114.5 155 178.5q-143 102 -143 283t119 268.5t334 87.5h557v-250h-152v-8q63 -49 64 -146q0 -321 -411 -321h-3h-129q-16 0 -16.5 -18.5t16.5 -18.5h325q262 0 263 -213q0 -332 -519 -332q-209 0 -323.5 47t-114.5 170q0 68 72 100v9q-94 49 -94 163.5z M389 -33v-12q0 -14 14 -14h234q18 0 18 14v12q0 14 -18 15h-234q-14 0 -14 -15zM459 589.5q0 -102.5 57 -102.5q53 0 53 101q0 55 -12 79.5t-45 24.5q-53 0 -53 -102.5z" />
<glyph unicode="h" horiz-adv-x="1103" d="M61 0v1313h412v-393q125 86 277 86q279 0 278 -258v-748h-432v635q0 33 -34 33t-75 -21v-647h-426z" />
<glyph unicode="i" horiz-adv-x="573" d="M68 1167q0 174 219 174t219 -174q0 -90 -54.5 -129t-165 -39t-164.5 38t-54 130zM76 0v961h426v-961h-426z" />
<glyph unicode="j" horiz-adv-x="583" d="M-51 14h102q25 0 31 6.5t6 24.5v916h424v-969q0 -162 -83 -222.5t-310 -60.5h-135zM76 1167q0 174 219 174t219 -174q0 -90 -54 -129t-165 -39t-165 38t-54 130z" />
<glyph unicode="k" horiz-adv-x="1052" d="M61 0v1313h420v-676h8l144 344h444l-229 -510q39 -84 113.5 -242.5t107.5 -228.5h-461l-119 322h-8v-322h-420z" />
<glyph unicode="l" horiz-adv-x="585" d="M66 254v1059h419v-965q0 -55 76 -55l-31 -313h-168q-296 0 -296 274z" />
<glyph unicode="m" horiz-adv-x="1628" d="M61 0v981h388l12 -63q137 88 297 88t229 -99q139 99 297 99q283 0 283 -279v-727h-432v635q0 33 -25 33q-33 0 -82 -21v-647h-432v635q0 33 -27 33q-37 0 -82 -21v-647h-426z" />
<glyph unicode="n" horiz-adv-x="1089" d="M61 0v981h388l12 -63q128 88 280 88q287 0 287 -279v-727h-432v635q0 33 -34 33t-75 -21v-647h-426z" />
<glyph unicode="o" horiz-adv-x="1044" d="M31 494.5q0 269.5 119.5 390.5t374.5 121t372 -119t117 -390.5t-114 -394t-373 -122.5t-377.5 122.5t-118.5 392zM459 467q0 -131 11 -169t54 -38t54.5 38t11.5 159v57q0 119 -11.5 155t-54.5 36t-54 -36t-11 -153v-49z" />
<glyph unicode="p" horiz-adv-x="1069" d="M61 -281v1262h353l16 -45q96 70 232 70q221 0 298.5 -114t77.5 -387.5t-84 -399t-315 -125.5q-76 0 -152 28v-289h-426zM483 279q37 -8 66 -9q43 0 53 46t10 162t-12 164t-53 48q-27 0 -64 -16v-395z" />
<glyph unicode="q" horiz-adv-x="1077" d="M31 490.5q0 250.5 99 383t286 132.5q141 0 223 -70l18 45h353v-1262h-426v297q-80 -36 -156 -36h-4q-215 0 -304 130t-89 380.5zM459 483.5q0 -116.5 10 -163t48 -46.5t71 9v395q-41 16 -66 16q-41 0 -52 -47t-11 -163.5z" />
<glyph unicode="r" horiz-adv-x="774" d="M66 0v981h364l12 -66h9q49 45 112.5 62.5t186.5 17.5l-13 -340h-139q-61 0 -86 -22.5t-25 -83.5v-549h-421z" />
<glyph unicode="s" horiz-adv-x="825" d="M12 692.5q0 149.5 105.5 231.5t285 82t394.5 -41l-43 -310q-270 53 -328 54q-27 0 -27 -21q0 -16 35 -29q170 -55 246 -109t104.5 -111.5t28.5 -133.5q0 -325 -377 -325h-2q-197 0 -381 43l27 301q256 -61 340 -62q29 0 29 18.5t-33 30.5q-211 72 -307.5 152t-96.5 229.5 z" />
<glyph unicode="t" horiz-adv-x="749" d="M2 692v277h129l27 182h379v-182h186v-277h-188v-379q0 -27 24 -26q2 0 162 8l-12 -295q-205 -20 -289 -20q-160 0 -234.5 60t-74.5 208v444h-109z" />
<glyph unicode="u" horiz-adv-x="1103" d="M61 258v723h431v-643q0 -33 29.5 -33t78.5 21v655h428v-977h-410v51h-12q-119 -75 -254 -75q-291 0 -291 278z" />
<glyph unicode="v" horiz-adv-x="1015" d="M-25 981h445l82 -524h14l90 524h418l-236 -981h-575z" />
<glyph unicode="w" horiz-adv-x="1368" d="M4 981h397l37 -436h13l57 436h342l53 -436h15l40 436h383l-143 -981h-457l-69 336h-10l-66 -336h-449z" />
<glyph unicode="x" horiz-adv-x="1015" d="M0 0l205 473q-10 25 -87 219.5t-116 288.5h465l43 -252h12l49 252h439l-201 -498l207 -483h-453l-57 244h-12l-54 -244h-440z" />
<glyph unicode="y" horiz-adv-x="1030" d="M-16 981h450l86 -530h8q94 518 97 530h422l-285 -997q-43 -152 -132 -208.5t-292 -56.5h-246l-47 293h164q53 0 53 35q0 23 -10 57z" />
<glyph unicode="z" horiz-adv-x="913" d="M10 659v322h858l13 -215l-314 -461h322v-305h-858l-11 231l322 428h-332z" />
<glyph unicode="{" horiz-adv-x="806" d="M25 375v284q82 0 102 8.5t20 49.5v287q0 160 67 224t230 64h273v-295h-156v-323q0 -70 -18.5 -98.5t-67.5 -55.5v-12q45 -23 65.5 -55.5t20.5 -96.5v-352h156v-285h-273q-160 0 -228.5 62.5t-68.5 210.5v323q0 43 -21.5 51.5t-100.5 8.5z" />
<glyph unicode="|" horiz-adv-x="772" d="M184 -291v1553h404v-1553h-404z" />
<glyph unicode="}" horiz-adv-x="806" d="M90 4h156v352q0 63 20.5 96t65.5 56v12q-49 27 -67.5 55.5t-18.5 98.5v323h-156v295h272q164 0 230.5 -64.5t66.5 -223.5v-287q0 -41 19.5 -49.5t103.5 -8.5v-284q-80 0 -101.5 -8.5t-21.5 -51.5v-323q0 -147 -68.5 -210t-228.5 -63h-272v285z" />
<glyph unicode="~" horiz-adv-x="1024" d="M168 1030v27q0 137 46 207.5t163 70.5q61 0 237 -53v64h273v-25q0 -135 -44 -207t-175 -72q-76 0 -228 54v-66h-272z" />
<glyph unicode="&#xa1;" horiz-adv-x="675" d="M98 -281l31 912h354l25 -912h-410zM102 848q0 84 44 124t155 40t156 -40t45 -124t-44 -124t-157 -40t-156 40t-43 124z" />
<glyph unicode="&#xa2;" horiz-adv-x="851" d="M41 473q0 170 62.5 298t183.5 187v213h342v-174q88 -10 190 -47l-43 -323q-160 57 -216 57t-73.5 -49t-17.5 -151.5t16.5 -148.5t78 -46t194.5 26l45 -284q-84 -25 -174 -41v-158h-342v186q-246 106 -246 455z" />
<glyph unicode="&#xa3;" horiz-adv-x="1230" d="M4 217q0 131 70.5 195.5t193.5 64.5q55 0 125 -16v96h-200v229h133q-49 102 -50 201q0 305 383 305q162 0 408 -61l-57 -352q-221 55 -238.5 55t-17.5 -16.5t37 -131.5h215l-25 -229h-160v-106q0 -121 -37 -197q70 -27 76 -29v154h367q0 -231 -75 -342t-265 -111 q-98 0 -165 17.5t-157 60.5h-8q-113 -49 -245 -49t-220 65.5t-88 196.5zM285 200q0 -38 40.5 -38t67.5 31q-39 45 -73.5 45t-34.5 -38z" />
<glyph unicode="&#xa4;" horiz-adv-x="1595" d="M98 958l64 109l246 -141q141 184 398 184t396 -180l234 137l61 -109l-240 -139q27 -92 27 -194.5t-41 -221.5l246 -145l-66 -104l-245 145q-141 -152 -379 -152t-377 156q-88 -49 -250 -147l-61 102l254 148q-35 111 -35 211t24 192zM449 625q0 -186 92 -280.5t260 -94.5 q356 0 356 377q0 180 -89 278.5t-267 98.5q-352 0 -352 -379z" />
<glyph unicode="&#xa5;" horiz-adv-x="1097" d="M0 1272h461l90 -467h12l86 467h449l-236 -608h119v-224h-207l-12 -39h219v-219h-219v-182h-436v182h-224v219h224l-13 39h-211v224h125z" />
<glyph unicode="&#xa6;" horiz-adv-x="772" d="M184 -291v653h404v-653h-404zM184 666v596h404v-596h-404z" />
<glyph unicode="&#xa7;" horiz-adv-x="1013" d="M57 557q0 160 107 277q-29 57 -29 120q0 172 118 265.5t306 93.5q141 0 340 -33l-57 -334q-195 39 -285 39q-27 0 -27 -24q0 -33 110 -76t206 -123q47 -41 78.5 -106.5t31.5 -147.5q0 -170 -102 -305q23 -53 23 -137q0 -174 -105.5 -270.5t-308.5 -96.5q-152 0 -371 39 l29 344q238 -55 342 -55q35 0 35 42t-112 93t-214 137q-49 41 -82 108.5t-33 149.5zM383 641q0 -72 47 -112t203 -119q0 66 -50 109.5t-200 121.5z" />
<glyph unicode="&#xa8;" horiz-adv-x="1024" d="M168 1180q0 66 41 99.5t113 33.5q164 0 163 -133q0 -70 -39.5 -103t-123.5 -33q-154 1 -154 136zM549 1180q0 66 41 99.5t112 33.5q164 0 164 -133q0 -70 -40 -103t-124 -33q-153 1 -153 136z" />
<glyph unicode="&#xa9;" horiz-adv-x="2004" d="M98 477q0 424 230.5 641t693.5 217t694.5 -222t231.5 -641t-228.5 -631t-703.5 -212t-696.5 212t-221.5 636zM489 475q0 -297 120 -425t419 -128t420 126t121 430t-119 427t-414 123t-421 -128t-126 -425zM629 457q0 240 100 366.5t326 126.5q139 0 274 -53l-41 -268 q-139 39 -202.5 39t-89 -50.5t-25.5 -164t26.5 -164.5t96 -51t196.5 30l39 -239q-158 -49 -299 -49q-401 0 -401 477z" />
<glyph unicode="&#xaa;" horiz-adv-x="851" d="M90 809q0 109 81 156t257 61v25q0 27 -27 26q-72 0 -251 -45l-46 228q207 49 354.5 49t204 -49.5t56.5 -153.5l-8 -287q0 -33 67 -33l-26 -190q-63 -6 -117 -6q-102 0 -152 55h-10q-70 -55 -172 -55t-156.5 55t-54.5 164zM362 817q0 -43 33 -43q41 0 41 43v55 q-74 -12 -74 -55z" />
<glyph unicode="&#xab;" horiz-adv-x="1198" d="M8 420v135l418 432l221 -141l-237 -350l243 -351l-239 -147zM512 420v135l418 432l221 -141l-238 -350l244 -351l-239 -147z" />
<glyph unicode="&#xac;" horiz-adv-x="999" d="M66 428v332h843v-547h-366v215h-477z" />
<glyph unicode="&#xad;" horiz-adv-x="825" d="M66 367v331h694v-331h-694z" />
<glyph unicode="&#xae;" horiz-adv-x="2045" d="M98 477q0 424 230.5 641t693.5 217t694.5 -222t231.5 -641t-228.5 -631t-703.5 -212t-696.5 212t-221.5 636zM457 475q0 -293 131 -423t400 -130t403 82h-291l-86 324h-31v-324h-311v938h411q174 0 258 -73.5t84 -229.5q0 -92 -24.5 -146.5t-81.5 -93.5l119 -360 q139 125 139 432t-128 432t-425 125t-432 -130t-135 -423zM977 510h49q33 0 48.5 20.5t15.5 75.5q0 88 -64 88h-49v-184z" />
<glyph unicode="&#xaf;" horiz-adv-x="1024" d="M201 1067v248h645v-248h-645z" />
<glyph unicode="&#xb0;" horiz-adv-x="704" d="M63 1017q0 134 68 199.5t217.5 65.5t216 -63.5t66.5 -199.5t-66.5 -198.5t-217 -62.5t-217.5 62.5t-67 196.5zM303 1016.5q0 -58.5 41 -58t41 59.5q0 33 -9 45t-32 12q-41 0 -41 -58.5z" />
<glyph unicode="&#xb1;" horiz-adv-x="974" d="M66 0v311h843v-311h-843zM66 565v332h256v240h331v-240h256v-332h-256v-194h-331v194h-256z" />
<glyph unicode="&#xb2;" horiz-adv-x="811" d="M76 1227q166 66 325.5 65.5t238.5 -72t79 -196.5t-48 -210t-159 -200v-6h209v-221h-610l-15 156q53 53 86 83.5t63.5 61.5t45 48.5t37.5 43.5q80 94 80 166t-68 72q-57 0 -217 -41z" />
<glyph unicode="&#xb3;" horiz-adv-x="829" d="M96 1219q154 74 312.5 73.5t241.5 -67t83 -185.5q0 -66 -24.5 -107.5t-81.5 -74.5v-6q119 -53 118 -195q0 -285 -337 -284q-135 0 -291 59l61 221q160 -47 197 -47q57 0 57 62.5t-67 62.5h-125v201h125q47 0 47 57.5t-58 57.5q-35 0 -194 -54z" />
<glyph unicode="&#xb4;" horiz-adv-x="1024" d="M354 1059l131 266h439l-285 -266h-285z" />
<glyph unicode="&#xb6;" horiz-adv-x="1345" d="M33 830q0 214 139 336t385 122h639v-1569h-344v1260h-49v-1260h-346v664q-199 6 -311.5 119.5t-112.5 327.5z" />
<glyph unicode="&#xb7;" horiz-adv-x="806" d="M172 625q0 186 240 186q123 0 180 -44t57 -144.5t-56 -142.5t-180 -42t-182.5 43.5t-58.5 143.5z" />
<glyph unicode="&#xb8;" horiz-adv-x="1024" d="M328 -283l75 146q94 -63 144 -64q14 0 14 13q0 8 -26 22l-54 25q-47 27 -47 66.5t45 74.5h183q-31 -31 -31 -43q0 -6 35.5 -20.5t71.5 -46.5t36 -83q0 -152 -223 -151q-133 0 -223 61z" />
<glyph unicode="&#xb9;" horiz-adv-x="626" d="M90 1028v162l158 82h239v-891h-297v647h-100z" />
<glyph unicode="&#xba;" horiz-adv-x="868" d="M88 950.5q0 188.5 84 273.5t263 85t260 -83t81 -272.5t-80 -276.5t-260 -87t-264 86t-84 274.5zM389 932q0 -92 8.5 -119t38 -27t37.5 27t8 111v41q0 82 -8 107.5t-37.5 25.5t-38 -25.5t-8.5 -107.5v-33z" />
<glyph unicode="&#xbb;" horiz-adv-x="1198" d="M41 840l240 147l405 -422v-135l-418 -432l-221 141l238 350zM545 840l239 147l406 -422v-135l-418 -432l-221 141l237 350z" />
<glyph unicode="&#xbc;" horiz-adv-x="1882" d="M90 1028v162l158 82h239v-891h-297v647h-100zM467 0l405 1272h304l-408 -1272h-301zM1022 344l311 539h355v-506h108l-12 -209h-96v-168h-297v168h-347zM1292 371h107v186h-6z" />
<glyph unicode="&#xbd;" horiz-adv-x="1835" d="M90 1028v162l158 82h239v-891h-297v647h-100zM467 0l405 1272h304l-408 -1272h-301zM1100 840q166 66 325.5 65.5t238.5 -72t79 -196.5t-48 -210t-159 -200v-6h209v-221h-610l-15 156q53 53 86 83.5t63.5 61.5t45 48.5t37.5 43.5q80 94 80 166t-68 72q-57 0 -217 -41z " />
<glyph unicode="&#xbe;" horiz-adv-x="2009" d="M96 1219q154 74 312.5 73.5t241.5 -67t83 -185.5q0 -66 -24.5 -107.5t-81.5 -74.5v-6q119 -53 118 -195q0 -285 -337 -284q-135 0 -291 59l61 221q160 -47 197 -47q57 0 57 62.5t-67 62.5h-125v201h125q47 0 47 57.5t-58 57.5q-35 0 -194 -54zM621 0l405 1272h303 l-407 -1272h-301zM1149 344l311 539h355v-506h108l-12 -209h-96v-168h-297v168h-347zM1419 371h107v186h-6z" />
<glyph unicode="&#xbf;" horiz-adv-x="808" d="M25 72q0 170 81 260q45 49 90.5 79.5t116.5 69.5v140h342v-228q0 -66 -27.5 -106.5t-91 -68.5t-87 -48t-23.5 -55q0 -59 70 -60q41 0 264 43v-356q-193 -43 -344 -43q-391 0 -391 373zM285 838q0 84 44 123.5t154.5 39.5t155.5 -39.5t45 -123.5t-44 -124t-156.5 -40 t-155.5 40t-43 124z" />
<glyph unicode="&#xc0;" d="M0 0l264 1272h625l264 -1272h-430l-41 197h-227l-43 -197h-412zM244 1587h391l133 -254h-276zM485 461h166l-78 426h-8z" />
<glyph unicode="&#xc1;" d="M0 0l264 1272h625l264 -1272h-430l-41 197h-227l-43 -197h-412zM379 1354l125 254h416l-271 -254h-270zM485 461h166l-78 426h-8z" />
<glyph unicode="&#xc2;" d="M0 0l264 1272h625l264 -1272h-430l-41 197h-227l-43 -197h-412zM246 1341l151 256h346l152 -256h-254l-70 103l-69 -103h-256zM485 461h166l-78 426h-8z" />
<glyph unicode="&#xc3;" d="M0 0l264 1272h625l264 -1272h-430l-41 197h-227l-43 -197h-412zM225 1307v24q0 131 44 197.5t155 66.5q57 0 225 -49v60h258v-23q0 -129 -41 -196.5t-166 -67.5q-70 0 -217 49v-61h-258zM485 461h166l-78 426h-8z" />
<glyph unicode="&#xc4;" d="M0 0l264 1272h625l264 -1272h-430l-41 197h-227l-43 -197h-412zM240 1447q0 128 150.5 128t150.5 -128t-150.5 -128t-150.5 128zM485 461h166l-78 426h-8zM602 1447q0 128 150.5 128t150.5 -128t-150.5 -128t-150.5 128z" />
<glyph unicode="&#xc5;" d="M0 0l264 1272h111q-6 22 -6 47q0 164 199.5 164t199.5 -154q0 -35 -8 -57h129l264 -1272h-430l-41 197h-227l-43 -197h-412zM496 461h149l-70 377h-8zM528 1325q0 -51 31 -53h14q33 2 33 53t-39 51t-39 -51z" />
<glyph unicode="&#xc6;" horiz-adv-x="1564" d="M-10 0l450 1272h1102l-29 -338h-372v-154h325v-295h-325v-174h401l-29 -311h-811v197h-219l-67 -197h-426zM557 461h145v426h-8z" />
<glyph unicode="&#xc7;" horiz-adv-x="962" d="M43 646q0 304 135 475t440 171q178 0 357 -69l-68 -365q-203 59 -277.5 59.5t-109.5 -70.5t-35 -226.5t35 -226t117 -70.5t272 45l66 -326q-172 -53 -328 -61q-12 -12 -12 -25q0 -6 36 -20.5t71.5 -46t35.5 -83.5q0 -152 -223 -151q-133 0 -223 61l76 146q94 -63 143 -64 q14 0 14 13q0 8 -26 22l-54 25q-47 27 -47 65.5t29 63.5q-221 33 -322.5 193.5t-101.5 464.5z" />
<glyph unicode="&#xc8;" horiz-adv-x="944" d="M82 0v1272h840l-29 -338h-373v-154h326v-295h-326v-174h402l-29 -311h-811zM174 1587h391l133 -254h-276z" />
<glyph unicode="&#xc9;" horiz-adv-x="944" d="M82 0v1272h840l-29 -338h-373v-154h326v-295h-326v-174h402l-29 -311h-811zM330 1333l125 254h415l-270 -254h-270z" />
<glyph unicode="&#xca;" horiz-adv-x="944" d="M82 0v1272h840l-29 -338h-373v-154h326v-295h-326v-174h402l-29 -311h-811zM182 1321l152 256h346l151 -256h-253l-70 102l-70 -102h-256z" />
<glyph unicode="&#xcb;" horiz-adv-x="944" d="M82 0v1272h840l-29 -338h-373v-154h326v-295h-326v-174h402l-29 -311h-811zM172 1447q0 128 150.5 128t150.5 -128t-150.5 -128t-150.5 128zM535 1447q0 128 150.5 128t150.5 -128t-150.5 -128t-150.5 128z" />
<glyph unicode="&#xcc;" horiz-adv-x="620" d="M-16 1608h391l133 -254h-277zM94 0v1272h432v-1272h-432z" />
<glyph unicode="&#xcd;" horiz-adv-x="620" d="M96 0v1272h432v-1272h-432zM127 1354l125 254h416l-271 -254h-270z" />
<glyph unicode="&#xce;" horiz-adv-x="620" d="M-4 1341l151 256h347l151 -256h-254l-69 103l-70 -103h-256zM98 0v1272h432v-1272h-432z" />
<glyph unicode="&#xcf;" horiz-adv-x="620" d="M-14 1467q0 128 150.5 128t150.5 -128t-150.5 -128t-150.5 128zM102 0v1272h433v-1272h-433zM348 1467q0 128 150.5 128t150.5 -128t-150.5 -128t-150.5 128z" />
<glyph unicode="&#xd0;" horiz-adv-x="1226" d="M-18 481v283h100v508h504q326 0 461 -156.5t135 -451.5q0 -664 -607 -664h-493v481h-100zM518 319h51q104 0 135 72t31 239t-33.5 237.5t-140.5 70.5h-43v-174h92v-283h-92v-162z" />
<glyph unicode="&#xd1;" horiz-adv-x="1243" d="M82 0v1272h432l242 -518h12v518h393v-1272h-418l-258 502h-14v-502h-389zM279 1307v24q0 131 44 197.5t154 66.5q57 0 225 -49v60h259v-23q0 -129 -41 -196.5t-166 -67.5q-70 0 -217 49v-61h-258z" />
<glyph unicode="&#xd2;" horiz-adv-x="1247" d="M41 644q0 341 136 494.5t448.5 153.5t446.5 -151.5t134 -492.5t-138 -504.5t-446.5 -163.5t-444.5 161.5t-136 502.5zM254 1608h391l133 -254h-276zM487 580q0 -172 27 -223.5t117 -51.5t112.5 49t22.5 219v95q0 168 -26.5 220t-114.5 52t-113 -51t-25 -219v-90z" />
<glyph unicode="&#xd3;" horiz-adv-x="1247" d="M41 644q0 341 136 494.5t448.5 153.5t446.5 -151.5t134 -492.5t-138 -504.5t-446.5 -163.5t-444.5 161.5t-136 502.5zM461 1354l125 254h415l-270 -254h-270zM487 580q0 -172 27 -223.5t117 -51.5t112.5 49t22.5 219v95q0 168 -26.5 220t-114.5 52t-113 -51t-25 -219v-90 z" />
<glyph unicode="&#xd4;" horiz-adv-x="1247" d="M41 644q0 341 136 494.5t448.5 153.5t446.5 -151.5t134 -492.5t-138 -504.5t-446.5 -163.5t-444.5 161.5t-136 502.5zM299 1341l152 256h346l151 -256h-254l-69 103l-70 -103h-256zM487 580q0 -172 27 -223.5t117 -51.5t112.5 49t22.5 219v95q0 168 -26.5 220t-114.5 52 t-113 -51t-25 -219v-90z" />
<glyph unicode="&#xd5;" horiz-adv-x="1247" d="M41 644q0 341 136 494.5t448.5 153.5t446.5 -151.5t134 -492.5t-138 -504.5t-446.5 -163.5t-444.5 161.5t-136 502.5zM264 1327v25q0 131 44 197.5t155 66.5q57 0 225 -49v59h258v-22q0 -129 -41 -197t-166 -68q-70 0 -217 50v-62h-258zM487 580q0 -172 27 -223.5 t117 -51.5t112.5 49t22.5 219v95q0 168 -26.5 220t-114.5 52t-113 -51t-25 -219v-90z" />
<glyph unicode="&#xd6;" horiz-adv-x="1247" d="M41 644q0 341 136 494.5t448.5 153.5t446.5 -151.5t134 -492.5t-138 -504.5t-446.5 -163.5t-444.5 161.5t-136 502.5zM289 1447q0 128 150.5 128t150.5 -128t-150.5 -128t-150.5 128zM487 580q0 -172 27 -223.5t117 -51.5t112.5 49t22.5 219v95q0 168 -26.5 220 t-114.5 52t-113 -51t-25 -219v-90zM651 1447q0 128 150.5 128t150.5 -128t-150.5 -128t-150.5 128z" />
<glyph unicode="&#xd7;" horiz-adv-x="962" d="M66 414l180 180l-180 180l235 236l180 -181l181 181l235 -236l-180 -180l180 -180l-235 -236l-181 180l-180 -180z" />
<glyph unicode="&#xd8;" horiz-adv-x="1247" d="M41 634q0 351 136 504.5t450 153.5q31 0 88 -4l49 107h428l-117 -258q131 -150 131 -490t-138.5 -503.5t-449.5 -163.5l-61 2l-55 -123h-434l120 268q-147 156 -147 507zM487 580q0 -172 27 -223.5t117 -51.5t112.5 49t22.5 219v95q0 168 -26.5 220t-114.5 52t-113 -51 t-25 -219v-90z" />
<glyph unicode="&#xd9;" horiz-adv-x="1230" d="M74 422v850h446v-821q0 -111 99.5 -111t99.5 113v819h438v-846q0 -225 -141.5 -335.5t-405.5 -110.5q-537 0 -536 442zM254 1587h391l133 -254h-276z" />
<glyph unicode="&#xda;" horiz-adv-x="1230" d="M74 422v850h446v-821q0 -111 99.5 -111t99.5 113v819h438v-846q0 -225 -141.5 -335.5t-405.5 -110.5q-537 0 -536 442zM483 1333l125 254h416l-270 -254h-271z" />
<glyph unicode="&#xdb;" horiz-adv-x="1230" d="M74 422v850h446v-821q0 -111 99.5 -111t99.5 113v819h438v-846q0 -225 -141.5 -335.5t-405.5 -110.5q-537 0 -536 442zM291 1321l151 256h346l152 -256h-254l-70 102l-69 -102h-256z" />
<glyph unicode="&#xdc;" horiz-adv-x="1230" d="M74 422v850h446v-821q0 -111 99.5 -111t99.5 113v819h438v-846q0 -225 -141.5 -335.5t-405.5 -110.5q-537 0 -536 442zM285 1447q0 128 150.5 128t150.5 -128t-150.5 -128t-150.5 128zM647 1447q0 128 150.5 128t150.5 -128t-150.5 -128t-150.5 128z" />
<glyph unicode="&#xdd;" horiz-adv-x="1097" d="M0 1272h461l90 -467h12l86 467h449l-336 -869v-403h-436v406zM412 1333l125 254h415l-270 -254h-270z" />
<glyph unicode="&#xde;" horiz-adv-x="1056" d="M82 0v1272h430v-164h39q252 0 366.5 -102.5t114.5 -338t-110.5 -335t-348.5 -99.5h-61v-233h-430zM504 504h26q47 0 64.5 32.5t17.5 110.5t-19.5 111t-72.5 33h-16v-287z" />
<glyph unicode="&#xdf;" horiz-adv-x="1161" d="M2 676v276h98v17q0 360 496 360q254 0 380 -98t126 -283q0 -96 -27.5 -151.5t-97.5 -102.5v-10q172 -78 172 -303q0 -393 -401 -393q-80 0 -181 12v297q31 -2 58 -2q94 0 94 96q0 61 -38 87t-114 26v280q109 0 109 107.5t-86 107.5q-60 0 -60 -59v-940h-430v676h-98z" />
<glyph unicode="&#xe0;" horiz-adv-x="1026" d="M29 276q0 172 115.5 240t367.5 86v37q0 37 -39 37q-104 0 -358 -64l-64 324q293 70 504 70t292 -69.5t81 -219.5l-13 -410q0 -29 21.5 -38t77.5 -9l-39 -272q-123 -8 -166 -8q-150 0 -217 79h-14q-98 -80 -247 -79.5t-225.5 79t-76.5 217.5zM188 1325h412l139 -266h-290z M418 301q0 -57 47 -57q59 0 59 61v78q-106 -14 -106 -82z" />
<glyph unicode="&#xe1;" horiz-adv-x="1026" d="M29 276q0 172 115.5 240t367.5 86v37q0 37 -39 37q-104 0 -358 -64l-64 324q293 70 504 70t292 -69.5t81 -219.5l-13 -410q0 -29 21.5 -38t77.5 -9l-39 -272q-123 -8 -166 -8q-150 0 -217 79h-14q-98 -80 -247 -79.5t-225.5 79t-76.5 217.5zM362 1059l132 266h438 l-285 -266h-285zM418 301q0 -57 47 -57q59 0 59 61v78q-106 -14 -106 -82z" />
<glyph unicode="&#xe2;" horiz-adv-x="1026" d="M29 276q0 172 115.5 240t367.5 86v37q0 37 -39 37q-104 0 -358 -64l-64 324q293 70 504 70t292 -69.5t81 -219.5l-13 -410q0 -29 21.5 -38t77.5 -9l-39 -272q-123 -8 -166 -8q-150 0 -217 79h-14q-98 -80 -247 -79.5t-225.5 79t-76.5 217.5zM162 1047l160 268h364 l160 -268h-268l-72 106l-74 -106h-270zM418 301q0 -57 47 -57q59 0 59 61v78q-106 -14 -106 -82z" />
<glyph unicode="&#xe3;" horiz-adv-x="1026" d="M29 276q0 172 115.5 240t367.5 86v37q0 37 -39 37q-104 0 -358 -64l-64 324q293 70 504 70t292 -69.5t81 -219.5l-13 -410q0 -29 21.5 -38t77.5 -9l-39 -272q-123 -8 -166 -8q-150 0 -217 79h-14q-98 -80 -247 -79.5t-225.5 79t-76.5 217.5zM135 1030v27q0 137 46 207.5 t163 70.5q61 0 238 -53v64h272v-25q0 -135 -44 -207t-175 -72q-76 0 -227 54v-66h-273zM418 301q0 -57 47 -57q59 0 59 61v78q-106 -14 -106 -82z" />
<glyph unicode="&#xe4;" horiz-adv-x="1026" d="M29 276q0 172 115.5 240t367.5 86v37q0 37 -39 37q-104 0 -358 -64l-64 324q293 70 504 70t292 -69.5t81 -219.5l-13 -410q0 -29 21.5 -38t77.5 -9l-39 -272q-123 -8 -166 -8q-150 0 -217 79h-14q-98 -80 -247 -79.5t-225.5 79t-76.5 217.5zM150 1180q0 66 40.5 99.5 t112.5 33.5q164 0 164 -133q0 -70 -40 -103t-124 -33q-153 1 -153 136zM418 301q0 -57 47 -57q59 0 59 61v78q-106 -14 -106 -82zM530 1180q0 66 41 99.5t113 33.5q164 0 164 -133q0 -70 -40 -103t-124 -33q-154 1 -154 136z" />
<glyph unicode="&#xe5;" horiz-adv-x="1026" d="M29 276q0 172 115.5 240t367.5 86v37q0 37 -39 37q-104 0 -358 -64l-64 324q293 70 504 70t292 -69.5t81 -219.5l-13 -410q0 -29 21.5 -38t77.5 -9l-39 -272q-123 -8 -166 -8q-150 0 -217 79h-14q-98 -80 -247 -79.5t-225.5 79t-76.5 217.5zM293 1196q0 172 210 172 t210 -162q0 -172 -211 -172q-102 0 -155.5 43t-53.5 119zM418 301q0 -57 47 -57q59 0 59 61v78q-106 -14 -106 -82zM461 1202q0 -55 41 -55t41 55t-41 55t-41 -55z" />
<glyph unicode="&#xe6;" horiz-adv-x="1497" d="M29 276q0 172 115.5 240t367.5 86v37q0 37 -39 37q-104 0 -358 -64l-64 324q293 70 522 70q127 0 207 -52q89 52 226 52q246 0 351 -102.5t105 -293.5q0 -63 -16 -229h-514q8 -113 133 -113q98 0 313 45l35 -276q-217 -57 -414.5 -57t-316.5 100q-154 -100 -354 -100 q-145 0 -222 78.5t-77 217.5zM418 301q0 -57 47 -57q59 0 59 61v78q-106 -14 -106 -82zM924 567h147v31q0 78 -72 78q-76 0 -75 -109z" />
<glyph unicode="&#xe7;" horiz-adv-x="806" d="M25 473q0 240 118.5 386.5t345.5 146.5q166 0 314 -56l-43 -323q-160 57 -216.5 57t-73.5 -49t-17 -151.5t16 -148.5t77.5 -46t194.5 26l45 -284q-156 -47 -268 -51q-10 -14 -10 -21.5t36 -22t71.5 -46t35.5 -83.5q0 -152 -223 -151q-133 0 -223 61l76 146 q94 -63 143 -64q14 0 14 13q0 8 -26 22l-54 25q-47 27 -47 65.5t37 69.5q-160 37 -241.5 162t-81.5 317z" />
<glyph unicode="&#xe8;" horiz-adv-x="1019" d="M25 493.5q0 243.5 128 378t376.5 134.5t352 -102.5t103.5 -293.5q0 -76 -16 -229h-514q8 -111 135 -111q59 0 311 43l35 -276q-217 -57 -406 -57q-246 0 -375.5 135t-129.5 378.5zM197 1325h411l140 -266h-291zM446 567h148v33q0 76 -72 76q-43 0 -59.5 -26.5 t-16.5 -82.5z" />
<glyph unicode="&#xe9;" horiz-adv-x="1019" d="M25 493.5q0 243.5 128 378t376.5 134.5t352 -102.5t103.5 -293.5q0 -76 -16 -229h-514q8 -111 135 -111q59 0 311 43l35 -276q-217 -57 -406 -57q-246 0 -375.5 135t-129.5 378.5zM362 1059l132 266h438l-285 -266h-285zM446 567h148v33q0 76 -72 76q-43 0 -59.5 -26.5 t-16.5 -82.5z" />
<glyph unicode="&#xea;" horiz-adv-x="1019" d="M25 493.5q0 243.5 128 378t376.5 134.5t352 -102.5t103.5 -293.5q0 -76 -16 -229h-514q8 -111 135 -111q59 0 311 43l35 -276q-217 -57 -406 -57q-246 0 -375.5 135t-129.5 378.5zM182 1047l160 268h365l159 -268h-268l-72 106l-73 -106h-271zM446 567h148v33 q0 76 -72 76q-43 0 -59.5 -26.5t-16.5 -82.5z" />
<glyph unicode="&#xeb;" horiz-adv-x="1019" d="M25 493.5q0 243.5 128 378t376.5 134.5t352 -102.5t103.5 -293.5q0 -76 -16 -229h-514q8 -111 135 -111q59 0 311 43l35 -276q-217 -57 -406 -57q-246 0 -375.5 135t-129.5 378.5zM176 1180q0 66 41 99.5t113 33.5q164 0 164 -133q0 -70 -40 -103t-124 -33 q-154 1 -154 136zM446 567h148v33q0 76 -72 76q-43 0 -59.5 -26.5t-16.5 -82.5zM557 1180q0 66 41 99.5t113 33.5q164 0 163 -133q0 -70 -39.5 -103t-123.5 -33q-154 1 -154 136z" />
<glyph unicode="&#xec;" horiz-adv-x="573" d="M-61 1325h411l139 -266h-290zM76 0v961h426v-961h-426z" />
<glyph unicode="&#xed;" horiz-adv-x="573" d="M78 0v961h426v-961h-426zM84 1059l131 266h438l-284 -266h-285z" />
<glyph unicode="&#xee;" horiz-adv-x="573" d="M-53 1047l159 268h365l160 -268h-269l-71 106l-74 -106h-270zM78 0v961h426v-961h-426z" />
<glyph unicode="&#xef;" horiz-adv-x="573" d="M-57 1180q0 66 41 99.5t112 33.5q164 0 164 -133q0 -70 -40 -103t-124 -33q-153 1 -153 136zM76 0v961h426v-961h-426zM324 1180q0 66 41 99.5t112 33.5q164 0 164 -133q0 -70 -40 -103t-124 -33q-153 1 -153 136z" />
<glyph unicode="&#xf0;" horiz-adv-x="1067" d="M31 426q0 193 105 293t304 100q78 0 125 -8l8 8q-27 61 -81 96l-238 -108v199l31 18v8q-45 8 -152 8v301q281 0 485 -69l228 102v-239l-37 -23q227 -199 227 -569q0 -268 -128 -415.5t-378.5 -147.5t-374.5 105t-124 341zM465 402q0 -87 13.5 -121.5t56.5 -34.5t56 44 t13 132t-12 123t-55 35t-57.5 -45.5t-14.5 -132.5z" />
<glyph unicode="&#xf1;" horiz-adv-x="1103" d="M61 0v981h388l12 -63q128 88 280 88q287 0 287 -279v-727h-432v635q0 33 -34 33t-75 -21v-647h-426zM176 1030v27q0 137 46 207.5t163 70.5q61 0 238 -53v64h272v-25q0 -135 -44 -207t-175 -72q-76 0 -227 54v-66h-273z" />
<glyph unicode="&#xf2;" horiz-adv-x="1032" d="M25 494.5q0 269.5 119.5 390.5t374.5 121t372 -119t117 -390.5t-114 -394t-373 -122.5t-377.5 122.5t-118.5 392zM186 1325h412l139 -266h-291zM453 467q0 -131 11 -169t54 -38t54.5 38t11.5 159v57q0 119 -11.5 155t-54.5 36t-54 -36t-11 -153v-49z" />
<glyph unicode="&#xf3;" horiz-adv-x="1032" d="M25 494.5q0 269.5 119.5 390.5t374.5 121t372 -119t117 -390.5t-114 -394t-373 -122.5t-377.5 122.5t-118.5 392zM342 1059l131 266h438l-284 -266h-285zM453 467q0 -131 11 -169t54 -38t54.5 38t11.5 159v57q0 119 -11.5 155t-54.5 36t-54 -36t-11 -153v-49z" />
<glyph unicode="&#xf4;" horiz-adv-x="1032" d="M25 494.5q0 269.5 119.5 390.5t374.5 121t372 -119t117 -390.5t-114 -394t-373 -122.5t-377.5 122.5t-118.5 392zM176 1047l160 268h364l160 -268h-268l-72 106l-74 -106h-270zM453 467q0 -131 11 -169t54 -38t54.5 38t11.5 159v57q0 119 -11.5 155t-54.5 36t-54 -36 t-11 -153v-49z" />
<glyph unicode="&#xf5;" horiz-adv-x="1032" d="M25 494.5q0 269.5 119.5 390.5t374.5 121t372 -119t117 -390.5t-114 -394t-373 -122.5t-377.5 122.5t-118.5 392zM147 1030v27q0 137 46.5 207.5t162.5 70.5q61 0 238 -53v64h272v-25q0 -135 -44 -207t-175 -72q-76 0 -227 54v-66h-273zM453 467q0 -131 11 -169t54 -38 t54.5 38t11.5 159v57q0 119 -11.5 155t-54.5 36t-54 -36t-11 -153v-49z" />
<glyph unicode="&#xf6;" horiz-adv-x="1032" d="M25 494.5q0 269.5 119.5 390.5t374.5 121t372 -119t117 -390.5t-114 -394t-373 -122.5t-377.5 122.5t-118.5 392zM168 1180q0 66 41 99.5t113 33.5q164 0 163 -133q0 -70 -39.5 -103t-123.5 -33q-154 1 -154 136zM453 467q0 -131 11 -169t54 -38t54.5 38t11.5 159v57 q0 119 -11.5 155t-54.5 36t-54 -36t-11 -153v-49zM549 1180q0 66 41 99.5t112 33.5q164 0 164 -133q0 -70 -40 -103t-124 -33q-153 1 -153 136z" />
<glyph unicode="&#xf7;" horiz-adv-x="974" d="M66 428v332h843v-332h-843zM295 186q0 84 44 124t156.5 40t155.5 -40t43 -124t-44 -123.5t-154.5 -39.5t-155.5 39.5t-45 123.5zM295 1001.5q0 83.5 44 123.5t156.5 40t155.5 -40t43 -123.5t-44 -123.5t-154.5 -40t-155.5 40t-45 123.5z" />
<glyph unicode="&#xf8;" horiz-adv-x="1044" d="M31 482.5q0 281.5 119.5 402.5t377.5 121q39 0 60 -2l53 118h346l-100 -225q127 -121 127 -396.5t-114 -398t-372 -122.5q-35 0 -51 2l-55 -123h-352l100 223q-139 119 -139 400.5zM459 467q0 -131 11 -169t54 -38t54.5 38t11.5 159v57q0 119 -11.5 155t-54.5 36t-54 -36 t-11 -153v-49z" />
<glyph unicode="&#xf9;" horiz-adv-x="1103" d="M61 258v723h431v-643q0 -33 29.5 -33t78.5 21v655h428v-977h-410v51h-12q-119 -75 -254 -75q-291 0 -291 278zM184 1325h412l139 -266h-291z" />
<glyph unicode="&#xfa;" horiz-adv-x="1103" d="M61 258v723h431v-643q0 -33 29.5 -33t78.5 21v655h428v-977h-410v51h-12q-119 -75 -254 -75q-291 0 -291 278zM403 1059l132 266h438l-285 -266h-285z" />
<glyph unicode="&#xfb;" horiz-adv-x="1103" d="M61 258v723h431v-643q0 -33 29.5 -33t78.5 21v655h428v-977h-410v51h-12q-119 -75 -254 -75q-291 0 -291 278zM201 1047l159 268h365l160 -268h-269l-71 106l-74 -106h-270z" />
<glyph unicode="&#xfc;" horiz-adv-x="1103" d="M61 258v723h431v-643q0 -33 29.5 -33t78.5 21v655h428v-977h-410v51h-12q-119 -75 -254 -75q-291 0 -291 278zM193 1180q0 66 40.5 99.5t112.5 33.5q164 0 164 -133q0 -70 -40 -103t-124 -33q-153 1 -153 136zM573 1180q0 66 41 99.5t113 33.5q164 0 164 -133 q0 -70 -40 -103t-124 -33q-154 1 -154 136z" />
<glyph unicode="&#xfd;" horiz-adv-x="1062" d="M0 981h451l86 -530h8q94 518 96 530h422l-285 -997q-43 -152 -132 -208.5t-292 -56.5h-245l-48 293h164q53 0 54 35q0 23 -11 57zM391 1059l131 266h439l-285 -266h-285z" />
<glyph unicode="&#xfe;" horiz-adv-x="1062" d="M61 -281v1594h412v-350q82 43 189 43q221 0 298.5 -114t77.5 -387.5t-84 -399t-315 -125.5q-76 0 -152 28v-289h-426zM483 279q37 -8 66 -9q43 0 53 46t10 162t-12 164t-53 48q-27 0 -64 -16v-395z" />
<glyph unicode="&#xff;" horiz-adv-x="1062" d="M0 981h451l86 -530h8q94 518 96 530h422l-285 -997q-43 -152 -132 -208.5t-292 -56.5h-245l-48 293h164q53 0 54 35q0 23 -11 57zM178 1180q0 66 41 99.5t113 33.5q164 0 164 -133q0 -70 -40 -103t-124 -33q-154 1 -154 136zM559 1180q0 66 41 99.5t113 33.5 q164 0 164 -133q0 -70 -40 -103t-124 -33q-154 1 -154 136z" />
<glyph unicode="&#x152;" horiz-adv-x="1626" d="M41 644q0 341 136 494.5t450 153.5q106 0 204 -20h773l-29 -338h-373v-154h326v-295h-326v-174h402l-29 -311h-758q-98 -20 -199 -20q-305 0 -441 161.5t-136 502.5zM487 580q0 -172 27 -223.5t109 -51.5t108.5 31t32.5 125v307q-6 102 -36 137t-110.5 35t-105.5 -51 t-25 -219v-90z" />
<glyph unicode="&#x153;" horiz-adv-x="1587" d="M31 494.5q0 269.5 119.5 390.5t377.5 121q176 0 285 -58q115 57 283 58q246 0 351 -102.5t105 -293.5q0 -63 -16 -229h-514q8 -113 133 -113q98 0 313 45l35 -276q-217 -57 -390 -57t-290 61q-111 -61 -295 -61q-260 0 -378.5 122.5t-118.5 392zM459 467q0 -131 11 -169 t54 -38t54.5 38t11.5 159v57q0 119 -11.5 155t-54.5 36t-54 -36t-11 -153v-49zM1014 567h147v31q1 78 -71 78q-76 0 -76 -109z" />
<glyph unicode="&#x178;" horiz-adv-x="1097" d="M0 1272h461l90 -467h12l86 467h449l-336 -869v-403h-436v406zM221 1467q0 128 150.5 128t150.5 -128t-150.5 -128t-150.5 128zM584 1467q0 128 150.5 128t150.5 -128t-150.5 -128t-150.5 128z" />
<glyph unicode="&#x2c6;" horiz-adv-x="1024" d="M170 1047l160 268h364l160 -268h-268l-72 106l-74 -106h-270z" />
<glyph unicode="&#x2dc;" horiz-adv-x="1024" d="M168 1030v27q0 137 46 207.5t163 70.5q61 0 237 -53v64h273v-25q0 -135 -44 -207t-175 -72q-76 0 -228 54v-66h-272z" />
<glyph unicode="&#x2000;" horiz-adv-x="813" />
<glyph unicode="&#x2001;" horiz-adv-x="1626" />
<glyph unicode="&#x2002;" horiz-adv-x="813" />
<glyph unicode="&#x2003;" horiz-adv-x="1626" />
<glyph unicode="&#x2004;" horiz-adv-x="542" />
<glyph unicode="&#x2005;" horiz-adv-x="406" />
<glyph unicode="&#x2006;" horiz-adv-x="271" />
<glyph unicode="&#x2007;" horiz-adv-x="271" />
<glyph unicode="&#x2008;" horiz-adv-x="203" />
<glyph unicode="&#x2009;" horiz-adv-x="325" />
<glyph unicode="&#x200a;" horiz-adv-x="90" />
<glyph unicode="&#x2010;" horiz-adv-x="825" d="M66 367v331h694v-331h-694z" />
<glyph unicode="&#x2011;" horiz-adv-x="825" d="M66 367v331h694v-331h-694z" />
<glyph unicode="&#x2012;" horiz-adv-x="825" d="M66 367v331h694v-331h-694z" />
<glyph unicode="&#x2013;" horiz-adv-x="833" d="M66 342v332h702v-332h-702z" />
<glyph unicode="&#x2014;" horiz-adv-x="1228" d="M66 342v332h1097v-332h-1097z" />
<glyph unicode="&#x2018;" horiz-adv-x="552" d="M49 1004.5q0 107.5 66.5 186.5t185.5 150l178 -26l-141 -191q68 -14 97.5 -47t29.5 -113.5t-51.5 -120.5t-161 -40t-156.5 47t-47 154.5z" />
<glyph unicode="&#x2019;" horiz-adv-x="552" d="M74 829l141 191q-68 14 -97.5 47t-29.5 114t51 120.5t161 39.5t157 -46t47 -154.5t-66.5 -187.5t-185.5 -150z" />
<glyph unicode="&#x201a;" horiz-adv-x="552" d="M49 -209l141 191q-68 14 -97.5 46.5t-29.5 113.5t51.5 121t161 40t156.5 -47t47 -154.5t-66.5 -186.5t-185.5 -151z" />
<glyph unicode="&#x201c;" horiz-adv-x="999" d="M49 1004.5q0 107.5 66.5 186.5t185.5 150l178 -26l-141 -191q68 -14 97.5 -47t29.5 -113.5t-51.5 -120.5t-161 -40t-156.5 47t-47 154.5zM496 1004.5q0 107.5 66.5 186.5t185.5 150l178 -26l-142 -191q68 -14 97.5 -47t29.5 -113.5t-51 -120.5t-160.5 -40t-156.5 47 t-47 154.5z" />
<glyph unicode="&#x201d;" horiz-adv-x="999" d="M74 829l141 191q-68 14 -97.5 47t-29.5 114t51 120.5t161 39.5t157 -46t47 -154.5t-66.5 -187.5t-185.5 -150zM520 829l142 191q-68 14 -97.5 47t-29.5 114t51 120.5t160.5 39.5t156.5 -46t47 -154.5t-66.5 -187.5t-185.5 -150z" />
<glyph unicode="&#x201e;" horiz-adv-x="999" d="M49 -209l141 191q-68 14 -97.5 46.5t-29.5 113.5t51.5 121t161 40t156.5 -47t47 -154.5t-66.5 -186.5t-185.5 -151zM496 -209l141 191q-68 14 -97.5 46.5t-29.5 113.5t51 121t160.5 40t157 -47t47.5 -154.5t-66.5 -186.5t-185.5 -151z" />
<glyph unicode="&#x2022;" horiz-adv-x="845" d="M168 621.5q0 132.5 62.5 196t194.5 63.5t192.5 -62.5t60.5 -191.5q0 -260 -250 -260q-129 0 -194.5 61t-65.5 193.5z" />
<glyph unicode="&#x2026;" horiz-adv-x="1587" d="M98 143q0 84 44 124t157 40t156 -40t43 -124t-44 -123.5t-155 -39.5t-156 39.5t-45 123.5zM606 143q0 84 44 124t157 40t156 -40t43 -124t-44 -123.5t-155 -39.5t-156 39.5t-45 123.5zM1108 143q0 84 44 124t156.5 40t155.5 -40t43 -124t-44 -123.5t-154.5 -39.5 t-155.5 39.5t-45 123.5z" />
<glyph unicode="&#x202f;" horiz-adv-x="325" />
<glyph unicode="&#x2039;" horiz-adv-x="694" d="M8 420v135l418 432l221 -141l-237 -350l243 -351l-239 -147z" />
<glyph unicode="&#x203a;" horiz-adv-x="694" d="M41 840l240 147l405 -422v-135l-418 -432l-221 141l238 350z" />
<glyph unicode="&#x205f;" horiz-adv-x="406" />
<glyph unicode="&#x20ac;" horiz-adv-x="1087" d="M33 393v201h102v39h-102v203h112q88 457 566 456q170 0 340 -61l-54 -344q-211 31 -266 31q-90 0 -117 -82h377l-26 -203h-392v-39h390l-25 -201h-338q31 -72 141 -71q33 0 226 20l53 -315q-178 -47 -340 -47q-215 0 -350 108.5t-178 304.5h-119z" />
<glyph unicode="&#x2122;" horiz-adv-x="1343" d="M41 1077l12 195h510l-12 -195h-127v-512h-242v512h-141zM563 565l25 707h307l35 -305h8l31 305h305l29 -707h-224v318h-12l-29 -318h-217l-28 318h-13v-318h-217z" />
<glyph unicode="&#x25fc;" horiz-adv-x="983" d="M0 0v983h983v-983h-983z" />
<glyph unicode="&#xfb01;" horiz-adv-x="1206" d="M2 676v276h98v99q0 276 330 276q127 0 248 -6l-25 -320q-80 6 -104.5 6.5t-24.5 -20.5v-35h609v-952h-426v676h-179v-676h-428v676h-98zM698 1167q0 174 219.5 174t219.5 -174q0 -90 -54.5 -129t-165 -39t-165 38t-54.5 130z" />
<glyph unicode="&#xfb02;" horiz-adv-x="1226" d="M2 676v276h98v99q0 276 330 276q76 0 248 -14l-25 -312q-70 6 -99.5 6.5t-29.5 -20.5v-35h183v361h419v-965q0 -55 76 -55l-31 -313h-167q-297 0 -297 274v422h-179v-676h-428v676h-98z" />
<glyph unicode="&#xfb03;" horiz-adv-x="1812" d="M2 676v276h98v99q0 276 330 276q80 0 264 -8l-28 -318q-80 6 -121 7q-20 0 -21 -21v-35h185v99q0 276 329 276q129 0 248 -6l-24 -320q-80 6 -104.5 6.5t-24.5 -20.5v-35h608v-952h-426v676h-178v-676h-428v676h-181v-676h-428v676h-98zM1305 1167q0 174 219 174 t219 -174q0 -90 -54.5 -129t-165 -39t-164.5 38t-54 130z" />
<glyph unicode="&#xfb04;" horiz-adv-x="1832" d="M2 676v276h98v99q0 276 330 276q80 0 264 -8l-28 -318q-80 6 -121 7q-20 0 -21 -21v-35h183v99q-1 276 329 276q76 0 248 -14l-24 -312q-70 6 -100 6.5t-30 -20.5v-35h183v361h420v-965q0 -55 75 -55l-30 -313h-168q-297 0 -297 274v422h-178v-676h-428v676h-179v-676 h-428v676h-98z" />
</font>
</defs>
</svg>
