<?xml version="1.0" standalone="no"?>
<!DOCTYPE svg PUBLIC "-//W3C//DTD SVG 1.1//EN" "http://www.w3.org/Graphics/SVG/1.1/DTD/svg11.dtd" >
<svg xmlns="http://www.w3.org/2000/svg">
<metadata></metadata>
<defs>
<font id="patrick_handregular" horiz-adv-x="819" >
<font-face units-per-em="2048" ascent="1638" descent="-410" />
<missing-glyph horiz-adv-x="471" />
<glyph horiz-adv-x="0" />
<glyph horiz-adv-x="0" />
<glyph horiz-adv-x="682" />
<glyph unicode="&#xd;" horiz-adv-x="681" />
<glyph unicode=" "  horiz-adv-x="471" />
<glyph unicode="&#x09;" horiz-adv-x="471" />
<glyph unicode="&#xa0;" horiz-adv-x="471" />
<glyph unicode="!" horiz-adv-x="505" d="M158 1409q18 51 94 51t84 -51l-19 -698q0 -113 2 -148q-8 -27 -31.5 -47t-52 -20t-47.5 45q-31 516 -30 868zM164 172q0 37 28.5 67.5t76.5 30.5t69.5 -18.5t21.5 -79.5q0 -109 -90 -109q-45 0 -75.5 36t-30.5 73z" />
<glyph unicode="&#x22;" horiz-adv-x="620" d="M90 1194l16 305q10 63 70 64q72 0 72 -140q0 -35 -7.5 -90t-9.5 -137q-2 -35 -21.5 -55.5t-46 -20.5t-47 19.5t-26.5 54.5zM342 1221q0 98 6 129.5t6 126.5q4 31 24.5 50t45.5 19q55 0 68 -61l-11 -256q0 -35 -20.5 -55.5t-44.5 -20.5q-68 0 -74 68z" />
<glyph unicode="#" horiz-adv-x="935" d="M72 272.5q0 24.5 21.5 44t51.5 19.5h66q25 102 82 231q-106 -4 -130 -3t-43.5 19.5t-19.5 45.5q0 47 52.5 61.5t134.5 22.5l65 8q14 31 23 92q20 137 86 137q70 0 69 -78q0 -41 -30 -137q41 0 147 -8q8 25 18.5 78t18.5 76q20 68 68 67q61 0 61 -84q0 -47 -35 -151 q20 0 74 -15q41 -12 41 -57q0 -20 -14.5 -40.5t-22.5 -21.5t-29 -1l-90 4q-29 -68 -50 -139.5t-32 -90.5h80q53 -25 53 -74t-59 -59h-100q-2 -14 -8.5 -77.5t-22.5 -106.5t-63.5 -43t-57.5 55l23 166l-189 -8l-10 -64q-16 -90 -35 -116q-18 -23 -43.5 -23t-44 19.5 t-20.5 50.5l14 106q2 25 2 27h-35q-31 4 -49 23.5t-18 44zM344 342q23 0 182 4q23 94 66 252q-97 0 -152 -8q-16 -31 -96 -248z" />
<glyph unicode="$" horiz-adv-x="1038" d="M123 262q0 31 18.5 51.5t44 20.5t70.5 -39q2 -2 35 -33q104 -94 160 -115q8 98 10 243t14 257q-244 92 -305 189q-25 41 -25 115.5t41 164.5t116 156.5t175 87.5v57q4 31 24.5 48.5t45.5 17.5q51 0 69 -60v-57q131 -10 229.5 -75.5t129.5 -168.5q-4 -47 -39 -67 q-15 -8 -35 -8q-43 0 -63 49q-27 106 -201 125v-56l-12 -426q348 -129 348 -446q0 -154 -123 -219.5t-268 -65.5v-49q-2 -35 -24.5 -57.5t-47.5 -22.5q-59 0 -70 74v57q-119 33 -218 105.5t-99 146.5zM287 942q6 -90 202 -154v170l7 185q0 55 -2 71q-88 -23 -147.5 -105.5 t-59.5 -166.5zM588 125q240 18 239.5 144t-50.5 196t-171 125q-6 -61 -9 -184t-9 -281z" />
<glyph unicode="%" horiz-adv-x="1316" d="M88 978.5q0 114.5 49 192.5q96 154 293 154q106 0 178 -61.5t72 -185.5t-107.5 -244.5t-238.5 -120.5q-96 0 -171 75.5t-75 190zM199 88q0 21 17 55.5t123.5 162.5t245 358.5t206 337t92.5 157.5q39 90 100 144q39 27 69.5 26.5t41 -15t10.5 -48.5v-39q0 -35 -113 -197 q-68 -84 -336 -510q-172 -268 -264 -422q-53 -84 -105.5 -84t-76.5 37q-10 16 -10 37zM238 1001.5q0 -81.5 21.5 -106.5t86 -25t122.5 53.5t58 131.5q0 150 -92 149.5t-144 -61t-52 -142zM664 269q0 126 102 224.5t219 98.5t187.5 -83t70.5 -207t-92 -206t-218 -82 t-197.5 64.5t-71.5 190.5zM815 289q0 -133 127 -133q55 0 110.5 51t55.5 102q0 90 -47 127q-23 16 -53 17q-74 0 -133.5 -46t-59.5 -118z" />
<glyph unicode="&#x26;" horiz-adv-x="1085" d="M92 403q0 135 69.5 218.5t205.5 160.5q-96 174 -96.5 299t76.5 199t185.5 74t185.5 -90t77 -196.5t-56.5 -177.5t-185.5 -151q25 -37 80 -112.5t67 -94.5l64 -104q61 100 72 152q16 61 84 61q35 0 57 -19.5t22 -52.5q0 -80 -159 -272q63 -123 94 -213q-4 -31 -28.5 -53.5 t-55.5 -22.5t-55 25q-16 25 -26.5 55.5t-35.5 87.5q-94 -100 -157.5 -136t-146.5 -36t-167 65.5t-127 161.5q-43 86 -43 172zM252 404.5q0 -105.5 72 -181.5q41 -45 102 -45q106 0 236 131q-8 12 -20.5 31.5t-36 55.5t-70 100.5t-82.5 136.5l-17 29q-66 -47 -92 -72 q-92 -80 -92 -185.5zM426 1026q10 -88 59 -176q143 86 143.5 171t-30.5 132q-26 45 -61 45q-106 0 -111 -172z" />
<glyph unicode="'" horiz-adv-x="335" d="M90 1415l16 305q10 63 70 64q72 0 72 -139q0 -35 -7.5 -90.5t-9.5 -137.5q-2 -35 -21.5 -55.5t-46 -20.5t-47 19.5t-26.5 54.5z" />
<glyph unicode="(" horiz-adv-x="684" d="M123 657.5q0 237.5 25.5 363.5t76.5 223t124 208t128 145q23 12 47.5 12.5t51 -20t26.5 -38t-93 -149.5t-124 -179t-56.5 -116t-36.5 -172.5t-11 -246.5t45 -319t100 -236q174 -188 174 -233q0 -23 -28.5 -36.5t-64.5 -13.5t-63 25q-182 182 -251.5 363.5t-69.5 419z" />
<glyph unicode=")" horiz-adv-x="745" d="M121 -86q0 6 111.5 166t150.5 237.5t53.5 197.5t14.5 266.5t-46.5 323.5t-101.5 236q-180 186 -180 240q0 18 29.5 30.5t67.5 12.5t52 -18q195 -195 263.5 -380.5t68.5 -455.5t-50 -426t-198 -358q-74 -100 -100.5 -119t-56 -19t-54 21.5t-24.5 44.5z" />
<glyph unicode="*" horiz-adv-x="827" d="M88 1307.5q0 29.5 19.5 50t48 20.5t58.5 -24.5t43 -36.5t19 -19l76 -79q2 14 4 71.5t6.5 90t22.5 62.5t51 30q51 0 70 -62l-10 -133q68 39 153 76h10q31 0 52.5 -19.5t21.5 -44.5q0 -49 -94 -98q-10 -6 -23.5 -13.5t-59.5 -35t-73 -39.5q31 -25 97 -53q137 -59 137 -107 q0 -31 -19.5 -50.5t-54.5 -19.5q-72 0 -178 76q-2 -6 -3 -24.5t-2 -29.5t-1 -32q-8 -88 -67.5 -88t-72.5 74q0 82 9 147q-113 -78 -154 -77.5t-61 32.5q-10 16 -10.5 41t53.5 66q31 20 104 61q-117 109 -145 131q-27 27 -27 56.5z" />
<glyph unicode="+" horiz-adv-x="983" d="M72 465q0 33 27.5 65.5t64.5 36.5h254v17l-4 143q0 207 102 207q47 0 64 -60l-5 -307h259q59 -10 59 -55q0 -33 -24.5 -62.5t-59.5 -39.5h-236q-2 -14 -2 -48v-98v-14q0 -225 -98 -225q-63 0 -63 71q0 209 6 314h-277q-68 0 -67 55z" />
<glyph unicode="," horiz-adv-x="413" d="M94 -109q0 23 6 43q63 72 64 216q12 63 67.5 63t73.5 -57q0 -135 -43 -244q-14 -39 -41.5 -65.5t-58.5 -26.5q-68 0 -68 71z" />
<glyph unicode="-" horiz-adv-x="827" d="M74 478q0 38 24.5 62.5t69.5 24.5h111h296h103q76 -4 76 -78q0 -35 -23.5 -60.5t-68.5 -25.5l-351 2l-170 -4q-29 0 -48 20.5t-19 58.5z" />
<glyph unicode="." horiz-adv-x="438" d="M113 98q0 49 31.5 98.5t75.5 49.5t77 -33t39 -90q0 -45 -33 -83t-77 -38t-78.5 23.5t-34.5 72.5z" />
<glyph unicode="/" horiz-adv-x="866" d="M90 -29q0 8 6 29q133 313 291 727t291 733q29 53 84 53q25 0 41 -14t16 -37.5t-51 -142.5t-246.5 -619.5t-300.5 -740.5q-35 -47 -76 -47q-55 0 -55 59z" />
<glyph unicode="0" horiz-adv-x="917" d="M63 647q0 274 99 483q49 106 133 168t192 62q160 0 261.5 -208t101.5 -493.5t-94 -473t-267 -187.5q-426 0 -426 649zM236 655q0 -188 70.5 -328.5t162.5 -140.5q74 0 124 77t68.5 172t18.5 248t-41 325q-20 94 -62 150t-102 56q-80 0 -137 -96q-102 -174 -102 -463z" />
<glyph unicode="1" horiz-adv-x="743" d="M53 833.5q0 32.5 48.5 89t355.5 382.5q47 43 118 43q35 0 57.5 -20.5t22.5 -47.5l-14 -551l6 -633q0 -100 -108 -100q-23 0 -40.5 19.5t-17.5 60.5l-6 520q0 258 6 485q-70 -61 -135 -141t-89 -106.5t-61.5 -52t-70.5 -25.5t-52.5 22.5t-19.5 55z" />
<glyph unicode="2" horiz-adv-x="958" d="M55 78q0 55 20.5 104t39 74t74 82t80 86t148.5 145.5t186.5 210.5t62.5 199q0 162 -129 209q-37 12 -76 12q-88 0 -176 -76q-35 -33 -74 -32q-12 0 -23 2q-51 12 -51 71q0 80 113 133q121 57 263 57.5t233.5 -103t91.5 -257.5q0 -219 -136 -377q-63 -74 -129 -137 q-207 -197 -276 -299q92 -6 228.5 -6t336.5 17q31 -6 50.5 -28t19.5 -48q0 -70 -74 -97q-74 -24 -258 -24l-301 4h-41q-203 0 -203 78z" />
<glyph unicode="3" horiz-adv-x="917" d="M84 244q0 18 20.5 42.5t59.5 24.5t84 -35.5t102.5 -71.5t128.5 -36q205 0 205 256q0 98 -70.5 158.5t-199.5 62.5q-27 2 -40.5 4t-35 18.5t-21.5 51.5q0 74 82 80t146.5 73.5t64.5 169.5q0 57 -49 105.5t-115 48.5q-121 0 -225 -104q-29 -20 -51.5 -20.5t-38.5 3.5 q-47 14 -47 66q0 84 106.5 147.5t252 63.5t242.5 -77t97 -200t-27.5 -205t-119.5 -135q217 -82 217 -295q0 -180 -108.5 -310t-265 -130t-275.5 75t-119 169z" />
<glyph unicode="4" horiz-adv-x="768" d="M74 680.5q0 150.5 22.5 331t50 265.5t109.5 85q55 0 63 -47v-39t-12 -76q-49 -360 -49 -514q0 -37 2 -61q37 -8 99.5 -8.5t158.5 12.5q4 43 4 115.5t2 121.5t14.5 69.5t71 20.5t73.5 -20.5t15 -56t-6 -149.5t-6 -640q0 -92 -90 -92h-8q-76 0 -76 125v113l4 217 q-74 -12 -209 -12.5t-184 44.5t-49 195.5z" />
<glyph unicode="5" horiz-adv-x="866" d="M70 219q0 39 9 58.5t33.5 32t44 12.5t53.5 -24t95.5 -67t141 -43t141 81t61.5 177q0 276 -248 277q-53 0 -123.5 -10.5t-92 -12.5t-58.5 15q-43 41 -43 261t10 284.5t35 74.5q43 18 257 18.5t343 -40.5q41 -25 41 -71t-25.5 -74.5t-54.5 -22.5q-170 37 -342 37 q-53 0 -106 -4q0 -80 6 -295q84 31 161.5 30.5t150.5 -25t133.5 -75.5t97 -140t36.5 -206q0 -197 -114.5 -332t-265 -135t-264 68.5t-113.5 150.5z" />
<glyph unicode="6" horiz-adv-x="817" d="M72 362q0 389 293 859q49 82 85.5 106.5t58 24.5t44 -16.5t22.5 -45t-30.5 -69.5t-140 -260.5t-119.5 -262.5q86 23 175 23t167 -49q127 -84 127 -271q0 -408 -398 -409h-6q-145 0 -208.5 101.5t-69.5 268.5zM227 345q0 -71 40 -123t98 -52q115 0 175 67.5t60 150.5 t-46 128t-124 45t-115 -12q-29 -12 -45 -31.5t-29.5 -60.5t-13.5 -112z" />
<glyph unicode="7" horiz-adv-x="1013" d="M35 1294q0 25 20.5 47.5t58.5 22.5t307 -44t298 -71q12 -10 12 -75q0 -31 -14 -166q-12 -94 -15 -129l103 6h46t54.5 -14.5t22.5 -54.5t-29 -59.5t-111 -21.5l-94 -2l-16 -645q0 -45 -30 -67.5t-66 -22.5q-57 0 -58 154q0 317 19 585l-209 -12q-25 -2 -45.5 23.5 t-20.5 52.5q0 72 86 71l201 2l20 248q-70 25 -356 70q-111 18 -131 22q-53 10 -53 80z" />
<glyph unicode="8" horiz-adv-x="886" d="M92 317q0 244 236 431q-88 47 -152 145q-66 100 -65.5 212t90.5 181q98 76 247.5 76t250 -71.5t100.5 -203.5q0 -186 -201 -321q117 -125 166 -215q53 -98 53 -233.5t-100 -223.5q-109 -94 -272.5 -94t-256.5 82q-96 86 -96 235zM244 324q2 -80 68.5 -123t164.5 -43 q92 0 133 51t40 125t-49 147.5t-152 180.5q-104 -72 -154.5 -156t-50.5 -164v-18zM256 1077q0 -41 24.5 -77.5t49 -55t67.5 -47.5t58 -39q66 49 88 66.5t52 49.5t37 55.5t6 70.5t-57.5 83t-117.5 36h-12q-195 -17 -195 -142z" />
<glyph unicode="9" horiz-adv-x="751" d="M59 1001q0 176 110 269.5t277.5 93.5t231.5 -129q16 -35 16 -168l-2 -205v-387l4 -389q0 -37 -31.5 -60.5t-59 -23.5t-44 25.5t-18.5 58.5q-14 301 -15 623q-53 -70 -215 -70q-111 0 -182.5 114.5t-71.5 247.5zM213 983q0 -80 41 -131t86 -51q12 0 27 4q123 33 165 65 v148l3 100q0 49 -8.5 64.5t-20.5 23.5q-14 14 -33.5 14.5t-51.5 -7t-82 -29t-88 -71.5t-38 -130z" />
<glyph unicode=":" horiz-adv-x="475" d="M121 712q0 48 30.5 97t74.5 49t78 -32.5t40 -90.5q0 -45 -34 -83t-77 -38t-77.5 25t-34.5 73zM133 115q0 116 121 116q16 0 41 -10q14 -8 31.5 -45t17.5 -73.5t-35 -68.5t-78 -32t-70.5 32t-27.5 81z" />
<glyph unicode=";" horiz-adv-x="475" d="M115 127q0 47 28.5 82t75.5 35t74 -19q51 -33 51 -141.5t-56.5 -184t-104.5 -75.5t-48 31q0 14 42 66t52 89q-45 0 -79.5 35t-34.5 82zM121 696q0 76 39 116t74.5 40t69.5 -32t40 -91q0 -43 -32.5 -80t-67.5 -37q-68 0 -103 35q-20 18 -20 49z" />
<glyph unicode="&#x3c;" horiz-adv-x="811" d="M53 483q0 37 35 60q285 236 524 393q20 10 46 10t47.5 -22.5t21.5 -51t-16 -51.5q-20 -14 -467 -340q49 -37 220 -151.5t251 -179.5q16 -27 16 -50.5t-26.5 -47t-54 -23.5t-36.5 6q-86 68 -255 184.5t-275 200.5q-31 26 -31 63z" />
<glyph unicode="=" horiz-adv-x="1171" d="M223 469q0 31 16.5 56.5t41.5 29.5q195 2 645 2q45 -2 45 -51q0 -27 -15.5 -51.5t-37.5 -28.5l-648 -8q-47 0 -47 51zM238 811q0 27 17 53.5t42 30.5l389 -8q106 0 246 8q39 -8 39 -40t-16.5 -58.5t-36.5 -34.5q-133 -8 -242 -8l-389 8q-49 0 -49 49z" />
<glyph unicode="&#x3e;" d="M86 889q0 29 17.5 47t40 18t45 -8t54 -27.5t59.5 -39t77 -54t131 -90t215 -164.5q45 -39 45 -72.5t-33 -68.5l-36.5 -36.5t-100.5 -76.5l-61 -43q-41 -29 -143.5 -98.5t-188.5 -140.5q-10 -6 -39 -6t-54.5 24.5t-25.5 54t12 48.5q98 72 255 178t233 166 q-59 45 -186.5 130t-288.5 197q-27 33 -27 62z" />
<glyph unicode="?" horiz-adv-x="753" d="M72 1219q0 78 108.5 158.5t227.5 80.5q168 0 266 -137q53 -76 53 -154q0 -135 -111 -260q-47 -53 -94 -100q-113 -113 -112.5 -149.5t28.5 -82.5q27 -45 27 -61t-10 -37q-25 -37 -71 -37t-93 62.5t-47 138.5q0 133 100 242q47 51 88 86q137 128 137 198q0 49 -52 88 t-105.5 39t-98.5 -23.5t-65 -56.5q-57 -82 -88 -81q-88 0 -88 86zM293 173q0 36 27.5 66.5t76.5 30.5t70.5 -18.5t21.5 -79.5q0 -109 -98 -109q-37 0 -67.5 37t-30.5 73z" />
<glyph unicode="@" horiz-adv-x="1126" d="M72 438q0 137 87 260t222 191.5t266 68.5t238 -63q123 -72 123 -235.5t-144 -270.5q-61 -47 -143 -70q-8 -68 -47 -77q-20 -4 -33 -4q-51 0 -51 53v6q-14 -2 -64 -2q-147 0 -196 59q-31 39 -31 89.5t41 111.5t103.5 99t109.5 38t84 -12q0 12 20.5 20.5t44.5 8.5 q57 0 58 -35q0 -4 -23 -207q59 33 95 85t36 110.5t-43 91.5q-72 59 -197.5 59t-223 -56.5t-147.5 -146.5t-50 -195.5t90 -181t252 -75.5q98 0 186 44t129 101t74 57t51.5 -15t18.5 -37.5t-2 -26.5q-31 -129 -147 -203t-261 -74q-295 0 -448 195q-78 102 -78 239zM432 432 q29 -16 92.5 -16t75.5 2q14 78 14 131q0 31 -36 31q-80 0 -121 -64q-25 -33 -25 -84z" />
<glyph unicode="A" horiz-adv-x="999" d="M49 61q0 147 108.5 563t180.5 552q90 174 192 174q51 0 86 -45t91 -187q129 -334 251 -1046q3 -10 3 -24q1 -14 -19 -32t-56 -18t-60.5 17.5t-33 57.5t-30.5 156q-49 260 -66 271q-25 14 -163 30.5t-183 16.5t-53 -8q-37 -33 -100 -498q-8 -39 -78 -39t-70 59zM340 717 q0 -10 4 -15q16 -16 129 -28t149.5 -12t41 5t4.5 32.5t-55.5 225t-90.5 197.5q-31 0 -106.5 -181t-75.5 -224z" />
<glyph unicode="B" horiz-adv-x="1038" d="M115 784v146q0 174 32.5 265t137.5 146q53 27 148 27t147 -12q137 -29 187 -107t50 -209q0 -182 -96 -268q49 -6 98 -49t80 -88q53 -82 53 -223q0 -221 -133.5 -314.5t-412.5 -93.5l-265 6q-23 86 -26 774zM276 598q0 -319 11 -432q240 0 336 31.5t129.5 78t33.5 98.5 t-1 73.5t-12 59.5t-32.5 59.5t-64.5 40t-124 18.5t-276 -27zM278 1034q2 -29 1 -33l4 -233q4 0 69.5 9t110.5 20q207 49 207 235q0 92 -54.5 135t-142.5 43q-111 0 -149 -39q-16 -16 -26.5 -27t-14.5 -36q-3 -25 -5 -35q-1 -5 -1 -15t1 -24z" />
<glyph unicode="C" horiz-adv-x="1122" d="M86 659q0 347 177 513.5t425 166.5q137 0 303 -53q37 -29 37 -62.5t-33.5 -59t-76.5 -25.5q-107 28 -201 28h-6q-221 0 -336 -131t-115 -389t135 -403q70 -76 166 -76t307 102q74 35 99 35q53 0 53 -55t-51 -92q-176 -92 -274.5 -124t-170.5 -32q-147 0 -252 109 q-186 201 -186 548z" />
<glyph unicode="D" horiz-adv-x="972" d="M74 834q0 115 10 446q10 31 42 53.5t60.5 22.5t34.5 -2q293 -82 510 -316.5t227 -562.5q0 -360 -299 -452q-86 -27 -181 -27t-167 14q8 -16 8 -43.5t-33.5 -53.5t-79.5 -26t-59 56l-26 123q-31 23 -31 50t23 46q-39 293 -39 672zM244 850q0 -358 41 -680 q49 -14 165.5 -14t224 38.5t113.5 114.5q6 57 7 88q0 266 -142.5 471t-398.5 312q-10 -242 -10 -330z" />
<glyph unicode="E" horiz-adv-x="905" d="M84 758q0 35 22 63q-8 205 -8 432q12 49 38 72t75 29q270 -12 586 -13q78 -16 77 -67q0 -86 -167 -100q-45 -2 -99 -3h-133q-39 0 -215 17q0 -256 8 -352q109 -2 418 -2q74 -14 74 -66.5t-60 -81.5q-6 -4 -22 -8l-354 6q-33 0 -54 -4l9 -352q0 -119 -7 -170l476 6 q65 -10 65 -54q0 -32 -27.5 -63t-64.5 -39l-524 -8q-47 0 -65.5 17.5t-18.5 58.5q8 57 8 184v143l-8 302q-29 18 -29 53z" />
<glyph unicode="F" horiz-adv-x="768" d="M-4 1260q0 25 20.5 54t36 31.5t39 2.5t115.5 -9q127 -12 223 -12l227 4q152 0 152 -80q0 -29 -8 -40t-12.5 -17t-16.5 -10q-25 -8 -41 -10.5t-22 -2.5q-23 -4 -76 -6t-154.5 -2t-249.5 8v-376h418q23 0 42.5 -20.5t19.5 -45.5q0 -94 -80 -94h-400l9 -537q0 -104 -71 -104 t-83 94q-6 31 -7 521.5t-5 564.5q-6 -1 -11 -1q-65 0 -65 87z" />
<glyph unicode="G" horiz-adv-x="983" d="M90 651q0 143 47 281.5t127 232.5q168 195 414 195q98 0 195.5 -49t97.5 -111q0 -94 -78 -94q-29 0 -100.5 37t-120.5 37q-176 0 -294 -158t-118 -401q0 -182 80 -319.5t189.5 -137.5t172 72.5t62.5 164.5q0 51 -7 85t-36 61.5t-76 27.5t-89 20.5t-42 55.5t20.5 66 t55.5 37q139 0 187 -29t72.5 -47.5t41 -61.5t26 -71.5t13.5 -91.5q4 -106 4 -249t-21 -175q-18 -27 -61 -28t-59.5 17.5t-20.5 81.5q-49 -43 -124 -72.5t-132 -29.5q-180 0 -303 191.5t-123 461.5z" />
<glyph unicode="H" horiz-adv-x="958" d="M113 612l12 639q0 41 30.5 60.5t65.5 19.5q57 0 58 -55l-9 -492q157 -27 288 -27q2 1 5 1q133 0 170 2q-4 156 -4 299v194.5t4 64.5t26.5 25.5t65.5 12.5q61 0 62 -74v-725q0 -225 -10 -496q-2 -59 -101 -59q-49 0 -49 59l8 543q-66 -4 -179.5 -4t-285.5 25 q0 -270 25 -566q2 -33 -28.5 -50t-77 -17t-50.5 47q-26 281 -26 553v20z" />
<glyph unicode="I" horiz-adv-x="481" d="M156 57q20 205 20 508l-12 688q8 29 40 49.5t72.5 20.5t51.5 -47q2 -238 8 -711q0 -289 -17 -489q-4 -31 -37.5 -54.5t-68.5 -23.5q-57 0 -57 59z" />
<glyph unicode="J" horiz-adv-x="757" d="M72 377q0 31 31.5 56.5t68.5 25.5q45 0 55 -84q27 -238 179 -238q39 0 66.5 25.5t41.5 61.5t23 95q12 86 12 206t-30 437.5t-30 339t33 44t64.5 22.5t49 -14.5t19.5 -34.5q43 -553 43 -699.5t-4 -220t-20.5 -158.5t-46.5 -135q-68 -115 -216 -115q-1 0 -1 1 q-150 0 -244 99t-94 286z" />
<glyph unicode="K" horiz-adv-x="1071" d="M96 1243q0 45 31 79t70 34q49 0 65 -62q33 -205 40 -589q184 170 286 290.5t215 309.5q33 55 96 55q33 0 54.5 -17.5t21.5 -42.5q0 -66 -116 -226.5t-245 -311.5q172 -172 295 -397q16 -29 43 -72t41 -68q39 -68 39 -115t-23.5 -76.5t-58.5 -29.5t-90 91t-158.5 258 t-218.5 294q-115 -111 -172 -153q6 -131 6 -218.5t-4 -140.5q-12 -133 -108 -133q-55 0 -55 63v9v159q0 158 -19.5 534t-34.5 476z" />
<glyph unicode="L" horiz-adv-x="761" d="M55 285l2 159l19 856q0 25 26.5 39.5t67.5 14.5q98 0 98 -70q0 -23 -23.5 -344.5t-23.5 -384.5v-217q0 -154 21 -168q31 -10 71 -10l295 20q96 0 97 -69q0 -55 -52.5 -81t-103.5 -29t-125 -3q-322 0 -348 20q-14 12 -16.5 93.5t-3.5 114t-1 59.5z" />
<glyph unicode="M" horiz-adv-x="1218" d="M104 66q2 184 2 583v582q0 35 24 67.5t55.5 32.5t58 -17.5t28.5 -51.5q8 -227 74 -338t156 -111t154.5 29.5t106.5 68.5t81 111q55 102 106 252q31 90 101 90q49 0 63 -72q10 -334 10 -728t-4 -455.5t-26.5 -86t-81.5 -24.5q-53 0 -54 65v463q0 113 -4 232t-4 149 q-70 -119 -184.5 -195.5t-255.5 -76.5t-238 117q-4 -125 -4 -296t2 -360q0 -51 -33.5 -74.5t-76.5 -23.5q-55 0 -56 68z" />
<glyph unicode="N" horiz-adv-x="1089" d="M84 78q0 37 15.5 405.5t15.5 459.5v116q0 147 22.5 165.5t46.5 18.5q113 0 344 -369q45 -72 172 -300t152 -281l-25 850q0 176 39 200q21 13 53.5 13t59.5 -28t27 -64q0 -801 7 -968t7 -171q0 -45 -24.5 -85t-54.5 -40t-45 3t-27.5 7t-24.5 17l-21 20q-8 8 -21.5 31.5 t-21.5 38t-25.5 50.5t-75.5 146.5t-106 198.5q-162 297 -301 469q0 -666 -36 -924q-6 -49 -76 -49q-33 0 -54.5 16.5t-21.5 53.5z" />
<glyph unicode="O" horiz-adv-x="1138" d="M86 748q0 262 125 432q131 182 416 182q143 0 243 -92q197 -176 197 -556t-217 -597q-113 -109 -260 -119q-195 0 -303.5 133t-154.5 298t-46 319zM250 753.5q0 -108.5 41 -251.5q55 -193 164 -271q63 -49 153 -49t162 81t98.5 206t26.5 252q0 225 -64.5 348t-218.5 123 q-274 0 -342 -260q-20 -70 -20 -178.5z" />
<glyph unicode="P" horiz-adv-x="985" d="M102 780v30q0 333 11 435q10 66 90 87.5t211 21.5q193 0 324.5 -83t131.5 -245q0 -133 -36.5 -222t-92.5 -132q-90 -70 -266 -70q-76 0 -199 21q9 -357 9 -484q-1 -19 -1 -33q-2 -106 -71 -106q-45 0 -57.5 16.5t-16.5 23.5t-8 21.5t-6 23.5t-3 27.5t-3 28.5q-2 31 -2 68 q-15 211 -15 571zM266 959.5q0 -101.5 8 -183.5q55 -6 76 -10q53 -6 91 -6t51.5 1t51.5 6t54 17.5t41 33t35 46.5q27 73 27 154q0 86 -91 134q-90 48 -192.5 48t-143.5 -18q-8 -121 -8 -222.5z" />
<glyph unicode="Q" horiz-adv-x="1341" d="M100 629q0 279 142 497q68 109 176 172.5t237 63.5t244 -59.5t188 -161.5q152 -213 152 -488q0 -207 -123 -393q0 -2 64 -67q59 -66 59 -98t-21 -65q-22 -33 -71 -33t-135 109l-27 31q-145 -125 -356 -145q-156 12 -280 107.5t-186.5 239.5t-62.5 290zM270 681 q0 -197 86 -351q94 -170 297 -183q164 14 256 84l-161 187q-64 73 -64 111q0 36 26 61q27 26 67 26t106 -69q39 -45 104 -129q29 -41 37 -49q66 119 66 260q0 319 -213 487q-106 86 -252 86q-188 0 -279 -172q-76 -152 -76 -349z" />
<glyph unicode="R" horiz-adv-x="929" d="M76 1096q0 156 137 213q111 51 262 51q78 0 167 -38t159.5 -110.5t70.5 -157.5t-77.5 -182.5t-192.5 -172t-223 -111.5q190 -133 331.5 -285.5t141.5 -236.5q0 -27 -26.5 -50.5t-64.5 -23.5t-65 33q-45 109 -171 228.5t-294 227.5l13 -393q0 -37 -33 -66.5t-71 -29.5 t-52 49q-6 270 -6 539zM236 702q137 7 308 115.5t171 195.5t-86 134t-204 47t-187 -29q-2 -104 -2 -463z" />
<glyph unicode="S" horiz-adv-x="940" d="M70 199q0 20 17 44.5t48 41t56.5 5.5t83 -40t83.5 -39q86 -33 162 -33t146.5 75t70.5 183q0 143 -143 201q-70 29 -158 43q-182 33 -274 109.5t-92 232.5t133 245t342 89q133 0 226 -45t93 -115q0 -31 -15 -53.5t-45 -22.5t-128 46t-179 46t-167 -51t-86 -125 q0 -100 104 -147q78 -35 223.5 -62.5t237.5 -112.5t92 -257q0 -262 -158 -387q-88 -70 -248.5 -70t-320.5 88q-104 55 -104 111z" />
<glyph unicode="T" horiz-adv-x="958" d="M2 1238q0 30 25.5 58.5t62.5 32.5l830 12q59 -18 59 -59q0 -102 -84 -102q-154 0 -326 -9q-10 -176 -10 -265v-113l8 -719q0 -63 -32 -74q-25 -8 -62 -8q-59 0 -65 67q-12 158 -12 589q0 16 -1 31q0 403 13 488q-43 -2 -127 -2t-209 2q-33 0 -51.5 20.5t-18.5 50.5z" />
<glyph unicode="U" horiz-adv-x="1126" d="M72 797q0 96 28 456q14 33 44 58.5t61 25.5q45 0 55 -61q-29 -354 -29 -449q0 -225 88 -399q55 -115 136.5 -191.5t158.5 -76.5q129 0 222 200q39 70 43 224q0 41 4 57l4 270q0 188 -29 344q0 43 28.5 76t63.5 33t60 -35q34 -173 34 -387v-12v-156q0 -176 -6 -207.5 t-12 -70.5t-11 -59.5t-16 -55.5q-23 -76 -63 -135q-61 -115 -161.5 -180.5t-204 -65.5t-213 90t-179.5 225q-106 209 -106 482z" />
<glyph unicode="V" horiz-adv-x="1150" d="M125 1201q0 32 31.5 62.5t70.5 30.5t66 -39l98 -225q207 -477 295 -694l37 143q45 188 94 373q139 504 275 504q25 0 42 -14.5t17 -39t-25.5 -71.5t-64.5 -170t-48 -144.5t-98.5 -345t-152.5 -508.5q-10 -33 -39 -54t-65 -21t-54 51q-84 248 -174 453.5t-231 517.5 q-49 109 -61.5 134t-12.5 57z" />
<glyph unicode="W" horiz-adv-x="1261" d="M59 1227q0 41 31 74.5t68 33.5q45 0 61 -59q55 -666 111 -983q16 29 83.5 189.5t123 256t106.5 95.5q35 0 59 -37q129 -367 222 -516q2 23 24 122l27 132q0 12 5 34.5t8 44t7 39.5l23 129q49 303 61 498q8 35 38 60.5t61 25.5q43 0 59 -61q-12 -207 -26.5 -294 t-23.5 -152.5t-12.5 -90.5t-17.5 -100.5t-29.5 -150.5t-18.5 -89t-38 -183t-52.5 -207t-59 -38t-66.5 25q-94 129 -178 319q-20 49 -46 106.5t-38 86.5l-19 43q-43 -74 -118.5 -250t-133.5 -283q-37 -47 -81 -47q-94 0 -144 502q0 2 -3 22.5t-8 71.5t-12.5 113.5 t-52.5 517.5z" />
<glyph unicode="X" horiz-adv-x="1230" d="M59 49q0 33 17 66q16 18 156.5 172.5t259.5 302.5q-279 434 -355 567q-10 25 -10 54.5t29.5 60.5t67.5 31t61 -35q205 -336 329 -531q213 250 404 557q35 61 98 62q25 0 42.5 -15.5t17.5 -38t-13 -57.5q-154 -256 -458 -641q176 -283 325 -457q17 -34 17 -62 q0 -29 -30 -59t-67 -30t-63 20q-92 117 -307 443q-137 -162 -392 -445q-32 -24 -59 -24q-70 0 -70 59z" />
<glyph unicode="Y" horiz-adv-x="905" d="M41 1279q0 32 26.5 57.5t52 25.5t61.5 -47t141.5 -248t121.5 -221q197 348 316 491q29 27 46 27t25 -4q50 -20 50 -56q0 -33 -17 -57q-16 -25 -90 -129q-109 -152 -187.5 -306.5t-78.5 -188.5v-375l6 -164q0 -45 -24.5 -62.5t-60.5 -17.5t-48 39t-14 102.5t-2 186.5v164 l2 104q0 53 -34 104.5t-163 297t-129 277.5z" />
<glyph unicode="Z" horiz-adv-x="1038" d="M106.5 1322.5q30.5 29.5 74.5 33.5t152.5 4t328.5 -29q317 -41 335 -114q2 -6 2 -28t-34 -87q-47 -92 -185 -271q-18 -25 -28 -36q8 0 37.5 1t40 0t28.5 -5q41 -12 41 -66.5t-54 -74t-90 -19.5h-53l-73 8q-133 -150 -193 -223q-100 -131 -143 -260l280 -9q63 0 144 7 l112 10q16 2 34 2t42 -2q53 -4 66 -72q1 -6 1 -12q0 -42 -52 -60q-66 -23 -133.5 -23.5t-102.5 -0.5l-170 4h-45l-311 -8h-21.5t-32 15.5t-14.5 51.5q29 158 82 251t148.5 202t121.5 141q-254 43 -254 123q0 43 28 70.5t46.5 27.5t119.5 -27.5t191 -35.5q6 10 43 57t68 86 q76 100 129 199q-244 53 -668 53q-69 0 -69 62q0 25 30.5 54.5z" />
<glyph unicode="[" horiz-adv-x="620" d="M125 813v623q4 72 48 96t146 24h33q174 0 174 -73q0 -92 -137 -92h-67q-18 4 -35 0q6 -150 6 -367l-6 -997q8 2 53 2q152 0 152 -58q0 -109 -197 -108q-123 0 -150 33q-14 16 -14 45v698z" />
<glyph unicode="\" horiz-adv-x="860" d="M51 1473.5q0 19.5 15.5 35t35.5 15.5q45 0 80 -47q117 -272 298.5 -733t239.5 -604.5t58 -167t-15 -37t-40 -13.5q-55 0 -84 53q-102 238 -280.5 708t-301.5 753q-6 18 -6 37.5z" />
<glyph unicode="]" horiz-adv-x="606" d="M90 1477q0 80 182 79h25q104 0 148 -24.5t44 -95.5v-1495q0 -35 -27.5 -53.5t-58 -21.5t-81.5 -3q-197 0 -197 104q0 61 154 62q43 0 51 -2v909q-2 152 -2 265.5t2 189.5q-37 4 -59.5 2t-41.5 -2q-139 0 -139 86z" />
<glyph unicode="^" horiz-adv-x="757" d="M120 1285q1 32 107.5 112t152.5 79t143.5 -80t97.5 -126q0 -29 -25 -49.5t-45.5 -19.5t-84 47t-97.5 89q-133 -133 -173 -132t-58.5 24.5t-17.5 55.5z" />
<glyph unicode="_" horiz-adv-x="1169" d="M63 -68q0 29 18.5 47.5t55.5 18.5q305 -2 535.5 -2t384.5 2q51 0 51 -57q0 -23 -26.5 -43.5t-49.5 -20.5q-80 -2 -219 -2l-559 2h-141q-49 0 -50 55z" />
<glyph unicode="`" horiz-adv-x="450" d="M61 1293.5q0 19.5 3.5 37t27 30.5t37.5 13t23 -2q31 -8 84 -97t116 -122q37 -18 37 -78q0 -16 -12 -28q-18 -29 -46 -29t-66 20.5t-94 75.5t-83 107.5t-27 72z" />
<glyph unicode="a" horiz-adv-x="802" d="M51 446q0 248 93.5 375t267.5 127q82 0 163 -28q27 36 74 36q90 0 90 -153v-35l-4 -143q-2 -68 -2 -133l31 -463q0 -51 -105 -52h-29.5t-32.5 18.5t-2 45.5t-5 59q-94 -100 -250 -100q-289 0 -289 446zM205 455q0 -303 164 -303q43 0 95 38.5t73 88.5q39 110 39 238 q0 133 -32 193t-108 60q-117 0 -174 -67.5t-57 -247.5z" />
<glyph unicode="b" horiz-adv-x="843" d="M82 1384q0 82 102 82q47 0 56 -57v-307q0 -86 2 -172q41 12 104 12q199 0 307.5 -133t108.5 -334t-128 -339t-329 -138t-201 113.5t-11 577.5t-11 695zM248 766q12 -168 12 -596q35 -12 72 -12q80 0 160 59q119 82 119 251t-115 257q-74 57 -156 57q-45 0 -92 -16z" />
<glyph unicode="c" horiz-adv-x="794" d="M49 479q0 137 73 250t185.5 169t219 56t171 -25.5t64.5 -67.5t-23.5 -84t-62.5 -42q-14 0 -79 23.5t-83 23.5q-119 0 -203 -87t-84 -230t46 -214t159 -71q45 0 154.5 52.5t136.5 52.5t43 -16.5t16 -41.5q0 -49 -62.5 -103t-154.5 -90t-166 -36q-164 0 -257 129t-93 352z " />
<glyph unicode="d" horiz-adv-x="798" d="M51 399q0 168 68.5 314.5t214.5 210.5q90 39 174 39q30 -1 59 -5l-2 396q0 111 70 111l1 -1q71 0 79 -61q4 -27 10 -322t19.5 -553t13.5 -481q0 -61 -92 -61q-61 0 -62 86q-88 -70 -209 -70q-154 0 -249 114.5t-95 282.5zM217 443.5q0 -121.5 48 -198.5t137.5 -77 t140.5 88t51 225q0 154 -15.5 198t-36 67.5t-44 28.5t-56 5t-80 -24.5t-79.5 -79.5q-66 -111 -66 -232.5z" />
<glyph unicode="e" horiz-adv-x="815" d="M41 532q0 170 80 293t252 123q109 0 207 -63.5t98 -156.5t-80 -180t-213 -106q-57 -8 -172 -8q23 -174 88 -229q20 -23 55 -23q127 0 213 81t123 81q16 0 49 -30.5t33 -57.5q0 -53 -129 -154q-57 -47 -138 -78.5t-151 -31.5q-178 0 -262 229q-53 141 -53 311zM211 580 q287 0 287 141q0 86 -115 86q-78 0 -133 -88q-20 -31 -39 -139z" />
<glyph unicode="f" horiz-adv-x="735" d="M43 862q0 53 44 69.5t101.5 16.5h81.5q6 334 37 414q18 49 50 72.5t55.5 26.5t108.5 3t140.5 -24.5t55.5 -98t-60 -73.5q-12 0 -69.5 21.5t-73.5 21.5q-72 0 -86 -86q-4 -31 -4 -126v-157h143q90 -4 90 -63q0 -86 -122 -91q-18 -2 -45 -2t-62 2q4 -82 18.5 -291.5 t14.5 -408.5q0 -41 -33 -65.5t-68 -24.5q-55 0 -55 65q0 184 -14.5 358.5t-20.5 366.5q-184 0 -215 37q-12 14 -12 37z" />
<glyph unicode="g" horiz-adv-x="911" d="M113 475q0 215 118.5 345t292.5 130t238 -119q55 -104 55 -315l-4 -168q0 -119 11.5 -328.5t11.5 -316.5q0 -176 -87 -259t-266 -83q-106 0 -216.5 45t-110.5 105q0 43 23.5 65.5t54 22.5t138 -45.5t154.5 -45.5q147 0 148 242v28q0 219 -8 306q-74 -86 -186.5 -86 t-194.5 70q-172 133 -172 407zM272 482q0 -132 54.5 -209.5t167 -77.5t145.5 96q25 78 25 226.5t-44.5 208.5t-138.5 60t-151.5 -86t-57.5 -218z" />
<glyph unicode="h" horiz-adv-x="860" d="M84 1374q0 43 28.5 67.5t67.5 24.5q57 0 68.5 -98t14.5 -245.5t7 -215.5q102 53 205 54q238 0 301 -209q37 -119 37 -306q0 -61 -11 -193t-13.5 -171t-34 -60.5t-68.5 -21.5q-57 0 -57 61l14 357q0 45 -4 149.5t-42 166t-132 61.5q-168 0 -168 -131l16 -484 q0 -90 -8 -104q-4 -37 -23.5 -57.5t-74.5 -20.5q-27 0 -43.5 34t-18.5 77q-14 360 -37.5 676.5t-23.5 588.5z" />
<glyph unicode="i" horiz-adv-x="458" d="M102 1188q0 98 107 106h4q37 0 69.5 -34.5t32.5 -72.5t-35.5 -77t-74.5 -39t-71 33t-32 84zM125 761.5q0 69.5 6 170.5q4 37 47 37q109 0 123 -88q6 -45 6 -72l-8 -129v-459l2 -143q0 -39 -30.5 -64.5t-65.5 -25.5q-51 0 -53 51q-27 653 -27 722.5z" />
<glyph unicode="j" horiz-adv-x="481" d="M-207 -338q0 43 31 65.5t67.5 22.5t55 -18.5t24.5 -40.5q20 -59 71 -59v-1q50 0 86 80t47 217.5t11 290.5q0 481 -24 664q-4 32 22.5 53.5t79.5 21.5t60 -51q29 -248 29 -469q0 -4 -1 -8q0 -225 -14 -451.5t-66 -349.5q-70 -161 -250 -161h-2q-92 0 -159.5 57t-67.5 137z M117 1178q0 98 106 106h4q37 0 70 -35t33 -72.5t-36 -76.5t-75 -39t-70.5 32.5t-31.5 84.5z" />
<glyph unicode="k" horiz-adv-x="849" d="M88 1374q0 39 32 61.5t66 22.5q47 0 58 -59v-363q0 -66 2 -98.5t4 -97.5q4 -135 14 -305q59 45 152.5 142t140.5 167q74 117 135 117q16 0 33 -9q43 -25 43 -57.5t-29 -85.5q-74 -127 -170 -231q92 -102 185 -293q55 -123 54 -193q0 -96 -87 -96q-37 0 -100.5 181 t-169.5 280q-10 -14 -87 -81t-92 -81v-205q-4 -31 -10 -47t-27.5 -30.5t-58.5 -14.5q-55 0 -55 68q0 190 -16.5 590.5t-16.5 717.5z" />
<glyph unicode="l" horiz-adv-x="544" d="M68 1043.5q0 205.5 5 282.5t24.5 100.5t62.5 23.5q88 0 88 -72q0 -55 -9.5 -288.5t-9.5 -418t15 -296.5q25 -197 69.5 -197t67.5 64q10 25 32.5 44t57.5 19q72 0 72 -121q0 -66 -71 -130t-140.5 -64t-111.5 23.5t-67.5 70.5t-41 91t-21.5 108q-12 102 -17 328.5t-5 432z " />
<glyph unicode="m" horiz-adv-x="1392" d="M82 795q0 41 29.5 73.5t67.5 32.5t57 -43q76 100 202 100q162 0 250 -155q102 147 271 147t253 -135q55 -84 78 -221t23 -389q0 -98 -20.5 -152.5t-86.5 -54.5q-53 0 -53 68l6 256q0 460 -238 460h-1q-76 0 -107 -53q-35 -63 -41 -133q-8 -123 -8 -223v-297 q0 -33 -33 -55.5t-67 -22.5q-45 0 -58 59l6 424q0 225 -75 281q-36 27 -109 27q-1 -1 -3 -1q-75 0 -110.5 -55t-35.5 -178l12 -381q0 -176 -96 -176q-53 0 -64 59q0 414 -49 738z" />
<glyph unicode="n" horiz-adv-x="925" d="M133 895q0 39 26.5 63.5t53.5 24.5q66 0 76 -55q8 -55 8 -115q111 145 276 145q254 0 254 -579v-160.5t-12 -157.5q-14 -61 -88 -61q-49 0 -49 66l2 114q0 238 -15.5 325t-29.5 138q-35 111 -113 111q-102 0 -143 -74q-45 -80 -53 -188q-14 -190 -15 -404 q0 -41 -30.5 -65.5t-73.5 -24.5h-2q-49 0 -49 65z" />
<glyph unicode="o" horiz-adv-x="825" d="M66 457q0 223 90 356q96 141 284 141q147 0 242.5 -141t95.5 -339t-97 -337t-258 -139t-259 142.5t-98 316.5zM219 506q0 -156 61.5 -238t139.5 -82q139 0 178 121q16 57 16 147q0 332 -198 332q-86 0 -141.5 -90t-55.5 -190z" />
<glyph unicode="p" horiz-adv-x="876" d="M84 -567v1427q12 53 29.5 75.5t55.5 22.5t49 -17t28 -95q8 41 65.5 75.5t153.5 34.5q209 0 297 -151.5t88 -357t-120 -325.5t-329 -120q-70 0 -129 47l-26 23v-615q-12 -41 -43 -68.5t-66 -27.5q-53 0 -53 72zM246 236q12 -6 28 -21q59 -53 129 -53q283 0 283 291 q0 248 -127 313q-53 29 -131 29q-76 -10 -129 -67t-53 -112v-380z" />
<glyph unicode="q" horiz-adv-x="948" d="M61 465q0 227 103.5 356t296 129t284.5 -102q63 -70 91 -148q39 -135 41 -315v-76l16 -424q2 -63 2 -176v-252q-8 -39 -41 -67.5t-59 -28.5q-68 0 -68 61v11l8 323q0 104 -8 217l-12 160q-68 -133 -287 -133q-104 0 -195 68q-172 133 -172 397zM225 493.5 q0 -155.5 67.5 -248.5t156 -93t157 63.5t105.5 179.5q-10 217 -82 305t-230 88q-88 0 -131 -69.5t-43 -225z" />
<glyph unicode="r" horiz-adv-x="788" d="M94 901q0 68 82 68q35 0 55.5 -27t25.5 -54.5t9 -74.5t6 -59q43 102 129 153t189 51q168 0 168 -86q0 -43 -30 -68.5t-69 -25.5q-174 0 -245.5 -110.5t-71.5 -368.5l2 -211q0 -37 -34 -67.5t-66 -30.5q-47 0 -60 73q-2 16 -16 300t-55 446q-18 78 -19 92z" />
<glyph unicode="s" horiz-adv-x="788" d="M113 696q0 121 86 193t199.5 72t218 -41t104.5 -109q0 -35 -26.5 -55.5t-46 -20.5t-31 1t-82 38t-130 37t-101.5 -29.5t-42 -87t48 -90.5t169 -56.5t185.5 -66.5t64.5 -159q0 -170 -89 -241t-216 -71t-216 35t-89 105q0 79 78 79h2q20 0 89.5 -28.5t138.5 -28.5t104.5 44 t35.5 101.5t-47 83t-143 42t-141 34.5q-123 49 -123 219z" />
<glyph unicode="t" horiz-adv-x="704" d="M14 854q0 102 115 102l102 -2q35 0 39 2v420q2 35 35 59.5t61.5 24.5t46 -18.5t15.5 -57t-2 -426.5l240 9q61 0 61 -72q0 -53 -31.5 -80t-67.5 -29t-71 -2l-125 2q0 -84 17.5 -331.5t27.5 -320.5q6 -46 6 -71q0 -15 -2 -23q-6 -22 -22 -30q-27 -12 -72 -12t-53 49 q-41 268 -55 737q-18 -2 -141.5 -2t-123.5 72z" />
<glyph unicode="u" d="M58 508q0 4 -1 8q0 147 17 361q8 34 34.5 57.5t54 23.5t43 -10t18.5 -18t7 -29q-12 -160 -12 -288t31 -292.5t67 -164.5q55 0 140.5 61.5t122.5 128.5q-25 295 -25 506q0 43 27.5 73.5t66.5 30.5q63 0 64 -86q0 -145 21.5 -431.5t43.5 -364.5q4 -16 4 -38t-27.5 -41.5 t-71.5 -19.5t-58 50q-4 41 -21 122q-142 -149 -287 -149h-2q-68 0 -121 51t-83 139q-53 170 -53 320z" />
<glyph unicode="v" d="M39 868.5q0 30.5 27.5 59t62.5 28.5t59 -36q23 -45 128.5 -252t148.5 -326q2 12 14 51q104 362 170 518q35 56 90 56q29 0 43.5 -19.5t14.5 -42.5l-2 -20q-86 -219 -127 -357q-27 -96 -40.5 -143t-44 -166t-40.5 -153q-29 -70 -101 -70q-35 0 -49 45q-66 205 -192.5 463 t-144 296t-17.5 68.5z" />
<glyph unicode="w" horiz-adv-x="948" d="M49 883q0 35 30 54t54.5 19t39.5 -15t15 -40q0 -319 109 -614q16 25 51 99.5t65.5 109t73.5 34.5t90.5 -63.5t81 -136t37.5 -76.5q55 172 56 319l-13 312q-2 31 29 52t59 21q59 0 60 -231v-113q0 -274 -84 -489q-45 -123 -113 -123q-39 0 -71.5 50t-73.5 142.5t-64 127.5 l-61 -121q-35 -72 -53.5 -103.5t-51 -63.5t-67.5 -32q-70 0 -134.5 271.5t-64.5 609.5z" />
<glyph unicode="x" horiz-adv-x="917" d="M82 86q0 80 287 403q-35 68 -127 211.5t-92 176t27.5 57t69.5 24.5q1 0 1 1q41 0 61 -39l168 -295q70 76 131 168l86 127q25 35 60 35l1 -1q36 0 58.5 -21.5t22.5 -51t-86 -159.5t-185 -253q18 -29 82 -133.5t139 -198.5q15 -24 15 -56q-1 -31 -25 -57t-55 -26 q-51 0 -133 113.5t-146 248.5q-61 -84 -119.5 -176t-90 -134t-69.5 -42t-59.5 22.5t-21.5 55.5z" />
<glyph unicode="y" horiz-adv-x="866" d="M37 876.5q0 16.5 24.5 43t67.5 26.5t70 -43q29 -74 94 -257t101 -265t69 -170q29 96 98.5 373.5t79.5 316.5q8 45 90 45q27 0 52.5 -18.5t25.5 -40.5q0 -59 -174 -643t-258 -819q-18 -55 -57 -55l-1 -1q-38 0 -61 28q-22 28 -22 81t68.5 254.5t82.5 257.5 q-51 86 -346 860q-4 10 -4 26.5z" />
<glyph unicode="z" horiz-adv-x="876" d="M63 846q0 88 101 94q31 2 395 2q76 0 152 -41q88 -49 88 -155.5t-148 -233.5q-61 -53 -131 -106q-227 -172 -227 -218q0 -31 74 -31q1 1 3 1q76 0 140.5 9t138.5 20.5t92 11.5q86 0 86 -62q0 -139 -417 -139q-152 0 -216.5 32.5t-84.5 116.5q-2 12 -3 25q0 57 66 139 q90 111 236 211q166 115 192 162q14 27 10 47q-12 57 -157 57l-293 -26q-96 0 -97 84z" />
<glyph unicode="{" horiz-adv-x="694" d="M115 739q0 45 69 109q18 18 60 63q68 80 67 203q0 45 -20.5 141.5t-20.5 119t14.5 52t36 45t60.5 30t86 14.5h37q135 0 135 -68q0 -92 -113 -92q-23 0 -61 6q-25 0 -25 -36t13.5 -103.5t13.5 -141t-36 -158.5t-128 -178q16 -25 72 -92q61 -88 76 -213q0 -31 -28 -144.5 t-28 -160.5t29 -68.5t68 -21.5h43h8q72 0 71 -55q0 -29 -25.5 -59.5t-58.5 -39.5q-225 0 -280 134q-14 31 -14 66.5t28.5 134t28.5 157.5q0 119 -89 215t-89 141z" />
<glyph unicode="|" horiz-adv-x="360" d="M94 -39v1466q16 37 45 61.5t60 24.5q43 0 59 -61v-1466q-12 -39 -45 -67t-66 -28q-53 0 -53 70z" />
<glyph unicode="}" horiz-adv-x="671" d="M90 1448q12 68 156 68h2q104 0 157.5 -43t53.5 -111q0 -10 -20.5 -106.5t-20.5 -153.5q0 -111 69 -191q29 -35 58 -63q70 -63 69.5 -108.5t-87.5 -140.5t-87 -216q0 -66 27 -158t27 -125q0 -94 -73 -151.5t-222 -57.5q-33 8 -58.5 39t-25.5 64q0 53 88 53l35 -2 q96 0 96 90q0 51 -25.5 158.5t-25.5 153t21.5 110t86.5 141.5q31 41 37 47q-94 92 -130 177.5t-36 210.5q0 27 14.5 92t14.5 101t-21 36l-63 -6q-117 0 -117 92z" />
<glyph unicode="~" horiz-adv-x="1083" d="M53 911q0 63 116 142.5t190.5 79.5t186 -61.5t165.5 -80.5q33 0 114.5 65.5t117.5 65.5t57.5 -23.5t21.5 -45.5q0 -63 -115.5 -140t-187.5 -77q-111 0 -202 62.5t-142 62.5t-108.5 -62.5t-114.5 -62.5q-31 0 -65 21.5t-34 53.5z" />
<glyph unicode="&#xa1;" horiz-adv-x="438" d="M137 -379q0 424 33 868q16 41 44 41t52.5 -19t30.5 -44q-2 -33 -2 -152.5t11 -351t11 -342.5q-16 -53 -79 -53q-33 0 -63 15.5t-38 37.5zM145 862q0 43 48 86q20 18 40 19q109 -1 109 -107q0 -63 -21.5 -81.5t-70.5 -18.5t-77 29.5t-28 72.5z" />
<glyph unicode="&#xa2;" horiz-adv-x="868" d="M51 481q0 168 103.5 292t263.5 163q12 74 16 137q8 31 29.5 50.5t46.5 19.5t41 -17.5t16 -48.5v-12l-10 -109q207 -16 207 -79q0 -45 -24.5 -92.5t-54.5 -47.5t-64.5 13.5t-59.5 23.5q-8 2 -12 2q-8 -170 -8 -294t2 -169v-102q8 4 25.5 13t68.5 36t83 27t48 -16.5 t16 -41.5q0 -51 -67.5 -108.5t-165.5 -93.5l12 -123q-8 -76 -82 -76q-66 0 -65 172q-172 0 -268.5 128t-96.5 353zM229 459q0 -131 40 -200t139 -77q-4 119 -4 266.5t6 313.5q-180 -74 -181 -303z" />
<glyph unicode="&#xa3;" horiz-adv-x="1126" d="M76 631q0 33 21.5 54.5t55 23.5t142.5 2q-12 100 -12 285.5t96 274.5t239.5 89t266.5 -68q98 -55 98 -114q0 -6 -2 -13q-14 -63 -74 -63q-37 0 -71 26q-119 76 -203 76q-129 0 -164 -100q-23 -68 -23 -143.5t1.5 -109.5t5.5 -86t4 -56q106 10 256 10q55 0 74.5 -17.5 t19.5 -56.5q0 -82 -48 -89t-300 -7q4 -72 4 -140.5t-6 -134.5q37 -59 106.5 -91.5t147.5 -32.5q135 0 209 96q23 29 65 28q68 0 68 -53q0 -74 -109.5 -147.5t-226.5 -73.5q-137 0 -221 45q-57 33 -117 76q-49 0 -100 -43q-14 -12 -49 -45t-74 -33q-74 0 -74 76q0 59 160 168 q45 31 55 39q6 45 6 110.5t-6 155.5l-141 -6h-6q-74 0 -74 88z" />
<glyph unicode="&#xa4;" horiz-adv-x="1417" d="M176 1217q0 34 30 62t64 28q55 0 154 -123q14 -18 34.5 -44t24.5 -32q115 57 238 57t235 -67q14 18 111 137q66 78 119 78q27 0 43 -17.5t16 -50.5t-43 -78t-135 -157q121 -137 121 -338t-129 -338l153 -148q12 -18 12.5 -51t-27.5 -60.5t-60.5 -27.5t-57.5 25l-155 157 q-113 -61 -242 -61t-231 53q-137 -143 -165 -156.5t-46 -13.5q-59 0 -59.5 61.5t149.5 204.5q-111 125 -119 338q2 207 131 351q-47 49 -96 106l-56 59q-14 12 -14 46zM369 680q8 -162 108.5 -260t235.5 -98t223 87t88 242.5t-98.5 255t-235.5 99.5t-226 -86t-95 -240z" />
<glyph unicode="&#xa5;" horiz-adv-x="950" d="M41 1285.5q0 25.5 26.5 51t52 25.5t62.5 -50t99 -161q53 -106 61 -115l47 -90q39 -76 55 -100l95 164q0 4 20 37l27 47q27 53 63 102l33 49q31 45 71 82t68.5 37t45 -15.5t16.5 -40t-9 -40.5q-150 -184 -323 -527q-31 -61 -43 -77v-91l180 27q57 -18 57 -68 q0 -70 -163 -88l-76 -12v-74q125 27 163 27t58.5 -18.5t20.5 -44.5q0 -82 -246 -111q0 -63 4 -121q-6 -31 -33 -58.5t-47 -27.5q-66 0 -66 119v63q-14 -4 -70.5 -14t-79 -17.5t-43 -7.5t-36.5 20.5t-16 43.5q0 72 59 82l186 41v74q-123 -27 -178 -29q-72 10 -71 78 q0 33 20 45q23 10 102 24l127 25l5 80q0 27 -5 47q-109 156 -192 330q-14 31 -23.5 48t-15.5 31.5t-10 20.5t-35 69.5t-37 73t-6 35z" />
<glyph unicode="&#xa6;" horiz-adv-x="348" d="M84 -47l4 606q8 33 37 53.5t63 20.5q45 0 62 -62l-2 -594q-8 -41 -40 -66.5t-67 -25.5q-57 0 -57 68zM84 872l4 558q8 37 38 63.5t62 26.5q43 0 62 -62l-2 -577q-8 -37 -40 -57.5t-67 -20.5q-57 -1 -57 69z" />
<glyph unicode="&#xa7;" horiz-adv-x="786" d="M88 653q0 154 172 271q-111 51 -110 159q0 166 122 234q76 49 168 49q162 0 162 -88q0 -33 -20.5 -60.5t-49.5 -27.5l-81 10q-66 0 -103 -29.5t-37 -78.5q0 -84 144.5 -139.5t189.5 -122t45 -148.5q0 -164 -147 -297q49 -61 49 -168.5t-68.5 -162t-173 -54.5t-174.5 23.5 t-70 70.5q0 78 78 78l152 -14q90 0 102 53q2 8 2 25q0 76 -96 135q-6 4 -12 7t-43 25.5t-61.5 39t-67.5 53.5q-72 63 -72 157zM223 678q0 -82 123 -152q61 -37 80 -45q53 31 92 84t39 107.5t-49 103.5t-106.5 49t-118 -47t-60.5 -100z" />
<glyph unicode="&#xa8;" horiz-adv-x="827" d="M143 1128q0 47 35 83t77 36t66.5 -28.5t26.5 -77.5q-6 -41 -37.5 -66.5t-74.5 -25.5q-76 0 -93 79zM494 1153q-1 92 110 92q37 0 62.5 -21.5t27.5 -58.5q-6 -51 -36.5 -80.5t-70.5 -29.5t-66.5 27.5t-26.5 70.5z" />
<glyph unicode="&#xa9;" horiz-adv-x="1554" d="M90 680q0 176 96.5 330.5t254 247t335.5 108.5q266 -12 367 -63q57 -29 100 -72q184 -182 184 -545q0 -313 -160.5 -496.5t-457.5 -191.5q-152 0 -285 42t-247.5 151.5t-157.5 273.5q-29 102 -29 215zM248 666q0 -215 155.5 -362.5t388 -147.5t355.5 135t123 383 q0 395 -250 504q-102 41 -244 43q-225 -23 -376.5 -181.5t-151.5 -373.5zM440 641q0 244 150 381q80 74 186 74q47 0 114.5 -27t124 -75t56.5 -90t-26.5 -67.5t-64.5 -25.5t-99 63q-82 55 -133 62q-66 0 -108 -71t-42 -163q0 -260 147 -260q6 0 104.5 42t145.5 42 q59 0 60 -59q0 -51 -53.5 -97t-126 -68.5t-121.5 -22.5q-129 0 -221.5 106.5t-92.5 255.5z" />
<glyph unicode="&#xaa;" horiz-adv-x="591" d="M47 999q0 174 66.5 263.5t189.5 89.5q55 0 111 -19q20 25 53 25q68 0 68 -123l-3 -145l21 -377q0 -43 -90 -43q-49 0 -49 55v16q-66 -55 -160 -55q-207 0 -207 313zM168 1006q0 -199 106 -199q68 0 101 72.5t33 166t-19.5 130t-83 36.5t-100.5 -43t-37 -163z" />
<glyph unicode="&#xab;" horiz-adv-x="978" d="M113 496q0 80 71 151q33 37 105.5 101.5t84 79t45 30.5t58.5 16q53 0 53 -64.5t-184 -223.5q-72 -61 -86 -80q23 -23 88 -78q129 -121 129 -182q0 -35 -17.5 -55.5t-40 -20.5t-63.5 29.5t-63.5 61.5t-79.5 82t-78.5 81t-21.5 72zM485 492q0 31 57.5 110.5t145.5 175.5 l37 39q27 31 41 39q14 6 39.5 6t46 -14t20.5 -37q0 -68 -235 -322q14 -33 74 -81q150 -133 149 -175q0 -76 -59 -75q-51 0 -86 35q-12 10 -34 37.5t-65 66.5q-131 117 -131 195z" />
<glyph unicode="&#xac;" horiz-adv-x="991" d="M71.5 463q0.5 53 44.5 79.5t87 28.5t82 2l215 -4q186 0 334 -2q41 -6 47 -37q6 -16 6 -47v-333q-6 -35 -25.5 -55.5t-45 -20.5t-46 19.5t-25.5 53.5q0 203 3 263h-609q-68 0 -67.5 53z" />
<glyph unicode="&#xad;" horiz-adv-x="827" d="M74 478q0 38 24.5 62.5t69.5 24.5h111h296h103q76 -4 76 -78q0 -35 -23.5 -60.5t-68.5 -25.5l-351 2l-170 -4q-29 0 -48 20.5t-19 58.5z" />
<glyph unicode="&#xae;" horiz-adv-x="1556" d="M96 693q0 165 94.5 318.5t252 246t333.5 104.5q248 -2 365 -59q49 -27 98 -72q186 -180 186 -543q0 -313 -159.5 -495.5t-456.5 -192.5q-330 0 -535 197q-80 76 -129 203.5t-49 292.5zM254 665q0 -216 152.5 -361.5t384 -145.5t354.5 135t123 381q0 399 -248 504 q-98 41 -242 43q-225 -25 -374.5 -182.5t-149.5 -373.5zM518 379l8 596q27 84 181 84h53q133 0 206.5 -57.5t73.5 -155.5q0 -133 -116 -199q16 -27 66 -99.5t63 -125.5q0 -47 -45 -78q-23 -12 -46.5 -12t-41.5 39q-14 51 -68.5 132t-65.5 103q-88 0 -131 6q0 -29 2 -51v-112 q-6 -129 -90 -130q-49 0 -49 60zM662 754q23 -16 83 -16.5t113 25t53 65.5t-61.5 67t-118.5 27t-69 -2v-166z" />
<glyph unicode="&#xaf;" d="M59 1116q0 105 84 105l240 -7q143 0 214 5.5t84 5.5t33.5 -14.5t21.5 -29t1 -42.5q0 -72 -80 -80q-100 -8 -233 -8t-297 8q-68 2 -68 57z" />
<glyph unicode="&#xb0;" horiz-adv-x="475" d="M63 1292.5q0 75.5 54.5 121.5t136.5 46q104 0 135 -102q12 -35 12 -78q-10 -84 -84 -127q-39 -25 -92 -25t-107.5 44.5t-54.5 120zM164 1303q0 -66 69.5 -66t69.5 68q0 41 -20.5 55t-46 14t-49 -21.5t-23.5 -49.5z" />
<glyph unicode="&#xb1;" horiz-adv-x="972" d="M72 465q0 33 27.5 65.5t64.5 36.5h254v17l-4 143q0 207 102 207q47 0 64 -60l-5 -307h259q59 -10 59 -55q0 -33 -24.5 -62.5t-59.5 -39.5h-236q-2 -14 -2 -48v-98v-14q0 -225 -98 -225q-63 0 -63 71q0 209 6 314h-277q-68 0 -67 55zM74 -180q0 76 100 90h627 q76 -25 76 -80q0 -33 -17.5 -48t-64.5 -28h-645q-35 0 -55.5 19.5t-20.5 46.5z" />
<glyph unicode="&#xb2;" horiz-adv-x="471" d="M49 1022q0 68 92 139.5t92 116.5q0 25 -12 27t-41.5 -13.5t-50.5 -15.5q-76 0 -76 78q0 41 57.5 81t124 40t112.5 -40t46 -104q0 -119 -166 -254q47 8 142 17q33 4 44 -13.5t11 -48.5q0 -61 -37 -73.5t-123 -12.5q-215 0 -215 76z" />
<glyph unicode="&#xb3;" horiz-adv-x="450" d="M66 1034q0 78 67 78q27 0 57 -10q55 -18 68 6q16 39 2 53.5t-39.5 28.5t-25.5 31.5t31.5 35t31.5 43t-35 25.5t-70.5 -5t-55 16.5t-19.5 58.5q0 80 112 80q86 0 145.5 -30t59.5 -82t-13 -86t-58 -60q82 -14 82 -125q0 -63 -43.5 -106.5t-110.5 -43.5q-117 0 -168 51 q-18 18 -18 41z" />
<glyph unicode="&#xb4;" horiz-adv-x="505" d="M102 1109q0 28 33 54q108 89 141 189q12 35 52.5 34.5t64 -25t23.5 -39.5t-4 -26q-33 -92 -110 -174t-118 -82t-61.5 20.5t-20.5 48.5z" />
<glyph unicode="&#xb6;" horiz-adv-x="1024" d="M74 1030q0 160 120.5 245t348.5 85h178q111 0 158 -12.5t47 -40.5q0 -35 -15.5 -54.5t-59.5 -19.5t-73 4q-12 -524 -12 -940l4 -213q0 -39 -22.5 -66.5t-49.5 -27.5q-78 0 -77 256l18 993h-88q-14 -180 -14 -584l2 -571q0 -70 -97 -92q-35 6 -36 20q-8 16 -9 35 q-12 98 -12 342t8 332q-197 18 -276 143q-43 68 -43 166z" />
<glyph unicode="&#xb7;" horiz-adv-x="409" d="M98 467q0 49 32 98t76 49t76.5 -32.5t39.5 -89.5q0 -45 -33 -83t-77 -38t-79 23.5t-35 72.5z" />
<glyph unicode="&#xb8;" d="M205 -325.5q0 34.5 16.5 55t32.5 20.5t67.5 -26.5t92.5 -26.5t66.5 20.5t25.5 40.5q0 59 -31 70q-8 2 -32.5 2t-73.5 -4q-92 0 -92.5 116.5t73.5 116.5q47 0 47 -63q-2 -18 -1.5 -45t14.5 -27l67 8q45 0 72 -16q45 -25 59 -100q6 -33 6 -60q0 -68 -51 -119t-146 -51 t-153.5 27t-58.5 61.5z" />
<glyph unicode="&#xb9;" horiz-adv-x="409" d="M45 1287q0 40 87 115t151 75q74 0 73 -115q0 -29 -32 -318q-4 -43 -27 -72.5t-55.5 -29.5t-53 24.5t-18.5 55.5q6 96 33 240q-109 -70 -142 -33q-16 18 -16 58z" />
<glyph unicode="&#xba;" horiz-adv-x="612" d="M66 1023q0 136 63 230q68 98 186.5 98.5t184 -99t65.5 -234.5t-68.5 -232.5t-180 -97.5t-181 99.5t-69.5 235.5zM190 1022q0 -84 37 -135t89.5 -51t86 31.5t33.5 133.5q0 218 -125 218q-53 0 -87 -56.5t-34 -140.5z" />
<glyph unicode="&#xbb;" horiz-adv-x="1040" d="M123 788q0 23 22.5 39.5t49 16.5t53.5 -23q82 -82 173 -193.5t91 -144.5q0 -66 -49 -122t-85 -87.5t-61 -62.5l-34 -39q-53 -35 -60 -35h-8q-78 0 -78 64q0 53 150 186q57 49 73 80q-238 248 -237 321zM467 786q0 66 57 66q16 0 51 -15.5t53.5 -38t81 -75.5t105.5 -96 q70 -70 70 -150q0 -41 -21.5 -71.5t-78 -81t-78.5 -84.5q-25 -35 -65 -64t-62.5 -29t-42 20.5t-19.5 60.5t53.5 98.5t118.5 115.5l47 41q-20 25 -84 80q-176 150 -186 223z" />
<glyph unicode="&#xbc;" horiz-adv-x="1095" d="M109 776q0 45 86 113.5t151 68.5q74 0 74 -100q0 -53 -16.5 -176t-17.5 -149.5t-23.5 -58.5t-51.5 -32q-63 0 -75 74q2 109 32 238q-6 -6 -48 -21.5t-50 -19.5q-61 0 -61 63zM188 67.5q0 24.5 11 41.5l106 137q229 295 270 358q205 317 271 346q14 8 36.5 8t39 -21.5 t16.5 -53t-27 -56.5l-24 -34q-10 -16 -272.5 -368.5t-287 -387.5t-58 -35t-57.5 20.5t-24 45zM627 217q0 59 200 285q25 18 58 18q66 0 84 -53q4 -20 2 -32.5t-21 -155.5q47 -10 47 -50.5t-28 -56.5q-2 0 -5 -2t-16 -8q-4 -12 -4 -53q-4 -111 -58.5 -111.5t-64.5 65.5v87 h-49q-88 0 -116.5 15t-28.5 52zM770 268q57 8 57 35v21q-2 8 -2 20q-31 -31 -55 -76z" />
<glyph unicode="&#xbd;" horiz-adv-x="1200" d="M109 776q0 45 86 113.5t151 68.5q74 0 74 -100q0 -53 -16.5 -176t-17.5 -149.5t-23.5 -58.5t-51.5 -32q-63 0 -75 74q2 109 32 238q-6 -6 -48 -21.5t-50 -19.5q-61 0 -61 63zM188 67.5q0 24.5 11 41.5l106 137q229 295 270 358q205 317 271 346q14 8 36.5 8t39 -21.5 t16.5 -53t-27 -56.5l-24 -34q-10 -16 -272.5 -368.5t-287 -387.5t-58 -35t-57.5 20.5t-24 45zM711 76q0 63 90 127q92 59 92 108q0 18 -8 35q-16 0 -51 -14.5t-58.5 -14.5t-43 19.5t-19.5 59.5t57 75t121 35q164 0 164 -150q0 -82 -170 -223l139 17q27 0 43 -19.5t16 -53.5 t-26 -52q-4 -2 -13.5 -8.5t-24 -12.5t-77.5 -6h-72q-160 2 -159 78z" />
<glyph unicode="&#xbe;" horiz-adv-x="1097" d="M90 557q0 27 21.5 46.5t52.5 21.5q68 -12 74 -13q37 0 57 37q-25 0 -68 35q-16 12 -16 39t16 37l68 37q-10 23 -66 22h-47q-59 0 -59 68.5t106 68.5q82 0 136.5 -25.5t54.5 -72.5q0 -104 -62 -135q33 -6 54.5 -43t21.5 -79t-43 -88t-108.5 -46t-129 24.5t-63.5 65.5z M186.5 73.5q-0.5 18.5 18 44t178.5 234.5t190.5 256t63.5 97l29 43q141 211 206 210q27 0 44.5 -21.5t17.5 -53t-25 -56.5l-168 -225q-381 -514 -407.5 -557t-69.5 -43t-67 37q-10 16 -10.5 34.5zM612 217q0 59 201 285q25 18 57 18q66 0 84 -53q4 -20 2 -32.5t-20 -155.5 q49 -8 49 -60q0 -20 -10 -33.5t-41 -23.5q-2 -10 -2 -45q-4 -119 -53 -119q-63 0 -70 65v87h-49q-88 0 -118 15t-30 52zM754 268q14 2 55 2q2 16 2 74q-26 -27 -57 -76z" />
<glyph unicode="&#xbf;" horiz-adv-x="768" d="M63 -139q0 135 113 262q45 53 92 98q111 111 111 150t-27.5 85t-27.5 67.5t23.5 43t47.5 21.5q57 0 105.5 -61.5t48.5 -139.5q0 -129 -103 -240q-57 -61 -88 -88q-139 -128 -139 -198q0 -47 53.5 -88t108.5 -41q100 0 160.5 81t96.5 81t59.5 -23t23.5 -59 q0 -78 -109.5 -159t-228.5 -81q-168 0 -266 135q-53 72 -54 154zM303 858q0 109 94 109q35 0 69 -32t34 -72t-27 -71.5t-59 -31.5q-66 0 -88.5 17.5t-22.5 80.5z" />
<glyph unicode="&#xc0;" horiz-adv-x="999" d="M49 61q0 147 108.5 563t180.5 552q90 174 192 174q51 0 86 -45t91 -187q129 -334 251 -1046q2 -8 2.5 -23.5t-19 -33t-55.5 -17.5t-60.5 17.5t-33 57.5t-30.5 156q-49 260 -66 271q-25 14 -163 30.5t-183 16.5t-53 -8q-37 -33 -100 -498q-8 -39 -78 -39t-70 59zM340 717 q0 -10 4 -15q16 -16 129 -28t149.5 -12t41 5t4.5 32.5t-55.5 225t-90.5 197.5q-31 0 -106.5 -181t-75.5 -224zM356 1700.5q0 19.5 4.5 37t28 31t37.5 13.5t23 -2q31 -8 84 -97.5t116 -121.5q33 -16 37 -53.5t-12 -53.5q-18 -29 -46 -29t-66 20.5t-94 76t-84 107.5t-28 71.5z " />
<glyph unicode="&#xc1;" horiz-adv-x="999" d="M49 61q0 147 108.5 563t180.5 552q90 174 192 174q51 0 86 -45t91 -187q129 -334 251 -1046q2 -8 2.5 -23.5t-19 -33t-55.5 -17.5t-60.5 17.5t-33 57.5t-30.5 156q-49 260 -66 271q-25 14 -163 30.5t-183 16.5t-53 -8q-37 -33 -100 -498q-8 -39 -78 -39t-70 59zM340 717 q0 -10 4 -15q16 -16 129 -28t149.5 -12t41 5t4.5 32.5t-55.5 225t-90.5 197.5q-31 0 -106.5 -181t-75.5 -224zM362 1516.5q0 27.5 31 52.5q111 90 144 190q12 35 52 35t63.5 -24.5t23.5 -40t-4 -25.5q-33 -92 -110 -174t-118 -82t-61.5 20.5t-20.5 48z" />
<glyph unicode="&#xc2;" horiz-adv-x="999" d="M49 61q0 147 108.5 563t180.5 552q90 174 192 174q51 0 86 -45t91 -187q129 -334 251 -1046q2 -8 2.5 -23.5t-19 -33t-55.5 -17.5t-60.5 17.5t-33 57.5t-30.5 156q-49 260 -66 271q-25 14 -163 30.5t-183 16.5t-53 -8q-37 -33 -100 -498q-8 -39 -78 -39t-70 59z M276 1547.5q0 31.5 104.5 113.5t151 82t146.5 -77t100 -124q0 -29 -24.5 -49t-41 -20t-90 65.5t-93 65.5t-88 -68t-97.5 -68t-48.5 24t-19.5 55.5zM340 717q0 -10 4 -15q16 -16 129 -28t149.5 -12t41 5t4.5 32.5t-55.5 225t-90.5 197.5q-31 0 -106.5 -181t-75.5 -224z" />
<glyph unicode="&#xc3;" horiz-adv-x="999" d="M49 61q0 147 108.5 563t180.5 552q90 174 192 174q51 0 86 -45t91 -187q129 -334 251 -1046q2 -8 2.5 -23.5t-19 -33t-55.5 -17.5t-60.5 17.5t-33 57.5t-30.5 156q-49 260 -66 271q-25 14 -163 30.5t-183 16.5t-53 -8q-37 -33 -100 -498q-8 -39 -78 -39t-70 59z M246 1557.5q0 41.5 60.5 91t114.5 49.5t87 -16.5t45 -36.5q33 -53 59.5 -53.5t58 49t59.5 49.5t48.5 -25t20.5 -51q0 -74 -60.5 -113t-117 -39t-87 23.5t-53 47t-49.5 23.5q-12 0 -51 -46t-65.5 -46t-48 26t-21.5 67.5zM340 717q0 -10 4 -15q16 -16 129 -28t149.5 -12t41 5 t4.5 32.5t-55.5 225t-90.5 197.5q-31 0 -106.5 -181t-75.5 -224z" />
<glyph unicode="&#xc4;" horiz-adv-x="999" d="M49 61q0 147 108.5 563t180.5 552q90 174 192 174q51 0 86 -45t91 -187q129 -334 251 -1046q2 -8 2.5 -23.5t-19 -33t-55.5 -17.5t-60.5 17.5t-33 57.5t-30.5 156q-49 260 -66 271q-25 14 -163 30.5t-183 16.5t-53 -8q-37 -33 -100 -498q-8 -39 -78 -39t-70 59zM250 1536 q0 47 34.5 83t76.5 36t67 -29t27 -78q-6 -41 -38 -66.5t-75 -25.5q-76 0 -92 80zM340 717q0 -10 4 -15q16 -16 129 -28t149.5 -12t41 5t4.5 32.5t-55.5 225t-90.5 197.5q-31 0 -106.5 -181t-75.5 -224zM600 1561q0 92 111 92q37 0 62.5 -21.5t27.5 -58.5q-6 -51 -37 -81 t-71 -30t-66.5 28t-26.5 71z" />
<glyph unicode="&#xc5;" horiz-adv-x="999" d="M49 61q0 147 108.5 563t180.5 552q90 174 192 174q51 0 86 -45t91 -187q129 -334 251 -1046q2 -8 2.5 -23.5t-19 -33t-55.5 -17.5t-60.5 17.5t-33 57.5t-30.5 156q-49 260 -66 271q-25 14 -163 30.5t-183 16.5t-53 -8q-37 -33 -100 -498q-8 -39 -78 -39t-70 59zM340 717 q0 -10 4 -15q16 -16 129 -28t149.5 -12t41 5t4.5 32.5t-55.5 225t-90.5 197.5q-31 0 -106.5 -181t-75.5 -224zM342 1591.5q0 69.5 58.5 118.5t135 49t118.5 -49t42 -125q0 -80 -53 -127t-126 -47t-124 55.5t-51 125zM463 1593q0 -57 53 -57q66 0 65.5 60.5t-51.5 60.5 q-27 0 -47 -18.5t-20 -45.5z" />
<glyph unicode="&#xc6;" horiz-adv-x="1353" d="M74 59q0 184 39 412.5t141 402.5q147 256 254.5 349.5t253.5 93.5h469q76 -25 76 -72q0 -98 -238 -98h-72q-12 0 -186 16q0 -311 8 -401l326 -8q74 -12 74 -64q0 -27 -24 -52.5t-56 -33.5q-33 0 -88.5 4t-176.5 4h-53l13 -403v-53l385 6q68 -10 67 -60q0 -41 -47 -77 q-25 -16 -45 -23h-416h-10q-113 0 -113 61l7 529l-185 -4q-98 0 -166 18q-37 -150 -59 -338l-31 -217q-6 -49 -76.5 -49t-70.5 57zM352 764q57 -10 111 -10l186 8q2 27 2 81t-10 310q-68 -45 -147.5 -146.5t-141.5 -242.5z" />
<glyph unicode="&#xc7;" horiz-adv-x="1122" d="M86 659q0 347 177 513.5t425 166.5q137 0 303 -53q37 -29 37 -62.5t-33.5 -59t-76.5 -25.5q-111 29 -207 28q-221 0 -336 -131t-115 -389t135 -403q70 -76 166 -76t307 102q74 35 99 35q53 0 53 -55t-51 -92q-166 -86 -287 -127q-2 -16 -2 -41t14 -25l68 8q45 0 74 -16 q43 -25 57 -100q6 -33 6 -60q0 -68 -51 -119t-146.5 -51t-154 27t-58.5 61.5t16.5 55t33 20.5t67.5 -26.5t92 -26.5t67 20.5t26 40.5q0 59 -31 70q-8 2 -33 2t-74 -4q-92 0 -92 108v29q-12 -2 -37 -2q-147 0 -252 109q-186 201 -186 548z" />
<glyph unicode="&#xc8;" horiz-adv-x="905" d="M84 758q0 35 22 63q-8 205 -8 432q12 49 38 72t75 29q270 -12 586 -13q78 -16 77 -67q0 -86 -167 -100q-45 -2 -99 -3h-133q-39 0 -215 17q0 -256 8 -352q109 -2 418 -2q74 -14 74 -66.5t-60 -81.5q-6 -4 -22 -8l-354 6q-33 0 -54 -4l9 -352q0 -119 -7 -170l476 6 q66 -10 65 -55q0 -31 -27.5 -62t-64.5 -39l-524 -8q-47 0 -65.5 17.5t-18.5 58.5q8 57 8 184v143l-8 302q-29 18 -29 53zM307 1702.5q0 19.5 4 37t27.5 31t38 13.5t22.5 -2q31 -8 84.5 -97.5t116.5 -121.5q33 -16 37 -53.5t-12 -53.5q-18 -29 -46 -29t-66 20.5t-94.5 76 t-84 107.5t-27.5 71.5z" />
<glyph unicode="&#xc9;" horiz-adv-x="905" d="M84 758q0 35 22 63q-8 205 -8 432q12 49 38 72t75 29q270 -12 586 -13q78 -16 77 -67q0 -86 -167 -100q-45 -2 -99 -3h-133q-39 0 -215 17q0 -256 8 -352q109 -2 418 -2q74 -14 74 -66.5t-60 -81.5q-6 -4 -22 -8l-354 6q-33 0 -54 -4l9 -352q0 -119 -7 -170l476 6 q66 -10 65 -55q0 -31 -27.5 -62t-64.5 -39l-524 -8q-47 0 -65.5 17.5t-18.5 58.5q8 57 8 184v143l-8 302q-29 18 -29 53zM313 1518.5q0 27.5 31 54.5q110 88 143 188q12 35 52.5 35t64 -24.5t23.5 -40t-4 -25.5q-33 -92 -110 -174t-118 -82t-61.5 20.5t-20.5 48z" />
<glyph unicode="&#xca;" horiz-adv-x="905" d="M84 758q0 35 22 63q-8 205 -8 432q12 49 38 72t75 29q270 -12 586 -13q78 -16 77 -67q0 -86 -167 -100q-45 -2 -99 -3h-133q-39 0 -215 17q0 -256 8 -352q109 -2 418 -2q74 -14 74 -66.5t-60 -81.5q-6 -4 -22 -8l-354 6q-33 0 -54 -4l9 -352q0 -119 -7 -170l476 6 q66 -10 65 -55q0 -31 -27.5 -62t-64.5 -39l-524 -8q-47 0 -65.5 17.5t-18.5 58.5q8 57 8 184v143l-8 302q-29 18 -29 53zM227 1549.5q0 31.5 104.5 113.5t150.5 82t146.5 -77t100.5 -124q0 -29 -24.5 -49t-41 -20t-90 65.5t-93 65.5t-88 -68t-97.5 -68t-48.5 24t-19.5 55.5z " />
<glyph unicode="&#xcb;" horiz-adv-x="905" d="M84 758q0 35 22 63q-8 205 -8 432q12 49 38 72t75 29q270 -12 586 -13q78 -16 77 -67q0 -86 -167 -100q-45 -2 -99 -3h-133q-39 0 -215 17q0 -256 8 -352q109 -2 418 -2q74 -14 74 -66.5t-60 -81.5q-6 -4 -22 -8l-354 6q-33 0 -54 -4l9 -352q0 -119 -7 -170l476 6 q66 -10 65 -55q0 -31 -27.5 -62t-64.5 -39l-524 -8q-47 0 -65.5 17.5t-18.5 58.5q8 57 8 184v143l-8 302q-29 18 -29 53zM201 1538q0 47 34.5 83t76.5 36t66.5 -29t27.5 -78q-6 -41 -38 -66.5t-75 -25.5q-76 0 -92 80zM551 1563q0 92 111 92q37 0 62.5 -21.5t27.5 -58.5 q-6 -51 -37 -81t-71 -30t-66.5 28t-26.5 71z" />
<glyph unicode="&#xcc;" horiz-adv-x="481" d="M78 1702.5q0 19.5 3 37t26.5 31t38 13.5t22.5 -2q31 -8 84.5 -97t116.5 -122q37 -18 37 -78q0 -16 -13 -29q-18 -29 -46 -29t-65.5 20.5t-94 76t-83 107.5t-26.5 71.5zM156 57q20 205 20 508l-12 688q8 29 40 49.5t72.5 20.5t51.5 -47q2 -238 8 -711q0 -289 -17 -489 q-4 -31 -37.5 -54.5t-68.5 -23.5q-57 0 -57 59z" />
<glyph unicode="&#xcd;" horiz-adv-x="481" d="M82 1518.5q0 27.5 33 54.5q108 88 141 188q12 35 52 35t63.5 -24.5t23.5 -40t-4 -25.5q-33 -92 -109.5 -174t-117.5 -82t-61.5 20.5t-20.5 48zM156 57q20 205 20 508l-12 688q8 29 40 49.5t72.5 20.5t51.5 -47q2 -238 8 -711q0 -289 -17 -489q-4 -31 -37.5 -54.5 t-68.5 -23.5q-57 0 -57 59z" />
<glyph unicode="&#xce;" horiz-adv-x="481" d="M-4 1549.5q0 31.5 104.5 113.5t150.5 82t146.5 -77t100.5 -124q0 -29 -24.5 -49t-40 -20t-91.5 65.5t-94.5 65.5t-87 -68t-97 -68t-48 24t-19.5 55.5zM156 57q20 205 20 508l-12 688q8 29 40 49.5t72.5 20.5t51.5 -47q2 -238 8 -711q0 -289 -17 -489q-4 -31 -37.5 -54.5 t-68.5 -23.5q-57 0 -57 59z" />
<glyph unicode="&#xcf;" horiz-adv-x="481" d="M-31 1538q0 47 35 83t77 36t66.5 -29t26.5 -78q-6 -41 -38 -66.5t-75 -25.5q-78 0 -92 80zM156 57q20 205 20 508l-12 688q8 29 40 49.5t72.5 20.5t51.5 -47q2 -238 8 -711q0 -289 -17 -489q-4 -31 -37.5 -54.5t-68.5 -23.5q-57 0 -57 59zM319 1563q0 92 111 92 q37 0 62.5 -21.5t27.5 -58.5q-6 -51 -36.5 -81t-70.5 -30t-67 28t-27 71z" />
<glyph unicode="&#xd0;" horiz-adv-x="1206" d="M74 727q0 31 20.5 52.5t55.5 23.5h73q0 346 8 477q16 53 74 72q25 4 41 4t23 -2q293 -82 510 -316.5t227 -562.5q0 -360 -299 -452q-86 -27 -181.5 -27t-166.5 14q8 -16 8 -43.5t-34 -53.5t-80 -26t-58 56l-27 123q-31 20 -31 49t23 47q-27 205 -37 487h-76 q-74 10 -73 78zM393 803h150q61 -16 61 -78.5t-63 -75.5h-146q10 -256 37 -479q49 -14 166 -14t224.5 38.5t113.5 114.5q6 57 6 88q0 266 -142.5 471t-398.5 312q-8 -101 -8 -377z" />
<glyph unicode="&#xd1;" horiz-adv-x="1089" d="M84 78q0 37 15.5 405.5t15.5 459.5v116q0 147 22.5 165.5t46.5 18.5q113 0 344 -369q45 -72 172 -300t152 -281l-25 850q0 176 39 200q21 13 53.5 13t59.5 -28t27 -64q0 -801 7 -968t7 -171q0 -45 -24.5 -85t-54.5 -40t-45 3t-27.5 7t-24.5 17l-21 20q-8 8 -21.5 31.5 t-21.5 38t-25.5 50.5t-75.5 146.5t-106 198.5q-162 297 -301 469q0 -666 -36 -924q-6 -49 -76 -49q-33 0 -54.5 16.5t-21.5 53.5zM268 1560q0 42 60.5 91t115 49t87 -16.5t44.5 -36.5q33 -53 60 -53.5t58.5 49t59 49.5t48 -25t20.5 -51q0 -74 -60.5 -113t-116.5 -39 t-87 23.5t-53.5 47.5t-48.5 24q-12 0 -51 -46.5t-66 -46.5t-48.5 26t-21.5 68z" />
<glyph unicode="&#xd2;" horiz-adv-x="1138" d="M86 748q0 262 125 432q131 182 416 182q143 0 243 -92q197 -176 197 -556t-217 -597q-113 -109 -260 -119q-195 0 -303.5 133t-154.5 298t-46 319zM250 753.5q0 -108.5 41 -251.5q55 -193 164 -271q63 -49 153 -49t162 81t98.5 206t26.5 252q0 225 -64.5 348t-218.5 123 q-274 0 -342 -260q-20 -70 -20 -178.5zM434 1702.5q0 19.5 3 37t26.5 31t38 13.5t22.5 -2q31 -8 84.5 -97.5t116.5 -121.5q33 -16 37 -53.5t-12 -53.5q-18 -29 -46 -29t-66 20.5t-94.5 76t-83 107.5t-26.5 71.5z" />
<glyph unicode="&#xd3;" horiz-adv-x="1138" d="M86 748q0 262 125 432q131 182 416 182q143 0 243 -92q197 -176 197 -556t-217 -597q-113 -109 -260 -119q-195 0 -303.5 133t-154.5 298t-46 319zM250 753.5q0 -108.5 41 -251.5q55 -193 164 -271q63 -49 153 -49t162 81t98.5 206t26.5 252q0 225 -64.5 348t-218.5 123 q-274 0 -342 -260q-20 -70 -20 -178.5zM438 1518.5q0 27.5 33 54.5q108 88 141 188q12 35 52.5 35t64 -24.5t23.5 -40t-4 -25.5q-33 -92 -110 -174t-118 -82t-61.5 20.5t-20.5 48z" />
<glyph unicode="&#xd4;" horiz-adv-x="1138" d="M86 748q0 262 125 432q131 182 416 182q143 0 243 -92q197 -176 197 -556t-217 -597q-113 -109 -260 -119q-195 0 -303.5 133t-154.5 298t-46 319zM250 753.5q0 -108.5 41 -251.5q55 -193 164 -271q63 -49 153 -49t162 81t98.5 206t26.5 252q0 225 -64.5 348t-218.5 123 q-274 0 -342 -260q-20 -70 -20 -178.5zM352 1549.5q0 31.5 104.5 113.5t150.5 82t146.5 -77t100.5 -124q0 -29 -24.5 -49t-40 -20t-91 65.5t-94 65.5t-87 -68t-97.5 -68t-48.5 24t-19.5 55.5z" />
<glyph unicode="&#xd5;" horiz-adv-x="1138" d="M86 748q0 262 125 432q131 182 416 182q143 0 243 -92q197 -176 197 -556t-217 -597q-113 -109 -260 -119q-195 0 -303.5 133t-154.5 298t-46 319zM250 753.5q0 -108.5 41 -251.5q55 -193 164 -271q63 -49 153 -49t162 81t98.5 206t26.5 252q0 225 -64.5 348t-218.5 123 q-274 0 -342 -260q-20 -70 -20 -178.5zM322 1560q0 42 60 91t114.5 49t87 -16.5t45.5 -36.5q33 -53 59.5 -53.5t58 49t59.5 49.5t48 -25t20 -51q0 -74 -60 -113t-116.5 -39t-87 23.5t-53 47.5t-49.5 24q-12 0 -51 -46.5t-65.5 -46.5t-48 26t-21.5 68z" />
<glyph unicode="&#xd6;" horiz-adv-x="1138" d="M86 748q0 262 125 432q131 182 416 182q143 0 243 -92q197 -176 197 -556t-217 -597q-113 -109 -260 -119q-195 0 -303.5 133t-154.5 298t-46 319zM250 753.5q0 -108.5 41 -251.5q55 -193 164 -271q63 -49 153 -49t162 81t98.5 206t26.5 252q0 225 -64.5 348t-218.5 123 q-274 0 -342 -260q-20 -70 -20 -178.5zM326 1538q0 47 34.5 83t76.5 36t66.5 -29t26.5 -78q-6 -41 -37.5 -66.5t-74.5 -25.5q-78 0 -92 80zM676 1563q-1 92 110 92q37 0 62.5 -21.5t28.5 -58.5q-6 -51 -37 -81t-71 -30t-66.5 28t-26.5 71z" />
<glyph unicode="&#xd7;" horiz-adv-x="1003" d="M123 876.5q0 24.5 19.5 45t46 20.5t77.5 -50t109.5 -118.5t113.5 -132.5l86 94q92 104 152 154q80 55 86 55h23q35 0 34.5 -65.5t-178.5 -210.5q-82 -68 -125 -119q35 -37 102.5 -95.5t79 -69.5t48.5 -42q72 -55 71.5 -112.5t-86.5 -57.5q-20 0 -43 23q-78 70 -247 249 l-25 -30q-195 -240 -260 -240q-31 0 -50.5 20.5t-19.5 49t53 92.5q59 66 131 134.5t74 72.5q-199 195 -235.5 252t-36.5 81.5z" />
<glyph unicode="&#xd8;" horiz-adv-x="1163" d="M86 754q0 262 125 430q59 84 165.5 133t214 49t181.5 -33q27 78 55 97q14 6 32 6t40 -13q37 -12 37 -43.5t-41 -126.5q172 -176 172 -530q0 -174 -55.5 -335t-165 -268.5t-256.5 -117.5q-113 0 -199 51q-23 -63 -63 -63q-16 0 -29 10q-45 18 -45 47t29 88 q-197 213 -197 619zM250 774q0 -252 117 -438l344 844q-55 16 -127 16t-142.5 -34t-111.5 -93q-80 -117 -80 -295zM465 229q57 -43 146 -43t160 81t97.5 206t26.5 279q0 223 -74 331q-252 -608 -356 -854z" />
<glyph unicode="&#xd9;" horiz-adv-x="1126" d="M72 797q0 96 28 456q14 33 44 58.5t61 25.5q45 0 55 -61q-29 -354 -29 -449q0 -225 88 -399q55 -115 136.5 -191.5t158.5 -76.5q129 0 222 200q39 70 43 224q0 41 4 57l4 270q0 188 -29 344q0 43 28.5 76t63.5 33t60 -35q35 -178 34 -399v-156q0 -176 -6 -207.5 t-12 -70.5t-11 -59.5t-16 -55.5q-23 -76 -63 -135q-61 -115 -161.5 -180.5t-204 -65.5t-213 90t-179.5 225q-106 209 -106 482zM389 1702.5q0 19.5 4 37t27.5 31t38 13.5t22.5 -2q31 -8 84 -97.5t117 -121.5q33 -16 37 -53.5t-12 -53.5q-18 -29 -46 -29t-66 20.5t-94.5 76 t-84 107.5t-27.5 71.5z" />
<glyph unicode="&#xda;" horiz-adv-x="1126" d="M72 797q0 96 28 456q14 33 44 58.5t61 25.5q45 0 55 -61q-29 -354 -29 -449q0 -225 88 -399q55 -115 136.5 -191.5t158.5 -76.5q129 0 222 200q39 70 43 224q0 41 4 57l4 270q0 188 -29 344q0 43 28.5 76t63.5 33t60 -35q35 -178 34 -399v-156q0 -176 -6 -207.5 t-12 -70.5t-11 -59.5t-16 -55.5q-23 -76 -63 -135q-61 -115 -161.5 -180.5t-204 -65.5t-213 90t-179.5 225q-106 209 -106 482zM395 1518.5q0 27.5 31 54.5q110 88 143 188q12 35 52.5 35t64 -24.5t23.5 -40t-4 -25.5q-33 -92 -110 -174t-118 -82t-61.5 20.5t-20.5 48z" />
<glyph unicode="&#xdb;" horiz-adv-x="1126" d="M72 797q0 96 28 456q14 33 44 58.5t61 25.5q45 0 55 -61q-29 -354 -29 -449q0 -225 88 -399q55 -115 136.5 -191.5t158.5 -76.5q129 0 222 200q39 70 43 224q0 41 4 57l4 270q0 188 -29 344q0 43 28.5 76t63.5 33t60 -35q35 -178 34 -399v-156q0 -176 -6 -207.5 t-12 -70.5t-11 -59.5t-16 -55.5q-23 -76 -63 -135q-61 -115 -161.5 -180.5t-204 -65.5t-213 90t-179.5 225q-106 209 -106 482zM309 1549.5q0 31.5 104.5 113.5t150.5 82t146.5 -77t100.5 -124q0 -29 -24.5 -49t-41 -20t-90 65.5t-93 65.5t-88 -68t-97.5 -68t-48.5 24 t-19.5 55.5z" />
<glyph unicode="&#xdc;" horiz-adv-x="1126" d="M72 797q0 96 28 456q14 33 44 58.5t61 25.5q45 0 55 -61q-29 -354 -29 -449q0 -225 88 -399q55 -115 136.5 -191.5t158.5 -76.5q129 0 222 200q39 70 43 224q0 41 4 57l4 270q0 188 -29 344q0 43 28.5 76t63.5 33t60 -35q35 -178 34 -399v-156q0 -176 -6 -207.5 t-12 -70.5t-11 -59.5t-16 -55.5q-23 -76 -63 -135q-61 -115 -161.5 -180.5t-204 -65.5t-213 90t-179.5 225q-106 209 -106 482zM283 1538q0 47 34.5 83t76.5 36t66.5 -29t26.5 -78q-6 -41 -37.5 -66.5t-74.5 -25.5q-76 0 -92 80zM633 1563q-1 92 110 92q37 0 62.5 -21.5 t28.5 -58.5q-6 -51 -37 -81t-71 -30t-66.5 28t-26.5 71z" />
<glyph unicode="&#xdd;" horiz-adv-x="905" d="M41 1279q0 32 26.5 57.5t52 25.5t61.5 -47t141.5 -248t121.5 -221q197 348 316 491q29 27 46 27t25 -4q49 -20 49.5 -54t-16.5 -59q-16 -25 -90 -129q-109 -152 -187.5 -306.5t-78.5 -188.5v-375l6 -164q0 -45 -24.5 -62.5t-60.5 -17.5t-48 39t-14 102.5t-2 186.5v164 l2 104q0 53 -34 104.5t-163 297t-129 277.5zM293 1518.5q0 27.5 31 54.5q110 88 143 188q12 35 52 35t63.5 -24.5t23.5 -40t-4 -25.5q-33 -92 -109.5 -174t-117.5 -82t-61.5 20.5t-20.5 48z" />
<glyph unicode="&#xde;" horiz-adv-x="1007" d="M123 72v1222q23 72 92 72q37 0 66 -47v-115q49 8 141 8t215 -35.5t196.5 -124.5t73.5 -229q0 -373 -524 -372q-80 0 -102 2v-357q-6 -37 -37 -66.5t-62 -29.5q-59 0 -59 72zM281 614q117 -8 170 -8q268 0 309 203q-29 244 -402 244q-45 0 -77 -4v-435z" />
<glyph unicode="&#xdf;" horiz-adv-x="1083" d="M80 793q0 211 41 337q14 45 49 115q92 180 309 180q143 0 245.5 -91t102.5 -226t-36 -227q-43 -111 -177 -148q27 2 52 2q137 0 211 -88q98 -111 98 -307q0 -168 -57 -279q-76 -145 -295 -145q-215 0 -261 211q-2 10 -2 30.5t26 49.5t61.5 29t58 -25t34 -53.5t38 -53 t67.5 -24.5q82 0 125 75.5t43 177t-20.5 150.5t-77 77t-176.5 28q-172 0 -174 88q0 27 14 53.5t39 30.5q238 90 237 323q0 178 -178 179q-66 0 -115 -51.5t-75.5 -134.5t-38.5 -170t-12 -268t12 -632.5t16 -493.5t4 -64.5t-22.5 -52.5t-77.5 -30q-80 0 -80 176v150l-4 647z " />
<glyph unicode="&#xe0;" horiz-adv-x="802" d="M51 446q0 248 93.5 375t267.5 127q82 0 163 -28q27 36 74 36q90 0 90 -153v-35l-4 -143q-2 -68 -2 -133l31 -463q0 -51 -105 -52h-29.5t-32.5 18.5t-2 45.5t-5 59q-94 -100 -250 -100q-289 0 -289 446zM205 455q0 -303 164 -303q43 0 95 38.5t73 88.5q39 111 38.5 241.5 t-32 190t-107.5 59.5q-117 0 -174 -67.5t-57 -247.5zM250 1299.5q0 19.5 4 37t27.5 30.5t38 13t22.5 -2q31 -8 84 -97t117 -122q33 -16 36.5 -53t-12.5 -53q-18 -29 -45.5 -29t-65.5 20.5t-94.5 76t-84 107.5t-27.5 71.5z" />
<glyph unicode="&#xe1;" horiz-adv-x="802" d="M51 446q0 248 93.5 375t267.5 127q82 0 163 -28q27 36 74 36q90 0 90 -153v-35l-4 -143q-2 -68 -2 -133l31 -463q0 -51 -105 -52h-29.5t-32.5 18.5t-2 45.5t-5 59q-94 -100 -250 -100q-289 0 -289 446zM205 455q0 -303 164 -303q43 0 95 38.5t73 88.5q39 111 38.5 241.5 t-32 190t-107.5 59.5q-117 0 -174 -67.5t-57 -247.5zM256 1115q0 28 31 52q110 91 143 191q12 35 52 35t63.5 -25t23.5 -40t-4 -25q-33 -92 -109.5 -174t-117.5 -82t-61.5 20t-20.5 48z" />
<glyph unicode="&#xe2;" horiz-adv-x="802" d="M51 446q0 248 93.5 375t267.5 127q82 0 163 -28q27 36 74 36q90 0 90 -153v-35l-4 -143q-2 -68 -2 -133l31 -463q0 -51 -105 -52h-29.5t-32.5 18.5t-2 45.5t-5 59q-94 -100 -250 -100q-289 0 -289 446zM170 1146q0 32 104.5 113.5t150.5 81.5t146.5 -76.5t100.5 -123.5 q0 -29 -24.5 -49.5t-41 -20.5t-91.5 65.5t-93.5 65.5t-87 -67.5t-97 -67.5t-48 23.5t-19.5 55.5zM205 455q0 -303 164 -303q43 0 95 38.5t73 88.5q39 111 38.5 241.5t-32 190t-107.5 59.5q-117 0 -174 -67.5t-57 -247.5z" />
<glyph unicode="&#xe3;" horiz-adv-x="802" d="M51 446q0 248 93.5 375t267.5 127q82 0 163 -28q27 36 74 36q90 0 90 -153v-35l-4 -143q-2 -68 -2 -133l31 -463q0 -51 -105 -52h-29.5t-32.5 18.5t-2 45.5t-5 59q-94 -100 -250 -100q-289 0 -289 446zM139 1156q0 42 60.5 91t115 49t87 -16t44.5 -37q33 -53 59.5 -53 t58.5 49t59.5 49t48 -24.5t20.5 -51.5q0 -74 -60.5 -112.5t-116.5 -38.5t-87 23.5t-53.5 47t-48.5 23.5q-12 0 -51 -46t-66 -46t-48.5 25.5t-21.5 67.5zM205 455q0 -303 164 -303q43 0 95 38.5t73 88.5q39 111 38.5 241.5t-32 190t-107.5 59.5q-117 0 -174 -67.5t-57 -247.5 z" />
<glyph unicode="&#xe4;" horiz-adv-x="802" d="M51 446q0 248 93.5 375t267.5 127q82 0 163 -28q27 36 74 36q90 0 90 -153v-35l-4 -143q-2 -68 -2 -133l31 -463q0 -51 -105 -52h-29.5t-32.5 18.5t-2 45.5t-5 59q-94 -100 -250 -100q-289 0 -289 446zM143 1135q0 47 35 82.5t77 35.5t66.5 -28.5t26.5 -77.5 q-6 -41 -37.5 -66.5t-74.5 -25.5q-76 0 -93 80zM205 455q0 -303 164 -303q43 0 95 38.5t73 88.5q39 111 38.5 241.5t-32 190t-107.5 59.5q-117 0 -174 -67.5t-57 -247.5zM494 1159q-1 92 110 92q37 0 62.5 -21.5t27.5 -58.5q-6 -51 -36.5 -80.5t-70.5 -29.5t-66.5 27.5 t-26.5 70.5z" />
<glyph unicode="&#xe5;" horiz-adv-x="802" d="M51 446q0 248 93.5 375t267.5 127q82 0 163 -28q27 36 74 36q90 0 90 -153v-35l-4 -143q-2 -68 -2 -133l31 -463q0 -51 -105 -52h-29.5t-32.5 18.5t-2 45.5t-5 59q-94 -100 -250 -100q-289 0 -289 446zM205 455q0 -303 164 -303q43 0 95 38.5t73 88.5q39 111 38.5 241.5 t-32 190t-107.5 59.5q-117 0 -174 -67.5t-57 -247.5zM236 1190q0 70 58 119t135 49t119 -49t42 -125q0 -80 -53.5 -127t-126 -47t-123.5 55t-51 125zM356 1192q0 -57 54 -57q66 0 65.5 60t-51.5 60q-27 0 -47.5 -18t-20.5 -45z" />
<glyph unicode="&#xe6;" horiz-adv-x="1396" d="M55 307q0 156 117 244q86 66 203 65q41 0 84 -8l69 -12q0 113 -30.5 152.5t-143.5 39.5q-43 0 -85 -23.5t-66.5 -47t-54 -34.5t-48.5 11q-31 25 -30 51q0 90 141 166q66 31 128 31t112 -8q139 -29 178 -84q76 94 243 94q102 0 179 -60.5t77 -148.5q0 -133 -63 -221 q-66 -90 -211 -90q-66 0 -158 12q18 -162 86 -217q20 -23 56 -22q125 0 204 73q84 84 123 84q16 0 49 -29.5t33 -56.5q0 -51 -127 -149q-145 -117 -263 -117t-202 109q-23 -25 -98.5 -69t-161.5 -44t-160.5 32.5t-127 105.5t-52.5 171zM213 324q0 -90 78 -140 q53 -31 123 -30q102 0 178 69q-35 82 -49 213l-82 29q-49 16 -100.5 16t-99.5 -44t-48 -113zM698 569q52 -8 93 -8q184 0 184 164q0 84 -113 84q-78 0 -131 -86q-20 -31 -25.5 -88t-7.5 -66z" />
<glyph unicode="&#xe7;" horiz-adv-x="794" d="M49 479q0 137 73 250t185.5 169t219 56t171 -25.5t64.5 -67.5t-23.5 -84t-62.5 -42q-14 0 -79 23.5t-83 23.5q-119 0 -203 -87t-84 -230t46 -214t159 -71q45 0 154.5 52.5t136.5 52.5t43 -16.5t16 -41.5q0 -49 -61 -104q-98 -84 -238 -115q0 -33 5.5 -41t28 -3t58.5 5 q98 0 121 -116q6 -33 6 -60q0 -68 -51 -119t-146 -51t-153.5 26.5t-58.5 61.5t16.5 55.5t32.5 20.5t67.5 -26.5t92.5 -26.5t66.5 20.5t25.5 40.5q0 59 -31 70q-8 2 -32.5 2t-73.5 -4q-92 0 -92 108v29q-147 14 -231.5 142t-84.5 337z" />
<glyph unicode="&#xe8;" horiz-adv-x="815" d="M41 532q0 170 80 293t252 123q109 0 207 -63.5t98 -156.5t-80 -180t-213 -106q-57 -8 -172 -8q23 -174 88 -229q20 -23 55 -23q127 0 213 81t123 81q16 0 49 -30.5t33 -57.5q0 -53 -129 -154q-57 -47 -138 -78.5t-151 -31.5q-178 0 -262 229q-53 141 -53 311zM211 580 q287 0 287 141q0 86 -115 86q-78 0 -133 -88q-20 -31 -39 -139zM217 1293.5q0 19.5 4 37t27.5 30.5t38 13t22.5 -2q31 -8 84 -97t117 -122q33 -16 37 -53t-12 -53q-18 -29 -46 -29t-66 20.5t-94.5 75.5t-84 107.5t-27.5 72z" />
<glyph unicode="&#xe9;" horiz-adv-x="815" d="M41 532q0 170 80 293t252 123q109 0 207 -63.5t98 -156.5t-80 -180t-213 -106q-57 -8 -172 -8q23 -174 88 -229q20 -23 55 -23q127 0 213 81t123 81q16 0 49 -30.5t33 -57.5q0 -53 -129 -154q-57 -47 -138 -78.5t-151 -31.5q-178 0 -262 229q-53 141 -53 311zM211 580 q287 0 287 141q0 86 -115 86q-78 0 -133 -88q-20 -31 -39 -139zM223 1109q0 28 31 54q110 89 143 189q12 35 52 34.5t64 -25t24 -39.5t-5 -26q-33 -92 -109.5 -174t-117.5 -82t-61.5 20.5t-20.5 48.5z" />
<glyph unicode="&#xea;" horiz-adv-x="815" d="M41 532q0 170 80 293t252 123q109 0 207 -63.5t98 -156.5t-80 -180t-213 -106q-57 -8 -172 -8q23 -174 88 -229q20 -23 55 -23q127 0 213 81t123 81q16 0 49 -30.5t33 -57.5q0 -53 -129 -154q-57 -47 -138 -78.5t-151 -31.5q-178 0 -262 229q-53 141 -53 311zM137 1139.5 q0 31.5 104.5 113.5t150.5 82t146.5 -76.5t100.5 -123.5q0 -29 -24.5 -49.5t-41 -20.5t-91 65.5t-93 65.5t-87.5 -67.5t-97.5 -67.5t-48 23.5t-19.5 55zM211 580q287 0 287 141q0 86 -115 86q-78 0 -133 -88q-20 -31 -39 -139z" />
<glyph unicode="&#xeb;" horiz-adv-x="815" d="M41 532q0 170 80 293t252 123q109 0 207 -63.5t98 -156.5t-80 -180t-213 -106q-57 -8 -172 -8q23 -174 88 -229q20 -23 55 -23q127 0 213 81t123 81q16 0 49 -30.5t33 -57.5q0 -53 -129 -154q-57 -47 -138 -78.5t-151 -31.5q-178 0 -262 229q-53 141 -53 311zM111 1128 q0 47 34.5 83t76.5 36t66.5 -28.5t26.5 -77.5q-6 -41 -37.5 -66.5t-74.5 -25.5q-76 0 -92 79zM211 580q287 0 287 141q0 86 -115 86q-78 0 -133 -88q-20 -31 -39 -139zM461 1153q-1 92 110 92q37 0 62.5 -21.5t28.5 -58.5q-6 -51 -37 -80.5t-71 -29.5t-66.5 27.5t-26.5 70.5 z" />
<glyph unicode="&#xec;" horiz-adv-x="458" d="M45 1301.5q0 19.5 3 37t26.5 30.5t38 13t22.5 -2q31 -8 84.5 -97t116.5 -122q37 -18 37 -78q0 -16 -13 -28q-18 -29 -45.5 -29t-65.5 20.5t-94.5 76t-83 107.5t-26.5 71.5zM125 761.5q0 69.5 6 170.5q4 37 47 37q109 0 123 -88q6 -45 6 -72l-8 -129v-459l2 -143 q0 -39 -30.5 -64.5t-65.5 -25.5q-51 0 -53 51q-27 653 -27 722.5z" />
<glyph unicode="&#xed;" horiz-adv-x="458" d="M49 1117.5q0 27.5 33 53.5q108 89 141 189q12 35 52 35t63.5 -24.5t23.5 -40t-4 -25.5q-33 -92 -109.5 -174t-117.5 -82t-61.5 20.5t-20.5 48zM125 761.5q0 69.5 6 170.5q4 37 47 37q109 0 123 -88q6 -45 6 -72l-8 -129v-459l2 -143q0 -39 -30.5 -64.5t-65.5 -25.5 q-51 0 -53 51q-27 653 -27 722.5z" />
<glyph unicode="&#xee;" horiz-adv-x="458" d="M-37 1148q0 32 104.5 113.5t150.5 81.5t146.5 -76.5t100.5 -123.5q0 -29 -24.5 -49.5t-40 -20.5t-91.5 65.5t-94 65.5t-87 -67.5t-97.5 -67.5t-48 23.5t-19.5 55.5zM125 761.5q0 69.5 6 170.5q4 37 47 37q109 0 123 -88q6 -45 6 -72l-8 -129v-459l2 -143 q0 -39 -30.5 -64.5t-65.5 -25.5q-51 0 -53 51q-27 653 -27 722.5z" />
<glyph unicode="&#xef;" horiz-adv-x="458" d="M-63 1137q0 47 34.5 82.5t76.5 35.5t66.5 -28.5t26.5 -77.5q-6 -41 -37.5 -66.5t-74.5 -25.5q-78 0 -92 80zM125 761.5q0 69.5 6 170.5q4 37 47 37q109 0 123 -88q6 -45 6 -72l-8 -129v-459l2 -143q0 -39 -30.5 -64.5t-65.5 -25.5q-51 0 -53 51q-27 653 -27 722.5z M287 1161q-1 92 110 92q37 0 62.5 -21.5t27.5 -57.5q-6 -51 -36.5 -81t-70.5 -30t-66.5 27.5t-26.5 70.5z" />
<glyph unicode="&#xf0;" horiz-adv-x="948" d="M98 416q0 178 105 332q51 74 131 117.5t172 43.5l-103 131l-45 -55q-35 -18 -60.5 -18t-42.5 16t-17 41t22 59l59 64q-61 61 -61 80h2q-23 23 -22.5 53.5t29 57t54 26.5t50.5 -12l73 -90l72 73q33 27 59 27q66 -1 66 -62q0 -37 -27 -63l-84 -84q18 -18 117 -149 q102 -135 146.5 -253t50.5 -274q0 -104 -53.5 -213.5t-147.5 -188.5t-198.5 -79t-187.5 67.5t-121 166t-38 186.5zM254 485.5q0 -135.5 61.5 -231.5t161.5 -96q55 0 96 39q113 94 113 282q0 98 -59.5 191.5t-145.5 93.5t-156.5 -71.5t-70.5 -207z" />
<glyph unicode="&#xf1;" horiz-adv-x="925" d="M133 895q0 39 26.5 63.5t53.5 24.5q66 0 76 -55q8 -55 8 -115q111 145 276 145q254 0 254 -579v-160.5t-12 -157.5q-14 -61 -88 -61q-49 0 -49 66l2 114q0 238 -15.5 325t-29.5 138q-35 111 -113 111q-102 0 -143 -74q-45 -80 -53 -188q-14 -190 -15 -404 q0 -41 -30.5 -65.5t-73.5 -24.5q-51 -1 -51 65zM186 1150q0 42 60.5 91t115 49t87 -16.5t45.5 -36.5q33 -53 59.5 -53t58 49t59 49t48 -24.5t20.5 -51.5q0 -74 -60.5 -112.5t-116.5 -38.5t-87 23.5t-53.5 47t-48.5 23.5q-12 0 -51 -46t-66 -46t-48.5 25.5t-21.5 67.5z" />
<glyph unicode="&#xf2;" horiz-adv-x="825" d="M66 457q0 223 90 356q96 141 284 141q147 0 242.5 -141t95.5 -339t-97 -337t-258 -139t-259 142.5t-98 316.5zM219 506q0 -156 61.5 -238t139.5 -82q139 0 178 121q16 57 16 144q1 335 -198 335q-86 0 -141.5 -90t-55.5 -190zM250 1299.5q0 19.5 3 37t26.5 30.5t38 13 t22.5 -2q31 -8 84 -97t117 -122q33 -16 36.5 -53t-12.5 -53q-18 -29 -45.5 -29t-65.5 20.5t-94.5 76t-83 107.5t-26.5 71.5z" />
<glyph unicode="&#xf3;" horiz-adv-x="825" d="M66 457q0 223 90 356q96 141 284 141q147 0 242.5 -141t95.5 -339t-97 -337t-258 -139t-259 142.5t-98 316.5zM219 506q0 -156 61.5 -238t139.5 -82q139 0 178 121q16 57 16 144q1 335 -198 335q-86 0 -141.5 -90t-55.5 -190zM254 1115q0 28 33 52q108 91 141 191 q12 35 52 35t63.5 -25t23.5 -40t-4 -25q-33 -92 -109.5 -174t-117.5 -82t-61.5 20t-20.5 48z" />
<glyph unicode="&#xf4;" horiz-adv-x="825" d="M66 457q0 223 90 356q96 141 284 141q147 0 242.5 -141t95.5 -339t-97 -337t-258 -139t-259 142.5t-98 316.5zM168 1146q0 32 104.5 113.5t150.5 81.5t146.5 -76.5t100.5 -123.5q0 -29 -24.5 -49.5t-40 -20.5t-91.5 65.5t-94.5 65.5t-87 -67.5t-97 -67.5t-48 23.5 t-19.5 55.5zM219 506q0 -156 61.5 -238t139.5 -82q139 0 178 121q16 57 16 144q1 335 -198 335q-86 0 -141.5 -90t-55.5 -190z" />
<glyph unicode="&#xf5;" horiz-adv-x="825" d="M66 457q0 223 90 356q96 141 284 141q147 0 242.5 -141t95.5 -339t-97 -337t-258 -139t-259 142.5t-98 316.5zM137 1156q0 42 60.5 91t115 49t87 -16t44.5 -37q33 -53 59.5 -53t58.5 49t59.5 49t48 -24.5t20.5 -51.5q0 -74 -60.5 -112.5t-116.5 -38.5t-87 23.5t-53.5 47 t-48.5 23.5q-12 0 -51.5 -46t-66 -46t-48 25.5t-21.5 67.5zM219 506q0 -156 61.5 -238t139.5 -82q139 0 178 121q16 57 16 144q1 335 -198 335q-86 0 -141.5 -90t-55.5 -190z" />
<glyph unicode="&#xf6;" horiz-adv-x="825" d="M66 457q0 223 90 356q96 141 284 141q147 0 242.5 -141t95.5 -339t-97 -337t-258 -139t-259 142.5t-98 316.5zM141 1135q0 47 35 82.5t77 35.5t66.5 -28.5t26.5 -77.5q-6 -41 -38 -66.5t-75 -25.5q-78 0 -92 80zM219 506q0 -156 61.5 -238t139.5 -82q139 0 178 121 q16 57 16 144q1 335 -198 335q-86 0 -141.5 -90t-55.5 -190zM492 1159q-1 92 110 92q37 0 62.5 -21.5t27.5 -58.5q-6 -51 -36.5 -80.5t-70.5 -29.5t-66.5 27.5t-26.5 70.5z" />
<glyph unicode="&#xf7;" horiz-adv-x="1062" d="M90 543q0 70 80 73q123 -10 231 -10l494 17q61 -25 61 -76.5t-63 -65.5l-502 -14q-221 0 -261 21.5t-40 54.5zM414 209q0 102 127 102q74 -16 75 -98q-27 -92 -114 -92q-41 0 -64.5 24.5t-23.5 63.5zM420 862q0 43 30.5 69.5t68.5 26.5t66.5 -26.5t28.5 -64.5 t-29.5 -70.5t-71.5 -32.5t-67.5 27.5t-25.5 70.5z" />
<glyph unicode="&#xf8;" horiz-adv-x="860" d="M51 479q0 70 31 159t81 159.5t126 114.5t147.5 44t126.5 -30q31 61 74 61q72 0 72 -45q0 -35 -37 -108q106 -143 106 -375q0 -139 -78 -291q-39 -76 -103.5 -122t-138 -46t-149.5 35q-39 -76 -74.5 -76t-57 14.5t-21.5 42t43 105.5q-147 158 -148 358zM207 504 q0 -90 72 -209l210 459q-39 31 -85 30.5t-101 -51.5q-96 -90 -96 -229zM377 186q47 -41 117 -41q120 66 120 279q0 100 -34 199z" />
<glyph unicode="&#xf9;" d="M57.5 507.5q-0.5 149.5 16.5 369.5q8 34 34.5 57.5t54 23.5t43 -10t18.5 -18t7 -29q-12 -160 -12 -288t31 -292.5t67 -164.5q55 0 140.5 61.5t122.5 128.5q-25 295 -25 506q0 43 27.5 73.5t66.5 30.5q63 0 64 -86q0 -145 21.5 -431.5t43.5 -364.5q4 -16 4 -38 t-27.5 -41.5t-71.5 -19.5t-58 50q-4 41 -21 122q-143 -150 -289 -149q-68 0 -121 51t-83 139q-53 170 -53.5 319.5zM229 1293.5q0 19.5 3.5 37t27 30.5t37.5 13t22 -2q31 -8 84.5 -97t116.5 -122q33 -16 37 -53t-12 -53q-18 -29 -46 -29t-66 20.5t-94 75.5t-83 107.5t-27 72 z" />
<glyph unicode="&#xfa;" d="M57.5 507.5q-0.5 149.5 16.5 369.5q8 34 34.5 57.5t54 23.5t43 -10t18.5 -18t7 -29q-12 -160 -12 -288t31 -292.5t67 -164.5q55 0 140.5 61.5t122.5 128.5q-25 295 -25 506q0 43 27.5 73.5t66.5 30.5q63 0 64 -86q0 -145 21.5 -431.5t43.5 -364.5q4 -16 4 -38 t-27.5 -41.5t-71.5 -19.5t-58 50q-4 41 -21 122q-143 -150 -289 -149q-68 0 -121 51t-83 139q-53 170 -53.5 319.5zM233 1109q0 28 33 54q109 89 142 189q12 35 52 34.5t63.5 -25t23.5 -39.5t-4 -26q-33 -92 -110 -174t-118 -82t-61.5 20.5t-20.5 48.5z" />
<glyph unicode="&#xfb;" d="M57.5 507.5q-0.5 149.5 16.5 369.5q8 34 34.5 57.5t54 23.5t43 -10t18.5 -18t7 -29q-12 -160 -12 -288t31 -292.5t67 -164.5q55 0 140.5 61.5t122.5 128.5q-25 295 -25 506q0 43 27.5 73.5t66.5 30.5q63 0 64 -86q0 -145 21.5 -431.5t43.5 -364.5q4 -16 4 -38 t-27.5 -41.5t-71.5 -19.5t-58 50q-4 41 -21 122q-143 -150 -289 -149q-68 0 -121 51t-83 139q-53 170 -53.5 319.5zM147 1139.5q0 31.5 104.5 113.5t151 82t146.5 -76.5t100 -123.5q0 -29 -24.5 -49.5t-40 -20.5t-91 65.5t-94 65.5t-87 -67.5t-97.5 -67.5t-48.5 23.5 t-19.5 55z" />
<glyph unicode="&#xfc;" d="M57.5 507.5q-0.5 149.5 16.5 369.5q8 34 34.5 57.5t54 23.5t43 -10t18.5 -18t7 -29q-12 -160 -12 -288t31 -292.5t67 -164.5q55 0 140.5 61.5t122.5 128.5q-25 295 -25 506q0 43 27.5 73.5t66.5 30.5q63 0 64 -86q0 -145 21.5 -431.5t43.5 -364.5q4 -16 4 -38 t-27.5 -41.5t-71.5 -19.5t-58 50q-4 41 -21 122q-143 -150 -289 -149q-68 0 -121 51t-83 139q-53 170 -53.5 319.5zM121 1128q0 47 34.5 83t76.5 36t67 -28.5t27 -77.5q-6 -41 -38 -66.5t-75 -25.5q-78 0 -92 79zM471 1153q0 92 111 92q37 0 62.5 -21.5t27.5 -58.5 q-6 -51 -37 -80.5t-71 -29.5t-66.5 27.5t-26.5 70.5z" />
<glyph unicode="&#xfd;" horiz-adv-x="866" d="M37 876.5q0 16.5 24.5 43t67.5 26.5t70 -43q29 -74 94 -257t101 -265t69 -170q29 96 98.5 373.5t79.5 316.5q8 45 90 45q27 0 52.5 -18.5t25.5 -40.5q0 -59 -174 -643t-258 -819q-18 -55 -57 -55.5t-61.5 27.5t-22.5 81t68.5 254.5t82.5 257.5q-51 86 -346 860 q-4 10 -4 26.5zM264 1109q0 28 31 54q110 89 143 189q12 35 52 34.5t64 -25t24 -39.5t-5 -26q-33 -92 -109.5 -174t-117.5 -82t-61.5 20.5t-20.5 48.5z" />
<glyph unicode="&#xfe;" horiz-adv-x="929" d="M82 1120q0 25 21.5 41.5t56.5 16.5q68 0 86 -58v-262q16 41 73.5 69.5t149.5 28.5q207 0 299 -159q82 -139 82 -347t-120 -328t-329 -120q-88 0 -155 33v-574q-18 -63 -74 -86q-18 -6 -35 -6q-53 0 -53 68v700q4 322 4 498t-2 268zM246 199q8 0 23.5 -8.5t43.5 -16.5 q27 -12 90 -12q283 0 283 291q0 248 -127 313q-53 29 -131 29q-76 -10 -129 -66.5t-53 -112.5v-417z" />
<glyph unicode="&#xff;" horiz-adv-x="866" d="M37 876.5q0 16.5 24.5 43t67.5 26.5t70 -43q29 -74 94 -257t101 -265t69 -170q29 96 98.5 373.5t79.5 316.5q8 45 90 45q27 0 52.5 -18.5t25.5 -40.5q0 -59 -174 -643t-258 -819q-18 -55 -57 -55.5t-61.5 27.5t-22.5 81t68.5 254.5t82.5 257.5q-51 86 -346 860 q-4 10 -4 26.5zM152 1128q0 47 34.5 83t76.5 36t66.5 -28.5t26.5 -77.5q-6 -41 -37.5 -66.5t-74.5 -25.5q-76 0 -92 79zM502 1153q-1 92 110 92q37 0 62.5 -21.5t27.5 -58.5q-6 -51 -36.5 -80.5t-70.5 -29.5t-66.5 27.5t-26.5 70.5z" />
<glyph unicode="&#x152;" horiz-adv-x="1587" d="M98 690q0 334 58 443q20 39 49 79q96 141 334.5 141.5t279.5 -110.5v14q0 41 17.5 59.5t49.5 28t100.5 9.5t228 -8.5t178.5 -8.5q86 -18 86 -71q0 -96 -262 -97h-93q-41 0 -157 13q0 -297 6 -406q248 -6 332 -6q80 -16 79 -68q0 -27 -24.5 -53t-59.5 -35l-258 11h-67 l12 -363q0 -82 -2 -104l393 6q70 -8 70 -58q0 -33 -27.5 -63.5t-66.5 -40.5h-396h-10q-82 0 -117.5 34t-35.5 120q-61 -92 -119 -123t-162 -31q-246 0 -352 303q-63 180 -64 385zM258 760q0 -248 90 -428q66 -143 166 -144q234 1 234 484q0 254 -31 350t-55 123 q-74 49 -111 51q-293 0 -293 -436z" />
<glyph unicode="&#x153;" horiz-adv-x="1406" d="M70 444q0 223 90 356.5t276 141.5h4q145 0 240 -129q90 135 246 135q125 0 222 -62.5t97 -153.5t-78 -163q-147 -135 -385 -135q23 -188 88 -237q35 -25 82 -25q88 0 176.5 86t131.5 86q16 0 48.5 -30.5t32.5 -57.5q0 -55 -134 -159.5t-283.5 -104.5t-227.5 149 q-104 -156 -267 -155.5t-261 142.5t-98 316zM223 494q0 -156 61.5 -238t139.5 -82q139 0 178 121q16 57 16 143q0 336 -198 336q-86 0 -141.5 -90t-55.5 -190zM778 580q287 0 287 141q0 86 -115 86q-55 0 -102 -49t-62 -127q0 -4 -8 -51z" />
<glyph unicode="&#x178;" horiz-adv-x="905" d="M41 1279q0 32 26.5 57.5t52 25.5t61.5 -47t141.5 -248t121.5 -221q197 348 316 491q29 27 46 27t25 -4q49 -20 49.5 -54t-16.5 -59q-16 -25 -90 -129q-109 -152 -187.5 -306.5t-78.5 -188.5v-375l6 -164q0 -45 -24.5 -62.5t-60.5 -17.5t-48 39t-14 102.5t-2 186.5v164 l2 104q0 53 -34 104.5t-163 297t-129 277.5zM180 1538q0 47 35 83t77 36t66.5 -29t26.5 -78q-6 -41 -38 -66.5t-75 -25.5q-76 0 -92 80zM530 1563q0 92 111 92q37 0 62.5 -21.5t27.5 -58.5q-6 -51 -36.5 -81t-70.5 -30t-67 28t-27 71z" />
<glyph unicode="&#x2c6;" horiz-adv-x="665" d="M76 1139.5q0 31.5 104.5 113.5t150.5 82t146.5 -76.5t100.5 -123.5q0 -29 -25 -49.5t-41 -20.5t-90 65.5t-93.5 65.5t-88 -67.5t-97 -67.5t-48 23.5t-19.5 55z" />
<glyph unicode="&#x2dc;" d="M141 1152q0 42 60.5 91t115 49t87 -16t45.5 -37q33 -53 59.5 -53t58 49t59 49t48 -24.5t20.5 -51.5q0 -74 -60.5 -112.5t-116.5 -38.5t-87 23.5t-53.5 47t-48.5 23.5q-12 0 -51 -46t-66 -46t-48.5 25.5t-21.5 67.5z" />
<glyph unicode="&#x2000;" horiz-adv-x="898" />
<glyph unicode="&#x2001;" horiz-adv-x="1796" />
<glyph unicode="&#x2002;" horiz-adv-x="898" />
<glyph unicode="&#x2003;" horiz-adv-x="1796" />
<glyph unicode="&#x2004;" horiz-adv-x="598" />
<glyph unicode="&#x2005;" horiz-adv-x="449" />
<glyph unicode="&#x2006;" horiz-adv-x="299" />
<glyph unicode="&#x2007;" horiz-adv-x="299" />
<glyph unicode="&#x2008;" horiz-adv-x="224" />
<glyph unicode="&#x2009;" horiz-adv-x="359" />
<glyph unicode="&#x200a;" horiz-adv-x="99" />
<glyph unicode="&#x2010;" horiz-adv-x="827" d="M74 478q0 38 24.5 62.5t69.5 24.5h111h296h103q76 -4 76 -78q0 -35 -23.5 -60.5t-68.5 -25.5l-351 2l-170 -4q-29 0 -48 20.5t-19 58.5z" />
<glyph unicode="&#x2011;" horiz-adv-x="827" d="M74 478q0 38 24.5 62.5t69.5 24.5h111h296h103q76 -4 76 -78q0 -35 -23.5 -60.5t-68.5 -25.5l-351 2l-170 -4q-29 0 -48 20.5t-19 58.5z" />
<glyph unicode="&#x2012;" horiz-adv-x="827" d="M74 478q0 38 24.5 62.5t69.5 24.5h111h296h103q76 -4 76 -78q0 -35 -23.5 -60.5t-68.5 -25.5l-351 2l-170 -4q-29 0 -48 20.5t-19 58.5z" />
<glyph unicode="&#x2013;" horiz-adv-x="860" d="M74 475q0 39 25.5 63.5t68.5 24.5l160 -2l385 2q47 0 61 -19.5t14 -60.5q0 -76 -83 -75h-555q-76 4 -76 67z" />
<glyph unicode="&#x2014;" horiz-adv-x="1327" d="M74 477q0 35 24.5 59.5t69.5 24.5l240 -2l772 2q31 0 53 -21.5t22 -58.5q0 -76 -84 -75q-254 -4 -509.5 -4.5t-511.5 4.5q-37 0 -56.5 18t-19.5 53z" />
<glyph unicode="&#x2018;" horiz-adv-x="389" d="M82 1497q23 59 68 59q59 0 71 -65q0 -147 64 -215q8 -18 8 -41t-8 -37q-16 -35 -60 -35q-84 0 -123 160q-20 80 -20 174z" />
<glyph unicode="&#x2019;" horiz-adv-x="450" d="M90 1233q0 29 36 102.5t36 155.5q0 29 21.5 47t49 18t51 -19t23.5 -52q0 -113 -41 -217.5t-108.5 -104.5t-67.5 70z" />
<glyph unicode="&#x201a;" horiz-adv-x="425" d="M94 -109q0 23 6 43q63 72 64 216q12 63 67.5 63t73.5 -57q0 -135 -43 -244q-14 -39 -41.5 -65.5t-58.5 -26.5q-68 0 -68 71z" />
<glyph unicode="&#x201c;" horiz-adv-x="645" d="M121 1501q18 61 73.5 61.5t65.5 -63.5q0 -145 62 -219q8 -18 8 -46t-16.5 -46.5t-50 -18.5t-58.5 27q-41 39 -62.5 129t-21.5 176zM367 1501q18 61 73.5 61t65.5 -63q0 -145 61 -219q8 -18 8 -46t-17 -46.5t-52 -18.5q-80 0 -119 160q-20 80 -20 172z" />
<glyph unicode="&#x201d;" horiz-adv-x="620" d="M106 1264q0 18 7 41q61 70 61 219q12 63 66 63t77 -61q0 -170 -59 -273q-37 -59 -86 -59q-66 0 -66 70zM352 1256.5q0 25.5 6 48.5q61 70 62 219q14 63 67 63t76 -61q0 -170 -59 -273q-37 -59 -77 -59t-57.5 18.5t-17.5 44z" />
<glyph unicode="&#x201e;" horiz-adv-x="610" d="M66 -109q0 25 8 43q63 72 63 216q8 63 64.5 63t77.5 -57q0 -139 -46 -244q-14 -39 -41.5 -65.5t-58.5 -26.5q-67 -1 -67 71zM311 -109q0 25 8 43q63 72 64 216q8 63 64.5 63t76.5 -57q0 -139 -45 -244q-14 -39 -41.5 -65.5t-58.5 -26.5q-68 -1 -68 71z" />
<glyph unicode="&#x2022;" horiz-adv-x="720" d="M205 512q0 72 49 111t117 39h22q45 -6 88 -57.5t43 -86.5q0 -78 -46 -130t-113.5 -52t-113.5 52t-46 124z" />
<glyph unicode="&#x2026;" horiz-adv-x="1169" d="M113 98q0 49 31.5 98.5t75.5 49.5t77 -33t39 -90q0 -45 -33 -83t-77 -38t-78.5 23.5t-34.5 72.5zM426 98q0 49 30.5 98.5t78 49.5t79 -38t33.5 -84t-30.5 -84t-76.5 -38t-79 23.5t-35 72.5zM745 99.5q0 50.5 31 98.5t75 48t78 -33t40 -90q0 -45 -33 -83t-77 -38t-79 23.5 t-35 74z" />
<glyph unicode="&#x202f;" horiz-adv-x="359" />
<glyph unicode="&#x2039;" horiz-adv-x="622" d="M113 496q0 80 71 151q33 37 105.5 101.5t84 79t45 30.5t58.5 16q53 0 53 -64.5t-184 -223.5q-72 -61 -86 -80q23 -23 88 -78q129 -121 129 -182q0 -35 -17.5 -55.5t-40 -20.5t-63.5 29.5t-63.5 61.5t-79.5 82t-78.5 81t-21.5 72z" />
<glyph unicode="&#x203a;" horiz-adv-x="614" d="M123 788q0 23 22.5 39.5t49 16.5t53.5 -23q82 -82 173 -193.5t91 -144.5q0 -66 -49 -122t-85 -87.5t-61 -62.5l-34 -39q-53 -35 -60 -35h-8q-78 0 -78 64q0 53 150 186q57 49 73 80q-238 248 -237 321z" />
<glyph unicode="&#x205f;" horiz-adv-x="449" />
<glyph unicode="&#x20ac;" horiz-adv-x="985" d="M39 592.5q0 25.5 20.5 47.5t55.5 26h30q0 49 5 110h-41q-29 0 -49.5 21.5t-20.5 48.5q0 63 76 72h59q2 4 15.5 37.5t23.5 54t31.5 61.5t44 68.5t62.5 72.5t153 103q92 45 235 45q256 0 256 -96q0 -8 -2 -19q-14 -63 -69 -63q-10 0 -84 11t-135 11q-96 0 -196.5 -74.5 t-164.5 -222.5l334 2q109 -8 108 -80q0 -57 -59 -67q-299 0 -430 8q-6 -55 -6 -61l4 -43h426q57 -20 57 -78t-63 -70h-393q47 -106 127.5 -192t177.5 -115q43 -10 88 -10t96 9t79 9t38 -6q35 -23 35 -66q0 -61 -82 -100q-57 -27 -119 -27t-103 5q-92 10 -186 75.5 t-149 132.5q-96 117 -150 285h-61q-35 6 -54.5 27.5t-19.5 47z" />
<glyph unicode="&#x2122;" horiz-adv-x="974" d="M49 1391q0 61 176 61t183 -49q0 -47 -72 -62h-51l8 -258q-6 -29 -25 -48t-39 -19q-55 0 -55 55l6 219v47h-74q-29 0 -43 16.5t-14 37.5zM485 1243q0 55 7 90q8 119 67 119q49 0 94 -76q20 -33 27.5 -47t12.5 -20t5 -9l23 37q70 115 129 115q31 0 51 -68l-6 -311 q0 -27 -17.5 -42t-41.5 -15q-43 0 -50 53q-4 39 -4 76l2 67q-53 -72 -92 -71.5t-92 71.5l4 -129q-10 -74 -61 -73q-18 0 -36 20.5t-18 42.5l-2 101q-2 14 -2 69z" />
<glyph unicode="&#xe000;" horiz-adv-x="962" d="M0 0v963h963v-963h-963z" />
</font>
</defs>
</svg>
