<?xml version="1.0" standalone="no"?>
<!DOCTYPE svg PUBLIC "-//W3C//DTD SVG 1.1//EN" "http://www.w3.org/Graphics/SVG/1.1/DTD/svg11.dtd" >
<svg xmlns="http://www.w3.org/2000/svg">
<metadata></metadata>
<defs>
<font id="ProximaNovaLtBold" horiz-adv-x="1175" >
<font-face units-per-em="2048" ascent="1618" descent="-430" />
<missing-glyph horiz-adv-x="528" />
<glyph unicode="&#xfb01;" horiz-adv-x="1126" d="M29 803v186h164v55q0 162 86 252t208.5 90t190.5 -36l-47 -162q-35 23 -86 22q-137 0 -137 -166v-55h200v-186h-200v-803h-215v803h-164zM748 1243q0 55 38.5 94t94 39t94.5 -39t39 -94t-39 -94t-94.5 -39t-94 39t-38.5 94zM772 0v989h215v-989h-215z" />
<glyph unicode="&#xfb02;" horiz-adv-x="1126" d="M29 803v186h164v55q0 162 86 252t208.5 90t190.5 -36l-47 -162q-35 23 -86 22q-137 0 -137 -166v-55h200v-186h-200v-803h-215v803h-164zM772 0v1366h215v-1366h-215z" />
<glyph unicode="&#xfb03;" horiz-adv-x="1757" d="M29 803v186h164v55q0 160 84.5 251t234.5 91t229 -86l-84 -133q-47 43 -112 43q-137 0 -137 -166v-55h200v-186h-200v-803h-215v803h-164zM662 803v186h163v55q0 162 86 252t209 90t191 -36l-47 -162q-35 23 -86 22q-137 0 -138 -166v-55h201v-186h-201v-803h-215v803 h-163zM1378 1243q0 55 39 94t94.5 39t94.5 -39t39 -94t-39 -94t-94.5 -39t-94.5 39t-39 94zM1403 0v989h215v-989h-215z" />
<glyph unicode="&#xfb04;" horiz-adv-x="1757" d="M29 803v186h164v55q0 160 84.5 251t234.5 91t229 -86l-84 -133q-47 43 -112 43q-137 0 -137 -166v-55h200v-186h-200v-803h-215v803h-164zM662 803v186h163v55q0 162 86 252t209 90t191 -36l-47 -162q-35 23 -86 22q-137 0 -138 -166v-55h201v-186h-201v-803h-215v803 h-163zM1403 0v1366h215v-1366h-215z" />
<glyph horiz-adv-x="0" />
<glyph horiz-adv-x="2048" />
<glyph unicode="&#xd;" horiz-adv-x="681" />
<glyph unicode=" "  horiz-adv-x="528" />
<glyph unicode="&#x09;" horiz-adv-x="528" />
<glyph unicode="&#xa0;" horiz-adv-x="528" />
<glyph unicode="!" horiz-adv-x="499" d="M109 123q0 57 43 99t100 42t99 -42t42 -100t-42 -100t-100 -42t-100 43t-42 100zM119 1366h262l-37 -946h-186z" />
<glyph unicode="&#x22;" horiz-adv-x="778" d="M98 1274q0 43 36 77.5t86 34.5t85 -34.5t35 -85.5l-72 -465h-98q-72 430 -72 473zM438 1274q0 43 35 77.5t86 34.5t86 -34.5t35 -85.5l-72 -465h-98q-72 430 -72 473z" />
<glyph unicode="#" horiz-adv-x="1243" d="M39 358l45 142h209l123 366h-209l43 142h213l119 358h163l-118 -358h207l118 358h164l-121 -358h209l-41 -142h-213l-125 -366h217l-45 -142h-219l-119 -358h-163l120 358h-208l-119 -358h-164l121 358h-207zM457 500h205l124 366h-206z" />
<glyph unicode="$" horiz-adv-x="1239" d="M74 193l135 186q139 -154 342 -184v397q-217 57 -297 118q-90 70 -118 160q-17 52 -17 117q0 160 117.5 270.5t314.5 126.5v189h164v-191q246 -27 411 -186l-135 -178q-113 113 -276 145v-354q257 -68 350 -163q94 -96 94 -255.5t-112.5 -276t-331.5 -134.5v-185h-164 v185q-295 23 -477 213zM365 1006q0 -98 186 -154v322q-86 -10 -136 -55t-50 -113zM715 193q100 14 149 66t49 116.5t-51 104.5t-147 69v-356z" />
<glyph unicode="%" horiz-adv-x="1529" d="M57 1046.5q0 145.5 95.5 242.5t246 97t244.5 -96t94 -242t-94 -242.5t-245 -96.5t-246 96t-95 241.5zM217 1048q0 -89 51 -145.5t130 -56.5t130.5 56t51.5 145.5t-51.5 146.5t-130.5 57t-130 -57t-51 -146zM264 0l873 1366h139l-875 -1366h-137zM793 313.5 q0 145.5 95 242.5t244.5 97t245 -97t95.5 -242.5t-95.5 -242t-245 -96.5t-244.5 96.5t-95 242zM950 314q0 -89 51.5 -145t131 -56t131 56t51.5 145t-51.5 146.5t-131 57.5t-131 -57.5t-51.5 -146.5z" />
<glyph unicode="&#x26;" horiz-adv-x="1320" d="M61 365q0 145 79 237t218 162q-96 172 -96 305t105.5 225t257 92t248 -74.5t96.5 -203.5q0 -148 -109 -239q-55 -46 -103 -73.5t-128 -66.5q57 -80 134 -171t136 -157q88 131 135 287l174 -80q-84 -199 -188 -340l266 -268h-282q-70 66 -121 119q-170 -143 -371.5 -143.5 t-326 101t-124.5 288.5zM289 383q0 -109 69.5 -172.5t179 -63.5t226.5 97q-115 121 -168 190q-84 96 -152 195q-156 -102 -155 -246zM477 1053q0 -80 68 -199q115 53 174 108.5t59 125t-39 105.5t-103.5 36t-111.5 -48t-47 -128z" />
<glyph unicode="'" horiz-adv-x="438" d="M98 1274q0 43 36 77.5t86 34.5t85 -34.5t35 -85.5l-72 -465h-98q-72 430 -72 473z" />
<glyph unicode="(" horiz-adv-x="565" d="M86 497.5q0 247.5 83 488.5t228 417l133 -100q-109 -201 -160 -386.5t-51 -417.5t51 -418.5t160 -385.5l-133 -103q-145 176 -228 417t-83 488.5z" />
<glyph unicode=")" horiz-adv-x="567" d="M37 -305l133 -103q145 176 227 417t82 488.5t-82 488.5t-227 417l-133 -100q106 -201 157.5 -387.5t51.5 -416.5t-51.5 -417.5t-157.5 -386.5z" />
<glyph unicode="*" horiz-adv-x="710" d="M59 975l203 104l-203 105l58 98l192 -125l-10 229h113l-11 -229l193 125l57 -98l-205 -105l205 -104l-57 -98l-193 122l11 -229h-113l10 229l-192 -122z" />
<glyph unicode="+" horiz-adv-x="1028" d="M59 623v137h379v411h152v-411h379v-137h-379v-426h-152v426h-379z" />
<glyph unicode="," horiz-adv-x="501" d="M109 125q0 57 40.5 98t102.5 41t108 -50t46 -145t-52.5 -187.5t-138.5 -153.5l-98 79q51 31 95 86.5t52 106.5q-12 -6 -49 -6t-71.5 37t-34.5 94z" />
<glyph unicode="-" horiz-adv-x="614" d="M61 403v185h492v-185h-492z" />
<glyph unicode="." horiz-adv-x="503" d="M109 121.5q0 58.5 43 100.5t100 42t100 -42t43 -100t-43 -101.5t-100 -43.5t-100 43t-43 101.5z" />
<glyph unicode="/" horiz-adv-x="645" d="M0 -41l485 1448h160l-485 -1448h-160z" />
<glyph unicode="0" horiz-adv-x="1263" d="M86 682q0 133 32 256t96.5 225.5t172 162.5t246.5 60q182 0 309 -106q236 -197 236 -598q0 -400 -236 -600q-127 -107 -309 -107q-139 0 -246.5 61.5t-171 164t-96.5 225.5t-33 256zM330 682q0 -215 73.5 -354.5t229 -139.5t228.5 139.5t73 354.5q0 294 -125 421 q-70 71 -176.5 71t-177 -71t-98 -176.5t-27.5 -244.5z" />
<glyph unicode="1" horiz-adv-x="778" d="M31 969l393 397h209v-1366h-240v1057l-223 -234z" />
<glyph unicode="2" horiz-adv-x="1218" d="M84 1167q88 106 222 162.5t284 56.5q209 0 351 -111.5t142 -298.5t-146 -361.5t-450 -403.5h605v-211h-990v190q432 328 586 481.5t154 295.5q0 100 -74 153.5t-176 53.5q-223 0 -369 -162z" />
<glyph unicode="3" d="M49 197l131 157q66 -78 167.5 -122t222 -44t196.5 57.5t76 151.5q0 195 -303 195q-115 0 -156 -4v217q23 -2 153 -2t207.5 45t77.5 135t-78.5 140.5t-197.5 50.5q-207 0 -355 -152l-122 149q184 215 499 215q223 0 357.5 -98t134.5 -268q0 -129 -89 -212t-206 -101 q117 -12 217 -100.5t100 -231.5q0 -178 -140 -289t-376 -111q-172 0 -306 61.5t-210 160.5z" />
<glyph unicode="4" horiz-adv-x="1187" d="M57 309v193l561 864h330v-846h182v-211h-182v-309h-239v309h-652zM293 520h416v631z" />
<glyph unicode="5" horiz-adv-x="1228" d="M117 186l137 166q139 -164 367 -164q127 0 203.5 69t76.5 175.5t-74.5 173t-199.5 66.5q-174 0 -299 -117l-170 49v762h895v-211h-656v-393q125 117 308.5 117t311.5 -119t128 -325t-145.5 -333t-376.5 -127q-326 0 -506 211z" />
<glyph unicode="6" horiz-adv-x="1230" d="M86 682q0 307 157.5 505.5t444.5 198.5q240 0 391 -151l-110 -180q-115 119 -281 119t-263 -131.5t-97 -319.5v-39q53 76 153.5 134.5t212.5 58.5q195 0 327 -117t132 -319t-140.5 -334t-348.5 -132t-338 99q-240 185 -240 608zM332 510q10 -129 85 -225.5t210 -96.5 t208.5 74t73.5 178.5t-79.5 167t-183.5 62.5q-204 0 -314 -160z" />
<glyph unicode="7" horiz-adv-x="1089" d="M55 1155v211h985v-166l-528 -1200h-264l516 1155h-709z" />
<glyph unicode="8" horiz-adv-x="1220" d="M86 352q0 123 87 215t220 138q-127 41 -205.5 121.5t-78.5 201.5q0 176 149.5 267t352 91t352 -91t149.5 -267q0 -121 -79 -202t-206 -121q133 -45 220.5 -137.5t87.5 -215.5q0 -176 -152 -276.5t-373 -100.5t-372.5 100.5t-151.5 276.5zM330 385q0 -90 79.5 -143.5 t199.5 -53.5t201 53.5t81 143.5t-93 144.5t-188 68.5q-94 -14 -187 -68.5t-93 -144.5zM352 991q0 -90 100 -139q81 -39 158 -51q78 12 141 43q117 57 117 145t-71.5 136.5t-186 48.5t-186.5 -48.5t-72 -134.5z" />
<glyph unicode="9" horiz-adv-x="1230" d="M80 923q0 202 139 334t365 132q145 0 255.5 -56.5t176.5 -154.5q131 -198 131 -500.5t-157.5 -501.5t-444.5 -199q-238 0 -393 152l112 182q115 -121 285 -121t263 133.5t93 317.5q0 27 -2 39q-51 -76 -151.5 -133.5t-214.5 -57.5q-195 0 -326 116t-131 318zM322 924.5 q0 -105.5 79.5 -168t182.5 -62.5q201 0 317 162q-12 131 -86 225.5t-210 94.5t-209.5 -73t-73.5 -178.5z" />
<glyph unicode=":" horiz-adv-x="485" d="M109 121.5q0 58.5 43 100.5t100 42t100 -42t43 -100t-43 -101.5t-100 -43.5t-100 43t-43 101.5zM109 860.5q0 57.5 42 100.5t101 43t101 -43t42 -100.5t-43 -99.5t-100 -42t-100 42t-43 99.5z" />
<glyph unicode=";" horiz-adv-x="501" d="M109 132q0 56 40.5 97t102.5 41t108 -50t46 -145t-52.5 -187.5t-138.5 -153.5l-98 80q51 31 95 86t52 106q-8 -4 -47 -4t-73.5 37t-34.5 93zM109 861q0 58 42 100.5t101 42.5t101 -42t42 -100.5t-42 -100.5t-101 -42t-101 42t-42 100z" />
<glyph unicode="&#x3c;" horiz-adv-x="1028" d="M59 608v156l910 424v-164l-746 -340l746 -334v-166z" />
<glyph unicode="=" horiz-adv-x="1028" d="M59 420v139h910v-139h-910zM59 811v137h910v-137h-910z" />
<glyph unicode="&#x3e;" horiz-adv-x="1028" d="M59 184v166l748 334l-748 340v164l910 -424v-156z" />
<glyph unicode="?" horiz-adv-x="940" d="M27 1184q164 203 446 202q190 0 303 -90t113 -231q0 -84 -38 -150.5t-91 -108.5t-106 -79q-130 -90 -130 -172q0 -59 45 -92l-182 -62q-72 70 -72 177q0 128 116 216q48 37 97 70q117 78 117 162q0 63 -50 105.5t-144 42.5q-174 0 -285 -144zM317 121.5q0 58.5 43 100.5 t100.5 42t100.5 -42t43 -100t-43 -101.5t-100.5 -43.5t-100.5 43t-43 101.5z" />
<glyph unicode="@" horiz-adv-x="1603" d="M72 500q0 328 245.5 567.5t567.5 239.5q287 0 466 -184.5t179 -452.5q0 -231 -118 -363.5t-265 -132.5q-84 0 -134 46t-61 126q-55 -78 -137 -125t-170 -47q-145 0 -231 94t-86 246q0 205 144 356.5t326.5 151.5t260.5 -148l22 117h193l-111 -524q-4 -20 -4 -56 t23.5 -61.5t60.5 -25.5q74 0 140.5 87t66.5 261q0 248 -156.5 403.5t-414.5 155.5q-293 0 -511 -219t-218 -508q0 -244 164.5 -409t416.5 -165q199 0 375 115l41 -59q-201 -129 -426 -129q-279 0 -464 185t-185 458zM528 528q0 -88 50.5 -143t136.5 -55q152 0 260 155 l53 258q-18 47 -65.5 85t-118.5 38q-133 0 -224.5 -102t-91.5 -236z" />
<glyph unicode="A" horiz-adv-x="1378" d="M4 0l537 1366h299l536 -1366h-272l-100 264h-627l-101 -264h-272zM444 475h492l-246 651z" />
<glyph unicode="B" horiz-adv-x="1329" d="M145 0v1366h672q182 0 285.5 -99.5t103.5 -235.5t-68.5 -221t-168.5 -105q111 -16 187.5 -112.5t76.5 -221.5q0 -166 -104.5 -268.5t-292.5 -102.5h-691zM385 211h395q96 0 151.5 50t55.5 136t-55 140.5t-152 54.5h-395v-381zM385 803h385q90 0 140.5 48t50.5 127 t-51.5 128t-139.5 49h-385v-352z" />
<glyph unicode="C" horiz-adv-x="1396" d="M86 682q0 311 205 509t512 198q360 0 547 -306l-203 -106q-51 88 -144.5 143.5t-199.5 55.5q-203 0 -337 -139.5t-134 -353.5t134 -354.5t337 -140.5q106 0 199.5 56.5t144.5 142.5l205 -102q-197 -310 -549 -310q-307 0 -512 198t-205 509z" />
<glyph unicode="D" horiz-adv-x="1454" d="M145 0v1366h508q319 0 517 -190.5t198 -492.5t-197 -492.5t-516 -190.5h-510zM385 211h268q215 0 342 135t127 339t-124 337t-343 133h-270v-944z" />
<glyph unicode="E" horiz-adv-x="1181" d="M145 0v1366h936v-211h-696v-352h682v-211h-682v-381h696v-211h-936z" />
<glyph unicode="F" horiz-adv-x="1153" d="M145 0v1366h936v-211h-696v-352h682v-211h-682v-592h-240z" />
<glyph unicode="G" horiz-adv-x="1468" d="M86 682q0 315 206 511t511 196q352 0 549 -283l-195 -113q-57 80 -151.5 131.5t-202.5 51.5q-203 0 -337 -139.5t-134 -353.5t134 -354.5t337 -140.5q96 0 184 37t139 86v211h-409v211h647v-510q-223 -250 -561 -250q-305 0 -511 197t-206 512z" />
<glyph unicode="H" horiz-adv-x="1480" d="M145 0v1366h240v-557h711v557h239v-1366h-239v598h-711v-598h-240z" />
<glyph unicode="I" horiz-adv-x="530" d="M145 0v1366h240v-1366h-240z" />
<glyph unicode="J" horiz-adv-x="987" d="M16 121l113 182q100 -115 221 -115t186.5 69t65.5 179v930h240v-932q0 -225 -127 -342t-343 -117t-356 146z" />
<glyph unicode="K" horiz-adv-x="1271" d="M145 0v1366h240v-649l535 649h297l-555 -643l598 -723h-297l-457 578l-121 -142v-436h-240z" />
<glyph unicode="L" horiz-adv-x="1036" d="M129 0v1366h240v-1155h602v-211h-842z" />
<glyph unicode="M" horiz-adv-x="1710" d="M145 0v1366h338l373 -938l371 938h338v-1366h-240v1055l-418 -1055h-102l-420 1055v-1055h-240z" />
<glyph unicode="N" horiz-adv-x="1474" d="M145 0v1366h246l699 -946v946h239v-1366h-231l-713 977v-977h-240z" />
<glyph unicode="O" horiz-adv-x="1566" d="M86 682q0 307 196.5 507t502 200t502 -200t196.5 -507t-196.5 -507t-502 -200t-502 200t-196.5 507zM332 682q0 -215 123.5 -354.5t327.5 -139.5t329 140.5t125 354.5t-125 353.5t-329 139.5t-327.5 -139.5t-123.5 -354.5z" />
<glyph unicode="P" horiz-adv-x="1247" d="M145 0v1366h603q207 0 325.5 -123t118.5 -304t-119 -304t-325 -123h-363v-512h-240zM385 723h330q102 0 166.5 59.5t64.5 156.5t-64.5 156.5t-166.5 59.5h-330v-432z" />
<glyph unicode="Q" horiz-adv-x="1566" d="M86 682q0 307 196.5 507t502 200t502 -200t196.5 -500t-183 -499l113 -127l-166 -139l-119 133q-154 -82 -344 -82q-305 0 -501.5 200t-196.5 507zM332 682q0 -215 123.5 -354.5t328.5 -139.5q104 0 193 41l-170 193l168 139l170 -192q92 131 92 329.5t-125 338 t-329 139.5t-327.5 -139.5t-123.5 -354.5z" />
<glyph unicode="R" horiz-adv-x="1288" d="M145 0v1366h600q203 0 326 -119t123 -299t-95 -284.5t-231 -126.5l336 -537h-278l-301 510h-240v-510h-240zM385 721h330q102 0 167.5 60.5t65.5 157.5t-65.5 156.5t-167.5 59.5h-330v-434z" />
<glyph unicode="S" horiz-adv-x="1216" d="M57 193l136 186q174 -190 432 -191q137 0 204.5 55.5t67.5 127.5t-58.5 115.5t-147.5 64t-191.5 51.5t-191.5 68t-147.5 118.5t-58.5 198.5q0 174 137.5 288t360.5 114q313 0 510 -193l-135 -178q-158 158 -397 158q-104 0 -167 -47.5t-63 -110.5t44 -99t113.5 -57.5 t154.5 -41t170 -50.5t155 -73t114 -118.5t44 -179.5q0 -182 -134.5 -303t-394.5 -121q-346 0 -557 218z" />
<glyph unicode="T" horiz-adv-x="1181" d="M57 1155v211h1067v-211h-413v-1155h-240v1155h-414z" />
<glyph unicode="U" horiz-adv-x="1474" d="M145 541v825h244v-819q0 -166 90 -262.5t258 -96.5t258 96.5t90 262.5v819h244v-825q0 -262 -150.5 -414t-440.5 -152t-441.5 153t-151.5 413z" />
<glyph unicode="V" horiz-adv-x="1378" d="M4 1366h272l414 -1104l414 1104h272l-536 -1366h-299z" />
<glyph unicode="W" horiz-adv-x="1849" d="M14 1366h267l266 -1051l282 1051h191l283 -1051l266 1051h268l-391 -1366h-256l-264 1010l-267 -1010h-256z" />
<glyph unicode="X" horiz-adv-x="1353" d="M8 0l510 700l-479 666h287l352 -500l350 500h289l-481 -664l512 -702h-287l-383 535l-383 -535h-287z" />
<glyph unicode="Y" horiz-adv-x="1304" d="M4 1366h275l374 -584l375 584h275l-529 -799v-567h-239v567z" />
<glyph unicode="Z" horiz-adv-x="1206" d="M92 0v195l696 960h-696v211h1010v-192l-701 -963h715v-211h-1024z" />
<glyph unicode="[" horiz-adv-x="542" d="M90 -389v1778h416v-148h-256v-1483h256v-147h-416z" />
<glyph unicode="\" horiz-adv-x="645" d="M0 1407h160l485 -1448h-160z" />
<glyph unicode="]" horiz-adv-x="542" d="M37 -242h256v1483h-256v148h416v-1778h-416v147z" />
<glyph unicode="^" horiz-adv-x="894" d="M39 682l332 684h157l328 -684h-164l-243 535l-244 -535h-166z" />
<glyph unicode="_" horiz-adv-x="1155" d="M-6 -82h1167v-147h-1167v147z" />
<glyph unicode="`" horiz-adv-x="491" d="M0 1434h205l287 -295h-154z" />
<glyph unicode="a" horiz-adv-x="1099" d="M82 307.5q0 155.5 102.5 237.5t239.5 82q211 0 321 -127v147q0 84 -64.5 134t-166.5 50q-168 0 -293 -126l-90 149q166 160 416 160q182 0 298 -85t116 -272v-657h-216v109q-115 -133 -321 -134q-133 0 -237.5 88.5t-104.5 244zM297 301q0 -80 60.5 -129t152.5 -49 q158 0 235 102v152q-78 102 -235 102q-92 0 -152.5 -49t-60.5 -129z" />
<glyph unicode="b" horiz-adv-x="1189" d="M139 0v1366h215v-514q121 162 317 162t318.5 -141.5t122.5 -380t-123 -378t-317.5 -139.5t-317.5 160v-135h-215zM354 297q37 -57 109 -94t147 -37q127 0 203 92t76 237.5t-76 236.5t-203 91q-76 0 -147.5 -37.5t-108.5 -95.5v-393z" />
<glyph unicode="c" horiz-adv-x="1019" d="M80 495.5q0 225.5 143.5 372t379 146.5t366.5 -176l-142 -129q-82 115 -220 115h-1q-139 0 -222 -91.5t-83 -237t83 -237.5t221 -92t222 119l142 -133q-133 -177 -367.5 -177t-378 147.5t-143.5 373z" />
<glyph unicode="d" horiz-adv-x="1189" d="M80 493q0 239 123 380t318.5 141t314.5 -162v514h215v-1366h-215v135q-123 -160 -317 -160t-316.5 139.5t-122.5 378.5zM301 495.5q0 -145.5 77 -237.5t204 -92q74 0 145.5 39t108.5 94v391q-37 55 -109 94t-145 39q-127 0 -204 -91t-77 -236.5z" />
<glyph unicode="e" horiz-adv-x="1140" d="M80 487.5q0 225.5 142.5 376t360.5 150.5t351 -150.5t133 -386.5v-53h-762q12 -117 96 -194.5t217 -77.5q172 0 283 110l98 -141q-155 -146 -391.5 -146t-382 143.5t-145.5 369zM303 578h557q-6 102 -76.5 181t-200.5 79t-202 -79t-78 -181z" />
<glyph unicode="f" horiz-adv-x="632" d="M29 803v186h164v55q0 160 84.5 251t234.5 91t229 -86l-84 -133q-47 43 -112 43q-137 0 -137 -166v-55h200v-186h-200v-803h-215v803h-164z" />
<glyph unicode="g" horiz-adv-x="1189" d="M80 505.5q0 237.5 121 373t317.5 135.5t317.5 -162v137h215v-938q0 -127 -44 -220t-121 -141q-146 -91 -343 -91q-252 0 -416 147l100 156q113 -127 316 -127q123 0 208 65.5t85 210.5v113q-125 -166 -319 -166t-315.5 135t-121.5 372.5zM301 505.5q0 -143.5 76 -229.5 t205 -86q74 0 144.5 38t109.5 94v370q-39 55 -110 93t-144 38q-129 0 -205 -87t-76 -230.5z" />
<glyph unicode="h" horiz-adv-x="1163" d="M141 0v1366h215v-510q55 66 147.5 112t201.5 46q319 0 319 -314v-700h-215v623q0 111 -50 155.5t-138.5 44.5t-156 -37.5t-108.5 -93.5v-692h-215z" />
<glyph unicode="i" horiz-adv-x="493" d="M115 1243q0 55 39 94t94 39t94 -39t39 -94t-39 -94t-94 -39t-94 39t-39 94zM139 0v989h215v-989h-215z" />
<glyph unicode="j" horiz-adv-x="493" d="M-207 -330l64 160q61 -55 137 -55q145 0 145 168v1046h215v-1046q0 -162 -82.5 -253t-244.5 -91q-82 0 -131.5 16t-102.5 55zM115 1243q0 55 39 94t94 39t94 -39t39 -94t-39 -94t-94 -39t-94 39t-39 94z" />
<glyph unicode="k" horiz-adv-x="1079" d="M139 0v1366h215v-854l437 477h266l-410 -448l418 -541h-270l-301 410l-140 -144v-266h-215z" />
<glyph unicode="l" horiz-adv-x="493" d="M139 0v1366h215v-1366h-215z" />
<glyph unicode="m" horiz-adv-x="1708" d="M139 0v989h215v-133q41 55 131 106.5t194.5 51.5t174.5 -48t94 -132q45 72 138.5 126t214 54t194.5 -76t74 -223v-715h-215v645q0 178 -164 178q-68 0 -131.5 -39t-97.5 -92v-692h-216v645q0 178 -161 178q-68 0 -130.5 -39t-99.5 -92v-692h-215z" />
<glyph unicode="n" horiz-adv-x="1163" d="M139 0v989h215v-133q55 66 148.5 112t202.5 46q158 0 238.5 -82t80.5 -236v-696h-215v618q0 111 -52 158t-138.5 47t-154 -37.5t-110.5 -93.5v-692h-215z" />
<glyph unicode="o" d="M80 496.5q0 220.5 139 369t368.5 148.5t369 -148.5t139.5 -368.5t-139.5 -371t-369 -151t-368.5 150.5t-139 371zM303 495q0 -138 77 -233.5t209 -95.5t207.5 95t75.5 233.5t-75.5 233.5t-207.5 95t-209 -95t-77 -233z" />
<glyph unicode="p" horiz-adv-x="1185" d="M139 -377v1366h215v-135q121 160 317 160t317.5 -139.5t121.5 -379t-121.5 -380t-314 -140.5t-320.5 162v-514h-215zM354 301q37 -57 108.5 -96t145.5 -39q127 0 204 92t77 237.5t-77 236.5t-204 91q-74 0 -145.5 -37.5t-108.5 -93.5v-391z" />
<glyph unicode="q" horiz-adv-x="1185" d="M76 495.5q0 239.5 121.5 379t318.5 139.5t315 -160v135h216v-1366h-216v514q-127 -162 -319.5 -162t-314 140.5t-121.5 380zM297 495.5q0 -145.5 77 -237.5t204 -92q74 0 145.5 39t107.5 96v391q-37 55 -108.5 93t-144.5 38q-127 0 -204 -91t-77 -236.5z" />
<glyph unicode="r" horiz-adv-x="710" d="M139 0v989h215v-143q59 74 144.5 121t177.5 47v-213q-27 6 -81.5 6t-131 -40t-109.5 -93v-674h-215z" />
<glyph unicode="s" horiz-adv-x="966" d="M55 131l99 154q55 -57 148 -97.5t186 -40.5t144.5 36t51.5 92.5t-61.5 86t-149.5 47t-176 43t-149.5 91t-61.5 182.5t104.5 203t284.5 86q227 0 383 -137l-90 -152q-109 119 -293 119q-82 0 -132 -35t-50 -85t61.5 -76.5t149.5 -44t176 -44.5t149.5 -96.5t61.5 -192 t-108.5 -209t-303.5 -86.5q-264 0 -424 156z" />
<glyph unicode="t" horiz-adv-x="653" d="M20 803v186h164v271h215v-271h201v-186h-201v-518q0 -53 25 -86t78 -33t86 37l51 -164q-72 -64 -201 -64q-254 0 -254 256v572h-164z" />
<glyph unicode="u" horiz-adv-x="1161" d="M139 289v700h215v-620q0 -111 51.5 -157t138.5 -46t154.5 38t108.5 91v694h215v-989h-215v131q-139 -156 -348 -156q-158 0 -239 81t-81 233z" />
<glyph unicode="v" horiz-adv-x="1030" d="M-4 989h231l289 -741l289 741h229l-403 -989h-232z" />
<glyph unicode="w" horiz-adv-x="1546" d="M10 989h223l209 -719l236 719h190l234 -719l209 719h225l-307 -989h-225l-232 725l-229 -725h-226z" />
<glyph unicode="x" horiz-adv-x="1017" d="M10 0l365 508l-342 481h241l234 -334l235 334h242l-342 -481l365 -508h-242l-256 365l-258 -365h-242z" />
<glyph unicode="y" horiz-adv-x="1030" d="M-4 989h231l289 -741l289 741h229l-477 -1167q-49 -121 -132 -171t-181 -51h-12q-88 0 -134 13l31 192q37 -16 82 -16q106 0 143 86l49 113z" />
<glyph unicode="z" horiz-adv-x="974" d="M96 0v164l488 639h-488v186h776v-155l-495 -646h504v-188h-785z" />
<glyph unicode="{" horiz-adv-x="567" d="M10 436v127q51 0 79 40t28 99v381q0 135 87 220.5t204 85.5h124v-148h-124q-55 0 -94.5 -43t-39.5 -113v-403q0 -143 -92 -182q92 -39 92 -183v-401q0 -68 39 -113t95 -45h124v-147h-124q-119 0 -205 84t-86 219v383q0 59 -28 99t-79 40z" />
<glyph unicode="|" horiz-adv-x="438" d="M145 -41v1448h148v-1448h-148z" />
<glyph unicode="}" horiz-adv-x="567" d="M35 -242h125q55 0 94 45t39 113v401q0 143 92 183q-92 39 -92 182v403q0 70 -39 113t-94 43h-125v148h125q117 0 204 -85t87 -221v-381q0 -59 27.5 -99t78.5 -40v-127q-51 0 -78.5 -40t-27.5 -99v-383q0 -135 -86 -219t-205 -84h-125v147z" />
<glyph unicode="~" horiz-adv-x="1038" d="M55 870q28 353 162 453q55 41 131 41t124 -39t71.5 -94t40.5 -109q43 -133 106 -133q111 0 146 377l149 -16q-35 -364 -161 -455q-56 -41 -131 -41t-124 38t-72.5 93t-40.5 111q-42 131 -106 131q-113 0 -143 -375z" />
<glyph unicode="&#xa1;" horiz-adv-x="499" d="M106 868.5q0 57.5 43.5 100.5t100.5 43t99 -42t42 -100.5t-42 -100.5t-99 -42t-100.5 42t-43.5 99.5zM119 -377l37 948h186l39 -948h-262z" />
<glyph unicode="&#xa2;" horiz-adv-x="1019" d="M80 495q0 202 116.5 343t307.5 170v149h160v-147q195 -25 305 -172l-142 -129q-63 86 -163 108v-645q100 23 163 113l142 -133q-115 -150 -305 -172v-185h-160v187q-190 27 -307 169t-117 344zM301 495.5q0 -116.5 54.5 -201.5t148.5 -114v629q-94 -31 -148.5 -114 t-54.5 -199.5z" />
<glyph unicode="&#xa3;" horiz-adv-x="1097" d="M45 551v141h170q-39 49 -59 82q-60 96 -60 199q0 178 144.5 295.5t334.5 117.5q328 0 449 -239l-190 -113q-25 68 -88.5 112t-155.5 44t-163 -61.5t-71 -159.5q0 -77 42 -151q12 -23 44.5 -67t40.5 -59h301v-141h-237q6 -31 6 -62q0 -147 -143 -245q45 18 106.5 18 t144 -38t139 -38t106.5 23.5t73 54.5l98 -190q-100 -100 -291 -101q-96 0 -201.5 46.5t-183 46.5t-223.5 -80l-82 170q242 111 242 278q0 57 -27 117h-266z" />
<glyph unicode="&#xa4;" horiz-adv-x="1069" d="M74 281l114 114q-102 129 -102 289t102 285l-114 116l57 58l117 -115q121 102 285 102t288 -102l115 115l59 -58l-114 -116q102 -125 102 -285t-102 -289l114 -114l-59 -60l-115 117q-123 -104 -286.5 -104.5t-286.5 104.5l-117 -117zM184 682q0 -145 102.5 -247.5 t248 -102.5t248 102.5t102.5 247.5t-102.5 247.5t-248 102.5t-248 -102.5t-102.5 -247.5z" />
<glyph unicode="&#xa5;" horiz-adv-x="1304" d="M4 1366h275l374 -584l375 584h275l-437 -659h394v-140h-486v-186h486v-139h-486v-242h-239v242h-488v139h488v186h-488v140h395z" />
<glyph unicode="&#xa6;" horiz-adv-x="438" d="M145 -41v647h148v-647h-148zM145 760v647h148v-647h-148z" />
<glyph unicode="&#xa7;" horiz-adv-x="976" d="M57 -6l97 139q135 -147 325 -147q92 0 148.5 37.5t56.5 97t-44 93.5t-110.5 48t-144.5 38t-144.5 50.5t-110.5 87t-44 152.5t62.5 158.5t152.5 93.5q-215 78 -215 258q0 123 106.5 204.5t280.5 81.5q252 0 385 -141l-90 -127q-106 117 -285 117q-86 0 -138 -36t-52 -93 t61.5 -88t149.5 -48.5t176 -44t149.5 -94.5t61.5 -163q0 -189 -180 -271q180 -76 180 -250q0 -145 -114.5 -229t-297.5 -84q-250 0 -422 160zM293 619.5q0 -56.5 40 -91t81 -48t123 -31.5q141 63 141 174q0 68 -53.5 104.5t-143.5 58.5q-104 -25 -146 -67.5t-42 -99z" />
<glyph unicode="&#xa8;" horiz-adv-x="583" d="M-43 1246q0 50 36 85t86 35t85 -35t35 -85t-35 -85t-85 -35t-86 35t-36 85zM387 1246q0 50 35 85t85 35t85 -35t35 -85t-35 -85t-85 -35t-85 35t-35 85z" />
<glyph unicode="&#xa9;" horiz-adv-x="1593" d="M90 685q0 292 207 499t500 207t499.5 -207t206.5 -500t-206.5 -500t-499.5 -207t-500 208t-207 500zM160 685q0 -263 188.5 -450.5t450.5 -187.5t448.5 187.5t186.5 450.5t-186.5 449.5t-449.5 186.5t-450.5 -186.5t-187.5 -449.5zM379 688q0 186 124 309t306 123 t297 -135l-57 -59q-41 53 -106.5 85.5t-137.5 32.5q-139 0 -239.5 -101t-100.5 -256t100.5 -258t247 -103.5t236.5 120.5l59 -57q-119 -139 -300 -139t-305 126t-124 312z" />
<glyph unicode="&#xaa;" horiz-adv-x="782" d="M72 865q0 99 68.5 153.5t158.5 54.5q139 0 215 -80v94q0 53 -43 86t-109 33q-117 0 -192 -88l-64 105q113 104 281 104q125 0 205 -57.5t80 -186.5v-415h-158v69q-78 -86 -215 -86q-88 0 -157.5 57.5t-69.5 156.5zM229 864q0 -51 38.5 -80.5t97.5 -29.5q100 0 149 65v90 q-49 66 -149 66q-59 0 -97.5 -30t-38.5 -81z" />
<glyph unicode="&#xab;" horiz-adv-x="1003" d="M61 498l328 362h205l-328 -362l328 -369h-205zM410 498l327 362h205l-328 -362l328 -369h-205z" />
<glyph unicode="&#xac;" horiz-adv-x="1046" d="M59 811v137h910v-528h-144v391h-766z" />
<glyph unicode="&#xad;" horiz-adv-x="614" d="M61 403v185h492v-185h-492z" />
<glyph unicode="&#xae;" horiz-adv-x="1011" d="M72 952.5q0 180.5 127 307t308 126.5t307 -126t126 -307t-127 -308t-307 -127t-307 127t-127 307.5zM135 954q0 -154 108.5 -263t262 -109t263.5 108t110 263t-108.5 263.5t-263.5 108.5t-263.5 -108.5t-108.5 -262.5zM340 702v498h203q66 0 112.5 -42t46.5 -111.5 t-46 -107.5t-81 -38l134 -199h-84l-129 197h-88v-197h-68zM408 961h135q35 0 62.5 25.5t27.5 63.5t-27.5 64.5t-62.5 26.5h-135v-180z" />
<glyph unicode="&#xaf;" horiz-adv-x="743" d="M0 1210v127h743v-127h-743z" />
<glyph unicode="&#xb0;" horiz-adv-x="618" d="M45 1121.5q0 109.5 77 187t186.5 77.5t188 -77.5t78.5 -187.5t-78.5 -187.5t-188.5 -77.5t-186.5 78t-76.5 187.5zM168 1121.5q0 -58.5 41 -99.5t100.5 -41t101.5 41t42 99t-42 100.5t-100.5 42.5t-100.5 -42t-42 -100.5z" />
<glyph unicode="&#xb1;" horiz-adv-x="1028" d="M59 0v139h910v-139h-910zM59 666v139h379v409h152v-409h379v-139h-379v-424h-152v424h-379z" />
<glyph unicode="&#xb2;" horiz-adv-x="806" d="M84 1563q113 131 317 131q137 0 226.5 -64.5t89.5 -176t-92.5 -215t-286.5 -243.5h385v-133h-625v123q262 186 357.5 278.5t95.5 163t-43 102.5t-112 32t-130 -30t-94 -73z" />
<glyph unicode="&#xb3;" horiz-adv-x="806" d="M76 979l84 106q88 -104 235 -104q78 0 122 31.5t44 85.5q0 119 -194 119q-74 0 -86 -3v132q14 -2 86 -3q182 0 182 111q0 51 -46 79t-118 28q-131 0 -221 -93l-78 97q115 129 315 129q143 0 227.5 -59.5t84.5 -148.5t-54.5 -138.5t-128.5 -61.5q72 -8 134.5 -60.5 t62.5 -148.5t-89 -162.5t-239 -66.5q-221 0 -323 131z" />
<glyph unicode="&#xb4;" horiz-adv-x="491" d="M0 1139l287 295h205l-338 -295h-154z" />
<glyph unicode="&#xb6;" horiz-adv-x="919" d="M55 1013.5q0 145.5 103.5 249t249.5 103.5h395v-1571h-113v1458h-170v-1458h-112v867q-145 0 -249 103t-104 248.5z" />
<glyph unicode="&#xb7;" horiz-adv-x="503" d="M109 500.5q0 58.5 43 100.5t100 42t99 -42t42 -100t-42 -100.5t-100 -42.5t-100 42t-42 100.5z" />
<glyph unicode="&#xb8;" horiz-adv-x="438" d="M0 -334l47 94q74 -59 166 -59q47 0 80 19.5t33 54.5q0 61 -66 61q-45 0 -72 -31l-82 48l62 170h113l-52 -132q33 23 82 23t88 -40t39 -108.5t-63.5 -115.5t-177 -47t-197.5 63z" />
<glyph unicode="&#xb9;" horiz-adv-x="540" d="M20 1430l254 251h144v-819h-166v608l-135 -141z" />
<glyph unicode="&#xba;" horiz-adv-x="829" d="M70 990q0 142 95 239.5t251 97.5t250 -97t94 -239.5t-95 -241t-250 -98.5t-250 98.5t-95 240.5zM236 990q0 -93 48 -151.5t132 -58.5t133 58.5t49 151.5t-49 149.5t-134 56.5t-132 -56.5t-47 -149.5z" />
<glyph unicode="&#xbb;" horiz-adv-x="1003" d="M61 129l328 369l-328 362h205l328 -362l-328 -369h-205zM410 129l327 369l-327 362h204l328 -362l-328 -369h-204z" />
<glyph unicode="&#xbc;" horiz-adv-x="1650" d="M20 1114l254 252h144v-819h-166v608l-135 -141zM256 0l874 1366h138l-875 -1366h-137zM913 188v117l338 514h230v-500h110v-131h-110v-188h-164v188h-404zM1077 319h240v359z" />
<glyph unicode="&#xbd;" horiz-adv-x="1722" d="M20 1114l254 252h144v-819h-166v608l-135 -141zM256 0l874 1366h138l-875 -1366h-137zM1001 700q113 131 318 131q137 0 226 -64.5t89 -175.5t-92 -215t-287 -243h385v-133h-624v123q262 186 357 278.5t95 162.5t-43 102t-111.5 32t-130 -29.5t-93.5 -72.5z" />
<glyph unicode="&#xbe;" horiz-adv-x="1849" d="M76 664l84 106q88 -104 235 -104q78 0 122 31.5t44 84.5q0 119 -194 119q-74 0 -86 -2v131q14 -2 86 -2q182 0 182 111q0 51 -46 78.5t-118 27.5q-131 0 -221 -92l-78 96q115 129 315 129q143 0 227.5 -59t84.5 -148.5t-54.5 -138.5t-128.5 -61q72 -8 134.5 -60.5 t62.5 -148.5t-89 -163t-239 -67q-221 0 -323 132zM455 0l874 1366h137l-874 -1366h-137zM1110 188v117l338 514h229v-500h111v-131h-111v-188h-164v188h-403zM1274 319h239v359z" />
<glyph unicode="&#xbf;" horiz-adv-x="811" d="M51 -80q0 84 38 151.5t91 109.5t106 79q130 90 130 172q0 59 -45 92l182 62q72 -70 72 -176q0 -130 -117 -218q-49 -36 -98 -69q-115 -79 -115 -164q0 -63 50 -105t144 -42q172 0 285 143l139 -154q-166 -203 -446 -202q-190 0 -303 90t-113 231zM336 868.5 q0 57.5 43 100.5t100.5 43t100.5 -43t43 -100.5t-43 -100.5t-100.5 -43t-100.5 43t-43 100.5z" />
<glyph unicode="&#xc0;" horiz-adv-x="1378" d="M4 0l537 1366h299l536 -1366h-272l-100 264h-627l-101 -264h-272zM354 1786h205l287 -295h-154zM444 475h492l-246 651z" />
<glyph unicode="&#xc1;" horiz-adv-x="1378" d="M4 0l537 1366h299l536 -1366h-272l-100 264h-627l-101 -264h-272zM444 475h492l-246 651zM539 1491l286 295h205l-338 -295h-153z" />
<glyph unicode="&#xc2;" horiz-adv-x="1378" d="M4 0l537 1366h299l536 -1366h-272l-100 264h-627l-101 -264h-272zM401 1491l191 295h196l197 -295h-135l-160 199l-151 -199h-138zM444 475h492l-246 651z" />
<glyph unicode="&#xc3;" horiz-adv-x="1378" d="M4 0l537 1366h299l536 -1366h-272l-100 264h-627l-101 -264h-272zM362 1499q0 127 54.5 201t156.5 74q74 0 123 -56q21 -24 38 -48q43 -56 81.5 -56t63 37t24.5 110h117q0 -127 -54.5 -200.5t-156.5 -73.5q-59 0 -102 40t-75 80t-67 40q-84 0 -84 -148h-119zM444 475h492 l-246 651z" />
<glyph unicode="&#xc4;" horiz-adv-x="1378" d="M4 0l537 1366h299l536 -1366h-272l-100 264h-627l-101 -264h-272zM356 1598q0 50 36 85t86 35t85 -35t35 -85t-35 -84.5t-85 -34.5t-86 34.5t-36 84.5zM444 475h492l-246 651zM786 1598q0 50 35 85t85 35t85 -35t35 -85t-35 -84.5t-85 -34.5t-85 34.5t-35 84.5z" />
<glyph unicode="&#xc5;" horiz-adv-x="1378" d="M4 0l537 1366h299l536 -1366h-272l-100 264h-627l-101 -264h-272zM444 475h492l-246 651zM481 1628q0 86 62.5 148.5t148.5 62.5t146.5 -62.5t60.5 -148.5t-60.5 -147.5t-146.5 -61.5t-148.5 61.5t-62.5 147.5zM586 1629q0 -44 30.5 -75.5t74.5 -31.5t75 31.5t31 75.5 t-31 75t-75 31t-74.5 -31t-30.5 -75z" />
<glyph unicode="&#xc6;" horiz-adv-x="1966" d="M-4 0l840 1366h1032v-211h-697v-352h682v-211h-682v-381h697v-211h-936v264h-504l-158 -264h-274zM541 475h391v651z" />
<glyph unicode="&#xc7;" horiz-adv-x="1396" d="M86 693q0 300 205 498t512 198q360 0 547 -306l-203 -106q-51 88 -144.5 143.5t-199.5 55.5q-203 0 -337 -139.5t-134 -353.5t134 -354.5t337 -140.5q106 0 199.5 56.5t144.5 142.5l205 -102q-188 -297 -521 -310l-28 -75q33 23 82 22.5t88 -40.5t39 -108.5t-63.5 -115.5 t-177 -47t-198.5 63l48 95q74 -59 165 -60q47 0 80 19.5t33 54.5q0 61 -65 61q-45 0 -72 -30l-82 47l43 119q-279 27 -458 220t-179 493z" />
<glyph unicode="&#xc8;" horiz-adv-x="1181" d="M145 0v1366h936v-211h-696v-352h682v-211h-682v-381h696v-211h-936zM276 1786h205l287 -295h-154z" />
<glyph unicode="&#xc9;" horiz-adv-x="1181" d="M145 0v1366h936v-211h-696v-352h682v-211h-682v-381h696v-211h-936zM461 1491l287 295h204l-338 -295h-153z" />
<glyph unicode="&#xca;" horiz-adv-x="1181" d="M145 0v1366h936v-211h-696v-352h682v-211h-682v-381h696v-211h-936zM322 1491l190 295h197l196 -295h-135l-160 199l-151 -199h-137z" />
<glyph unicode="&#xcb;" horiz-adv-x="1181" d="M145 0v1366h936v-211h-696v-352h682v-211h-682v-381h696v-211h-936zM281 1598q0 50 35.5 85t85.5 35t85 -35t35 -85t-34.5 -84.5t-85 -34.5t-86 34.5t-35.5 84.5zM711 1598q0 50 34.5 85t84.5 35t85 -35t35 -85t-34.5 -84.5t-85 -34.5t-85 34.5t-34.5 84.5z" />
<glyph unicode="&#xcc;" horiz-adv-x="530" d="M-74 1786h205l287 -295h-154zM145 0v1366h240v-1366h-240z" />
<glyph unicode="&#xcd;" horiz-adv-x="530" d="M117 1491l286 295h205l-338 -295h-153zM145 0v1366h240v-1366h-240z" />
<glyph unicode="&#xce;" horiz-adv-x="530" d="M-27 1491l191 295h196l197 -295h-135l-160 199l-151 -199h-138zM145 0v1366h240v-1366h-240z" />
<glyph unicode="&#xcf;" horiz-adv-x="530" d="M-70 1596q0 50 36 85t86 35t85 -35t35 -85t-35 -84.5t-85 -34.5t-86 34.5t-36 84.5zM145 0v1366h240v-1366h-240zM360 1596q0 50 35 85t85 35t85 -35t35 -85t-35 -84.5t-85 -34.5t-85 34.5t-35 84.5z" />
<glyph unicode="&#xd0;" horiz-adv-x="1507" d="M20 586v174h179v606h508q319 0 516.5 -190.5t197.5 -492.5t-196.5 -492.5t-515.5 -190.5h-510v586h-179zM438 211h269q215 0 342 135t127 339t-124 337t-343 133h-271v-395h326v-174h-326v-375z" />
<glyph unicode="&#xd1;" horiz-adv-x="1474" d="M145 0v1366h246l699 -946v946h239v-1366h-231l-713 977v-977h-240zM406 1499q0 127 54 201t156 74q74 0 124 -56q20 -24 38 -48q42 -56 80.5 -56t63 37t24.5 110h117q0 -127 -54.5 -200.5t-156.5 -73.5q-59 0 -102 40t-75 80t-67 40q-84 0 -84 -148h-118z" />
<glyph unicode="&#xd2;" horiz-adv-x="1566" d="M86 682q0 307 196.5 507t502 200t502 -200t196.5 -507t-196.5 -507t-502 -200t-502 200t-196.5 507zM332 682q0 -215 123.5 -354.5t327.5 -139.5t329 140.5t125 354.5t-125 353.5t-329 139.5t-327.5 -139.5t-123.5 -354.5zM453 1786h204l287 -295h-153z" />
<glyph unicode="&#xd3;" horiz-adv-x="1566" d="M86 682q0 307 196.5 507t502 200t502 -200t196.5 -507t-196.5 -507t-502 -200t-502 200t-196.5 507zM332 682q0 -215 123.5 -354.5t327.5 -139.5t329 140.5t125 354.5t-125 353.5t-329 139.5t-327.5 -139.5t-123.5 -354.5zM633 1491l287 295h204l-338 -295h-153z" />
<glyph unicode="&#xd4;" horiz-adv-x="1566" d="M86 682q0 307 196.5 507t502 200t502 -200t196.5 -507t-196.5 -507t-502 -200t-502 200t-196.5 507zM332 682q0 -215 123.5 -354.5t327.5 -139.5t329 140.5t125 354.5t-125 353.5t-329 139.5t-327.5 -139.5t-123.5 -354.5zM498 1491l190 295h197l196 -295h-135l-160 199 l-151 -199h-137z" />
<glyph unicode="&#xd5;" horiz-adv-x="1566" d="M86 682q0 307 196.5 507t502 200t502 -200t196.5 -507t-196.5 -507t-502 -200t-502 200t-196.5 507zM332 682q0 -215 123.5 -354.5t327.5 -139.5t329 140.5t125 354.5t-125 353.5t-329 139.5t-327.5 -139.5t-123.5 -354.5zM457 1499q0 127 54 201t157 74q73 0 122 -56 q21 -24 38 -48q43 -56 81.5 -56t63 37t24.5 110h117q0 -127 -54.5 -200.5t-156.5 -73.5q-59 0 -102 40t-75 80t-67 40q-84 0 -84 -148h-118z" />
<glyph unicode="&#xd6;" horiz-adv-x="1566" d="M86 682q0 307 196.5 507t502 200t502 -200t196.5 -507t-196.5 -507t-502 -200t-502 200t-196.5 507zM332 682q0 -215 123.5 -354.5t327.5 -139.5t329 140.5t125 354.5t-125 353.5t-329 139.5t-327.5 -139.5t-123.5 -354.5zM451 1598q0 50 35.5 85t85.5 35t85 -35t35 -85 t-34.5 -84.5t-85 -34.5t-86 34.5t-35.5 84.5zM881 1598q0 50 34.5 85t84.5 35t85 -35t35 -85t-34.5 -84.5t-85 -34.5t-85 34.5t-34.5 84.5z" />
<glyph unicode="&#xd7;" horiz-adv-x="1028" d="M121 389l297 295l-297 297l98 96l295 -295l297 295l96 -96l-295 -297l295 -295l-96 -98l-297 297l-295 -297z" />
<glyph unicode="&#xd8;" horiz-adv-x="1566" d="M86 674q0 315 196.5 515t501.5 200q193 0 349 -86l45 63h178l-105 -145q231 -203 231.5 -524.5t-196.5 -521.5t-502 -200q-207 0 -366 95l-51 -70h-179l113 156q-215 203 -215 518zM332 689q0 -208 106 -343l563 776q-96 53 -217 54q-205 0 -328.5 -139.5t-123.5 -347.5z M549 250q104 -62 235 -62q203 0 328 140.5t125 353.5t-123 352z" />
<glyph unicode="&#xd9;" horiz-adv-x="1474" d="M145 541v825h244v-819q0 -166 90 -262.5t258 -96.5t258 96.5t90 262.5v819h244v-825q0 -262 -150.5 -414t-440.5 -152t-441.5 153t-151.5 413zM403 1786h205l287 -295h-154z" />
<glyph unicode="&#xda;" horiz-adv-x="1474" d="M145 541v825h244v-819q0 -166 90 -262.5t258 -96.5t258 96.5t90 262.5v819h244v-825q0 -262 -150.5 -414t-440.5 -152t-441.5 153t-151.5 413zM586 1491l286 295h205l-338 -295h-153z" />
<glyph unicode="&#xdb;" horiz-adv-x="1474" d="M145 541v825h244v-819q0 -166 90 -262.5t258 -96.5t258 96.5t90 262.5v819h244v-825q0 -262 -150.5 -414t-440.5 -152t-441.5 153t-151.5 413zM457 1491l190 295h197l196 -295h-135l-160 199l-151 -199h-137z" />
<glyph unicode="&#xdc;" horiz-adv-x="1474" d="M145 541v825h244v-819q0 -166 90 -262.5t258 -96.5t258 96.5t90 262.5v819h244v-825q0 -262 -150.5 -414t-440.5 -152t-441.5 153t-151.5 413zM406 1598q0 50 35.5 85t85.5 35t85 -35t35 -85t-34.5 -84.5t-85 -34.5t-86 34.5t-35.5 84.5zM836 1598q0 50 34.5 85t84.5 35 t85 -35t35 -85t-34.5 -84.5t-85 -34.5t-85 34.5t-34.5 84.5z" />
<glyph unicode="&#xdd;" horiz-adv-x="1304" d="M4 1366h275l374 -584l375 584h275l-529 -799v-567h-239v567zM506 1491l287 295h204l-338 -295h-153z" />
<glyph unicode="&#xde;" horiz-adv-x="1247" d="M145 0v1366h240v-229h363q207 0 325.5 -124t118.5 -306.5t-119 -304t-325 -121.5h-363v-281h-240zM385 492h330q102 0 166.5 59t64.5 156.5t-64.5 158t-166.5 60.5h-330v-434z" />
<glyph unicode="&#xdf;" horiz-adv-x="1275" d="M141 0v993q0 168 118 280.5t297 112.5t297 -76.5t118 -201.5q0 -76 -45 -135.5t-98.5 -90t-98.5 -71.5t-45 -88t57.5 -73.5t139.5 -43t163.5 -44t139 -96t57.5 -190.5t-106.5 -211.5t-290.5 -89.5q-135 0 -223.5 42t-169.5 120l94 148q45 -57 126 -96t173 -39t141 37.5 t49 91t-57 84t-139 50t-164 46t-139.5 91t-57.5 153t43 146.5t94 89q136 84 136 140t-53.5 87t-135.5 31t-143.5 -55.5t-61.5 -147.5v-993h-215z" />
<glyph unicode="&#xe0;" horiz-adv-x="1099" d="M82 307.5q0 155.5 102.5 237.5t239.5 82q211 0 321 -127v147q0 84 -64.5 134t-166.5 50q-168 0 -293 -126l-90 149q166 160 416 160q182 0 298 -85t116 -272v-657h-216v109q-115 -133 -321 -134q-133 0 -237.5 88.5t-104.5 244zM211 1434h205l286 -295h-153zM297 301 q0 -80 60.5 -129t152.5 -49q158 0 235 102v152q-78 102 -235 102q-92 0 -152.5 -49t-60.5 -129z" />
<glyph unicode="&#xe1;" horiz-adv-x="1099" d="M82 307.5q0 155.5 102.5 237.5t239.5 82q211 0 321 -127v147q0 84 -64.5 134t-166.5 50q-168 0 -293 -126l-90 149q166 160 416 160q182 0 298 -85t116 -272v-657h-216v109q-115 -133 -321 -134q-133 0 -237.5 88.5t-104.5 244zM297 301q0 -80 60.5 -129t152.5 -49 q158 0 235 102v152q-78 102 -235 102q-92 0 -152.5 -49t-60.5 -129zM401 1139l287 295h205l-338 -295h-154z" />
<glyph unicode="&#xe2;" horiz-adv-x="1099" d="M82 307.5q0 155.5 102.5 237.5t239.5 82q211 0 321 -127v147q0 84 -64.5 134t-166.5 50q-168 0 -293 -126l-90 149q166 160 416 160q182 0 298 -85t116 -272v-657h-216v109q-115 -133 -321 -134q-133 0 -237.5 88.5t-104.5 244zM264 1139l191 295h196l197 -295h-135 l-160 198l-152 -198h-137zM297 301q0 -80 60.5 -129t152.5 -49q158 0 235 102v152q-78 102 -235 102q-92 0 -152.5 -49t-60.5 -129z" />
<glyph unicode="&#xe3;" horiz-adv-x="1099" d="M82 307.5q0 155.5 102.5 237.5t239.5 82q211 0 321 -127v147q0 84 -64.5 134t-166.5 50q-168 0 -293 -126l-90 149q166 160 416 160q182 0 298 -85t116 -272v-657h-216v109q-115 -133 -321 -134q-133 0 -237.5 88.5t-104.5 244zM221 1147q0 127 54.5 200.5t156.5 73.5 q76 0 123 -56q20 -24 37 -47q42 -56 81.5 -56t64 36.5t24.5 110.5h117q0 -127 -54.5 -200.5t-156.5 -73.5q-59 0 -102.5 39.5t-75 79.5t-66.5 40q-84 0 -84 -147h-119zM297 301q0 -80 60.5 -129t152.5 -49q158 0 235 102v152q-78 102 -235 102q-92 0 -152.5 -49t-60.5 -129z " />
<glyph unicode="&#xe4;" horiz-adv-x="1099" d="M82 307.5q0 155.5 102.5 237.5t239.5 82q211 0 321 -127v147q0 84 -64.5 134t-166.5 50q-168 0 -293 -126l-90 149q166 160 416 160q182 0 298 -85t116 -272v-657h-216v109q-115 -133 -321 -134q-133 0 -237.5 88.5t-104.5 244zM211 1246q0 50 36 85t86 35t85 -35t35 -85 t-35 -85t-85 -35t-86 35t-36 85zM297 301q0 -80 60.5 -129t152.5 -49q158 0 235 102v152q-78 102 -235 102q-92 0 -152.5 -49t-60.5 -129zM641 1246q0 50 35 85t85 35t85 -35t35 -85t-35 -85t-85 -35t-85 35t-35 85z" />
<glyph unicode="&#xe5;" horiz-adv-x="1099" d="M82 307.5q0 155.5 102.5 237.5t239.5 82q211 0 321 -127v147q0 84 -64.5 134t-166.5 50q-168 0 -293 -126l-90 149q166 160 416 160q182 0 298 -85t116 -272v-657h-216v109q-115 -133 -321 -134q-133 0 -237.5 88.5t-104.5 244zM297 301q0 -80 60.5 -129t152.5 -49 q158 0 235 102v152q-78 102 -235 102q-92 0 -152.5 -49t-60.5 -129zM342 1323q0 86 62.5 148.5t148.5 62.5t146.5 -62.5t60.5 -148.5t-60.5 -147.5t-146.5 -61.5t-148.5 61.5t-62.5 147.5zM446 1324q0 -44 31 -75.5t75 -31.5t74.5 31.5t30.5 75.5t-30.5 75t-74.5 31t-75 -31 t-31 -75z" />
<glyph unicode="&#xe6;" horiz-adv-x="1798" d="M82 302q0 155 99.5 240t242.5 85q209 0 321 -125v145q0 84 -64.5 134t-166.5 50q-168 0 -293 -126l-90 149q166 160 425 160t329 -185q125 184 351 184.5t357 -150t131 -386.5v-53h-761q12 -117 95 -192.5t234.5 -75.5t266.5 110l98 -145q-156 -145 -410 -145.5 t-401 190.5q-150 -190 -406 -191q-143 0 -250.5 86t-107.5 241zM297 301q0 -80 60.5 -129t152.5 -49q178 0 260 141q-25 45 -25 109q-78 106 -235 106q-92 0 -152.5 -49t-60.5 -129zM961 578h557q-6 102 -77 181t-201 79t-201.5 -79t-77.5 -181z" />
<glyph unicode="&#xe7;" horiz-adv-x="1019" d="M80 504q0 217 143.5 363.5t379 146.5t366.5 -176l-142 -129q-82 115 -221 114.5t-222 -91.5t-83 -236.5t83 -237.5t221 -92t222 119l142 -133q-119 -156 -330 -175l-31 -81q33 23 82 22.5t88 -40.5t39 -108.5t-63.5 -115.5t-177 -47t-197.5 63l47 94q74 -59 166 -59 q47 0 80 19.5t33 54.5q0 61 -66 61q-45 0 -72 -30l-82 47l43 123q-199 20 -323.5 163.5t-124.5 360.5z" />
<glyph unicode="&#xe8;" horiz-adv-x="1140" d="M80 487.5q0 225.5 142.5 376t360.5 150.5t351 -150.5t133 -386.5v-53h-762q12 -117 96 -194.5t217 -77.5q172 0 283 110l98 -141q-155 -146 -391.5 -146t-382 143.5t-145.5 369zM244 1434h205l286 -295h-153zM303 578h557q-6 102 -76.5 181t-200.5 79t-202 -79t-78 -181z " />
<glyph unicode="&#xe9;" horiz-adv-x="1140" d="M80 487.5q0 225.5 142.5 376t360.5 150.5t351 -150.5t133 -386.5v-53h-762q12 -117 96 -194.5t217 -77.5q172 0 283 110l98 -141q-155 -146 -391.5 -146t-382 143.5t-145.5 369zM303 578h557q-6 102 -76.5 181t-200.5 79t-202 -79t-78 -181zM430 1139l287 295h205 l-338 -295h-154z" />
<glyph unicode="&#xea;" horiz-adv-x="1140" d="M80 487.5q0 225.5 142.5 376t360.5 150.5t351 -150.5t133 -386.5v-53h-762q12 -117 96 -194.5t217 -77.5q172 0 283 110l98 -141q-155 -146 -391.5 -146t-382 143.5t-145.5 369zM293 1139l190 295h197l197 -295h-136l-159 198l-152 -198h-137zM303 578h557 q-6 102 -76.5 181t-200.5 79t-202 -79t-78 -181z" />
<glyph unicode="&#xeb;" horiz-adv-x="1140" d="M80 487.5q0 225.5 142.5 376t360.5 150.5t351 -150.5t133 -386.5v-53h-762q12 -117 96 -194.5t217 -77.5q172 0 283 110l98 -141q-155 -146 -391.5 -146t-382 143.5t-145.5 369zM248 1246q0 50 35.5 85t86 35t85 -35t34.5 -85t-34.5 -85t-84.5 -35t-86 35t-36 85z M303 578h557q-6 102 -76.5 181t-200.5 79t-202 -79t-78 -181zM678 1246q0 50 35 85t85 35t85 -35t35 -85t-35 -85t-85 -35t-85 35t-35 85z" />
<glyph unicode="&#xec;" horiz-adv-x="493" d="M-92 1434h205l286 -295h-153zM139 0v989h215v-989h-215z" />
<glyph unicode="&#xed;" horiz-adv-x="493" d="M94 1139l287 295h205l-338 -295h-154zM139 0v989h215v-989h-215z" />
<glyph unicode="&#xee;" horiz-adv-x="493" d="M-45 1139l190 295h197l197 -295h-136l-159 198l-152 -198h-137zM139 0v989h215v-989h-215z" />
<glyph unicode="&#xef;" horiz-adv-x="493" d="M-88 1246q0 50 36 85t86 35t85 -35t35 -85t-35 -85t-85 -35t-86 35t-36 85zM139 0v989h215v-989h-215zM342 1246q0 50 35 85t85 35t85 -35t35 -85t-35 -85t-85 -35t-85 35t-35 85z" />
<glyph unicode="&#xf0;" d="M80 468q0 214 126 352t324.5 138t317.5 -184q-86 170 -324 342l-297 -131l-43 107l230 100l-140 88l117 174q150 -92 244 -164l215 94l45 -102l-162 -72q362 -317 363 -698q0 -240 -137.5 -388.5t-367.5 -148.5t-370.5 139.5t-140.5 353.5zM303 468q0 -126 77 -214 t209 -88t207.5 88t75.5 215t-75.5 214t-207.5 87t-209 -88t-77 -214z" />
<glyph unicode="&#xf1;" horiz-adv-x="1163" d="M150 0v989h215v-133q55 66 148 112t202 46q158 0 238.5 -82t80.5 -236v-696h-215v618q0 111 -52 158t-139 47q-162 0 -263 -131v-692h-215zM254 1147q0 127 54 200.5t157 73.5q75 0 123 -56q20 -24 38 -47q41 -56 80.5 -56t64 36.5t24.5 110.5h116q0 -127 -54.5 -200.5 t-156.5 -73.5q-61 0 -103 39.5t-73.5 79.5t-66.5 40q-84 0 -84 -147h-119z" />
<glyph unicode="&#xf2;" d="M80 496.5q0 220.5 139 369t368.5 148.5t369 -148.5t139.5 -368.5t-139.5 -371t-369 -151t-368.5 150.5t-139 371zM250 1434h205l286 -295h-153zM303 495q0 -138 77 -233.5t209 -95.5t207.5 95t75.5 233.5t-75.5 233.5t-207.5 95t-209 -95t-77 -233z" />
<glyph unicode="&#xf3;" d="M80 496.5q0 220.5 139 369t368.5 148.5t369 -148.5t139.5 -368.5t-139.5 -371t-369 -151t-368.5 150.5t-139 371zM303 495q0 -138 77 -233.5t209 -95.5t207.5 95t75.5 233.5t-75.5 233.5t-207.5 95t-209 -95t-77 -233zM434 1139l287 295h205l-338 -295h-154z" />
<glyph unicode="&#xf4;" d="M80 496.5q0 220.5 139 369t368.5 148.5t369 -148.5t139.5 -368.5t-139.5 -371t-369 -151t-368.5 150.5t-139 371zM299 1139l190 295h197l197 -295h-135l-160 198l-152 -198h-137zM303 495q0 -138 77 -233.5t209 -95.5t207.5 95t75.5 233.5t-75.5 233.5t-207.5 95 t-209 -95t-77 -233z" />
<glyph unicode="&#xf5;" d="M80 496.5q0 220.5 139 369t368.5 148.5t369 -148.5t139.5 -368.5t-139.5 -371t-369 -151t-368.5 150.5t-139 371zM260 1147q0 127 54.5 200.5t156.5 73.5q75 0 123 -56q20 -24 38 -47q41 -56 80.5 -56t64 36.5t24.5 110.5h117q0 -127 -54.5 -200.5t-156.5 -73.5 q-59 0 -102.5 39.5t-75 79.5t-66.5 40q-84 0 -84 -147h-119zM303 495q0 -138 77 -233.5t209 -95.5t207.5 95t75.5 233.5t-75.5 233.5t-207.5 95t-209 -95t-77 -233z" />
<glyph unicode="&#xf6;" d="M80 496.5q0 220.5 139 369t368.5 148.5t369 -148.5t139.5 -368.5t-139.5 -371t-369 -151t-368.5 150.5t-139 371zM252 1246q0 50 36 85t86 35t85 -35t35 -85t-35 -85t-85 -35t-86 35t-36 85zM303 495q0 -138 77 -233.5t209 -95.5t207.5 95t75.5 233.5t-75.5 233.5 t-207.5 95t-209 -95t-77 -233zM682 1246q0 50 35 85t85 35t85 -35t35 -85t-35 -85t-85 -35t-85 35t-35 85z" />
<glyph unicode="&#xf7;" horiz-adv-x="1046" d="M59 623v137h928v-137h-928zM412 311q0 45 32.5 78t78.5 33t79 -33t33 -79t-33 -78.5t-78 -32.5t-78.5 33.5t-33.5 78.5zM412 1066q0 46 32.5 78t79.5 32t79 -32t32 -78t-33 -80t-78 -34t-78.5 34t-33.5 80z" />
<glyph unicode="&#xf8;" d="M80 496.5q0 220.5 139 369t369 148.5q158 0 284 -80l48 55h141l-105 -125q139 -145 139.5 -366t-139 -372t-368.5 -151q-172 0 -293 86l-51 -61h-140l109 131q-133 145 -133 365.5zM303 507q0 -126 49 -208l391 477q-68 47 -155 47q-131 0 -208 -95t-77 -221zM424 219 q74 -53 164 -53q133 0 208.5 95t75.5 221.5t-53 213.5z" />
<glyph unicode="&#xf9;" horiz-adv-x="1161" d="M139 289v700h215v-620q0 -111 51.5 -157t138.5 -46t154.5 38t108.5 91v694h215v-989h-215v131q-139 -156 -348 -156q-158 0 -239 81t-81 233zM248 1434h205l286 -295h-153z" />
<glyph unicode="&#xfa;" horiz-adv-x="1161" d="M139 289v700h215v-620q0 -111 51.5 -157t138.5 -46t154.5 38t108.5 91v694h215v-989h-215v131q-139 -156 -348 -156q-158 0 -239 81t-81 233zM430 1139l287 295h205l-338 -295h-154z" />
<glyph unicode="&#xfb;" horiz-adv-x="1161" d="M139 289v700h215v-620q0 -111 51.5 -157t138.5 -46t154.5 38t108.5 91v694h215v-989h-215v131q-139 -156 -348 -156q-158 0 -239 81t-81 233zM291 1139l190 295h197l196 -295h-135l-159 198l-152 -198h-137z" />
<glyph unicode="&#xfc;" horiz-adv-x="1161" d="M139 289v700h215v-620q0 -111 51.5 -157t138.5 -46t154.5 38t108.5 91v694h215v-989h-215v131q-139 -156 -348 -156q-158 0 -239 81t-81 233zM252 1246q0 50 36 85t86 35t85 -35t35 -85t-35 -85t-85 -35t-86 35t-36 85zM682 1246q0 50 35 85t85 35t85 -35t35 -85t-35 -85 t-85 -35t-85 35t-35 85z" />
<glyph unicode="&#xfd;" horiz-adv-x="1030" d="M-4 989h231l289 -741l289 741h229l-477 -1167q-49 -121 -132 -171t-180.5 -51t-146.5 13l31 192q37 -16 82 -16q106 0 143 86l49 113zM362 1139l287 295h205l-338 -295h-154z" />
<glyph unicode="&#xfe;" horiz-adv-x="1185" d="M139 -377v1743h215v-512q121 160 317 160t317.5 -139.5t121.5 -379t-121.5 -380t-314 -140.5t-320.5 162v-514h-215zM354 301q37 -57 108.5 -96t145.5 -39q127 0 204 92t77 237.5t-77 236.5t-204 91q-74 0 -145.5 -37.5t-108.5 -93.5v-391z" />
<glyph unicode="&#xff;" horiz-adv-x="1030" d="M-4 989h231l289 -741l289 741h229l-477 -1167q-49 -121 -132 -171t-180.5 -51t-146.5 13l31 192q37 -16 82 -16q106 0 143 86l49 113zM180 1246q0 50 36 85t86 35t85 -35t35 -85t-35 -85t-85 -35t-86 35t-36 85zM610 1246q0 50 35 85t85 35t85 -35t35 -85t-35 -85 t-85 -35t-85 35t-35 85z" />
<glyph unicode="&#x152;" horiz-adv-x="2238" d="M86 682q0 309 188.5 506.5t485.5 197.5q133 0 254 -56t192 -161v197h936v-211h-696v-352h682v-211h-682v-381h696v-211h-936v199q-72 -106 -192.5 -165t-253.5 -59q-297 0 -485.5 199t-188.5 508zM332 682q0 -215 126 -354.5t335 -139.5q141 0 249.5 72t163.5 207v434 q-53 133 -162.5 203t-250.5 70q-211 0 -336 -138.5t-125 -353.5z" />
<glyph unicode="&#x153;" horiz-adv-x="1935" d="M80 496.5q0 220.5 139 369t380 148.5t384 -246q135 246 391 246q221 0 354.5 -150.5t133.5 -386.5v-53h-764q12 -117 96 -194.5t219 -77.5q74 0 151.5 29.5t129.5 80.5l98 -141q-152 -145 -410.5 -145.5t-398.5 245.5q-145 -246 -384.5 -246t-379 150.5t-139.5 371z M303 495q0 -142 78 -236.5t207 -94.5t206.5 94.5t77.5 236.5t-77.5 235t-206.5 93t-207 -93t-78 -235zM1096 578h557q-4 102 -75 181t-201 79t-201.5 -78t-79.5 -182z" />
<glyph unicode="&#x178;" horiz-adv-x="1304" d="M4 1366h275l374 -584l375 584h275l-529 -799v-567h-239v567zM324 1598q0 50 35.5 85t85.5 35t85 -35t35 -85t-34.5 -84.5t-85 -34.5t-86 34.5t-35.5 84.5zM754 1598q0 50 34.5 85t84.5 35t85 -35t35 -85t-34.5 -84.5t-85 -34.5t-85 34.5t-34.5 84.5z" />
<glyph unicode="&#x2c6;" horiz-adv-x="583" d="M0 1139l190 295h197l197 -295h-135l-160 198l-152 -198h-137z" />
<glyph unicode="&#x2dc;" horiz-adv-x="657" d="M0 1147q0 127 54.5 200.5t156.5 73.5q75 0 123 -56q20 -24 38 -47q41 -56 80.5 -56t64 36.5t24.5 110.5h116q0 -127 -54.5 -200.5t-156.5 -73.5q-59 0 -102 39.5t-74.5 79.5t-66.5 40q-84 0 -84 -147h-119z" />
<glyph unicode="&#x2000;" horiz-adv-x="919" />
<glyph unicode="&#x2001;" horiz-adv-x="1839" />
<glyph unicode="&#x2002;" horiz-adv-x="919" />
<glyph unicode="&#x2003;" horiz-adv-x="1839" />
<glyph unicode="&#x2004;" horiz-adv-x="613" />
<glyph unicode="&#x2005;" horiz-adv-x="459" />
<glyph unicode="&#x2006;" horiz-adv-x="306" />
<glyph unicode="&#x2007;" horiz-adv-x="306" />
<glyph unicode="&#x2008;" horiz-adv-x="229" />
<glyph unicode="&#x2009;" horiz-adv-x="367" />
<glyph unicode="&#x200a;" horiz-adv-x="102" />
<glyph unicode="&#x2010;" horiz-adv-x="614" d="M61 403v185h492v-185h-492z" />
<glyph unicode="&#x2011;" horiz-adv-x="614" d="M61 403v185h492v-185h-492z" />
<glyph unicode="&#x2012;" horiz-adv-x="614" d="M61 403v185h492v-185h-492z" />
<glyph unicode="&#x2013;" horiz-adv-x="1214" d="M61 403v185h1092v-185h-1092z" />
<glyph unicode="&#x2014;" horiz-adv-x="1705" d="M61 403v185h1584v-185h-1584z" />
<glyph unicode="&#x2018;" horiz-adv-x="501" d="M88 1047q0 95 52.5 187.5t138.5 154.5l98 -80q-51 -31 -95 -86.5t-53 -106.5q12 6 49 6t72 -36.5t35 -94t-41 -98.5t-102.5 -41t-107.5 50t-46 145z" />
<glyph unicode="&#x2019;" horiz-adv-x="501" d="M109 1248q0 56 40.5 97t102.5 41t108 -50t46 -144t-52.5 -186.5t-138.5 -153.5l-98 78q51 31 95 86t52 106q-8 -4 -47 -4t-73.5 37t-34.5 93z" />
<glyph unicode="&#x201a;" horiz-adv-x="501" d="M109 125q0 57 40.5 98t102.5 41t108 -50t46 -145t-52.5 -187.5t-138.5 -153.5l-98 79q51 31 95 86.5t52 106.5q-12 -6 -49 -6t-71.5 37t-34.5 94z" />
<glyph unicode="&#x201c;" horiz-adv-x="880" d="M94 1046q0 94 52.5 187.5t140.5 155.5l96 -80q-51 -31 -94 -86.5t-53 -106.5q18 6 34 6q53 0 88 -35.5t35 -93t-41 -99.5t-102.5 -42t-108.5 50t-47 144zM473 1046q0 94 52.5 187.5t140.5 155.5l96 -80q-51 -31 -94 -86.5t-54 -106.5q18 6 35 6q53 0 88 -35.5t35 -93 t-41 -99.5t-102.5 -42t-108.5 50t-47 144z" />
<glyph unicode="&#x201d;" horiz-adv-x="880" d="M109 1248q0 56 40.5 97t102.5 41t108 -50t46 -144t-52.5 -186.5t-138.5 -153.5l-98 78q51 31 95 86t52 106q-8 -4 -47 -4t-73.5 37t-34.5 93zM487 1248q0 56 41 97t103 41t107.5 -50t45.5 -144t-52 -186.5t-138 -153.5l-98 78q51 31 95 86t52 106q-8 -4 -47 -4t-74 37 t-35 93z" />
<glyph unicode="&#x201e;" horiz-adv-x="880" d="M109 125q0 57 40.5 98t102.5 41t108 -50t46 -145t-52.5 -187.5t-138.5 -153.5l-98 79q51 31 95 86.5t52 106.5q-12 -6 -49 -6t-71.5 37t-34.5 94zM487 125q0 57 41 98t103 41t107.5 -50t45.5 -145t-52 -187.5t-138 -153.5l-98 79q51 31 95 86.5t52 106.5q-12 -6 -49 -6 t-72 37t-35 94z" />
<glyph unicode="&#x2022;" horiz-adv-x="733" d="M135 495.5q0 96.5 68.5 165t165 68.5t165 -68.5t68.5 -165t-68.5 -164t-165 -67.5t-165 67.5t-68.5 164z" />
<glyph unicode="&#x2026;" horiz-adv-x="1505" d="M109 123q0 57 43 99t100 42t99 -42t42 -100t-42 -100t-100 -42t-100 43t-42 100zM610 123q0 57 43 99t100.5 42t99.5 -42t42 -100t-42 -100t-99.5 -42t-100.5 43t-43 100zM1112 123q0 57 43 99t100.5 42t99.5 -42t42 -100t-42 -100t-100.5 -42t-100.5 43t-42 100z" />
<glyph unicode="&#x202f;" horiz-adv-x="367" />
<glyph unicode="&#x2039;" horiz-adv-x="655" d="M61 498l328 362h205l-328 -362l328 -369h-205z" />
<glyph unicode="&#x203a;" horiz-adv-x="655" d="M61 129l328 369l-328 362h205l328 -362l-328 -369h-205z" />
<glyph unicode="&#x205f;" horiz-adv-x="459" />
<glyph unicode="&#x20ac;" horiz-adv-x="1439" d="M53 471v139h82q-2 23 -2 60t4 90h-84v139h111q66 223 252 356.5t434 133.5q360 0 547 -306l-203 -106q-51 88 -144.5 143.5t-219 55.5t-239.5 -75t-169 -202h549v-139h-588q-4 -53 -4 -90t4 -60h588v-139h-551q55 -131 168.5 -207t240.5 -76t220.5 56.5t144.5 142.5 l205 -102q-197 -310 -549 -310q-250 0 -437.5 134.5t-250.5 361.5h-109z" />
<glyph unicode="&#x2122;" horiz-adv-x="929" d="M35 1313v53h311v-53h-127v-398h-57v398h-127zM420 915v451h88l131 -328l131 328h88v-451h-57v373l-154 -373h-16l-154 373v-373h-57z" />
<glyph unicode="&#xe000;" horiz-adv-x="993" d="M0 0v993h993v-993h-993z" />
</font>
</defs>
</svg>
