<?xml version="1.0" standalone="no"?>
<!DOCTYPE svg PUBLIC "-//W3C//DTD SVG 1.1//EN" "http://www.w3.org/Graphics/SVG/1.1/DTD/svg11.dtd" >
<svg xmlns="http://www.w3.org/2000/svg">
<metadata>
This is a custom SVG webfont generated by Font Squirrel.
Copyright   : Digitized data copyright C 1992  1997 The Monotype Corporation  Rockwell is a trademark of The Monotype Corporation which may be registered in certain jurisdictions Portions copyright Microsoft  Corporation  All rights reserved
Foundry     : Monotype Typography
Foundry URL : httpwwwmonotypecomhtmlmtnamemswelcomehtml
</metadata>
<defs>
<font id="RockwellRegular" horiz-adv-x="1174" >
<font-face units-per-em="2048" ascent="1638" descent="-410" />
<missing-glyph horiz-adv-x="512" />
<glyph unicode=" "  horiz-adv-x="512" />
<glyph unicode="&#x09;" horiz-adv-x="512" />
<glyph unicode="&#xa0;" horiz-adv-x="512" />
<glyph unicode="!" horiz-adv-x="598" d="M176 0v246h246v-246h-246zM197 968v423h202v-423l-50 -591h-102z" />
<glyph unicode="&#x22;" horiz-adv-x="831" d="M132 1290q0 123 97 123q44 0 73.5 -29.5t29.5 -77.5q0 -42 -26 -183l-54 -294h-43l-55 296q-22 121 -22 165zM497 1291q0 122 102 122q45 0 72.5 -30.5t27.5 -75.5q0 -87 -19 -186l-57 -292h-48l-54 291q-24 128 -24 171z" />
<glyph unicode="#" horiz-adv-x="1366" d="M85 372v147h216l73 353h-289v147h320l81 391h147l-81 -391h396l81 391h147l-81 -391h185v-147h-216l-73 -353h289v-147h-320l-81 -391h-147l81 391h-396l-81 -391h-147l81 391h-185zM448 519h396l73 353h-396z" />
<glyph unicode="$" horiz-adv-x="1110" d="M63 392q0 9 1 28h182q15 -250 225 -278v460q-381 75 -381 386q0 166 101.5 272t279.5 121v63h151v-63q132 -13 235.5 -102t103.5 -314v-24h-176q0 128 -38 190.5t-125 82.5v-444q240 -45 321 -138.5t81 -236.5q0 -182 -105 -288.5t-297 -126.5v-155h-151v155 q-186 8 -297 125.5t-111 286.5zM290 1017q0 -164 181 -213v418q-181 -32 -181 -205zM622 144q210 39 210 223q0 75 -41 126t-169 77v-426z" />
<glyph unicode="%" horiz-adv-x="1985" d="M164 1040q0 167 75 270t222 103q137 0 217 -97t80 -276q0 -170 -76.5 -271t-220.5 -101q-137 0 -217 96.5t-80 275.5zM308 1041q0 -277 153 -277q152 0 152 276q0 277 -152 277q-153 0 -153 -276zM367 0l1104 1391h142l-1096 -1391h-150zM1226 351q0 180 80.5 276 t215.5 96q149 0 223 -103.5t74 -268.5q0 -180 -80 -276.5t-216 -96.5q-137 0 -217 96.5t-80 276.5zM1370 351q0 -277 152 -277q153 0 153 276q0 277 -152 277q-153 0 -153 -276z" />
<glyph unicode="&#x26;" horiz-adv-x="1386" d="M63 447q0 278 317 417q-95 121 -95 243q0 134 101.5 220t236.5 86q140 0 236.5 -85.5t96.5 -212.5q0 -111 -68 -182t-224 -135l283 -383q76 133 108 321h285v-170h-147q-54 -193 -138 -298l73 -94h212v-174h-317l-92 122q-181 -144 -370 -144q-216 0 -357 134t-141 335z M270 456q0 -122 91 -213.5t221 -91.5q133 0 242 111l-338 474q-216 -96 -216 -280zM480 1112q0 -54 72 -164l12 -18q120 50 163.5 94t43.5 97q0 49 -37 88.5t-107 39.5q-63 0 -105 -38t-42 -99z" />
<glyph unicode="'" horiz-adv-x="362" d="M81 1284q0 129 97 129q48 0 76 -31t28 -75q0 -40 -26 -184l-54 -295h-44l-54 296q-23 124 -23 160z" />
<glyph unicode="(" horiz-adv-x="768" d="M166 487q0 329 147.5 576t397.5 353v-155q-108 -57 -195.5 -178.5t-117 -255.5t-29.5 -342q0 -234 38 -373t120.5 -239.5t183.5 -161.5v-156q-208 85 -376.5 323.5t-168.5 608.5z" />
<glyph unicode=")" horiz-adv-x="768" d="M57 -289q124 75 204.5 190t109 247.5t28.5 336.5q0 216 -31.5 351t-121 253t-189.5 172v155q242 -108 393.5 -346t151.5 -584q0 -334 -140.5 -566t-404.5 -365v156z" />
<glyph unicode="*" horiz-adv-x="1067" d="M67 1009l55 177l167 -53q81 -88 215 -136q-2 124 -62 247v169h180v-169q-60 -123 -62 -247q134 48 215 136l167 53l55 -177l-164 -55q-33 6 -61 6q-108 0 -184 -22q95 -119 187 -158l101 -140l-148 -107l-106 141q-13 126 -90 231q-77 -105 -90 -231l-106 -141l-148 107 l101 140q92 39 187 158q-76 22 -184 22q-27 0 -61 -6z" />
<glyph unicode="+" horiz-adv-x="1366" d="M135 617v157h470v469h156v-469h470v-157h-470v-469h-156v469h-470z" />
<glyph unicode="," horiz-adv-x="598" d="M176 0v246h246v-214q0 -109 -17 -169t-72.5 -98.5t-156.5 -41.5v104q120 18 120 149q0 8 -1 24h-119z" />
<glyph unicode="-" horiz-adv-x="725" d="M63 385v190h600v-190h-600z" />
<glyph unicode="." horiz-adv-x="598" d="M176 0v246h246v-246h-246z" />
<glyph unicode="/" horiz-adv-x="897" d="M10 -22l710 1441h166l-710 -1441h-166z" />
<glyph unicode="0" horiz-adv-x="1110" d="M72 695q0 344 129.5 531t353.5 187q232 0 357 -194t125 -524q0 -342 -129 -529.5t-353 -187.5q-234 0 -358.5 195t-124.5 522zM276 695q0 -298 72 -426.5t207 -128.5t207 129t72 426q0 302 -73 429t-206 127q-150 0 -214.5 -144.5t-64.5 -411.5z" />
<glyph unicode="1" horiz-adv-x="1110" d="M295 0v169h190v1053h-190v167h380v-1220h181v-169h-561z" />
<glyph unicode="2" horiz-adv-x="1110" d="M82 0q0 144 51.5 275t145 229t285.5 238q121 89 164 148.5t43 138.5q0 97 -61 158.5t-168 61.5q-125 0 -183 -70t-58 -230q0 -40 2 -76h-185q-1 36 -1 59q0 226 107 353.5t314 127.5q209 0 320.5 -109t111.5 -268q0 -133 -73 -227t-279 -239q-200 -142 -262.5 -231 t-72.5 -158h524l8 316h169l-13 -497h-889z" />
<glyph unicode="3" horiz-adv-x="1110" d="M68 471h184q5 -160 87.5 -244.5t219.5 -84.5q125 0 196.5 69.5t71.5 175.5q0 111 -84 182.5t-268 71.5q-24 0 -56 -1v172q146 0 212.5 17t103.5 67.5t37 127.5q0 93 -54.5 160t-161.5 67q-118 0 -172 -70.5t-59 -210.5h-193q0 240 118.5 341.5t290.5 101.5 q209 0 315 -103t106 -263q0 -118 -60.5 -199t-136.5 -115q260 -77 260 -332q0 -212 -142.5 -317.5t-334.5 -105.5q-245 0 -362.5 131t-117.5 362z" />
<glyph unicode="4" horiz-adv-x="1110" d="M60 531l579 871h161v-860h222v-168h-222v-205h127v-169h-458v169h148v205h-468q-24 93 -89 157zM252 542h365v548z" />
<glyph unicode="5" horiz-adv-x="1110" d="M73 444h180q16 -140 91.5 -223t199.5 -83q125 0 201 86t76 221q0 143 -74 218.5t-184 75.5q-165 0 -279 -167q-64 63 -145 101l57 716h742v-369h-172v190h-426l-31 -407q127 103 283 103q198 0 312.5 -132t114.5 -327q0 -206 -125.5 -337.5t-351.5 -131.5 q-210 0 -332 119t-137 347z" />
<glyph unicode="6" horiz-adv-x="1110" d="M100 687q0 335 126 530.5t363 195.5q186 0 288.5 -122.5t108.5 -310.5h-169q-15 119 -83.5 194t-166.5 75q-133 0 -207 -138.5t-77 -379.5q142 154 327 154q159 0 272.5 -117.5t113.5 -314.5q0 -196 -112 -335.5t-306 -139.5q-217 0 -347.5 178.5t-130.5 530.5zM293 521 q45 -378 276 -378q118 0 184 87t66 208q0 119 -62.5 192t-168.5 73q-149 0 -295 -182z" />
<glyph unicode="7" horiz-adv-x="1110" d="M121 1023v366h869v-142q-136 -163 -258 -494.5t-122 -583.5h162v-169h-549v169h185q15 269 125 563t239 478h-479v-187h-172z" />
<glyph unicode="8" horiz-adv-x="1110" d="M68 383q0 247 247 344q-204 119 -204 321q0 177 127 271t305 94q210 0 332 -98t122 -267q0 -200 -204 -321q247 -97 247 -344q0 -184 -128.5 -294.5t-346.5 -110.5q-245 0 -371 110.5t-126 294.5zM270 391q0 -110 76 -180.5t208 -70.5q125 0 204.5 68t79.5 184 q0 111 -74.5 181t-215.5 70q-122 0 -200 -67t-78 -185zM299 1030q0 -110 70 -167.5t191 -57.5q103 0 176 55.5t73 169.5q0 218 -261 218q-113 0 -181 -56t-68 -162z" />
<glyph unicode="9" horiz-adv-x="1110" d="M94 938q0 196 112 335.5t307 139.5q217 0 347 -178.5t130 -530.5q0 -335 -125.5 -530.5t-363.5 -195.5q-185 0 -288 122.5t-109 310.5h169q15 -119 84 -194t166 -75q134 0 208 139t76 379q-141 -154 -326 -154q-165 0 -276 119t-111 313zM271 953q0 -113 59.5 -189 t172.5 -76q148 0 294 182q-43 378 -276 378q-115 0 -182.5 -85.5t-67.5 -209.5z" />
<glyph unicode=":" horiz-adv-x="598" d="M176 0v246h246v-246h-246zM176 722v246h246v-246h-246z" />
<glyph unicode=";" horiz-adv-x="598" d="M176 0v246h246v-214q0 -109 -17 -169t-72.5 -98.5t-156.5 -41.5v104q120 18 120 149q0 8 -1 24h-119zM176 722v246h246v-246h-246z" />
<glyph unicode="&#x3c;" horiz-adv-x="1366" d="M135 625v141l1096 460v-170l-882 -361l882 -360v-170z" />
<glyph unicode="=" horiz-adv-x="1366" d="M135 382v157h1096v-157h-1096zM135 852v157h1096v-157h-1096z" />
<glyph unicode="&#x3e;" horiz-adv-x="1366" d="M135 165v170l882 360l-882 361v170l1096 -460v-141z" />
<glyph unicode="?" horiz-adv-x="961" d="M62 1014q0 205 121.5 302t289.5 97q202 0 313 -108.5t111 -285.5q0 -171 -105.5 -273t-248.5 -102q-11 0 -32 1l-25 -270h-103l-24 442q47 -12 94 -12q131 0 189 66t58 157q0 106 -62.5 164.5t-158.5 58.5q-117 0 -173.5 -67t-56.5 -167q0 -21 1 -49h-187q-1 27 -1 46z M311 0v246h245v-246h-245z" />
<glyph unicode="@" horiz-adv-x="2068" d="M114 443q0 410 260 717t731 307q384 0 619 -227.5t235 -552.5q0 -277 -188 -496.5t-415 -219.5q-100 0 -142 41t-50 126q-145 -166 -307 -166q-147 0 -254.5 123.5t-107.5 324.5q0 237 159 437.5t360 200.5q190 0 302 -183l34 155h179l-144 -672q-30 -139 -30 -155 q0 -29 22 -47.5t46 -18.5q53 0 150.5 67.5t167.5 201.5t70 285q0 274 -206.5 452.5t-508.5 178.5q-370 0 -602 -250.5t-232 -609.5q0 -372 230 -571t631 -199q235 0 419.5 79t284.5 223h181q-83 -172 -310 -311t-572 -139q-484 0 -748 245.5t-264 653.5zM680 403 q0 -125 63 -204t150 -79q137 0 251.5 152.5t114.5 351.5q0 133 -66.5 209.5t-165.5 76.5q-152 0 -249.5 -167t-97.5 -340z" />
<glyph unicode="A" horiz-adv-x="1430" d="M-16 0v174h168l380 1060h-169v157h711v-157h-173l389 -1060h156v-174h-545v174h173l-104 315h-500l-107 -315h169v-174h-548zM522 652h396l-185 582h-19z" />
<glyph unicode="B" horiz-adv-x="1194" d="M46 1217v174h463q191 0 286.5 -23t168.5 -116.5t73 -219.5q0 -97 -43.5 -175t-127.5 -118q116 -40 178.5 -132.5t62.5 -211.5q0 -103 -46.5 -187t-123.5 -130t-168.5 -62t-249.5 -16h-473v174h171v1043h-171zM427 174h79q155 0 227 15.5t117.5 73t45.5 147.5 q0 82 -43.5 137.5t-112 74t-193.5 18.5h-120v-466zM427 812h131q150 0 209.5 52.5t59.5 154.5q0 198 -269 198h-131v-405z" />
<glyph unicode="C" horiz-adv-x="1556" d="M87 690q0 331 192 527t501 196q273 0 459 -149v127h180v-447h-180q-60 136 -185 210.5t-263 74.5q-208 0 -341.5 -150t-133.5 -379q0 -235 143 -384t339 -149q161 0 293 103.5t186 295.5l181 -101q-61 -232 -246.5 -359.5t-426.5 -127.5q-316 0 -507 205t-191 507z" />
<glyph unicode="D" horiz-adv-x="1493" d="M26 0v174h189v1043h-189v174h538q223 0 343.5 -23t233.5 -104t180.5 -222.5t67.5 -322.5q0 -206 -65 -358t-170.5 -227t-251 -104.5t-370.5 -29.5h-506zM425 174h110q184 0 291.5 23t181.5 78.5t120 167.5t46 264q0 181 -75.5 307t-193 164.5t-361.5 38.5h-119v-1043z " />
<glyph unicode="E" horiz-adv-x="1280" d="M56 0v174h180v1043h-180v174h1156v-419h-172v245h-594v-414h517v-174h-517v-455h594v253h172v-427h-1156z" />
<glyph unicode="F" horiz-adv-x="1130" d="M37 0v174h176v1043h-176v174h1079v-419h-172v245h-521v-412h449v-174h-449v-457h178v-174h-564z" />
<glyph unicode="G" horiz-adv-x="1642" d="M99 700q0 307 189 510t513 203q291 0 488 -177v155h177v-457h-177q-50 115 -177.5 204.5t-291.5 89.5q-228 0 -360 -154t-132 -371q0 -249 150.5 -395t362.5 -146q166 0 296 92.5t152 242.5h-251v174h506q1 -27 1 -48q0 -293 -192 -469t-507 -176q-377 0 -562 214.5 t-185 507.5z" />
<glyph unicode="H" horiz-adv-x="1450" d="M55 0v174h158v1043h-158v174h532v-174h-164v-398h605v398h-163v174h532v-174h-159v-1043h159v-174h-532v174h163v471h-605v-471h164v-174h-532z" />
<glyph unicode="I" horiz-adv-x="641" d="M64 0v174h151v1043h-151v174h512v-174h-151v-1043h151v-174h-512z" />
<glyph unicode="J" horiz-adv-x="641" d="M-72 -413v195q78 -20 150 -20q90 0 119.5 49.5t29.5 198.5v1207h-178v174h566v-174h-178v-1217q0 -157 -23.5 -238.5t-113 -139.5t-212.5 -58q-85 0 -160 23z" />
<glyph unicode="K" horiz-adv-x="1280" d="M37 0v174h174v1043h-174v174h563v-174h-179v-1043h160v-174h-544zM428 734l446 483h-159v174h545v-174h-148l-428 -483l440 -560h149v-174h-565v174h150z" />
<glyph unicode="L" horiz-adv-x="1067" d="M29 0v174h180v1043h-180v174h569v-174h-171v-1043h426v473h196v-647h-1020z" />
<glyph unicode="M" horiz-adv-x="1792" d="M50 0v174h167v1043h-167v174h476l366 -953l370 953h481v-174h-168v-1043h168v-174h-524v174h166v1043l-480 -1231h-41l-475 1231v-1043h153v-174h-492z" />
<glyph unicode="N" horiz-adv-x="1473" d="M10 0v174h199v1043h-199v174h475l610 -1081v907h-197v174h571v-174h-205v-1231h-216l-667 1187v-999h199v-174h-570z" />
<glyph unicode="O" horiz-adv-x="1642" d="M102 702q0 303 198 507t516 204q321 0 523 -204t202 -511q0 -313 -205.5 -516.5t-522.5 -203.5q-202 0 -371.5 96.5t-254.5 269t-85 358.5zM331 701q0 -229 134 -384t352 -155q216 0 355 158.5t139 378.5q0 222 -141.5 375.5t-355.5 153.5q-213 0 -348 -151t-135 -376z " />
<glyph unicode="P" d="M41 0v174h175v1043h-175v174h497q219 0 328 -31t182.5 -140.5t73.5 -258.5q0 -119 -48.5 -213.5t-120 -139.5t-161 -60.5t-270.5 -15.5h-96v-358h180v-174h-565zM426 700h120q205 0 284 58.5t79 206.5q0 94 -42 156t-104 79t-207 17h-130v-517z" />
<glyph unicode="Q" horiz-adv-x="1642" d="M102 701q0 295 195 503.5t519 208.5t524 -203t200 -512q0 -164 -63 -312.5t-216 -266.5t-345 -134l41 -18q163 -67 251 -67q28 0 73 9l-74 -172q-30 -5 -55 -5q-99 0 -273 84q-150 72 -236 72q-89 0 -143 -49l-59 85q59 64 154 84q-168 53 -284.5 170.5t-162.5 253 t-46 269.5zM331 701q0 -229 134 -384t352 -155q216 0 355 158.5t139 378.5q0 222 -141.5 375.5t-355.5 153.5q-213 0 -348 -151t-135 -376z" />
<glyph unicode="R" horiz-adv-x="1237" d="M26 0v174h191v1043h-191v174h565q177 0 281 -27.5t172 -116t68 -220.5q0 -276 -287 -347l246 -506h170v-174h-301l-317 650h-196v-476h178v-174h-579zM427 824h164q119 0 175.5 15.5t92.5 63t36 127.5q0 68 -36.5 115t-90 59.5t-163.5 12.5h-178v-393z" />
<glyph unicode="S" horiz-adv-x="1087" d="M66 1029q0 175 116.5 279.5t292.5 104.5q167 0 310 -108v93h170v-422h-170v97q-107 161 -295 161q-114 0 -175 -52.5t-61 -125.5q0 -56 31 -98.5t79 -62.5t189 -56q184 -48 267 -89.5t143 -138.5t60 -223q0 -178 -125.5 -294t-310.5 -116q-190 0 -342 137v-115h-174v505 h174v-123q125 -227 327 -227q103 0 174 63t71 165q0 99 -58 142.5t-219 86.5q-187 50 -277 94.5t-143.5 127t-53.5 195.5z" />
<glyph unicode="T" d="M24 862v529h1127v-529h-172v355h-286v-1043h181v-174h-569v174h178v1043h-287v-355h-172z" />
<glyph unicode="U" horiz-adv-x="1386" d="M27 1217v174h547v-174h-165v-696q0 -162 16.5 -224t82.5 -105.5t170 -43.5q124 0 190 37.5t87.5 101t21.5 224.5v706h-161v174h544v-174h-174v-727q0 -147 -12.5 -213.5t-67.5 -139t-155 -116t-243 -43.5q-158 0 -263 40.5t-158 108.5t-70.5 145t-17.5 239v706h-172z" />
<glyph unicode="V" horiz-adv-x="1450" d="M-4 1217v174h549v-174h-161l354 -934l345 934h-162v174h534v-174h-169l-458 -1231h-193l-467 1231h-172z" />
<glyph unicode="W" horiz-adv-x="2048" d="M0 1217v174h532v-174h-167l263 -910l253 910h-166v174h639v-174h-163l254 -910l258 910h-165v174h511v-174h-164l-347 -1231h-199l-313 1100l-311 -1100h-194l-354 1231h-167z" />
<glyph unicode="X" horiz-adv-x="1343" d="M21 0v174h186l354 527l-354 516h-179v174h560v-174h-157l241 -353l243 353h-161v174h534v-174h-174l-343 -499l373 -544h181v-174h-571v174h161l-255 378l-254 -378h169v-174h-554z" />
<glyph unicode="Y" horiz-adv-x="1323" d="M-21 1217v174h572v-174h-175l307 -429l280 429h-175v174h555v-174h-184l-386 -584v-459h190v-174h-587v174h187v459l-414 584h-170z" />
<glyph unicode="Z" horiz-adv-x="1153" d="M51 0v174l745 1043h-539v-245h-172v419h977v-154l-758 -1063h609v269h172v-443h-1034z" />
<glyph unicode="[" horiz-adv-x="768" d="M215 -417v1808h494v-139h-304v-1530h304v-139h-494z" />
<glyph unicode="\" horiz-adv-x="897" d="M10 1419h166l710 -1441h-166z" />
<glyph unicode="]" horiz-adv-x="768" d="M59 -278h304v1530h-304v139h494v-1808h-494v139z" />
<glyph unicode="^" horiz-adv-x="961" d="M54 590l353 801h145l355 -801h-181l-247 597l-240 -597h-185z" />
<glyph unicode="_" horiz-adv-x="1024" d="M-12 -154h1048v-102h-1048v102z" />
<glyph unicode="`" horiz-adv-x="682" d="M111 1413h276l141 -317h-128z" />
<glyph unicode="a" horiz-adv-x="1087" d="M94 290q0 135 103.5 224t249.5 89q136 0 263 -82v96q0 74 -14 114t-65.5 72t-134.5 32q-143 0 -207 -114l-182 48q121 226 418 226q109 0 188.5 -29.5t118.5 -76t52.5 -100.5t13.5 -172v-448h163v-169h-332v118q-138 -134 -308 -134q-132 0 -229.5 86t-97.5 220zM276 291 q0 -68 46.5 -114t126.5 -46q138 0 261 116v113q-123 96 -249 96q-79 0 -132 -46t-53 -119z" />
<glyph unicode="b" horiz-adv-x="1323" d="M54 0v169h172v1053h-172v169h358v-560q143 164 351 164q200 0 335.5 -137.5t135.5 -362.5q0 -216 -132.5 -363.5t-339.5 -147.5q-116 0 -212 50t-138 111v-145h-358zM418 482q0 -151 92.5 -239.5t213.5 -88.5q127 0 219 94t92 252q0 153 -91.5 237.5t-214.5 84.5 q-121 0 -216 -87.5t-95 -252.5z" />
<glyph unicode="c" horiz-adv-x="1067" d="M72 491q0 219 144 361.5t332 142.5q161 0 272 -95v68h170v-366h-170q-13 105 -85.5 161t-168.5 56q-128 0 -208 -90.5t-80 -237.5q0 -137 76 -241.5t220 -104.5q200 0 290 190l157 -74q-130 -289 -455 -289q-230 0 -362 157t-132 362z" />
<glyph unicode="d" horiz-adv-x="1280" d="M90 480q0 239 147 377t332 138q196 0 342 -156v383h-186v169h376v-1222h174v-169h-364v142q-142 -158 -346 -158q-189 0 -332 129t-143 367zM293 485q0 -160 90.5 -246t216.5 -86q122 0 216.5 90.5t94.5 250.5q0 161 -96.5 243t-216.5 82q-129 0 -217 -96.5t-88 -237.5z " />
<glyph unicode="e" d="M74 484q0 223 153.5 367t352.5 144q195 0 353.5 -140.5t164.5 -418.5h-814q18 -134 106 -217t225 -83q199 0 315 160l168 -74q-82 -127 -213 -188.5t-274 -61.5q-222 0 -379.5 138.5t-157.5 373.5zM291 574h611q-20 102 -106 184.5t-211 82.5q-114 0 -195 -74.5 t-99 -192.5z" />
<glyph unicode="f" horiz-adv-x="598" d="M56 0v169h141v630h-141v168h141v140q0 177 75 244.5t177 67.5q220 0 255 -223l-169 -26q-10 93 -73 93q-43 0 -59 -29.5t-16 -126.5v-140h166v-168h-166v-630h184v-169h-515z" />
<glyph unicode="g" horiz-adv-x="1280" d="M72 470q0 230 144.5 371.5t334.5 141.5q192 0 342 -153v138h364v-169h-174v-721q0 -146 -15 -216.5t-72.5 -144t-172.5 -123.5t-257 -50q-214 0 -382 129l124 138q126 -98 274 -98q82 0 152 31.5t104.5 76.5t44.5 85.5t10 136.5v88q-45 -57 -141 -108t-210 -51 q-208 0 -339 144t-131 354zM274 474q0 -147 85.5 -240t218.5 -93q130 0 224 93.5t94 240.5q0 149 -94 239.5t-218 90.5t-217 -89.5t-93 -241.5z" />
<glyph unicode="h" d="M42 1222v169h365v-534q171 138 325 138q96 0 158 -40t84.5 -105.5t22.5 -191.5v-489h165v-169h-355v592q0 110 -7 147t-38.5 61t-74.5 24q-110 0 -280 -125v-530h168v-169h-533v169h175v1053h-175z" />
<glyph unicode="i" horiz-adv-x="598" d="M66 0v169h151v630h-151v169h341v-799h149v-169h-490zM190 1297q0 46 32.5 80t82.5 34q47 0 81 -33t34 -81t-34 -81.5t-81 -33.5q-48 0 -81.5 34t-33.5 81z" />
<glyph unicode="j" horiz-adv-x="598" d="M-38 -244q48 -6 92 -6q75 0 112.5 23t50 67t12.5 273v686h-152v169h342v-824q0 -249 -16 -347t-95 -160.5t-234 -62.5q-59 0 -112 10v172zM202 1297q0 47 34 80.5t81 33.5q48 0 81.5 -33t33.5 -81t-34 -81.5t-81 -33.5q-49 0 -82 34.5t-33 80.5z" />
<glyph unicode="k" d="M50 0v169h174v1053h-174v169h364v-869l362 289h-161v157h535v-157h-148l-363 -302l341 -340h170v-169h-249l-487 487v-318h167v-169h-531z" />
<glyph unicode="l" horiz-adv-x="598" d="M41 0v169h172v1053h-172v169h362v-1222h148v-169h-510z" />
<glyph unicode="m" horiz-adv-x="1772" d="M54 0v169h173v630h-161v169h351v-122q172 137 337 137q166 0 229 -151q189 151 352 151q94 0 154.5 -41.5t81.5 -105t21 -187.5v-480h169v-169h-359v615q0 84 -7.5 118.5t-38 57t-73.5 22.5q-122 0 -277 -125v-519h166v-169h-356v633q0 95 -27.5 137.5t-93.5 42.5 q-108 0 -278 -125v-519h170v-169h-533z" />
<glyph unicode="n" d="M55 0v169h170v630h-170v169h360v-117q183 132 334 132q94 0 155.5 -44.5t80.5 -109t19 -188.5v-472h163v-169h-353v633q0 110 -33 143.5t-81 33.5q-126 0 -285 -123v-518h167v-169h-527z" />
<glyph unicode="o" d="M78 484q0 224 148 367.5t361 143.5q209 0 359 -141.5t150 -369.5t-149.5 -370t-359.5 -142q-216 0 -362.5 144t-146.5 368zM279 484q0 -143 89.5 -234.5t218.5 -91.5q131 0 219.5 92.5t88.5 233.5q0 142 -90 234t-218 92q-134 0 -221 -94t-87 -232z" />
<glyph unicode="p" horiz-adv-x="1280" d="M14 -265h177v1064h-163v169h353v-152q142 167 344 167q204 0 337.5 -140t133.5 -364q0 -235 -145 -371t-330 -136q-192 0 -340 148v-385h188v-169h-555v169zM378 470q0 -80 33 -153t105 -122.5t169 -49.5q136 0 224.5 91t88.5 250q0 155 -92.5 242t-210.5 87 q-126 0 -221.5 -94.5t-95.5 -250.5z" />
<glyph unicode="q" horiz-adv-x="1260" d="M74 481q0 226 135 364t336 138q202 0 344 -167v152h353v-169h-163v-1064h177v-169h-555v169h188v387q-144 -150 -343 -150q-181 0 -326.5 135t-145.5 374zM272 483q0 -141 81.5 -239.5t229.5 -98.5q149 0 229 100t80 225q0 156 -95.5 250.5t-221.5 94.5 q-122 0 -212.5 -89t-90.5 -243z" />
<glyph unicode="r" horiz-adv-x="854" d="M45 0v169h195v630h-195v169h347v-218q32 85 89 141t120.5 74t173.5 18h50v-192h-38q-145 0 -216.5 -29t-106 -105.5t-34.5 -274.5v-213h211v-169h-596z" />
<glyph unicode="s" horiz-adv-x="938" d="M84 332h170v-32q9 -68 73.5 -112t152.5 -44q92 0 147 32t55 89q0 55 -45.5 81t-180.5 48q-200 34 -285.5 109.5t-85.5 195.5q0 121 93 202.5t245 81.5q137 0 236 -56v41h169v-321h-169v59q-77 119 -224 119q-75 0 -123.5 -32.5t-48.5 -86.5q0 -55 44.5 -75.5t191.5 -43.5 q141 -22 213 -51.5t119.5 -98t47.5 -159.5q0 -135 -103.5 -214.5t-268.5 -79.5q-155 0 -253 70v-54h-170v332z" />
<glyph unicode="t" horiz-adv-x="618" d="M62 799v169h126v149l190 174v-323h179v-169h-179v-470q0 -113 12.5 -139.5t62.5 -26.5q53 0 104 20v-173q-73 -26 -146 -26q-87 0 -141 38.5t-68 96.5t-14 200v480h-126z" />
<glyph unicode="u" horiz-adv-x="1153" d="M53 799v169h327v-590q0 -107 6 -144t35 -61t73 -24q132 0 282 126v524h-171v169h361v-799h167v-169h-357v111q-167 -127 -320 -127q-97 0 -160.5 42.5t-84.5 110t-21 217.5v445h-137z" />
<glyph unicode="v" horiz-adv-x="1110" d="M-4 799v169h487v-169h-126l208 -549l209 549h-134v169h473v-169h-149l-309 -815h-172l-316 815h-171z" />
<glyph unicode="w" horiz-adv-x="1579" d="M-3 799v169h408v-169h-127l185 -584l185 584h-106v169h468v-169h-106l185 -584l186 584h-133v169h437v-169h-139l-260 -815h-179l-222 700l-226 -700h-179l-259 815h-118z" />
<glyph unicode="x" horiz-adv-x="1130" d="M36 0v169h143l291 329l-278 301h-131v169h455v-169h-121l174 -187l168 187h-99v169h457v-169h-159l-265 -301l302 -329h122v-169h-457v169h134l-203 216l-188 -216h124v-169h-469z" />
<glyph unicode="y" horiz-adv-x="1153" d="M17 799v169h479v-169h-116l209 -536l205 536h-128v169h469v-169h-144l-479 -1233h-321v166h189l116 285l-318 782h-161z" />
<glyph unicode="z" horiz-adv-x="918" d="M33 0v158l607 653h-398v-186h-162v343h786v-169l-609 -641h443v198h166v-356h-833z" />
<glyph unicode="{" horiz-adv-x="682" d="M58 401v155q72 2 120 36t67.5 99t19.5 233q0 215 24 299t92 126t200 42h56v-149h-31q-100 0 -136 -33.5t-36 -159.5q0 -222 -10 -311t-55 -152t-144 -108q105 -40 157 -129.5t52 -293.5q0 -188 5.5 -238t38 -76t128.5 -26h31v-149h-56q-98 0 -154 19t-97.5 71.5t-53 130 t-11.5 246.5q0 168 -19.5 233t-68 99t-119.5 36z" />
<glyph unicode="|" horiz-adv-x="1079" d="M461 -456v1875h157v-1875h-157z" />
<glyph unicode="}" horiz-adv-x="682" d="M45 -286h31q100 0 136 33.5t36 159.5q0 223 10 312t55 151.5t144 107.5q-105 40 -157 130t-52 293q0 188 -6 238.5t-38.5 76.5t-127.5 26h-31v149h56q98 0 154 -19t97.5 -71.5t53 -130t11.5 -246.5q0 -168 19 -233t68 -99.5t120 -35.5v-155q-72 -2 -120 -36t-67.5 -99.5 t-19.5 -232.5q0 -215 -24 -299.5t-92 -126t-200 -41.5h-56v148z" />
<glyph unicode="~" horiz-adv-x="1194" d="M49 556v169q157 128 305 128q93 0 293 -94q136 -63 204 -63q133 0 294 139v-169q-155 -128 -293 -128q-61 0 -119 18t-193 81q-127 59 -193 59q-135 0 -298 -140z" />
<glyph unicode="&#xa1;" horiz-adv-x="598" d="M176 732v245h246v-245h-246zM197 8l50 596h102l50 -596v-418h-202v418z" />
<glyph unicode="&#xa2;" horiz-adv-x="1067" d="M82 491q0 214 142.5 359t328.5 145q70 0 133 -22l157 448h89l-169 -474q37 -20 67 -47v73h170v-371h-157q-22 128 -137 186l-223 -627q44 -16 98 -16q203 0 293 190l157 -74q-130 -289 -457 -289q-82 0 -151 20l-155 -434h-87l166 465q-125 68 -195 195.5t-70 272.5z M288 491q0 -188 122 -289l218 612q-28 5 -53 5q-129 0 -208 -91t-79 -237z" />
<glyph unicode="&#xa3;" horiz-adv-x="1110" d="M67 597v161h244q-79 199 -79 328q0 163 109.5 245t258.5 82q158 0 267.5 -87t109.5 -270q0 -12 -1 -35h-191l2 54q0 64 -40.5 121t-137.5 57q-182 0 -182 -161q0 -82 97 -334h249v-161h-201q13 -69 13 -134q0 -98 -31 -203q162 -82 223 -82q157 0 173 175h121 q-5 -200 -88.5 -287.5t-209.5 -87.5t-292 122q-95 -122 -219 -122q-78 0 -136 49t-58 134q0 91 62.5 144t142.5 53q65 0 147 -36q2 28 2 42q0 96 -50 233h-305zM167 162q0 -76 83 -76q73 0 132 89q-84 63 -137 63q-31 0 -54.5 -20.5t-23.5 -55.5z" />
<glyph unicode="&#xa4;" horiz-adv-x="1366" d="M183 303l131 129q-86 132 -86 270q0 137 86 257l-131 130l104 107l132 -131q114 87 262 87q143 0 266 -87l131 131l104 -107l-130 -130q86 -125 86 -268q0 -142 -86 -259l130 -129l-104 -105l-131 129q-125 -88 -269 -88q-142 0 -259 88l-130 -129zM376 695 q0 -127 90 -217t217 -90t217.5 90.5t90.5 216.5q0 128 -90.5 217.5t-217.5 89.5q-126 0 -216.5 -89.5t-90.5 -217.5z" />
<glyph unicode="&#xa5;" horiz-adv-x="1323" d="M-21 1217v174h572v-174h-175l307 -429l280 429h-175v174h555v-174h-184l-284 -429h371v-117h-448l-25 -38v-171h473v-117h-473v-171h190v-174h-587v174h187v171h-487v117h487v171l-26 38h-461v117h378l-305 429h-170z" />
<glyph unicode="&#xa6;" horiz-adv-x="1079" d="M461 322h157v-778h-157v778zM461 640v779h157v-779h-157z" />
<glyph unicode="&#xa7;" horiz-adv-x="981" d="M50 517q0 174 203 287q-166 97 -166 274q0 150 109.5 242.5t276.5 92.5q193 0 295.5 -96.5t102.5 -248.5v-18h-188q-6 108 -71 153.5t-149 45.5q-75 0 -130.5 -39t-55.5 -108t59.5 -113t220.5 -102q202 -72 288 -145.5t86 -197.5q0 -179 -197 -293q166 -95 166 -268 q0 -140 -104 -240.5t-287 -100.5q-164 0 -275 87.5t-117 284.5h186q3 -98 61 -149t149 -51q95 0 145.5 43.5t50.5 104.5t-58.5 106t-230.5 106q-141 50 -211 89t-114.5 107.5t-44.5 146.5zM230 568q0 -55 39.5 -95t340.5 -159q147 71 147 182q0 60 -50.5 98t-204.5 96 q-73 28 -132 54q-140 -76 -140 -176z" />
<glyph unicode="&#xa8;" horiz-adv-x="682" d="M49 1255q0 45 32.5 78t78.5 33t78.5 -32.5t32.5 -78.5q0 -47 -32.5 -79t-78.5 -32q-45 0 -78 32.5t-33 78.5zM411 1255q0 44 31.5 77.5t79.5 33.5q46 0 78.5 -33t32.5 -78q0 -46 -32.5 -78.5t-78.5 -32.5q-47 0 -79 32.5t-32 78.5z" />
<glyph unicode="&#xa9;" horiz-adv-x="1516" d="M3 658q0 203 103 381t280 276t372 98q190 0 368.5 -96.5t282 -277t103.5 -381.5q0 -312 -220.5 -533.5t-533.5 -221.5t-534 221.5t-221 533.5zM128 658q0 -260 184.5 -444.5t445.5 -184.5t445 184.5t184 444.5q0 261 -185 445t-444 184q-158 0 -307 -80.5t-236 -230.5 t-87 -318zM363 656q0 196 107.5 310.5t296.5 114.5q133 0 222.5 -64.5t118.5 -171.5l-119 -29q-61 154 -226 154q-127 0 -195.5 -90t-68.5 -227q0 -147 69 -228.5t184 -81.5q85 0 156 50.5t92 141.5l123 -36q-28 -124 -127.5 -198.5t-234.5 -74.5q-126 0 -217.5 57t-136 154 t-44.5 219z" />
<glyph unicode="&#xaa;" horiz-adv-x="705" d="M48 990q0 85 69.5 136.5t161.5 51.5q86 0 169 -50v58q0 64 -30.5 97.5t-107.5 33.5q-93 0 -135 -69l-119 29q79 136 270 136q93 0 150.5 -28t76 -70.5t18.5 -128.5v-269h105v-101h-215v70q-89 -80 -200 -80q-82 0 -147.5 50t-65.5 134zM166 990q0 -37 28.5 -66.5 t85.5 -29.5q88 0 168 69v69q-79 57 -159 57q-56 0 -89.5 -28.5t-33.5 -70.5z" />
<glyph unicode="&#xab;" horiz-adv-x="981" d="M33 484l297 484h200l-292 -484l292 -484h-200zM461 484l297 484h200l-292 -484l292 -484h-200z" />
<glyph unicode="&#xac;" horiz-adv-x="1366" d="M135 852v157h1096v-627h-157v470h-939z" />
<glyph unicode="&#xad;" horiz-adv-x="725" d="M63 385v190h600v-190h-600z" />
<glyph unicode="&#xae;" horiz-adv-x="1516" d="M3 658q0 203 103 381t280 276t372 98q190 0 368.5 -96.5t282 -277t103.5 -381.5q0 -312 -220.5 -533.5t-533.5 -221.5t-534 221.5t-221 533.5zM128 658q0 -260 184.5 -444.5t445.5 -184.5t445 184.5t184 444.5q0 261 -185 445t-444 184q-158 0 -307 -80.5t-236 -230.5 t-87 -318zM427 241v811h279q121 0 187 -16t113 -73t47 -131q0 -86 -63 -153.5t-169 -75.5q75 -21 189 -204l99 -158h-160l-72 128q-82 144 -125 180t-117 36h-77v-344h-131zM558 697h159q197 0 197 124q0 66 -47 93.5t-160 27.5h-149v-245z" />
<glyph unicode="&#xaf;" horiz-adv-x="1024" d="M-12 1545v102h1048v-102h-1048z" />
<glyph unicode="&#xb0;" horiz-adv-x="811" d="M60 1067q0 143 101.5 244.5t244.5 101.5q142 0 244 -101.5t102 -244.5q0 -142 -101.5 -244t-244.5 -102q-144 0 -245 101.5t-101 244.5zM191 1068q0 -89 63 -152t152 -63t152 63.5t63 151.5q0 91 -64 153t-151 62q-88 0 -151.5 -63t-63.5 -152z" />
<glyph unicode="&#xb1;" horiz-adv-x="1366" d="M135 -22v157h1096v-157h-1096zM135 786v157h470v470h156v-470h470v-157h-470v-469h-156v469h-470z" />
<glyph unicode="&#xb2;" horiz-adv-x="682" d="M49 679q0 117 62 201.5t230 190.5q75 47 95 75.5t20 63.5q0 106 -125 106q-70 0 -99.5 -34.5t-29.5 -114.5q0 -19 2 -43h-134v36q0 253 265 253q121 0 191.5 -56t70.5 -143q0 -69 -44.5 -118t-171.5 -127q-169 -103 -187 -184h285v161h127l-8 -267h-549z" />
<glyph unicode="&#xb3;" horiz-adv-x="682" d="M41 933h132q6 -168 169 -168q69 0 108 32.5t39 86.5q0 122 -200 122q-13 0 -41 -1v101q130 0 169 21.5t39 80.5q0 44 -28 76.5t-87 32.5q-124 0 -125 -143h-138q0 239 259 239q124 0 189.5 -56.5t65.5 -140.5q0 -99 -96 -158q134 -47 134 -171q0 -99 -82.5 -159 t-216.5 -60q-290 0 -290 265z" />
<glyph unicode="&#xb4;" horiz-adv-x="682" d="M156 1096l141 317h276l-289 -317h-128z" />
<glyph unicode="&#xb5;" horiz-adv-x="1130" d="M135 -434v1402h178v-356q0 -191 14.5 -275t77 -141.5t153.5 -57.5t158 55t83.5 135t16.5 281v359h177v-968h-161v126q-89 -151 -269 -151q-155 0 -250 132v-541h-178z" />
<glyph unicode="&#xb6;" horiz-adv-x="1110" d="M0 973q0 178 115 298t358 120h633v-173h-144v-1652h-167v1652h-223v-1652h-168v997q-185 8 -294.5 120.5t-109.5 289.5z" />
<glyph unicode="&#xb8;" horiz-adv-x="682" d="M169 -346q106 0 144.5 18t38.5 58q0 58 -96 58l41 233h125l-21 -118q142 -35 142 -163q0 -97 -80 -147t-222 -50h-72v111z" />
<glyph unicode="&#xb9;" horiz-adv-x="682" d="M155 679v99h112v524h-112v98h249v-622h106v-99h-355z" />
<glyph unicode="&#xba;" horiz-adv-x="768" d="M53 1106q0 137 97 222t234 85t234 -85.5t97 -221.5q0 -137 -97 -222t-234 -85q-138 0 -234.5 86t-96.5 221zM184 1106q0 -86 58.5 -141t141.5 -55t141.5 55.5t58.5 140.5q0 88 -59.5 141.5t-140.5 53.5q-82 0 -141 -53.5t-59 -141.5z" />
<glyph unicode="&#xbb;" horiz-adv-x="981" d="M23 0l293 484l-293 484h200l297 -484l-297 -484h-200zM451 0l293 484l-293 484h200l297 -484l-297 -484h-200z" />
<glyph unicode="&#xbc;" horiz-adv-x="1985" d="M155 679v99h112v524h-112v98h249v-622h106v-99h-355zM250 0l1103 1389h121l-1101 -1389h-123zM961 277l347 451h115v-438h131v-100h-131v-91h75v-99h-295v99h88v91h-275q-14 54 -55 87zM1105 290h186v241z" />
<glyph unicode="&#xbd;" horiz-adv-x="1985" d="M140 679v99h112v524h-112v98h249v-622h106v-99h-355zM199 0l1103 1389h121l-1101 -1389h-123zM1025 0q0 117 62 201.5t230 190.5q73 46 94 74.5t21 64.5q0 106 -126 106q-73 0 -100.5 -37.5t-27.5 -110.5q0 -17 2 -44h-134q-1 22 -1 38q0 131 74.5 190.5t191.5 59.5 q121 0 191.5 -56t70.5 -142q0 -69 -44.5 -118t-171.5 -127q-169 -103 -187 -185h285v161h126l-8 -266h-548z" />
<glyph unicode="&#xbe;" horiz-adv-x="1985" d="M125 933h132q6 -168 169 -168q69 0 108 32.5t39 86.5q0 122 -200 122q-13 0 -41 -1v101q130 0 169 21.5t39 80.5q0 44 -28 76.5t-87 32.5q-124 0 -125 -143h-138q0 239 259 239q124 0 189.5 -56.5t65.5 -140.5q0 -99 -96 -158q134 -47 134 -171q0 -99 -82.5 -159 t-216.5 -60q-290 0 -290 265zM332 0l1103 1389h121l-1104 -1389h-120zM1115 277l347 451h115v-438h131v-100h-131v-91h75v-99h-295v99h88v91h-275q-14 54 -55 87zM1259 290h186v241z" />
<glyph unicode="&#xbf;" horiz-adv-x="961" d="M78 -42q0 171 105.5 273t248.5 102q11 0 32 -1l25 270h103l24 -442q-47 12 -95 12q-130 0 -188 -66t-58 -156q0 -108 62 -166t159 -58q118 0 174 68t56 170q0 22 -1 50h187q1 -28 1 -48q0 -205 -121.5 -303.5t-289.5 -98.5q-204 0 -314 108t-110 286zM418 732v245h246 v-245h-246z" />
<glyph unicode="&#xc0;" horiz-adv-x="1430" d="M-16 0v174h168l380 1060h-169v157h711v-157h-173l389 -1060h156v-174h-545v174h173l-104 315h-500l-107 -315h169v-174h-548zM434 1790h276l141 -317h-128zM522 652h396l-185 582h-19z" />
<glyph unicode="&#xc1;" horiz-adv-x="1430" d="M-16 0v174h168l380 1060h-169v157h711v-157h-173l389 -1060h156v-174h-545v174h173l-104 315h-500l-107 -315h169v-174h-548zM522 652h396l-185 582h-19zM579 1473l141 317h276l-289 -317h-128z" />
<glyph unicode="&#xc2;" horiz-adv-x="1430" d="M-16 0v174h168l380 1060h-169v157h711v-157h-173l389 -1060h156v-174h-545v174h173l-104 315h-500l-107 -315h169v-174h-548zM415 1476l168 312h267l173 -312h-141l-167 174l-165 -174h-135zM522 652h396l-185 582h-19z" />
<glyph unicode="&#xc3;" horiz-adv-x="1430" d="M-16 0v174h168l380 1060h-169v157h711v-157h-173l389 -1060h156v-174h-545v174h173l-104 315h-500l-107 -315h169v-174h-548zM388 1505q1 144 54 206t128 62q60 0 184 -72q86 -51 114 -51q67 0 71 118h112q-4 -154 -58.5 -216t-124.5 -62q-71 0 -181 67q-97 58 -127 58 q-31 0 -44 -24.5t-13 -85.5h-115zM522 652h396l-185 582h-19z" />
<glyph unicode="&#xc4;" horiz-adv-x="1430" d="M-16 0v174h168l380 1060h-169v157h711v-157h-173l389 -1060h156v-174h-545v174h173l-104 315h-500l-107 -315h169v-174h-548zM427 1617q0 45 32.5 78t78.5 33t78.5 -32.5t32.5 -78.5q0 -47 -32.5 -79t-78.5 -32q-45 0 -78 32.5t-33 78.5zM522 652h396l-185 582h-19z M789 1617q0 44 31.5 77.5t79.5 33.5q46 0 78.5 -33t32.5 -78q0 -46 -32.5 -78.5t-78.5 -32.5q-47 0 -79 32.5t-32 78.5z" />
<glyph unicode="&#xc5;" horiz-adv-x="1430" d="M-16 0v174h168l380 1060h-169v157h271q-136 58 -136 202q0 89 63.5 153t153.5 64q91 0 154 -64t63 -153q0 -144 -136 -202h278v-157h-173l389 -1060h156v-174h-545v174h173l-104 315h-500l-107 -315h169v-174h-548zM522 652h396l-185 582h-19zM594 1592q0 -48 35 -84 t86 -36q50 0 85.5 35.5t35.5 84.5q0 50 -35 85.5t-86 35.5q-50 0 -85.5 -35.5t-35.5 -85.5z" />
<glyph unicode="&#xc6;" horiz-adv-x="1921" d="M-121 0v174h134l538 1043h-220v174h1506v-419h-172v245h-602v-409h522v-174h-522v-460h602v254h172v-428h-1207v174h223v460h-393l-239 -460h151v-174h-493zM547 808h306v409h-91z" />
<glyph unicode="&#xc7;" horiz-adv-x="1556" d="M87 691q0 330 192 526t501 196q273 0 459 -149v127h180v-447h-180q-60 136 -185 210.5t-263 74.5q-208 0 -341.5 -150t-133.5 -379q0 -235 143 -384t339 -149q161 0 293 103.5t186 295.5l181 -101q-55 -211 -214.5 -336.5t-378.5 -147.5l-8 -49q174 -24 174 -175 q0 -73 -59 -142t-276 -69q-38 0 -85 1v114q122 0 165 15.5t43 53.5q0 36 -27.5 51t-98.5 15l36 185q-300 21 -471 224t-171 486z" />
<glyph unicode="&#xc8;" horiz-adv-x="1280" d="M56 0v174h180v1043h-180v174h1156v-419h-172v245h-594v-414h517v-174h-517v-455h594v253h172v-427h-1156zM365 1790h276l141 -317h-128z" />
<glyph unicode="&#xc9;" horiz-adv-x="1280" d="M56 0v174h180v1043h-180v174h1156v-419h-172v245h-594v-414h517v-174h-517v-455h594v253h172v-427h-1156zM510 1473l141 317h276l-289 -317h-128z" />
<glyph unicode="&#xca;" horiz-adv-x="1280" d="M56 0v174h180v1043h-180v174h1156v-419h-172v245h-594v-414h517v-174h-517v-455h594v253h172v-427h-1156zM330 1476l168 312h267l173 -312h-141l-167 174l-165 -174h-135z" />
<glyph unicode="&#xcb;" horiz-adv-x="1280" d="M56 0v174h180v1043h-180v174h1156v-419h-172v245h-594v-414h517v-174h-517v-455h594v253h172v-427h-1156zM342 1617q0 45 32.5 78t78.5 33t78.5 -32.5t32.5 -78.5q0 -47 -32.5 -79t-78.5 -32q-45 0 -78 32.5t-33 78.5zM704 1617q0 44 31.5 77.5t79.5 33.5q46 0 78.5 -33 t32.5 -78q0 -46 -32.5 -78.5t-78.5 -32.5q-47 0 -79 32.5t-32 78.5z" />
<glyph unicode="&#xcc;" horiz-adv-x="641" d="M64 0v174h151v1043h-151v174h512v-174h-151v-1043h151v-174h-512zM65 1790h276l141 -317h-128z" />
<glyph unicode="&#xcd;" horiz-adv-x="641" d="M64 0v174h151v1043h-151v174h512v-174h-151v-1043h151v-174h-512zM178 1473l141 317h276l-289 -317h-128z" />
<glyph unicode="&#xce;" horiz-adv-x="641" d="M16 1476l168 312h267l173 -312h-141l-167 174l-165 -174h-135zM64 0v174h151v1043h-151v174h512v-174h-151v-1043h151v-174h-512z" />
<glyph unicode="&#xcf;" horiz-adv-x="641" d="M28 1617q0 45 32.5 78t78.5 33t78.5 -32.5t32.5 -78.5q0 -47 -32.5 -79t-78.5 -32q-45 0 -78 32.5t-33 78.5zM64 0v174h151v1043h-151v174h512v-174h-151v-1043h151v-174h-512zM390 1617q0 44 31.5 77.5t79.5 33.5q46 0 78.5 -33t32.5 -78q0 -46 -32.5 -78.5t-78.5 -32.5 q-47 0 -79 32.5t-32 78.5z" />
<glyph unicode="&#xd0;" horiz-adv-x="1493" d="M8 621v149h208v447h-189v174h538q223 0 343.5 -23t233.5 -104t180.5 -222.5t67.5 -322.5q0 -206 -65 -358t-171 -227t-251 -104.5t-370 -29.5h-506v174h189v447h-208zM426 174h109q185 0 292.5 23t181.5 78.5t120 167.5t46 264q0 181 -75.5 307t-193 164.5t-362.5 38.5 h-118v-447h317v-149h-317v-447z" />
<glyph unicode="&#xd1;" horiz-adv-x="1473" d="M10 0v174h199v1043h-199v174h475l610 -1081v907h-197v174h571v-174h-205v-1231h-216l-667 1187v-999h199v-174h-570zM408 1505q1 144 54 206t128 62q60 0 184 -72q86 -51 114 -51q67 0 71 118h112q-4 -154 -58.5 -216t-124.5 -62q-71 0 -181 67q-97 58 -127 58 q-31 0 -44 -24.5t-13 -85.5h-115z" />
<glyph unicode="&#xd2;" horiz-adv-x="1642" d="M102 702q0 303 198 507t516 204q321 0 523 -204t202 -511q0 -313 -205.5 -516.5t-522.5 -203.5q-202 0 -371.5 96.5t-254.5 269t-85 358.5zM331 701q0 -229 134 -384t352 -155q216 0 355 158.5t139 378.5q0 222 -141.5 375.5t-355.5 153.5q-213 0 -348 -151t-135 -376z M504 1790h276l141 -317h-128z" />
<glyph unicode="&#xd3;" horiz-adv-x="1642" d="M102 702q0 303 198 507t516 204q321 0 523 -204t202 -511q0 -313 -205.5 -516.5t-522.5 -203.5q-202 0 -371.5 96.5t-254.5 269t-85 358.5zM331 701q0 -229 134 -384t352 -155q216 0 355 158.5t139 378.5q0 222 -141.5 375.5t-355.5 153.5q-213 0 -348 -151t-135 -376z M721 1473l141 317h276l-289 -317h-128z" />
<glyph unicode="&#xd4;" horiz-adv-x="1642" d="M102 702q0 303 198 507t516 204q321 0 523 -204t202 -511q0 -313 -205.5 -516.5t-522.5 -203.5q-202 0 -371.5 96.5t-254.5 269t-85 358.5zM331 701q0 -229 134 -384t352 -155q216 0 355 158.5t139 378.5q0 222 -141.5 375.5t-355.5 153.5q-213 0 -348 -151t-135 -376z M518 1476l168 312h267l173 -312h-141l-167 174l-165 -174h-135z" />
<glyph unicode="&#xd5;" horiz-adv-x="1642" d="M102 702q0 303 198 507t516 204q321 0 523 -204t202 -511q0 -313 -205.5 -516.5t-522.5 -203.5q-202 0 -371.5 96.5t-254.5 269t-85 358.5zM331 701q0 -229 134 -384t352 -155q216 0 355 158.5t139 378.5q0 222 -141.5 375.5t-355.5 153.5q-213 0 -348 -151t-135 -376z M490 1505q1 144 54 206t128 62q60 0 184 -72q86 -51 114 -51q67 0 71 118h112q-4 -154 -58.5 -216t-124.5 -62q-71 0 -181 67q-97 58 -127 58q-31 0 -44 -24.5t-13 -85.5h-115z" />
<glyph unicode="&#xd6;" horiz-adv-x="1642" d="M102 702q0 303 198 507t516 204q321 0 523 -204t202 -511q0 -313 -205.5 -516.5t-522.5 -203.5q-202 0 -371.5 96.5t-254.5 269t-85 358.5zM331 701q0 -229 134 -384t352 -155q216 0 355 158.5t139 378.5q0 222 -141.5 375.5t-355.5 153.5q-213 0 -348 -151t-135 -376z M529 1617q0 45 32.5 78t78.5 33t78.5 -32.5t32.5 -78.5q0 -47 -32.5 -79t-78.5 -32q-45 0 -78 32.5t-33 78.5zM891 1617q0 44 31.5 77.5t79.5 33.5q46 0 78.5 -33t32.5 -78q0 -46 -32.5 -78.5t-78.5 -32.5q-47 0 -79 32.5t-32 78.5z" />
<glyph unicode="&#xd7;" horiz-adv-x="1366" d="M176 300l396 395l-396 396l111 111l396 -396l396 396l111 -111l-396 -396l396 -395l-111 -111l-396 396l-396 -396z" />
<glyph unicode="&#xd8;" horiz-adv-x="1642" d="M102 707q0 295 198.5 500.5t514.5 205.5q253 0 437 -131l113 128l102 -88l-113 -128q187 -198 187 -498q0 -311 -206 -514.5t-518 -203.5q-244 0 -427 129l-113 -127l-102 86l114 129q-187 207 -187 512zM331 702q0 -196 102 -345l681 769q-132 102 -299 102 q-214 0 -349 -151t-135 -375zM526 261q126 -99 292 -99q214 0 353.5 159.5t139.5 376.5q0 188 -104 331z" />
<glyph unicode="&#xd9;" horiz-adv-x="1386" d="M27 1217v174h547v-174h-165v-696q0 -162 16.5 -224t82.5 -105.5t170 -43.5q124 0 190 37.5t87.5 101t21.5 224.5v706h-161v174h544v-174h-174v-727q0 -147 -12.5 -213.5t-67.5 -139t-155 -116t-243 -43.5q-158 0 -263 40.5t-158 108.5t-70.5 145t-17.5 239v706h-172z M388 1790h276l141 -317h-128z" />
<glyph unicode="&#xda;" horiz-adv-x="1386" d="M27 1217v174h547v-174h-165v-696q0 -162 16.5 -224t82.5 -105.5t170 -43.5q124 0 190 37.5t87.5 101t21.5 224.5v706h-161v174h544v-174h-174v-727q0 -147 -12.5 -213.5t-67.5 -139t-155 -116t-243 -43.5q-158 0 -263 40.5t-158 108.5t-70.5 145t-17.5 239v706h-172z M581 1473l141 317h276l-289 -317h-128z" />
<glyph unicode="&#xdb;" horiz-adv-x="1386" d="M27 1217v174h547v-174h-165v-696q0 -162 16.5 -224t82.5 -105.5t170 -43.5q124 0 190 37.5t87.5 101t21.5 224.5v706h-161v174h544v-174h-174v-727q0 -147 -12.5 -213.5t-67.5 -139t-155 -116t-243 -43.5q-158 0 -263 40.5t-158 108.5t-70.5 145t-17.5 239v706h-172z M390 1476l168 312h267l173 -312h-141l-167 174l-165 -174h-135z" />
<glyph unicode="&#xdc;" horiz-adv-x="1386" d="M27 1217v174h547v-174h-165v-696q0 -162 16.5 -224t82.5 -105.5t170 -43.5q124 0 190 37.5t87.5 101t21.5 224.5v706h-161v174h544v-174h-174v-727q0 -147 -12.5 -213.5t-67.5 -139t-155 -116t-243 -43.5q-158 0 -263 40.5t-158 108.5t-70.5 145t-17.5 239v706h-172z M402 1617q0 45 32.5 78t78.5 33t78.5 -32.5t32.5 -78.5q0 -47 -32.5 -79t-78.5 -32q-45 0 -78 32.5t-33 78.5zM764 1617q0 44 31.5 77.5t79.5 33.5q46 0 78.5 -33t32.5 -78q0 -46 -32.5 -78.5t-78.5 -32.5q-47 0 -79 32.5t-32 78.5z" />
<glyph unicode="&#xdd;" horiz-adv-x="1323" d="M-21 1217v174h572v-174h-175l307 -429l280 429h-175v174h555v-174h-184l-386 -584v-459h190v-174h-587v174h187v459l-414 584h-170zM579 1473l141 317h276l-289 -317h-128z" />
<glyph unicode="&#xde;" d="M41 0v174h175v1043h-175v174h565v-174h-180v-92h112q219 0 328 -31t182.5 -140.5t73.5 -258.5q0 -119 -48.5 -213.5t-120 -139.5t-161 -60.5t-270.5 -15.5h-96v-92h180v-174h-565zM426 434h120q205 0 284 58.5t79 206.5q0 94 -42 156t-104 79t-207 17h-130v-517z" />
<glyph unicode="&#xdf;" horiz-adv-x="1323" d="M56 0v169h172v671q0 214 34.5 323t147.5 182.5t275 73.5q178 0 298 -90t120 -251q0 -190 -179 -279q149 -31 227.5 -140.5t78.5 -256.5q0 -189 -103.5 -303.5t-275.5 -114.5q-95 0 -173 38v160q62 -35 127 -35q102 0 163.5 70.5t61.5 186.5q0 104 -48.5 172.5t-118 93.5 t-185.5 28v157q106 0 166.5 58t60.5 146q0 87 -60 140.5t-158 53.5q-105 0 -166 -43.5t-82 -122.5t-21 -247v-671h150v-169h-512z" />
<glyph unicode="&#xe0;" horiz-adv-x="1087" d="M94 290q0 135 103.5 224t249.5 89q136 0 263 -82v96q0 74 -14 114t-65.5 72t-134.5 32q-143 0 -207 -114l-182 48q121 226 418 226q109 0 188.5 -29.5t118.5 -76t52.5 -100.5t13.5 -172v-448h163v-169h-332v118q-138 -134 -308 -134q-132 0 -229.5 86t-97.5 220zM276 291 q0 -68 46.5 -114t126.5 -46q138 0 261 116v113q-123 96 -249 96q-79 0 -132 -46t-53 -119zM291 1413h276l141 -317h-128z" />
<glyph unicode="&#xe1;" horiz-adv-x="1087" d="M94 290q0 135 103.5 224t249.5 89q136 0 263 -82v96q0 74 -14 114t-65.5 72t-134.5 32q-143 0 -207 -114l-182 48q121 226 418 226q109 0 188.5 -29.5t118.5 -76t52.5 -100.5t13.5 -172v-448h163v-169h-332v118q-138 -134 -308 -134q-132 0 -229.5 86t-97.5 220zM276 291 q0 -68 46.5 -114t126.5 -46q138 0 261 116v113q-123 96 -249 96q-79 0 -132 -46t-53 -119zM356 1096l141 317h276l-289 -317h-128z" />
<glyph unicode="&#xe2;" horiz-adv-x="1087" d="M94 290q0 135 103.5 224t249.5 89q136 0 263 -82v96q0 74 -14 114t-65.5 72t-134.5 32q-143 0 -207 -114l-182 48q121 226 418 226q109 0 188.5 -29.5t118.5 -76t52.5 -100.5t13.5 -172v-448h163v-169h-332v118q-138 -134 -308 -134q-132 0 -229.5 86t-97.5 220z M222 1099l168 312h267l173 -312h-141l-167 174l-165 -174h-135zM276 291q0 -68 46.5 -114t126.5 -46q138 0 261 116v113q-123 96 -249 96q-79 0 -132 -46t-53 -119z" />
<glyph unicode="&#xe3;" horiz-adv-x="1087" d="M94 290q0 135 103.5 224t249.5 89q136 0 263 -82v96q0 74 -14 114t-65.5 72t-134.5 32q-143 0 -207 -114l-182 48q121 226 418 226q109 0 188.5 -29.5t118.5 -76t52.5 -100.5t13.5 -172v-448h163v-169h-332v118q-138 -134 -308 -134q-132 0 -229.5 86t-97.5 220z M195 1128q1 144 54 206t128 62q60 0 184 -72q86 -51 114 -51q67 0 71 118h112q-4 -154 -58.5 -216t-124.5 -62q-71 0 -181 67q-97 58 -127 58q-31 0 -44 -24.5t-13 -85.5h-115zM276 291q0 -68 46.5 -114t126.5 -46q138 0 261 116v113q-123 96 -249 96q-79 0 -132 -46 t-53 -119z" />
<glyph unicode="&#xe4;" horiz-adv-x="1087" d="M94 290q0 135 103.5 224t249.5 89q136 0 263 -82v96q0 74 -14 114t-65.5 72t-134.5 32q-143 0 -207 -114l-182 48q121 226 418 226q109 0 188.5 -29.5t118.5 -76t52.5 -100.5t13.5 -172v-448h163v-169h-332v118q-138 -134 -308 -134q-132 0 -229.5 86t-97.5 220z M229 1255q0 45 32.5 78t78.5 33t78.5 -32.5t32.5 -78.5q0 -47 -32.5 -79t-78.5 -32q-45 0 -78 32.5t-33 78.5zM276 291q0 -68 46.5 -114t126.5 -46q138 0 261 116v113q-123 96 -249 96q-79 0 -132 -46t-53 -119zM591 1255q0 44 31.5 77.5t79.5 33.5q46 0 78.5 -33t32.5 -78 q0 -46 -32.5 -78.5t-78.5 -32.5q-47 0 -79 32.5t-32 78.5z" />
<glyph unicode="&#xe5;" horiz-adv-x="1087" d="M94 290q0 135 103.5 224t249.5 89q136 0 263 -82v96q0 74 -14 114t-65.5 72t-134.5 32q-143 0 -207 -114l-182 48q121 226 418 226q109 0 188.5 -29.5t118.5 -76t52.5 -100.5t13.5 -172v-448h163v-169h-332v118q-138 -134 -308 -134q-132 0 -229.5 86t-97.5 220zM276 291 q0 -68 46.5 -114t126.5 -46q138 0 261 116v113q-123 96 -249 96q-79 0 -132 -46t-53 -119zM322 1255q0 79 57 139t142 60q83 0 141 -58.5t58 -140.5t-58.5 -140.5t-140.5 -58.5q-85 0 -142 59.5t-57 139.5zM400 1255q0 -49 35 -85t86 -36q50 0 85.5 35.5t35.5 85.5 q0 49 -35.5 84.5t-85.5 35.5q-52 0 -86.5 -36t-34.5 -84z" />
<glyph unicode="&#xe6;" horiz-adv-x="1812" d="M85 278q0 150 117 234.5t261 84.5q139 0 282 -81v100q0 82 -17.5 122t-69 68.5t-135.5 28.5q-171 0 -243 -118l-184 51q130 227 447 227q238 0 345 -150q135 150 343 150q212 0 351.5 -158t142.5 -402h-786q9 -135 103.5 -217t216.5 -82q86 0 167 43.5t130 110.5l169 -75 q-64 -111 -191.5 -177t-269.5 -66q-271 0 -432 208q-52 -77 -160.5 -142.5t-234.5 -65.5q-146 0 -249 82t-103 224zM292 277q0 -68 54 -109t126 -41q156 0 273 123v97q-121 95 -253 95q-89 0 -144.5 -46.5t-55.5 -118.5zM938 579h580q-22 120 -104.5 184.5t-186.5 64.5 t-185.5 -68.5t-103.5 -180.5z" />
<glyph unicode="&#xe7;" horiz-adv-x="1067" d="M72 491q0 219 144 361.5t332 142.5q161 0 272 -95v68h170v-366h-170q-13 105 -85.5 161t-168.5 56q-128 0 -208 -90.5t-80 -237.5q0 -137 76 -241.5t220 -104.5q200 0 290 190l157 -74q-122 -270 -424 -288l-13 -70q142 -35 142 -163q0 -80 -69 -138.5t-233 -58.5h-72 v111q106 0 145 18t39 58q0 58 -97 58l35 191q-180 28 -291 176.5t-111 335.5z" />
<glyph unicode="&#xe8;" d="M74 484q0 223 153.5 367t352.5 144q195 0 353.5 -140.5t164.5 -418.5h-814q18 -134 106 -217t225 -83q199 0 315 160l168 -74q-82 -127 -213 -188.5t-274 -61.5q-222 0 -379.5 138.5t-157.5 373.5zM291 574h611q-20 102 -106 184.5t-211 82.5q-114 0 -195 -74.5 t-99 -192.5zM323 1413h276l141 -317h-128z" />
<glyph unicode="&#xe9;" d="M74 484q0 223 153.5 367t352.5 144q195 0 353.5 -140.5t164.5 -418.5h-814q18 -134 106 -217t225 -83q199 0 315 160l168 -74q-82 -127 -213 -188.5t-274 -61.5q-222 0 -379.5 138.5t-157.5 373.5zM291 574h611q-20 102 -106 184.5t-211 82.5q-114 0 -195 -74.5 t-99 -192.5zM438 1096l141 317h276l-289 -317h-128z" />
<glyph unicode="&#xea;" d="M74 484q0 223 153.5 367t352.5 144q195 0 353.5 -140.5t164.5 -418.5h-814q18 -134 106 -217t225 -83q199 0 315 160l168 -74q-82 -127 -213 -188.5t-274 -61.5q-222 0 -379.5 138.5t-157.5 373.5zM282 1099l168 312h267l173 -312h-141l-167 174l-165 -174h-135zM291 574 h611q-20 102 -106 184.5t-211 82.5q-114 0 -195 -74.5t-99 -192.5z" />
<glyph unicode="&#xeb;" d="M74 484q0 223 153.5 367t352.5 144q195 0 353.5 -140.5t164.5 -418.5h-814q18 -134 106 -217t225 -83q199 0 315 160l168 -74q-82 -127 -213 -188.5t-274 -61.5q-222 0 -379.5 138.5t-157.5 373.5zM291 574h611q-20 102 -106 184.5t-211 82.5q-114 0 -195 -74.5 t-99 -192.5zM294 1255q0 45 32.5 78t78.5 33t78.5 -32.5t32.5 -78.5q0 -47 -32.5 -79t-78.5 -32q-45 0 -78 32.5t-33 78.5zM656 1255q0 44 31.5 77.5t79.5 33.5q46 0 78.5 -33t32.5 -78q0 -46 -32.5 -78.5t-78.5 -32.5q-47 0 -79 32.5t-32 78.5z" />
<glyph unicode="&#xec;" horiz-adv-x="598" d="M24 1413h276l141 -317h-128zM66 0v169h151v630h-151v169h341v-799h149v-169h-490z" />
<glyph unicode="&#xed;" horiz-adv-x="598" d="M66 0v169h151v630h-151v169h341v-799h149v-169h-490zM145 1096l141 317h276l-289 -317h-128z" />
<glyph unicode="&#xee;" horiz-adv-x="598" d="M-4 1099l168 312h267l173 -312h-141l-167 174l-165 -174h-135zM66 0v169h151v630h-151v169h341v-799h149v-169h-490z" />
<glyph unicode="&#xef;" horiz-adv-x="598" d="M8 1255q0 45 32.5 78t78.5 33t78.5 -32.5t32.5 -78.5q0 -47 -32.5 -79t-78.5 -32q-45 0 -78 32.5t-33 78.5zM66 0v169h151v630h-151v169h341v-799h149v-169h-490zM370 1255q0 44 31.5 77.5t79.5 33.5q46 0 78.5 -33t32.5 -78q0 -46 -32.5 -78.5t-78.5 -32.5 q-47 0 -79 32.5t-32 78.5z" />
<glyph unicode="&#xf0;" d="M79 487q0 134 61 247t167 187t244 74q144 0 263 -89q-86 158 -197 282l-313 -131l-33 79l284 119q-54 56 -143 136h204q49 -37 88 -74l178 74l33 -79l-148 -61q327 -366 327 -718q0 -243 -143 -402t-372 -159q-228 0 -364 157t-136 358zM279 479q0 -136 83.5 -230 t219.5 -94q132 0 221 99t89 236q0 108 -52.5 184.5t-127.5 107.5t-131 31q-124 0 -213 -90.5t-89 -243.5z" />
<glyph unicode="&#xf1;" d="M55 0v169h170v630h-170v169h360v-117q183 132 334 132q94 0 155.5 -44.5t80.5 -109t19 -188.5v-472h163v-169h-353v633q0 110 -33 143.5t-81 33.5q-126 0 -285 -123v-518h167v-169h-527zM280 1128q1 144 54 206t128 62q60 0 184 -72q86 -51 114 -51q67 0 71 118h112 q-4 -154 -58.5 -216t-124.5 -62q-71 0 -181 67q-97 58 -127 58q-31 0 -44 -24.5t-13 -85.5h-115z" />
<glyph unicode="&#xf2;" d="M78 484q0 224 148 367.5t361 143.5q209 0 359 -141.5t150 -369.5t-149.5 -370t-359.5 -142q-216 0 -362.5 144t-146.5 368zM279 484q0 -143 89.5 -234.5t218.5 -91.5q131 0 219.5 92.5t88.5 233.5q0 142 -90 234t-218 92q-134 0 -221 -94t-87 -232zM306 1413h276 l141 -317h-128z" />
<glyph unicode="&#xf3;" d="M78 484q0 224 148 367.5t361 143.5q209 0 359 -141.5t150 -369.5t-149.5 -370t-359.5 -142q-216 0 -362.5 144t-146.5 368zM279 484q0 -143 89.5 -234.5t218.5 -91.5q131 0 219.5 92.5t88.5 233.5q0 142 -90 234t-218 92q-134 0 -221 -94t-87 -232zM451 1096l141 317h276 l-289 -317h-128z" />
<glyph unicode="&#xf4;" d="M78 484q0 224 148 367.5t361 143.5q209 0 359 -141.5t150 -369.5t-149.5 -370t-359.5 -142q-216 0 -362.5 144t-146.5 368zM279 484q0 -143 89.5 -234.5t218.5 -91.5q131 0 219.5 92.5t88.5 233.5q0 142 -90 234t-218 92q-134 0 -221 -94t-87 -232zM283 1099l168 312h267 l173 -312h-141l-167 174l-165 -174h-135z" />
<glyph unicode="&#xf5;" d="M78 484q0 224 148 367.5t361 143.5q209 0 359 -141.5t150 -369.5t-149.5 -370t-359.5 -142q-216 0 -362.5 144t-146.5 368zM256 1128q1 144 54 206t128 62q60 0 184 -72q86 -51 114 -51q67 0 71 118h112q-4 -154 -58.5 -216t-124.5 -62q-71 0 -181 67q-97 58 -127 58 q-31 0 -44 -24.5t-13 -85.5h-115zM279 484q0 -143 89.5 -234.5t218.5 -91.5q131 0 219.5 92.5t88.5 233.5q0 142 -90 234t-218 92q-134 0 -221 -94t-87 -232z" />
<glyph unicode="&#xf6;" d="M78 484q0 224 148 367.5t361 143.5q209 0 359 -141.5t150 -369.5t-149.5 -370t-359.5 -142q-216 0 -362.5 144t-146.5 368zM279 484q0 -143 89.5 -234.5t218.5 -91.5q131 0 219.5 92.5t88.5 233.5q0 142 -90 234t-218 92q-134 0 -221 -94t-87 -232zM295 1255 q0 45 32.5 78t78.5 33t78.5 -32.5t32.5 -78.5q0 -47 -32.5 -79t-78.5 -32q-45 0 -78 32.5t-33 78.5zM657 1255q0 44 31.5 77.5t79.5 33.5q46 0 78.5 -33t32.5 -78q0 -46 -32.5 -78.5t-78.5 -32.5q-47 0 -79 32.5t-32 78.5z" />
<glyph unicode="&#xf7;" horiz-adv-x="1366" d="M135 617v157h1096v-157h-1096zM585 277q0 41 29 69t69 28t69 -28t29 -69t-29 -69.5t-69 -28.5t-69 28.5t-29 69.5zM585 1114q0 43 29.5 70.5t68.5 27.5q40 0 69 -28.5t29 -69.5t-29 -69t-69 -28t-69 28.5t-29 68.5z" />
<glyph unicode="&#xf8;" d="M78 485q0 223 149 366.5t359 143.5q169 0 301 -93l97 114l66 -58l-96 -113q142 -144 142 -362q0 -224 -149 -367.5t-358 -143.5q-167 0 -300 91l-97 -114l-69 58l97 113q-142 146 -142 365zM279 485q0 -125 70 -214l412 484q-80 55 -174 55q-128 0 -218 -92t-90 -233z M415 211q78 -53 173 -53q123 0 215 89.5t92 235.5q0 125 -69 211z" />
<glyph unicode="&#xf9;" horiz-adv-x="1153" d="M53 799v169h327v-590q0 -107 6 -144t35 -61t73 -24q132 0 282 126v524h-171v169h361v-799h167v-169h-357v111q-167 -127 -320 -127q-97 0 -160.5 42.5t-84.5 110t-21 217.5v445h-137zM322 1413h276l141 -317h-128z" />
<glyph unicode="&#xfa;" horiz-adv-x="1153" d="M53 799v169h327v-590q0 -107 6 -144t35 -61t73 -24q132 0 282 126v524h-171v169h361v-799h167v-169h-357v111q-167 -127 -320 -127q-97 0 -160.5 42.5t-84.5 110t-21 217.5v445h-137zM433 1096l141 317h276l-289 -317h-128z" />
<glyph unicode="&#xfb;" horiz-adv-x="1153" d="M53 799v169h327v-590q0 -107 6 -144t35 -61t73 -24q132 0 282 126v524h-171v169h361v-799h167v-169h-357v111q-167 -127 -320 -127q-97 0 -160.5 42.5t-84.5 110t-21 217.5v445h-137zM289 1099l168 312h267l173 -312h-141l-167 174l-165 -174h-135z" />
<glyph unicode="&#xfc;" horiz-adv-x="1153" d="M53 799v169h327v-590q0 -107 6 -144t35 -61t73 -24q132 0 282 126v524h-171v169h361v-799h167v-169h-357v111q-167 -127 -320 -127q-97 0 -160.5 42.5t-84.5 110t-21 217.5v445h-137zM301 1255q0 45 32.5 78t78.5 33t78.5 -32.5t32.5 -78.5q0 -47 -32.5 -79t-78.5 -32 q-45 0 -78 32.5t-33 78.5zM663 1255q0 44 31.5 77.5t79.5 33.5q46 0 78.5 -33t32.5 -78q0 -46 -32.5 -78.5t-78.5 -32.5q-47 0 -79 32.5t-32 78.5z" />
<glyph unicode="&#xfd;" horiz-adv-x="1153" d="M17 799v169h479v-169h-116l209 -536l205 536h-128v169h469v-169h-144l-479 -1233h-321v166h189l116 285l-318 782h-161zM462 1096l141 317h276l-289 -317h-128z" />
<glyph unicode="&#xfe;" horiz-adv-x="1280" d="M14 -265h177v1487h-163v169h353v-575q142 167 344 167q204 0 337.5 -140t133.5 -364q0 -235 -145 -371t-330 -136q-192 0 -340 148v-385h188v-169h-555v169zM378 470q0 -80 33 -153t105 -122.5t169 -49.5q136 0 224.5 91t88.5 250q0 155 -92.5 242t-210.5 87 q-126 0 -221.5 -94.5t-95.5 -250.5z" />
<glyph unicode="&#xff;" horiz-adv-x="1153" d="M17 799v169h479v-169h-116l209 -536l205 536h-128v169h469v-169h-144l-479 -1233h-321v166h189l116 285l-318 782h-161zM296 1255q0 45 32.5 78t78.5 33t78.5 -32.5t32.5 -78.5q0 -47 -32.5 -79t-78.5 -32q-45 0 -78 32.5t-33 78.5zM658 1255q0 44 31.5 77.5t79.5 33.5 q46 0 78.5 -33t32.5 -78q0 -46 -32.5 -78.5t-78.5 -32.5q-47 0 -79 32.5t-32 78.5z" />
<glyph unicode="&#x152;" horiz-adv-x="2091" d="M82 682q0 178 73.5 330t183 233.5t234.5 113.5t348 32h1102v-419h-171v245h-596v-409h515v-174h-515v-460h596v251h171v-425h-1054q-247 0 -356.5 18t-239.5 104.5t-210.5 237.5t-80.5 322zM291 696q0 -183 76.5 -306t199 -169.5t323.5 -46.5h156v1043h-182 q-142 0 -227 -20t-167 -81t-130.5 -170.5t-48.5 -249.5z" />
<glyph unicode="&#x153;" horiz-adv-x="1942" d="M73 485q0 145 68.5 261.5t189.5 182.5t242 66q232 0 390 -196q144 196 388 196q213 0 362 -158t149 -402h-800q6 -120 93.5 -208t221.5 -88q188 0 318 159l167 -72q-82 -134 -215.5 -194t-266.5 -60q-263 0 -417 197q-139 -197 -384 -197q-210 0 -358 143.5t-148 369.5z M279 481q0 -144 86 -234.5t213 -90.5q130 0 212.5 94t82.5 237q0 158 -97 237t-203 79q-125 0 -209.5 -91t-84.5 -231zM1067 579h581q-22 114 -108 180.5t-194 66.5q-103 0 -180.5 -64t-98.5 -183z" />
<glyph unicode="&#x178;" horiz-adv-x="1323" d="M-21 1217v174h572v-174h-175l307 -429l280 429h-175v174h555v-174h-184l-386 -584v-459h190v-174h-587v174h187v459l-414 584h-170zM369 1617q0 45 32.5 78t78.5 33t78.5 -32.5t32.5 -78.5q0 -47 -32.5 -79t-78.5 -32q-45 0 -78 32.5t-33 78.5zM731 1617q0 44 31.5 77.5 t79.5 33.5q46 0 78.5 -33t32.5 -78q0 -46 -32.5 -78.5t-78.5 -32.5q-47 0 -79 32.5t-32 78.5z" />
<glyph unicode="&#x2c6;" horiz-adv-x="682" d="M37 1099l168 312h267l173 -312h-141l-167 174l-165 -174h-135z" />
<glyph unicode="&#x2dc;" horiz-adv-x="682" d="M10 1128q1 144 54 206t128 62q60 0 184 -72q86 -51 114 -51q67 0 71 118h112q-4 -154 -58.5 -216t-124.5 -62q-71 0 -181 67q-97 58 -127 58q-31 0 -44 -24.5t-13 -85.5h-115z" />
<glyph unicode="&#x2013;" horiz-adv-x="1024" d="M-12 424v177h1048v-177h-1048z" />
<glyph unicode="&#x2014;" horiz-adv-x="2048" d="M-12 424v177h2072v-177h-2072z" />
<glyph unicode="&#x2018;" horiz-adv-x="598" d="M176 868v214q0 109 17 169t72 98.5t157 41.5v-104q-120 -18 -120 -149v-24h120v-246h-246z" />
<glyph unicode="&#x2019;" horiz-adv-x="598" d="M176 868v105q120 18 120 148q0 8 -1 24h-119v246h246v-213q0 -110 -17 -170t-72.5 -98t-156.5 -42z" />
<glyph unicode="&#x201a;" horiz-adv-x="598" d="M176 0v246h246v-214q0 -109 -17 -169t-72.5 -98.5t-156.5 -41.5v104q120 18 120 149q0 8 -1 24h-119z" />
<glyph unicode="&#x201c;" horiz-adv-x="1067" d="M164 868v214q0 109 17 169t72 98.5t157 41.5v-104q-120 -18 -120 -149v-24h120v-246h-246zM659 868v214q0 109 16.5 169t72 98.5t156.5 41.5v-104q-120 -18 -120 -149q0 -8 1 -24h119v-246h-245z" />
<glyph unicode="&#x201d;" horiz-adv-x="1067" d="M163 868v105q120 18 120 148q0 8 -1 24h-119v246h246v-213q0 -110 -17 -170t-72.5 -98t-156.5 -42zM658 868v105q120 18 120 148q0 8 -1 24h-119v246h245v-213q0 -110 -17 -170t-72 -98t-156 -42z" />
<glyph unicode="&#x201e;" horiz-adv-x="1067" d="M163 0v246h246v-214q0 -109 -17 -169t-72.5 -98.5t-156.5 -41.5v104q120 18 120 149q0 8 -1 24h-119zM658 0v246h245v-214q0 -109 -17 -169t-72 -98.5t-156 -41.5v104q120 18 120 149q0 8 -1 24h-119z" />
<glyph unicode="&#x2022;" horiz-adv-x="725" d="M113 695q0 104 74 177.5t177 73.5q101 0 176 -71.5t75 -179.5q0 -103 -74 -176.5t-177 -73.5q-104 0 -177.5 73.5t-73.5 176.5z" />
<glyph unicode="&#x2026;" horiz-adv-x="2048" d="M219 0v246h246v-246h-246zM902 0v246h245v-246h-245zM1584 0v246h246v-246h-246z" />
<glyph unicode="&#x2039;" horiz-adv-x="598" d="M55 484l303 484h194l-292 -484l292 -484h-194z" />
<glyph unicode="&#x203a;" horiz-adv-x="598" d="M45 0l292 484l-292 484h194l303 -484l-303 -484h-194z" />
<glyph unicode="&#x20ac;" horiz-adv-x="1110" d="M25 483v152h118v59q0 49 2 70h-120v151h131q58 498 495 498q148 0 217 -96v86h181v-414h-181q-15 122 -73.5 191t-145.5 69q-127 0 -196 -80.5t-91 -253.5h359v-151h-369l-2 -64l2 -65h369v-152h-354q48 -338 303 -338q83 0 146 73.5t89 191.5l182 -80 q-32 -161 -144.5 -257t-287.5 -96q-436 0 -499 506h-131z" />
<glyph unicode="&#x2122;" horiz-adv-x="2048" d="M230 1270v121h666v-121h-266v-693h-136v693h-264zM987 577v814h200l206 -651l199 651h196v-814h-124v683l-210 -683h-123l-219 693v-693h-125z" />
<glyph unicode="&#xe000;" horiz-adv-x="970" d="M0 970h970v-970h-970v970z" />
<glyph unicode="&#xfb01;" horiz-adv-x="1196" d="M56 0v169h141v630h-141v168h141v140q0 177 75 244.5t177 67.5q220 0 255 -223l-169 -26q-10 93 -73 93q-43 0 -59 -29.5t-16 -126.5v-140h166v-168h-166v-630h184v-169h-515zM664 0v169h151v630h-151v169h341v-799h149v-169h-490zM788 1297q0 46 32.5 80t82.5 34 q47 0 81 -33t34 -81t-34 -81.5t-81 -33.5q-48 0 -81.5 34t-33.5 81z" />
<glyph unicode="&#xfb02;" horiz-adv-x="1196" d="M56 0v169h141v630h-141v168h141v140q0 177 75 244.5t177 67.5q220 0 255 -223l-169 -26q-10 93 -73 93q-43 0 -59 -29.5t-16 -126.5v-140h166v-168h-166v-630h184v-169h-515zM639 0v169h172v1053h-172v169h362v-1222h148v-169h-510z" />
<glyph unicode="&#xfb03;" horiz-adv-x="1794" d="M56 0v169h141v630h-141v168h141v140q0 177 75 244.5t177 67.5q220 0 255 -223l-169 -26q-10 93 -73 93q-43 0 -59 -29.5t-16 -126.5v-140h166v-168h-166v-630h184v-169h-515zM654 0v169h141v630h-141v168h141v140q0 177 75 244.5t177 67.5q220 0 255 -223l-169 -26 q-10 93 -73 93q-43 0 -59 -29.5t-16 -126.5v-140h166v-168h-166v-630h184v-169h-515zM1262 0v169h151v630h-151v169h341v-799h149v-169h-490zM1386 1297q0 46 32.5 80t82.5 34q47 0 81 -33t34 -81t-34 -81.5t-81 -33.5q-48 0 -81.5 34t-33.5 81z" />
<glyph unicode="&#xfb04;" horiz-adv-x="1794" d="M56 0v169h141v630h-141v168h141v140q0 177 75 244.5t177 67.5q220 0 255 -223l-169 -26q-10 93 -73 93q-43 0 -59 -29.5t-16 -126.5v-140h166v-168h-166v-630h184v-169h-515zM654 0v169h141v630h-141v168h141v140q0 177 75 244.5t177 67.5q220 0 255 -223l-169 -26 q-10 93 -73 93q-43 0 -59 -29.5t-16 -126.5v-140h166v-168h-166v-630h184v-169h-515zM1237 0v169h172v1053h-172v169h362v-1222h148v-169h-510z" />
</font>
</defs>
</svg>
