<?xml version="1.0" standalone="no"?>
<!DOCTYPE svg PUBLIC "-//W3C//DTD SVG 1.1//EN" "http://www.w3.org/Graphics/SVG/1.1/DTD/svg11.dtd" >
<svg xmlns="http://www.w3.org/2000/svg">
<metadata></metadata>
<defs>
<font id="tabitharegular" horiz-adv-x="681" >
<font-face units-per-em="2048" ascent="1638" descent="-410" />
<missing-glyph horiz-adv-x="577" />
<glyph horiz-adv-x="2048" />
<glyph horiz-adv-x="2048" />
<glyph unicode="&#xd;" horiz-adv-x="577" />
<glyph unicode=" "  horiz-adv-x="577" />
<glyph unicode="&#x09;" horiz-adv-x="577" />
<glyph unicode="&#xa0;" horiz-adv-x="577" />
<glyph unicode="!" horiz-adv-x="546" d="M84 113q0 57 69 112.5t126 55.5q45 0 77 -70q29 -59 29 -111q0 -53 -61 -92q-53 -35 -111 -35q-55 0 -92 42t-37 98zM109 418q0 25 12 72t12 71q0 182 17 426l28 426q4 47 37 68q94 -14 164 -15q25 0 52.5 -23.5t27.5 -47.5q0 -14 -32 -79t-34 -95q-33 -377 -33 -822 q0 -41 -45 -51q-18 -4 -79 -4q-33 0 -76 21q-51 24 -51 53z" />
<glyph unicode="&#x22;" horiz-adv-x="702" d="M68 1341q0 113 63 123q39 6 68 6q72 0 90 -38q12 -25 12 -101q-4 -47 -25 -278q-6 -74 -10 -82q-14 -29 -67 -37l-15 -2q-16 -4 -28 -4q-78 0 -78 155q0 35 4 80q0 31 -7 89.5t-7 88.5zM375 1341q0 113 63 123q39 6 68 6q72 0 90 -38q12 -25 12 -101q-4 -47 -24 -278 q-6 -74 -11 -82q-14 -29 -67 -37l-14 -2q-16 -4 -29 -4q-78 0 -78 155q0 35 4 80q0 31 -7 89.5t-7 88.5z" />
<glyph unicode="#" horiz-adv-x="1452" d="M47 438q0 25 21 60q39 66 84 86q25 10 122 20q47 4 132 10l34 164q-45 0 -125 2q-88 4 -125 4q-51 6 -51 17q-2 20 21 57q43 70 82 88q29 12 123 21q20 2 118 8q41 193 56 244q57 217 168 217q20 0 43 -6q8 -2 8 -31q0 -90 -68 -416l164 4q41 186 53 232q57 217 168 217 q20 0 43 -6q8 -2 8 -31q0 -88 -65 -408q315 4 317 -26q10 -154 -248 -168q-10 -2 -110 -6q-18 -76 -37 -160q303 2 305 -29q10 -152 -250 -168q-23 0 -100 -4q-45 -195 -61 -256q-25 -92 -43 -117q-27 -39 -103 -65q-39 -14 -61 -8q-12 2 2 118q4 33 63 322l-168 -4 l-59 -246q-25 -90 -43 -117q-27 -39 -103 -65q-39 -14 -61 -8q-12 2 2 118q4 33 62 316q-172 -2 -201 0q-55 4 -64 6q-51 4 -53 14zM612 623l166 4l33 157l-162 -2q-16 -78 -37 -159z" />
<glyph unicode="$" horiz-adv-x="970" d="M45 479q0 41 49 68q43 23 88 22q78 0 111 -57q16 -29 57 -102q45 -57 142 -58q127 0 126 94q0 84 -135 127q-221 70 -254 91q-137 84 -137 270q0 156 84 244q68 70 230 125q0 20 -2.5 61t-2.5 61q0 63 39 88q31 18 101 19q82 0 82 -135q0 -18 -2.5 -52t-2.5 -53 q109 -41 191 -163.5t82 -239.5q0 -59 -72 -60q-74 0 -119 27q2 4 2 10q0 39 -71 135q-84 113 -127 113q-63 0 -98 -76q-27 -57 -27 -131q0 -115 137 -159q31 -10 254 -72q135 -53 135 -170q0 -125 -76.5 -229.5t-195.5 -135.5q-14 -29 -19 -53q-2 -20 0 -55l4 -56 q0 -74 -155 -73q-63 0 -64 133q0 20 3.5 61t3.5 62q-131 14 -240 100q-121 94 -121 219z" />
<glyph unicode="%" horiz-adv-x="1331" d="M39 1079q0 51 20 125q37 133 72 174q53 63 176 64q135 0 220 -88t85 -224q0 -211 -133 -294l-2 -2q-135 -20 -123 -21q-125 0 -215 70q-100 75 -100 196zM246 1081q0 -53 18 -94q25 -55 70 -55q90 0 90 196q0 57 -16 105q-23 68 -68 67q-47 0 -74 -90q-20 -68 -20 -129z M260 96q0 80 311 637q264 473 390 658q45 68 67 67q41 0 96 -20q66 -25 66 -58l-283 -471q-246 -412 -487 -884q-12 -25 -47 -25q-16 0 -64.5 41t-48.5 55zM719 281l2 26q23 305 231 305q158 0 248 -84t90 -241q0 -115 -51 -199q-61 -98 -168 -98q-63 0 -162 37 q-104 37 -143 79q-55 61 -47 175zM934 201q0 -82 65 -82q88 0 88 192q0 96 -49 158q-53 -23 -82 -119q-22 -73 -22 -149z" />
<glyph unicode="&#x26;" horiz-adv-x="1343" d="M39 324q0 141 219 239q41 19 156 66q-344 20 -344 248q0 166 309 297q264 113 461 112q119 0 185.5 -70.5t66.5 -191.5q0 -86 -74 -86q-102 0 -174 154h-6q-100 0 -281 -72q-170 -68 -258 -135l-4 -41q47 -66 227 -66h105q117 0 166 -20q82 -35 81 -131q0 -37 -167 -105 q-266 -109 -312 -129q-168 -80 -168 -149q0 -39 78 -60q61 -16 111 -16q324 0 577 156q-45 2 -119 32q-86 35 -88 70q-2 63 209 106q160 33 252 33q125 0 125 -141q0 -57 -170 -86q-53 -182 -276 -277q-180 -76 -406 -75q-168 0 -311 82q-170 98 -170 256z" />
<glyph unicode="'" horiz-adv-x="387" d="M68 1341q0 113 63 123q39 6 68 6q72 0 90 -38q12 -25 12 -101q-4 -47 -25 -278q-6 -74 -10 -82q-14 -29 -67 -37l-15 -2q-16 -4 -28 -4q-78 0 -78 155q0 35 4 80q0 31 -7 89.5t-7 88.5z" />
<glyph unicode="(" horiz-adv-x="573" d="M84 657q0 389 27 541q66 371 278 371q35 0 66 -15q39 -18 39 -49t-15 -57q-53 -12 -88 -33q-63 -37 -63 -667q0 -47 -3 -138.5t-3 -138.5q0 -537 210 -571l11 -15q-2 -66 -105 -65q-227 0 -309 330q-45 179 -45 507z" />
<glyph unicode=")" horiz-adv-x="567" d="M23 1501q0 59 92 60q358 0 358 -717q0 -29 6 -215q4 -129 -4 -213q-14 -121 -31 -246q-47 -360 -272 -360q-37 0 -68 14q-39 18 -38 49q0 31 14 57q31 8 90 33q63 35 63 668q0 344 -8 450q-27 342 -131 375l-65 21q-6 12 -6 24z" />
<glyph unicode="*" horiz-adv-x="755" d="M49 1200q0 119 96 119q54 0 107 -10q2 18 -6 52t-8 48q0 29 25.5 50.5t53.5 21.5q53 0 129 -150q16 39 60.5 85t79.5 46q33 0 56.5 -23.5t23.5 -56.5q0 -74 -88 -139q41 -8 77 -39q43 -37 43 -74q0 -29 -21.5 -52t-49.5 -23q-12 0 -33 2h-33q-63 0 -57 2q31 -53 31 -117 q0 -61 -68 -61q-41 0 -84 37.5t-57 78.5q-16 -29 -59.5 -65.5t-69.5 -36.5q-84 0 -84 86q0 88 73 131q-12 12 -82 43q-55 25 -55 45z" />
<glyph unicode="+" horiz-adv-x="1030" d="M33 477q0 37 16 62q10 12 150 28q156 18 219 19l2 30q4 68 14 218q25 121 107 120q35 0 46 -10t17 -45q16 -90 12 -317h27q201 0 217 -9q123 -18 123 -100q0 -47 -41 -61q-14 -6 -84 -15q-111 -14 -250 -12l-2 -57q2 -51 2 -187q-2 -135 -98 -135q-37 0 -64 19 q-12 10 -24 151q-6 72 -6 215l-58 -2q-41 -2 -118.5 -7t-67.5 -5q-139 0 -139 100z" />
<glyph unicode="," horiz-adv-x="387" d="M57 -129q0 53 21 141q2 78 12 168q12 123 84 123q154 0 154 -80q0 -66 -74 -350q-18 -72 -23 -80q-18 -27 -73 -26h-15q-86 0 -86 104z" />
<glyph unicode="-" horiz-adv-x="735" d="M43 539q0 47 391 47q115 0 170 -21q90 -33 90 -129q0 -47 -186 -47h-227q-92 0 -125 12q-43 16 -88 80q-25 35 -25 58z" />
<glyph unicode="." horiz-adv-x="415" d="M55 113q0 57 68 112.5t127 55.5q45 0 78 -70q29 -59 28 -111q0 -53 -61 -92q-53 -35 -111 -35q-55 0 -92 42t-37 98z" />
<glyph unicode="/" horiz-adv-x="569" d="M29 145l37 95q4 10 20 79q70 295 201 768l69 252q29 106 47 107q139 -86 140 -186q0 -23 -43 -101q-47 -84 -54 -106l-221 -811q-41 -250 -90 -250q-53 0 -82 53q-24 43 -24 100z" />
<glyph unicode="0" horiz-adv-x="1253" d="M59 567q0 287 129 498q152 248 414 248q250 0 424 -197q168 -190 168 -444q0 -281 -127 -467q-145 -215 -414 -215q-256 0 -425 160.5t-169 416.5zM289 494q0 -156 84 -261q89 -114 241 -114q172 0 279 192q90 162 90 344q0 207 -65 338q-86 174 -273 174 q-170 0 -274 -264q-82 -207 -82 -409z" />
<glyph unicode="1" horiz-adv-x="1259" d="M287 47q0 61 80 90q35 13 133 27q2 313 16 940q-14 -4 -35 -4q-141 0 -141 74q0 51 129 81q96 23 172 23q113 0 113 -113q0 -121 -16.5 -359.5t-16.5 -359.5v-260q145 -18 145 -135q0 -61 -465 -61q-115 0 -114 57z" />
<glyph unicode="2" horiz-adv-x="1253" d="M119 113q0 41 33 67q14 12 71 33q227 84 449 309q246 250 246 465q0 76 -39 132.5t-111 56.5q-133 0 -283.5 -178.5t-150.5 -313.5q0 -20 -16.5 -38.5t-36.5 -18.5q-51 0 -91 40t-40 91q0 190 165.5 383.5t354.5 193.5q180 0 320 -131t140 -311t-184 -377 q-143 -153 -342 -270q184 6 230 6q281 0 280 -119q0 -61 -94 -61q-18 0 -57 4t-58 4q-328 0 -629 -72q-14 -4 -43.5 -22.5t-50.5 -18.5q-63 0 -63 146z" />
<glyph unicode="3" horiz-adv-x="1253" d="M127 854q0 170 199 320q186 141 362 141q121 0 275 -125q160 -131 159 -248q0 -100 -100 -201q-87 -88 -193 -129h19q100 0 180 -85t80 -185q0 -178 -205 -285q-166 -86 -364 -86q-143 0 -258 54q-147 68 -148 194q0 41 32 72t73 31q39 0 45 -46q8 -55 36 -79 q55 -45 209 -45q133 0 271 75q109 59 108 140q0 49 -129 84q-100 27 -174 26q-29 0 -82 -13t-82 -13q-63 0 -63 153q0 61 43 62q12 0 38.5 -4.5t39.5 -4.5q123 0 264 115t141 236q0 53 -45 87.5t-100 34.5q-127 0 -277 -126q-156 -129 -155 -254l-7 -19l-22 -4 q-53 0 -109 37q-61 39 -61 90z" />
<glyph unicode="4" horiz-adv-x="1251" d="M2 485q0 39 639 633v2q113 106 135 123q80 57 166 57q39 0 70 -16q39 -20 30 -55q-29 -137 -41 -373l-20 -375l43 2q160 8 160 -114q0 -47 -80 -64q-25 -4 -125 -24q0 -33 4 -95.5t4 -95.5q0 -63 -49 -82q-27 -10 -107 -10q-84 0 -83 61q0 14 2 40t2 40v150 q-274 -33 -650 -33q-49 0 -77 92q-23 72 -23 137zM221 449q181 -1 535 24l16 424q0 12 -4 78l-287 -266q-238 -221 -260 -260z" />
<glyph unicode="5" horiz-adv-x="1253" d="M80 231q0 98 82 99q47 0 74 -41q14 -27 45 -78q39 -41 122 -41q158 0 338 51q244 70 244 185q0 82 -137 124q-98 31 -205 31q-70 0 -208 -48t-183 -48q-35 0 -63.5 28.5t-28.5 63.5q0 84 4 168l8 168q4 109 14 244q18 76 86 98q55 18 248 18h252q184 0 215 -4 q156 -20 156 -104l-4 -23q-10 -33 -330 -49q-174 -8 -393 -18q-23 -61 -27 -160v-164q35 -2 100.5 5t94.5 7q211 0 370 -79q203 -100 203 -291q0 -205 -264 -314q-199 -82 -440 -82q-131 0 -240 60q-133 72 -133 194z" />
<glyph unicode="6" horiz-adv-x="1253" d="M80 600q0 244 117 473q141 279 362 279q223 0 371 -125q158 -131 157 -350q0 -117 -147 -117q-33 0 -57 112q-35 166 -56 209q-51 113 -147 113q-164 0 -274 -219q-92 -182 -93 -365q0 -26 6 -59q270 162 453 162q162 0 280.5 -108.5t118.5 -268.5q0 -158 -217 -268 q-184 -94 -360 -95q-53 0 -197 56q-201 78 -268 223q-49 106 -49 348zM322 322q4 -82 53 -146q53 -72 131 -72q115 0 276 105q174 115 174 221q0 66 -149 66q-373 0 -485 -174z" />
<glyph unicode="7" horiz-adv-x="1253" d="M72 879q0 68 37 215q45 180 92 180q29 0 86 -32t84 -32q78 0 234.5 21.5t234.5 21.5q18 0 52 2t52 2q166 0 166 -86q-133 -311 -414 -972q-10 -35 -40.5 -126t-59.5 -91q-49 0 -98 22q-61 27 -62 70q0 133 174 493q190 393 213 506l-485 -35l-62 -172q-41 -117 -90 -116 q-115 0 -114 129z" />
<glyph unicode="8" horiz-adv-x="1257" d="M96 342q0 104 82 178q80 60 160 117q-207 137 -207 287q0 154 182 280q168 117 330 117q139 0 279 -100q152 -109 151 -242q0 -96 -75.5 -193.5t-170.5 -132.5q121 -25 220 -100q117 -88 116 -199q0 -178 -180 -286q-152 -92 -342 -93q-180 0 -346 93q-199 111 -199 274z M305 272q0 -70 111 -104q78 -25 166 -25q109 0 221 54q137 66 137 163q0 98 -113 152q-88 41 -200 41q-100 0 -211 -92t-111 -189zM338 870q0 -49 68 -86q59 -32 112 -32q123 0 215 57q109 66 109 182q0 63 -36 105.5t-99 42.5q-74 0 -155 -39t-132 -96q-82 -94 -82 -134z " />
<glyph unicode="9" horiz-adv-x="1253" d="M80 995q0 156 215 267q182 94 356 94q74 0 201 -53q199 -84 264 -216q55 -111 55 -337q0 -250 -114 -486q-141 -289 -367 -289q-229 0 -375 131q-152 135 -151 363q0 49 49 78q43 25 96 24q35 0 60 -112q35 -166 55 -211q49 -113 145 -113q172 0 285 230q94 193 86 376 l-2 45q-254 -170 -455 -170q-164 0 -283.5 107.5t-119.5 271.5zM293 903q-1 -72 151 -72q127 0 281 46q203 59 203 145q0 70 -57.5 137.5t-125.5 67.5q-113 0 -276 -107q-176 -115 -176 -217z" />
<glyph unicode=":" horiz-adv-x="471" d="M84 113q0 57 69 112.5t126 55.5q45 0 77 -70q29 -59 29 -111q0 -53 -61 -92q-53 -35 -111 -35q-55 0 -92 42t-37 98zM84 725q0 55 69 109.5t126 54.5q45 0 79 -74q27 -57 27 -104q0 -55 -61 -93q-53 -33 -111 -32q-55 0 -92 41t-37 98z" />
<glyph unicode=";" horiz-adv-x="471" d="M84 725q0 55 69 109.5t126 54.5q45 0 79 -74q27 -57 27 -104q0 -55 -61 -93q-53 -33 -111 -32q-55 0 -92 41t-37 98zM102 -129q0 61 19 141q4 47 15 169t83 122q156 0 156 -78q0 -55 -76 -352q-18 -70 -25 -80q-18 -27 -71 -26h-17q-51 0 -69 28q-15 21 -15 76z" />
<glyph unicode="&#x3c;" horiz-adv-x="950" d="M-4 489q39 74 92 107q35 23 152 53q522 139 610 139q31 0 38 -9t7 -40q0 -76 -100 -129q-58 -30 -193 -67q-147 -18 -385 -60q188 -27 385 -61q100 -18 193 -68q100 -53 100 -129q0 -47 -45 -47q-98 0 -610 137q-111 29 -150 54q-51 31 -90 102q-8 8 -4 18z" />
<glyph unicode="=" horiz-adv-x="1058" d="M59 395q1 47 564 47q166 0 245 -20q129 -33 129 -129q0 -47 -268 -47h-328q-131 0 -178 12q-61 16 -127 80q-37 37 -37 57zM63 682q1 47 564 47q166 0 245 -20q129 -33 129 -129q0 -47 -268 -48h-327q-129 0 -179 13q-66 16 -129 80q-35 35 -35 57z" />
<glyph unicode="&#x3e;" horiz-adv-x="950" d="M53 225q0 -47 45 -47q98 0 611 137q111 29 149 54q51 31 90 102q8 8 4 18q-39 74 -92 107q-35 23 -151 53q-522 139 -611 139q-31 0 -38 -9t-7 -40q0 -76 101 -129q57 -30 192 -67q147 -18 385 -60q-188 -27 -385 -61q-100 -18 -192 -68q-100 -53 -101 -129z" />
<glyph unicode="?" horiz-adv-x="1064" d="M-16 975q0 129 256 325q246 188 383 189q123 0 268 -109q154 -115 153 -233q0 -137 -174 -346q-70 -80 -254 -293q23 -23 23 -47q0 -37 -72 -70q-61 -29 -104 -29q-37 0 -80 25t-43 59q0 51 121 207q63 80 223 289q119 158 119 248q0 39 -23.5 66.5t-60.5 27.5 q-141 0 -311 -147q-160 -135 -218 -279q-6 -4 -24 -4q-61 0 -117 31q-66 35 -65 90zM328 113q0 59 68.5 113.5t127.5 54.5q47 0 78 -70q27 -57 27 -111q0 -53 -62 -92q-53 -35 -110 -35q-55 0 -92 42t-37 98z" />
<glyph unicode="@" horiz-adv-x="1572" d="M100 647q0 289 199 487.5t487 198.5q289 0 471 -155q195 -164 195 -449v-14q0 -74 -41 -174q-53 -129 -141 -172q-47 -23 -129 -23q-33 0 -70 4l-37 4q-113 0 -157 90q-68 -80 -76 -86q-43 -39 -103 -39q-123 0 -176 57.5t-53 182.5q0 121 51 238q66 150 168 149 q184 0 252 -115l16 5q53 0 62 -23q-37 -102 -37 -195v-118q0 -66 41 -66q-25 0 37.5 -4t70.5 -4q82 0 125 27q92 57 121 264v12q0 248 -176 391q-162 133 -416 133t-430 -177t-176 -431t177 -430t431 -176q156 0 290 74.5t220 205.5q23 35 52 27q37 -8 36 -27q0 -6 -4 -14 q-92 -162 -249.5 -253t-344.5 -91q-289 0 -487.5 198.5t-198.5 487.5zM633 506q0 -106 39 -107q27 0 47 29q74 104 90 145q8 23 31 170q10 68 10 52q0 20 -21.5 35.5t-42.5 15.5q-78 0 -120 -137q-33 -105 -33 -203z" />
<glyph unicode="A" horiz-adv-x="1314" d="M55 504q0 281 144 592q172 372 412 372h1q98 0 172 -43q46 -26 140 -112q47 47 159 47q88 0 88 -51q0 -129 -28 -387q-27 -223 -31 -387q-2 -43 -4 -101q-2 -47 -2 -59q0 -197 57 -197q53 0 199 58l33 -15l6 -20q0 -59 -93.5 -114.5t-156.5 -55.5q-223 0 -252 280 q-82 -160 -139 -227q-100 -117 -228 -117q-477 0 -477 537zM305 457q0 -338 123 -338q92 0 207 114q268 268 268 775q0 100 -41 176q-49 94 -141 94q-174 0 -307 -336q-109 -274 -109 -485z" />
<glyph unicode="B" horiz-adv-x="1439" d="M-102 1272q0 176 481 176q332 0 582 -86q362 -125 362 -393q0 -229 -389 -389q358 -141 358 -330q0 -141 -237 -209q-158 -45 -353 -45q-109 0 -296 51q-23 -51 -89 -51q-152 0 -151 110q0 180 20 543l31 545v10q0 26 -8 62q-47 0 -137 -24.5t-138 -24.5q-37 0 -36 55z M412 184q94 -37 184 -37q102 0 270 50q201 59 201 129q0 66 -182 102q-131 27 -252 27q-131 0 -211 -35zM432 645q205 12 402 98q251 111 251 275q0 145 -229 219q-158 51 -346 51h-10q-45 -90 -60 -315q-2 -33 -8 -328z" />
<glyph unicode="C" horiz-adv-x="1261" d="M57 526q0 315 115 594q150 362 418 363q256 0 401 -203q131 -180 131 -444q0 -62 -18 -121l-14 -2q-14 -2 -37 -2q-104 0 -148 88q-28 57 -28 201v10v39q0 121 -17 165q-27 72 -104 72q-252 0 -377 -295q-94 -221 -94 -522q0 -313 307 -313q121 0 266 88q92 55 213 162 q100 88 113 88q25 0 44 -22.5t19 -47.5q0 -129 -241 -293q-231 -156 -379 -156q-223 0 -396.5 164t-173.5 387z" />
<glyph unicode="D" horiz-adv-x="1363" d="M141 1436q170 37 320 37q322 0 573 -197q274 -213 275 -528q0 -260 -243 -515.5t-501 -255.5q-27 0 -80 11.5t-79 11.5q-16 0 -47 -11.5t-46 -11.5q-94 0 -127 58q-22 39 -22 135q0 647 43 1036l-29 2h-5q-37 0 -103 -24q-70 -26 -97 -27q-75 0 -75 124q0 101 243 155z M397 209q8 -59 49 -59q225 0 437 237q203 231 202 461q0 236 -157 336q-125 78 -375 78q-72 0 -88 -22.5t-16 -96.5q0 -141 -26 -421t-26 -421v-92z" />
<glyph unicode="E" horiz-adv-x="1419" d="M66 373q0 145 159 256q117 80 293 129q-405 78 -405 283q0 202 360 341q297 115 541 115q119 0 190.5 -67.5t71.5 -184.5q0 -51 -35 -93t-86 -42q-72 0 -113 59q-35 49 -38 125l-41 2q-12 1 -24 1q-142 0 -327 -87q-193 -88 -301 -202q-4 -104 461 -105q281 0 315 15 q53 -10 54 -144q0 -55 -25 -67q-6 -4 -80 -15q-164 -25 -454 -145q-352 -147 -353 -266q0 -78 113 -99q35 -6 166 -6q334 0 655 148q141 88 176 88q63 0 64 -62q0 -117 -344 -250q-300 -116 -454 -116h-3q-182 0 -346 100q-190 117 -190 289z" />
<glyph unicode="F" horiz-adv-x="1159" d="M39 1346l27 43q84 27 344 45q207 14 358 14h125q143 0 174 -6q109 -23 109 -113q0 -29 -17 -47q-109 -25 -303 -37q-211 -14 -307 -31q-109 -18 -121 -137v-233l70 -4q19 -1 41 -1q67 0 166 9q152 12 208 12q180 0 181 -96q0 -55 -291 -102q-238 -39 -367 -41l-20 -21 q-2 -27 -10 -176q-6 -113 -7 -184q0 -119 17 -205q-63 -35 -166 -35q-90 0 -103 35q25 143 31 586q-45 12 -76.5 52t-31.5 85q0 57 49 57q23 0 57 -12q37 270 37 336q0 47 -25 73q-6 -2 -12 -2q-37 0 -87 49.5t-50 86.5z" />
<glyph unicode="G" horiz-adv-x="1370" d="M57 537q0 328 117 591q152 342 432 342q270 0 438 -137q180 -145 181 -411q0 -88 -2 -95q-8 -57 -60 -57q-133 0 -174 141q-20 131 -49 260q-31 141 -160 142q-246 0 -379 -299q-104 -233 -104 -520q0 -360 319 -361q125 0 258 78q152 88 156 203l-164 -2q-2 0 -20 -2 h-31h-47q-82 0 -120 29.5t-54 109.5q397 47 485 47q125 0 162 -12q86 -29 86 -127q0 -186 -215 -348q-191 -145 -370 -145q-11 0 -23 1q-252 14 -447 164q-215 166 -215 408z" />
<glyph unicode="H" horiz-adv-x="1419" d="M-86 532l20 43q80 17 240 35q2 106 2 564q0 158 25 200q37 63 172 64q86 0 86 -72q0 -80 -27 -317q-19 -172 -19 -279q0 -23 1 -43l4 -92h41q219 0 520 49v27q-2 55 -2 59v131q0 549 115 549q193 0 192 -80q0 -102 -31.5 -304t-31.5 -304q0 -39 12 -88l41 2h5 q33 0 77 -24q47 -26 47 -60q0 -31 -27 -57l-176 -31q-2 -43 -2 -94.5t2 -110.5l6 -205q0 -108 -72 -108h-1q-174 0 -175 145q0 25 3.5 73t3.5 72q0 135 -9 209q-387 -43 -520 -43l-33 -8q-14 -111 -14 -317q0 -121 -106 -121q-131 0 -131 213q0 55 22 227q-115 8 -149 17 q-96 23 -111 79z" />
<glyph unicode="I" horiz-adv-x="624" d="M-4 74q0 33 76 61q24 10 96 33q18 39 22 627l3 235v16q0 118 -27 218h-12q-49 0 -100.5 33.5t-51.5 80.5q0 41 94 64q60 14 115 14h14q25 0 70 2t65 2q289 0 289 -112q0 -47 -80 -64q-109 -23 -116 -29q-25 -223 -25 -541v-48l2 -463q0 -23 83 -55.5t83 -69.5 q0 -80 -240 -80q-158 0 -202 4q-158 14 -158 72z" />
<glyph unicode="J" horiz-adv-x="690" d="M-205 -88q0 43 51 74q41 26 88 26h3q27 0 73.5 -18.5t63.5 -18.5q174 0 174 654q0 90 -6 260l-4 133l4 100l-4 121l-29 6q-158 33 -158 107t234 94q70 6 274 6q57 0 105 -16q67 -23 67 -67q0 -36 -94 -66q-113 -37 -125 -43q-8 -94 -8 -250v-131l2 -133v-54 q0 -380 -80 -581q-117 -291 -440 -291q-190 0 -191 88z" />
<glyph unicode="K" horiz-adv-x="1230" d="M141 78q0 197 17.5 592t17.5 592q0 111 19 143q27 49 124 49q86 0 130 -43v-2q-43 -274 -43 -551v-51q25 16 59 45v2q78 92 328 320q273 249 319 249q37 0 80 -27.5t43 -62.5q0 -6 -311.5 -295.5t-311.5 -318.5q0 -102 142 -305q152 -219 260 -219q35 0 103.5 28.5 t70.5 28.5q27 0 46 -19.5t19 -46.5q0 -68 -112 -123q-96 -47 -172 -47q-205 0 -424 322q-92 135 -150 221q-1 -23 -1 -50q0 -81 5 -200q6 -182 7 -252q0 -35 -78 -53q-53 -12 -107 -12q-80 0 -80 86z" />
<glyph unicode="L" horiz-adv-x="942" d="M113 55q0 49 45 166q10 27 18 533q6 383 6 628q0 63 154 64q151 0 151 -73q0 -67 -20 -175q-25 -123 -29 -172q-35 -485 -35 -600q0 -74 3 -117l4 -88h-13q-1 1 89 4q124 4 141 4q381 0 381 -116q0 -66 -390 -97q-233 -18 -448 -18q-57 0 -57 57z" />
<glyph unicode="M" horiz-adv-x="1550" d="M98 63q0 20 2 39l70 646q37 336 43 647q53 61 178 61q66 0 94 -14q41 -23 41 -82q0 -445 205 -1016q70 135 180 492l160 510q27 81 180 81h4q106 0 107 -200q0 -39 -7 -115t-7 -115q0 -790 114 -790q20 0 129 51q59 -16 60 -55q0 -59 -109 -123q-98 -59 -164 -60 q-252 0 -276 523q-2 51 -8 305l-131 -430q-98 -324 -197 -324q-18 0 -133 10q-88 8 -141 162q-29 80 -68 307q-33 193 -66 250q-80 -487 -88 -743q-1 -30 -1 -46t1 -18q-33 -47 -84 -47q-88 0 -88 94z" />
<glyph unicode="N" horiz-adv-x="1280" d="M158 35q20 426 20 1057q0 217 21 258q39 77 209 77h4q61 0 77 -59q100 -358 164 -522q119 -303 273 -471q-16 104 -17 225q0 133 6 477q10 373 107 373q57 0 100 -41q-28 -703 -28 -1038v-23q0 -154 4 -293q-68 -39 -156 -39q-135 0 -342 406q-66 127 -66 150q0 2 1 3 q-33 53 -77 149.5t-73 158.5q-16 -152 -16 -351q0 -88 4 -262t4 -262q0 -104 -123 -104q-96 0 -96 117v14z" />
<glyph unicode="O" horiz-adv-x="1419" d="M57 690q0 272 129 504q154 274 406 274q80 0 291 -100q195 -92 262 -149q86 -72 114.5 -111t69.5 -143l2 -2q31 -123 31 -224q0 -336 -162 -540q-176 -225 -504 -226q-143 0 -322 118t-248 247t-69 352zM313 547q0 -170 90 -295q101 -139 265 -139q195 0 333 211 q125 190 125 393q0 225 -106 381q-121 180 -336 180q-205 0 -301 -279q-70 -201 -70 -452z" />
<glyph unicode="P" horiz-adv-x="1193" d="M-236 1264q0 57 236 135q208 69 283 69h2q377 0 587 -67q346 -111 347 -408q0 -240 -289 -368q-226 -101 -502 -101q-18 -121 -18 -458q0 -57 -52 -76q-29 -10 -104 -10q-90 0 -90 141q0 604 65 1124q-39 -4 -188 -41q-131 -33 -184 -33q-31 0 -62 31t-31 62zM442 672 q150 6 283 67q143 66 227 179q72 96 72 151q0 104 -174 154q-120 34 -249 34h-7q-53 0 -111 -16q-42 -236 -42 -501q0 -34 1 -68z" />
<glyph unicode="Q" horiz-adv-x="1417" d="M55 600q0 262 138 539q164 329 398 329h1q291 0 520 -227t229 -516q0 -182 -45 -307q-42 -114 -155 -268q39 -8 65 -9q59 0 145.5 67.5t98.5 67.5q63 0 63 -83q0 -92 -110 -156q-94 -55 -195 -55q-37 0 -110.5 19t-110.5 19q-39 0 -116.5 -21.5t-116.5 -21.5 q-82 0 -185 41q-23 8 -170 82h-2q-188 121 -250 195q-92 113 -92 305zM311 553q0 -289 209 -328q90 68 199 68q47 0 258 -60q78 98 123 252q41 140 41 279q0 211 -88 348q-102 162 -303 162q-207 0 -334 -268q-104 -219 -105 -453z" />
<glyph unicode="R" horiz-adv-x="1288" d="M-117 1280q0 131 156 164q57 12 262 12q330 0 567 -88q344 -127 344 -401q1 -213 -364 -385q164 -403 383 -404q23 0 45 4q41 -18 41 -49q0 -47 -103 -78q-73 -22 -134 -22h-5q-139 0 -252 119q-59 61 -151 223q-70 121 -101 121q-27 0 -155 -19q-22 -87 -22 -237 q0 -33 1 -70l4 -154q0 -16 -41 -26q-31 -8 -55 -8q-68 0 -96 10q-47 16 -47 71q0 784 45 1188l-33 2h-7q-42 0 -114 -20q-84 -25 -123 -25q-18 0 -31.5 26t-13.5 46zM420 639l33 -2q11 -1 23 -1q148 0 308 120q183 132 183 288q0 213 -455 213q-51 0 -53 -51 q-8 -188 -39 -567z" />
<glyph unicode="S" horiz-adv-x="1374" d="M109 403q76 0 76 -112q0 -12 -1 -25q31 -49 140 -80q77 -22 156 -22h7q424 0 623 164l4 28q0 33 -170 70q-59 12 -217 45q-285 61 -416 141q-207 127 -207 363q0 190 263 373q242 168 440 168q131 0 304 -186.5t173 -319.5q0 -41 -26.5 -74t-65.5 -33q-66 0 -131 107 q-29 57 -86 172q-70 131 -111 131q-150 0 -350 -164q-207 -170 -207 -315q0 -72 262 -127q416 -88 486 -111q262 -88 262 -246q0 -178 -264 -287q-209 -86 -414 -86q-197 0 -373 62q-239 84 -239 241q0 123 82 123z" />
<glyph unicode="T" horiz-adv-x="1243" d="M-102 1298q0 27 24 50q125 8 477 59q309 45 480 45q59 0 92 -2q193 -12 211 -23q27 -16 86 -161l-19 -25q-188 -13 -440 -31q-33 -82 -59 -567q-20 -381 -21 -623v-2q-30 -32 -70 -32h-2q-96 0 -116 12q-31 18 -31 104q0 688 35 1088q-20 2 -332 2q-145 0 -184 6 q-131 20 -131 100z" />
<glyph unicode="U" horiz-adv-x="1370" d="M143 637q0 231 29 453q43 332 131 352q43 10 76 10t61 -14q37 -18 37 -47q0 -129 -47 -411t-47 -425q0 -129 29 -262q41 -190 114 -191q92 0 217 240q172 328 211 614q10 82 37 297q10 80 45 109t117 29q84 0 84 -62q0 -96 -30.5 -288.5t-30.5 -288.5q0 -297 32 -453 q6 -27 23 -57q25 -43 39 -37q102 39 127 39q73 0 73 -48q0 -50 -84 -102q-76 -45 -131 -45q-117 0 -170 57q-33 35 -61 136q-35 114 -55 147q-78 -186 -158 -276q-115 -129 -276 -129q-211 0 -328 194l-21 88q-43 184 -43 371z" />
<glyph unicode="V" horiz-adv-x="1077" d="M-29 1350q0 112 131 112h2q51 0 80 -65q10 -25 31 -109l131 -536q82 -310 170 -527q27 18 133 318q135 379 203 538q121 285 184 285q70 0 70 -70q0 -16 -199 -569l-211 -588q-33 -92 -78 -124.5t-141 -32.5q-117 0 -244 301q-100 238 -186 606q-76 326 -76 461z" />
<glyph unicode="W" horiz-adv-x="1658" d="M143 563q0 817 176 817q84 0 140 -53q-59 -150 -74 -360q-6 -88 -6 -373v-11q0 -367 67 -474q123 49 220 454q79 332 79 526q0 56 91 56q155 0 155 -91q0 -62 -11 -182t-11 -182q0 -287 92 -563q133 92 227 512q76 338 76 582q0 70 -72 198q0 53 74 54q88 0 131 -140 q31 -98 31 -211q0 -289 -80 -639q-113 -495 -306 -495h-1q-150 0 -215 49q-47 35 -84 129q-49 127 -78 170l-86 -221q-66 -127 -176 -127q-227 0 -307 184q-51 119 -52 391z" />
<glyph unicode="X" horiz-adv-x="1136" d="M-27 23q0 78 152 282q172 234 188 289q-43 86 -145 391q-106 322 -107 385q0 33 80 62q65 24 106 24h3q82 0 82 -150v-14q6 -25 18 -53q14 -88 59.5 -225t86.5 -209q31 33 290 389q215 295 275 295q33 0 115 -21q12 -16 12 -38q0 -55 -174 -230v-2q-145 -197 -430 -594 q0 -96 104 -242q112 -155 208 -155h1q129 0 158 100l28 21q80 -25 80 -70q0 -80 -116 -133q-94 -43 -189 -43q-156 0 -268 84q-92 68 -184 217l-175 -248q-147 -211 -174 -211q-25 0 -54.5 37t-29.5 62z" />
<glyph unicode="Y" horiz-adv-x="1349" d="M143 618q0 354 62 680q16 88 41 115q33 35 114 35q121 0 121 -45q0 -53 -32 -174q-39 -145 -46 -178q-24 -136 -24 -475v-27q0 -412 145 -412q184 0 338 500q117 379 135 668q4 65 66 65h2h109q47 -20 47 -63q0 -63 -17 -179q-16 -127 -18 -180l-29 -712 q-16 -408 -16 -713q0 -86 -90 -86q-67 0 -133 47l-5 225v23q0 90 13 266q10 147 10 289v53q-33 -37 -94 -143q-53 -90 -99 -129q-68 -57 -168 -58q-432 0 -432 608z" />
<glyph unicode="Z" horiz-adv-x="1144" d="M-76 137q0 113 385 543q338 379 518 522l-501 -20q-17 -1 -33 -1q-107 1 -163 35q-59 36 -59 102q0 6 1 13l2 27q111 8 440 53q274 37 434 37q72 0 126 -59.5t54 -131.5q0 -47 -401 -481q-434 -471 -477 -530q109 0 326 14t325 14q193 0 193 -116q0 -31 -29 -56l-68 7 q-23 2 -65 2q-141 0 -418.5 -63.5t-419.5 -63.5q-170 0 -170 153z" />
<glyph unicode="[" horiz-adv-x="624" d="M88 1073q0 461 53 488q20 0 63.5 2t63.5 2q299 0 299 -115q0 -47 -80 -64q-109 -23 -116 -28q-25 -233 -25 -692l2 -648q0 -23 83 -55.5t83 -68.5q0 -80 -240 -80l-4 4q-35 -4 -67 -4q-109 0 -113 43q14 31 14 278q0 246 -6 459l-8 283q-2 104 -2 196z" />
<glyph unicode="\" horiz-adv-x="569" d="M29 1260q0 -25 43 -101q47 -84 53 -106q84 -322 221 -811q41 -250 88 -250q53 0 84 53q25 43 25 100l-37 95q-4 10 -21 79q-70 295 -200 768l-70 252q-29 106 -47 107q-139 -86 -139 -186z" />
<glyph unicode="]" horiz-adv-x="624" d="M90 -76q0 47 80 64q102 23 117 28q25 233 24 693l-2 647q0 25 -83 57.5t-83 69.5q0 78 240 78l4 -2q35 4 68 4q109 0 112 -45q-14 -31 -14 -279q0 -80 8 -457l6 -282q14 -655 -51 -686h-47l-82 -2q-297 0 -297 112z" />
<glyph unicode="^" horiz-adv-x="960" d="M-31 541l437 868h151l434 -868h-162l-348 700l-350 -700h-162z" />
<glyph unicode="_" horiz-adv-x="1138" d="M-2 -152h1141v-104h-1141v104z" />
<glyph unicode="`" d="M27 1503h223l184 -289h-141z" />
<glyph unicode="a" horiz-adv-x="921" d="M57 326q0 170 74 340q92 213 240 213q264 0 360 -162l23 6q76 0 88 -35q-53 -145 -54 -276v-170q0 -92 60 -92q37 0 104.5 58t79.5 58q37 0 37 -37q0 -74 -64.5 -134t-138.5 -60q-162 0 -227 129l-107 -125q-61 -55 -147 -55q-176 0 -252 81.5t-76 260.5zM291 250 q0 -152 57 -152q35 0 66 41q106 145 129 209q14 41 45 242q12 80 12 74q0 31 -28.5 51t-61.5 20q-113 0 -174 -194q-45 -144 -45 -291z" />
<glyph unicode="b" horiz-adv-x="905" d="M115 270q0 231 22 572l35 571q4 106 16 131q25 49 113 49q92 0 92 -57q0 -127 -22 -362q-25 -248 -27 -363q27 23 81 63.5t95 40.5q172 0 260 -192q68 -147 68 -338q0 -172 -64 -279q-78 -133 -237 -133q-139 0 -256 109q-45 -16 -88 -16q-70 0 -86 73q-2 10 -2 131z M326 272q0 -66 59 -106q53 -37 121 -37q117 0 117 285q0 346 -78 346q-90 0 -162 -211q-57 -170 -57 -277z" />
<glyph unicode="c" horiz-adv-x="802" d="M57 367q0 166 52 317q72 213 206 213q160 0 273.5 -106.5t113.5 -266.5q0 -182 -102 -182q-162 0 -162 248q1 63 13 129q-16 10 -33 10q-53 0 -94 -139q-33 -113 -33 -195q0 -127 10 -178q23 -113 102 -113q76 0 199 50q94 37 193 90q77 43 77 48q0 1 -2 1q35 0 35 -49 q0 -82 -172 -178q-158 -88 -254 -89q-186 0 -301 101q-121 106 -121 289z" />
<glyph unicode="d" horiz-adv-x="923" d="M57 281v32q0 180 62 344q90 238 248 238q137 0 211 -115q14 102 18 221q1 29 1 63q0 69 -3 163q-4 174 -4 227q0 72 92 72q176 0 176 -60q0 -39 -26.5 -126t-28.5 -128q-16 -346 -17 -729q0 -119 5 -151q14 -111 71 -111q12 0 90 60l86 67q57 -10 58 -47 q0 -68 -92.5 -146.5t-161.5 -78.5q-53 0 -107 33l-92 69q-132 -198 -261 -198h-1q-262 0 -320 239l-2 2zM276 326q0 -35 3 -127q4 -102 57 -103q29 0 74 56q168 203 168 444q0 55 -35 92t-90 37q-70 0 -129 -168q-48 -132 -48 -224v-7z" />
<glyph unicode="e" horiz-adv-x="790" d="M57 387q0 164 41 309q59 211 185 211q133 0 272 -84q156 -94 156 -221q0 -135 -158 -221q-125 -67 -252 -67q-14 0 -27 1l-6 -45q0 -76 19 -108q25 -45 94 -45q162 0 369 178q35 31 73 61q53 0 54 -59q0 -106 -183 -217q-168 -102 -282 -103q-70 0 -197 70 q-96 53 -131 143q-27 70 -27 197zM285 438q94 0 165.5 65t71.5 159q0 92 -80 92q-72 0 -120 -129q-37 -98 -37 -187z" />
<glyph unicode="f" horiz-adv-x="557" d="M-66 717q0 59 134 59q68 0 69 39q4 86 21 307q47 547 311 547q119 0 220.5 -99.5t101.5 -217.5q0 -18 -27 -36t-47 -18q-33 0 -62 17q-27 80 -28 82q-16 39 -49 71q-119 -12 -170 -284q-29 -157 -29 -327v-42q74 -6 147 -14q90 -20 90 -94l-26 -43q-39 -18 -113 -23 q-84 -4 -115 -12q-20 -100 -20 -236q0 -57 5 -170.5t5 -171.5q0 -59 -73 -59q-100 0 -121 8q-49 18 -49 98q0 240 22 523l-35 -3q-8 -1 -17 -1q-47 0 -87 20q-57 27 -58 80z" />
<glyph unicode="g" horiz-adv-x="950" d="M57 332q0 209 70 356q90 190 270 191q66 0 127 -39q31 -21 113 -72v8q0 61 80 62q121 0 121 -115q0 -84 -7.5 -249t-7.5 -249q0 -45 3 -137t3 -137q0 -510 -233 -510q-82 0 -258 61q-195 68 -195 127q0 45 52 45q45 0 151.5 -49t159.5 -49q66 0 94 227q15 123 15 243 q0 27 -1 54l-2 72q-20 -74 -97 -128t-155 -54q-150 0 -229 98q-74 90 -74 244zM293 295q0 -170 51 -170q59 0 160 170q94 162 94 231q0 53 -37 111q-40 65 -89 65h-1q-96 0 -145 -163q-33 -111 -33 -244z" />
<glyph unicode="h" horiz-adv-x="999" d="M115 158q0 227 16 679.5t16 680.5q0 43 37 53q14 4 74 4q59 0 82 -8q41 -14 41 -64q0 -135 -22.5 -404.5t-22.5 -404.5v-37q92 92 104 101q51 35 140 35q168 0 219 -181q22 -77 22 -290v-19q0 -129 60 -129q33 0 98 83t96 83q53 0 53 -53q0 -55 -89 -139.5t-146 -84.5 q-174 0 -236 134q-41 90 -41 286q0 78 -2 88q-10 51 -55 52q-94 0 -137 -164q-20 -84 -74 -303q-41 -164 -96 -164q-92 0 -119 39q-18 27 -18 127z" />
<glyph unicode="i" horiz-adv-x="485" d="M113 344q2 25 10 115q2 41 7 122t37 116.5t109 35.5q72 0 86 -35q-34 -158 -34 -430v-16q0 -145 53 -146q18 0 116.5 50.5t131.5 50.5t33 -39q0 -33 -60 -86q-70 -63 -104 -80q-51 -25 -131 -25q-154 0 -213 115q-41 82 -41 252zM131 1016q0 57 70 111.5t127 54.5 q47 0 78 -70q27 -57 26 -111q0 -55 -61 -92q-51 -32 -108 -32h-3q-55 0 -92 42t-37 97z" />
<glyph unicode="j" horiz-adv-x="458" d="M-201 -319q0 27 31 26q29 0 100.5 -34.5t110.5 -34.5q80 0 80 114v43v37q-2 14 -2 2q0 86 2 272q1 90 1 158t-1 115v-8q1 0 8 245q2 55 2 98q0 100 -10 134q18 39 123 39q47 0 89 -25.5t42 -70.5q0 -49 -10.5 -147.5t-10.5 -150t-7 -154.5t-7 -157q0 -43 -4 -130t-4 -130 q0 -29 2 -87t2 -87q0 -135 -49 -194q-53 -68 -187 -68q-98 0 -190 47q-111 58 -111 148zM94 1149q0 76 55.5 127t131.5 51q118 0 118 -167q0 -54 -47 -98t-98 -44t-105.5 41t-54.5 90z" />
<glyph unicode="k" horiz-adv-x="931" d="M115 37v35q0 223 18.5 667.5t18.5 667.5q0 78 47 98q27 12 123 13q96 0 96 -70q0 -12 -29 -82q-20 -51 -33 -324l-14 -340q35 59 109 144q36 24 104 24h6q109 0 191 -82.5t82 -191.5q0 -186 -211 -287q16 -155 109 -155h1q84 0 162 63q94 78 131 90l35 -22l2 -15 q0 -78 -135 -164q-125 -79 -211 -79h-2q-117 0 -187.5 50t-124.5 159l-71 -5v-192q0 -27 -28 -44.5t-56 -17.5q-57 1 -133 60zM375 436q33 -41 84 -41q80 0 123 86q36 72 36 158q0 84 -34 84q-20 0 -97 -76v-2q-4 -4 -43 -65q-53 -84 -69 -144z" />
<glyph unicode="l" horiz-adv-x="475" d="M115 535q0 143 36.5 428.5t36.5 429.5q0 14 -9 41.5t-9 42.5q0 33 47 51q37 14 76 14q147 0 147 -57q0 -45 -18 -117q-20 -84 -25 -115q-61 -520 -61 -850q0 -252 53 -309q41 2 76 12v3q80 51 172 88l37 -17q6 -12 6 -28q0 -66 -98 -127q-88 -55 -160 -56 q-215 0 -277 195q-30 93 -30 354v17z" />
<glyph unicode="m" horiz-adv-x="1345" d="M115 137q0 131 18 324q27 270 29 321q4 63 31.5 87t93.5 24q61 0 61 -78q0 -28 -16 -192q31 43 92 131v2q25 16 74 16q106 0 153 -27q55 -33 84 -129q61 123 101 164q68 72 172 72q217 0 217 -311q0 -25 -3 -74t-3 -74v-112q0 -68 6 -97q12 -59 59 -59q33 0 100.5 29.5 t83.5 29.5q37 0 37 -45q0 -53 -116 -106q-100 -45 -162 -45q-158 0 -199 139q-18 61 -18 266q0 47 -5.5 138.5t-5.5 138.5q-14 10 -26 10q-63 0 -115 -158q-27 -82 -72 -301q-35 -170 -51 -184q-4 -4 -45 -4q-151 0 -151 123q0 35 8 102.5t8 99.5q0 41 -3 124t-3 124h-14 q-82 0 -134 -155q-16 -49 -73 -301q-37 -162 -72 -162q-141 0 -141 149z" />
<glyph unicode="n" horiz-adv-x="960" d="M121 293l10 153q2 31 2 248q18 182 107 183q118 0 118 -63v-1q0 -25 -11 -76q-9 -43 -9 -69v-9l2 -45q72 117 80 125q59 76 121 76q125 0 215 -78q94 -84 94 -207q0 -39 -10.5 -117.5t-10.5 -117.5q0 -111 64 -111q25 0 87 34t85 34q41 0 41 -53q0 -59 -94 -109 q-84 -45 -150 -45q-131 0 -187.5 63.5t-56.5 196.5q0 41 6.5 125t6.5 125q0 55 -33 92q-98 -6 -160 -176q-14 -55 -80 -313q-41 -166 -90 -166q-153 0 -153 145q0 63 6 156z" />
<glyph unicode="o" horiz-adv-x="892" d="M57 426q0 76 13 117l16 53q35 113 98 190q82 100 181 101q127 0 254 -137.5t137 -268.5h8q57 0 109.5 130t89.5 130q47 0 47 -73q0 -113 -76 -224q-80 -121 -186 -135q-43 -174 -86 -233q-70 -96 -222 -96q-186 0 -288 133q-94 121 -95 313zM272 344q0 -88 27 -154 q37 -92 111 -92q63 0 120 113q49 98 50 166q0 12 -55.5 124.5t-55.5 188.5q-23 10 -41 10q-70 0 -117 -147q-39 -121 -39 -209z" />
<glyph unicode="p" horiz-adv-x="927" d="M106 498q-1 23 -1 48q0 118 24 269q39 242 123 242q70 0 96 -19q33 -25 33 -90q-1 -125 -19 -209q49 41 103 86q43 35 127 35q141 0 213 -94q66 -84 65 -229q0 -193 -77 -306q-90 -133 -275 -133q-72 0 -170 39q-22 -86 -22 -218v-11q0 -49 4 -147.5t4 -147.5v-111 q-70 -37 -139 -37q-74 0 -74 43zM367 334q0 -43 44 -79t89 -36q72 0 110 107q29 80 29 166v81q0 145 -41 146q-57 0 -147 -166q-84 -156 -84 -219z" />
<glyph unicode="q" horiz-adv-x="909" d="M57 352q0 164 84 336q102 209 252 209q63 0 141 -51.5t107 -108.5q16 2 51 2q102 0 103 -84q0 -150 -27 -446.5t-27 -446.5v-159v2q4 -123 39 -140q-66 -45 -104 -45q-104 0 -131 154q-8 47 -8 217q0 66 26 363q-43 -57 -86 -113q-57 -61 -121 -61q-299 0 -299 372z M260 242q0 -144 57 -144q59 0 156 205q90 190 90 258q0 39 -20 92q-27 68 -60 68q-111 0 -176 -193q-47 -139 -47 -286z" />
<glyph unicode="r" horiz-adv-x="557" d="M111 406q0 487 82 489l79 2h6q40 0 48 -25v-196q57 61 67 69q43 35 88 35q135 0 135 -118q0 -35 -25.5 -57.5t-60.5 -22.5t-59 24q-154 -242 -154 -610q0 -18 -53 -19q-109 0 -133 41q-16 27 -16 146q0 41 -2 121t-2 121z" />
<glyph unicode="s" horiz-adv-x="792" d="M68.5 228.5q27.5 29.5 52.5 29.5q-23 0 -23 -6q0 -10 113 -49q160 -57 203 -58q57 0 57 39q0 45 -100 105q-143 86 -187 123q-100 86 -100 194q0 141 117 215q98 61 248 62q280 0 280 -139v-1q0 -63 -43 -63q-25 0 -71 13.5t-70 13.5q-203 0 -203 -119q0 -68 102 -133 q53 -33 189 -123q102 -70 102 -168q0 -74 -82 -125q-74 -47 -151 -47q-106 0 -269 51q-192 61 -192 130q0 26 27.5 55.5z" />
<glyph unicode="t" horiz-adv-x="632" d="M-57 874q0 39 106 50l119 12q6 86 10 174q13 100 92 100h6q27 -2 95 -6q55 -10 55 -57q-27 -35 -31 -88q0 5 1 5t1 -103q43 -14 125 -15q31 0 66 -32.5t35 -63.5l-23 -33q-74 -8 -221 -39q-16 -238 -17 -332q0 -156 3 -178q12 -135 65 -135q37 0 131 43q117 53 139 60 q23 -33 23 -56q0 -53 -133 -127q-121 -67 -185 -67h-2q-266 0 -266 399q0 59 8.5 177t8.5 177v41q-211 25 -211 94z" />
<glyph unicode="u" horiz-adv-x="946" d="M113 449q0 53 13 159.5t13 160.5t15.5 79.5t68.5 25.5q39 0 82 -10q57 -13 57 -36l-34 -365v-10v-123v-9q0 -141 32 -210q78 70 150 229q66 143 84 264q16 104 33 127q29 41 118 41q92 0 93 -86q0 -20 -33 -125q-8 -27 -8 -250q0 -47 16 -98q20 -68 57 -68 q23 0 92.5 57.5t98.5 57.5q43 0 43 -41q0 -61 -107.5 -133t-173.5 -72q-86 0 -139 62q-27 33 -80 135q-35 -94 -65 -141q-53 -82 -121 -82q-211 0 -271 129q-34 74 -34 318v14z" />
<glyph unicode="v" horiz-adv-x="669" d="M-29 766q0 53 74 86q63 29 121 29q31 0 45 -19l-4 -108q-2 -35 69.5 -238.5t96.5 -236.5q14 27 112 311q80 233 127 233q84 0 84 -106q0 -104 -118 -406q-129 -327 -217 -327h-1q-29 0 -73 12q-76 20 -115 125q-201 537 -201 645z" />
<glyph unicode="w" horiz-adv-x="1136" d="M27 831q0 45 147 46q90 0 113 -39q-12 -63 -13 -133q0 -170 76 -453q49 49 70 186q25 168 47 211q51 98 190 99q55 0 105 -207q25 -102 63 -293q20 49 90 295q80 278 113 278t63.5 -33.5t30.5 -66.5q0 -137 -94 -414q-106 -313 -207 -313q-147 0 -213 221q-14 49 -45 162 q-18 -63 -70.5 -227t-117.5 -164q-129 0 -156 16q-57 35 -117 387l-71 432q-4 2 -4 10z" />
<glyph unicode="x" horiz-adv-x="899" d="M29 778q0 41 65 72q53 24 101 24h4q37 0 86 -118q57 -137 94 -166l145 190q109 141 162 142q41 0 78 -17q47 -20 47 -57q0 -18 -96 -107q-113 -104 -252 -317q14 -76 80 -152q72 -84 141 -84q47 0 142.5 62.5t107.5 62.5q39 0 39 -34q0 -74 -144 -162q-133 -80 -215 -80 q-98 0 -180 58.5t-104 152.5q-25 -51 -88 -156q-76 -125 -95 -125q-39 0 -77.5 35t-38.5 74q0 47 188 291q-12 41 -106 219q-84 160 -84 192z" />
<glyph unicode="y" horiz-adv-x="950" d="M115 479q0 360 108 361q43 0 91 -33t48 -74q0 -49 -13 -149.5t-13 -149.5v-123q8 -92 43 -92q51 0 137 244q80 223 88 303l8 72q2 25 4 26q16 59 60 60q43 0 94 -17q63 -20 64 -53q0 -150 -26 -450t-26 -449q0 -217 -34 -293q-57 -123 -246 -123q-102 0 -221 65.5 t-160 155.5q33 12 61 13q55 0 171 -62.5t141 -62.5q70 0 92 272q4 39 18 330q-125 -188 -262 -189q-145 0 -197 148q-30 85 -30 259v11z" />
<glyph unicode="z" horiz-adv-x="780" d="M57 117q0 80 148 284l201 279q-14 2 -38 2t-57 -2q-82 -6 -98 -6q-147 0 -147 82q0 72 239 104q150 20 307 21q37 0 75 -37t38 -74q0 -10 -182 -285l-189 -284q70 10 140 18q86 12 141 12q90 0 90 -92q0 -47 -37 -53q-195 -29 -438 -78q-51 -10 -66 -10q-39 0 -83 40 t-44 79z" />
<glyph unicode="{" horiz-adv-x="935" d="M55 606q0 -180 367 -239q49 -547 344 -547q102 0 104 65l-10 15q-217 37 -209 614q-115 18 -211 51q-157 54 -157 113q0 104 372 129q0 571 64 608q35 20 88 33q14 27 14 57q0 31 -39 49q-31 14 -65 15q-279 0 -303 -635q-358 -139 -359 -328z" />
<glyph unicode="|" horiz-adv-x="346" d="M51 1260q-6 -20 19 -99q25 -84 24 -108q2 -211 8 -811q0 -29 -6 -84.5t-6 -81.5q0 -84 35 -84q53 0 96 51q37 43 51 102l-12 95q0 -2 2 79q8 301 0 768l-4 252q0 47 -2 60q-4 47 -16 47q-164 -86 -189 -186z" />
<glyph unicode="}" horiz-adv-x="935" d="M16 1501l11 -14q217 -35 211 -613q113 -18 208 -51q158 -53 158 -114q0 -104 -373 -129q0 -571 -63 -609q-35 -20 -88 -32q-14 -27 -14 -58q0 -29 40 -47q31 -14 66 -14q276 0 301 633q358 141 358 327q0 180 -366 240q-49 549 -344 549q-102 0 -105 -68z" />
<glyph unicode="~" horiz-adv-x="1196" d="M125 485q92 174 252 174q80 0 186 -45l178 -75q43 -18 76 -19q90 0 178 148l78 -113q-113 -180 -256 -180q-78 0 -160 43l-82 43q-104 55 -198 55q-68 0 -113 -43q-29 -31 -65 -106z" />
<glyph unicode="&#xa1;" horiz-adv-x="546" d="M84 59q0 14 31.5 79t34.5 95q33 377 32 822q0 41 45 51q18 4 80 4q33 0 76 -20q51 -25 51 -54q0 -25 -12 -71.5t-12 -71.5q0 -182 -17 -426l-28 -426q-4 -47 -37 -68q-94 14 -164 15q-25 0 -52.5 23.5t-27.5 47.5zM158 1354q0 53 61 92q53 35 111 35q55 0 92 -42t37 -98 q0 -57 -69 -112t-126 -55q-45 0 -78 69q-29 59 -28 111z" />
<glyph unicode="&#xa2;" horiz-adv-x="776" d="M55 586q0 205 47 297q66 126 244 153l-2 2q-4 76 -4 88q0 104 98 105q51 0 51 -53q0 -12 -3 -39t-3 -39q0 -55 33 -101q80 -12 142.5 -88.5t62.5 -158.5q0 -49 -41 -93.5t-90 -44.5q-51 0 -70 70q-8 37 -35 129q-23 70 -88 70q-115 0 -114 -305q0 -287 127 -287 q53 0 96 76.5t92 76.5q119 0 119 -45q0 -68 -84 -155q-76 -80 -148 -111q25 -41 25 -94q0 -66 -34 -110t-97 -44q-57 0 -57 45q0 25 10 75t10 75q0 45 -20 82q-135 14 -207 155q-59 117 -60 269z" />
<glyph unicode="&#xa3;" horiz-adv-x="1069" d="M29 731q0 35 40 78t74 43l54 -18q14 379 14 552q0 59 151 60q154 0 154 -74q0 -72 -27 -258q-33 -225 -36 -272q61 -4 163 2q127 6 164 6q193 0 193 -86q-55 -72 -283 -72q-72 0 -139 4l-100 6q-23 -121 -17 -393l2 -88l178 -4q25 0 73 2t69 2q281 0 280 -108 q0 -66 -391 -97q-233 -18 -448 -18q-59 0 -60 59q0 51 45 164q6 16 8 223q2 225 7 263q-23 2 -66 -3.5t-59 -5.5q-43 0 -43 33z" />
<glyph unicode="&#xa4;" horiz-adv-x="1138" d="M57 1137l99 100l116 -115q78 61 138.5 82t158.5 21q104 0 159.5 -19.5t135.5 -83.5l119 115l98 -100l-110 -111q61 -78 81.5 -140.5t20.5 -164.5q0 -111 -18.5 -169t-83.5 -142l110 -115l-94 -94l-113 121q-78 -68 -139 -90.5t-166 -22.5q-109 0 -168 20.5t-137 89.5 l-112 -116l-93 92l111 115q-59 84 -80.5 147.5t-21.5 163.5q0 106 19 164.5t83 140.5zM219 715q0 -150 101.5 -256.5t250.5 -106.5q145 0 248 108t103 255t-101.5 255.5t-247.5 108.5q-150 0 -252 -107.5t-102 -256.5z" />
<glyph unicode="&#xa5;" horiz-adv-x="1138" d="M6 1409h207l356 -602l357 602h207l-394 -623h316v-116h-396v-174h396v-117h-396v-379h-182v379h-393v117h393v174h-393v116h315z" />
<glyph unicode="&#xa6;" horiz-adv-x="532" d="M190 -39v604h154v-604h-154zM190 942v567h154v-567h-154z" />
<glyph unicode="&#xa7;" horiz-adv-x="1138" d="M86 643q0 113 53 186q47 63 154 127q-98 100 -98 205q0 156 104 252t262 96q381 0 381 -376h-176q0 219 -195 219q-80 0 -133 -39q-61 -43 -61 -121q0 -98 121 -170l333 -197q220 -128 220 -325q0 -186 -213 -328q109 -117 108 -231q0 -150 -121 -246q-111 -86 -266 -86 q-242 0 -336 162q-55 96 -55 225h184q0 -229 199 -229q213 0 213 165q0 90 -115 166l-422 281q-141 94 -141 264zM258 678q0 -113 76 -162l403 -262q140 92 140 205q0 121 -127 198l-355 217q-72 -43 -100 -77q-37 -49 -37 -119z" />
<glyph unicode="&#xa8;" d="M80 1235v211h188v-211h-188zM412 1235v211h190v-211h-190z" />
<glyph unicode="&#xa9;" horiz-adv-x="1572" d="M100 791q0 289 199 487.5t487 198.5q287 0 487 -200t200 -486q0 -287 -200 -487t-487 -200q-289 0 -487.5 199t-198.5 488zM178 788q0 -254 177 -430t431 -176t431.5 177.5t177.5 431.5t-178.5 430t-432.5 176t-430 -177.5t-176 -431.5zM530 711q0 113 37 223 q49 147 144 147q113 0 192.5 -73.5t79.5 -186.5q0 -129 -72 -129q-113 0 -112 174q0 45 8 90q-12 8 -23 9q-39 0 -67 -99q-23 -78 -23 -137q0 -92 6 -123q16 -80 74 -80q76 0 212 66.5t114 66.5q25 0 24 -34q0 -59 -120 -125q-111 -61 -179 -62q-129 0 -212 73t-83 200z" />
<glyph unicode="&#xaa;" horiz-adv-x="757" d="M70 621v100h608v-100h-608zM84 1022q0 102 45 205q55 127 143 127q158 -1 217 -97l13 3q47 0 53 -21q-31 -86 -31 -166v-102q0 -55 35 -56q23 0 63 36t48 36q23 0 22 -22q0 -45 -39 -81t-84 -36q-96 0 -135 78l-63 -76q-37 -33 -90 -33q-197 0 -197 205zM225 977 q0 -92 35 -92q20 0 39 24q63 88 78 127q8 25 26 144q6 49 7 45q0 43 -54 43q-68 0 -104 -117q-27 -86 -27 -174z" />
<glyph unicode="&#xab;" horiz-adv-x="1138" d="M199 475v187l323 253l-2 -182l-213 -166l215 -166l-2 -182zM616 475v187l326 251l-2 -180l-215 -166l215 -166v-182z" />
<glyph unicode="&#xac;" horiz-adv-x="1196" d="M80 649v150h1036v-578h-153v428h-883z" />
<glyph unicode="&#xad;" horiz-adv-x="735" d="M43 539q0 47 391 47q115 0 170 -21q90 -33 90 -129q0 -47 -186 -47h-227q-92 0 -125 12q-43 16 -88 80q-25 35 -25 58z" />
<glyph unicode="&#xae;" horiz-adv-x="1572" d="M100 791q0 289 199 487.5t487 198.5q287 0 487 -200t200 -486q0 -287 -200 -487t-487 -200q-289 0 -487.5 199t-198.5 488zM178 788q0 -254 177 -430t431 -176t431.5 177.5t177.5 431.5t-178.5 430t-432.5 176t-430 -177.5t-176 -431.5zM442 1032q0 59 70 74q29 6 117 6 q150 0 256 -39q156 -57 155 -180q1 -96 -163 -174q80 -199 192 -180q18 -8 18 -23q0 -18 -41.5 -31.5t-66.5 -13.5q-63 0 -115 55q-27 29 -67 101q-31 53 -45 53q16 0 -70 -8q-8 -33 -8 -207q0 -16 -43 -16q-66 0 -66 36q0 354 21 535l-15 2q-18 0 -55 -10.5t-55 -10.5 t-19 31zM682 745l16 -2q72 -2 151 55.5t79 129.5q0 96 -203 96q-23 0 -27 -37q0 -18 -2 -53t-14 -189z" />
<glyph unicode="&#xaf;" d="M20 1284v117h644v-117h-644z" />
<glyph unicode="&#xb0;" horiz-adv-x="819" d="M109 1139q0 129 86 215t215 86t215 -85t86 -214q0 -127 -87 -214t-214 -87t-214 86t-87 213zM209 1141q0 -80 57.5 -145.5t136.5 -65.5q86 0 145.5 61.5t59.5 147.5q0 84 -58 147.5t-142 63.5h-13q-76 0 -131 -65.5t-55 -143.5z" />
<glyph unicode="&#xb1;" horiz-adv-x="1196" d="M80 0v152h1036v-152h-1036zM80 557v152h442v327h154v-327h440v-152h-440v-330h-154v330h-442z" />
<glyph unicode="&#xb4;" d="M248 1214l184 289h223l-268 -289h-139z" />
<glyph unicode="&#xb6;" horiz-adv-x="1099" d="M35 1094q0 184 135 286q121 90 311 90h537v-1822h-154v1698h-237v-1698h-154v1057q-190 0 -309 98q-129 106 -129 291z" />
<glyph unicode="&#xb7;" horiz-adv-x="569" d="M158 516q0 55 36.5 92t92.5 37q53 0 91 -38t38 -91t-39 -91t-92 -38q-55 0 -91 37t-36 92z" />
<glyph unicode="&#xb8;" d="M90 -414l37 82q72 -33 135 -33q113 0 113 84q0 39 -30 60.5t-69 21.5q-35 0 -81 -16l-33 41l129 174h100l-94 -127q41 10 68 10q72 0 119.5 -41.5t47.5 -111.5q0 -92 -77 -146q-68 -45 -166 -45q-100 0 -199 47z" />
<glyph unicode="&#xba;" horiz-adv-x="747" d="M70 621v100h610v-100h-610zM168 1102q0 47 8 72l8 30q55 174 168 174q76 0 153 -81.5t83 -159.5h4q35 0 66.5 77.5t52.5 77.5q29 0 28 -45q0 -68 -45 -133q-49 -74 -112 -82q-25 -104 -52 -139q-43 -57 -133 -57q-113 0 -174 79q-55 72 -55 187zM297 1053q0 -147 82 -148 q39 0 72 66q31 59 30 102q0 8 -32.5 76t-32.5 113q-14 6 -25 6q-43 0 -72 -88q-22 -74 -22 -127z" />
<glyph unicode="&#xbb;" horiz-adv-x="1138" d="M197 219v182l215 166l-215 166v182l323 -253v-189zM616 219v182l215 166l-215 166v182l324 -253v-189z" />
<glyph unicode="&#xbf;" horiz-adv-x="1064" d="M-16 315q0 137 174 347q70 81 254 292q-23 23 -23 47q0 37 72 70q61 29 104 29q37 0 80 -24.5t43 -59.5q0 -51 -121 -207q-63 -80 -223 -289q-119 -158 -119 -248q0 -39 23.5 -66.5t60.5 -27.5q141 0 312 148q160 135 217 278q6 4 24 4q61 0 117 -30q66 -35 65 -91 q0 -129 -256 -325q-246 -188 -382 -189q-123 0 -269 109q-154 115 -153 233zM399 1362q0 53 62 92q53 35 110 35q55 0 92 -42t37 -97q0 -59 -68.5 -113.5t-127.5 -54.5q-47 0 -78 69q-27 57 -27 111z" />
<glyph unicode="&#xc0;" horiz-adv-x="1286" d="M55 504q0 281 144 592q172 373 413 372q98 0 172 -43q46 -26 140 -112q47 47 159 47q88 0 88 -51q0 -129 -28 -387q-27 -223 -31 -387q-2 -43 -4 -101q-2 -47 -2 -59q0 -197 57 -197q53 0 199 58l33 -15l6 -20q0 -59 -93.5 -114.5t-156.5 -55.5q-223 0 -252 280 q-82 -160 -139 -227q-100 -117 -228 -117q-477 0 -477 537zM305 457q0 -338 123 -338q92 0 207 114q268 268 268 775q0 100 -41 176q-49 94 -141 94q-174 0 -307 -336q-109 -274 -109 -485zM566 1960h223l184 -289h-141z" />
<glyph unicode="&#xc1;" horiz-adv-x="1280" d="M55 504q0 281 144 592q172 373 413 372q98 0 172 -43q46 -26 140 -112q47 47 159 47q88 0 88 -51q0 -129 -28 -387q-27 -223 -31 -387q-2 -43 -4 -101q-2 -47 -2 -59q0 -197 57 -197q53 0 199 58l33 -15l6 -20q0 -59 -93.5 -114.5t-156.5 -55.5q-223 0 -252 280 q-82 -160 -139 -227q-100 -117 -228 -117q-477 0 -477 537zM305 457q0 -338 123 -338q92 0 207 114q268 268 268 775q0 100 -41 176q-49 94 -141 94q-174 0 -307 -336q-109 -274 -109 -485zM488 1671l184 289h223l-268 -289h-139z" />
<glyph unicode="&#xc2;" horiz-adv-x="1271" d="M55 504q0 281 144 592q172 373 413 372q98 0 172 -43q46 -26 140 -112q47 47 159 47q88 0 88 -51q0 -129 -28 -387q-27 -223 -31 -387q-2 -43 -4 -101q-2 -47 -2 -59q0 -197 57 -197q53 0 199 58l33 -15l6 -20q0 -59 -93.5 -114.5t-156.5 -55.5q-223 0 -252 280 q-82 -160 -139 -227q-100 -117 -228 -117q-477 0 -477 537zM305 457q0 -338 123 -338q92 0 207 114q268 268 268 775q0 100 -41 176q-49 94 -141 94q-174 0 -307 -336q-109 -274 -109 -485zM422 1677l201 289h194l203 -289h-168l-133 189l-135 -189h-162z" />
<glyph unicode="&#xc3;" horiz-adv-x="1296" d="M55 504q0 281 144 592q172 373 413 372q98 0 172 -43q46 -26 140 -112q47 47 159 47q88 0 88 -51q0 -129 -28 -387q-27 -223 -31 -387q-2 -43 -4 -101q-2 -47 -2 -59q0 -197 57 -197q53 0 199 58l33 -15l6 -20q0 -59 -93.5 -114.5t-156.5 -55.5q-223 0 -252 280 q-82 -160 -139 -227q-100 -117 -228 -117q-477 0 -477 537zM305 457q0 -338 123 -338q92 0 207 114q268 268 268 775q0 100 -41 176q-49 94 -141 94q-174 0 -307 -336q-109 -274 -109 -485zM527 1653q23 113 61 160q51 61 154 61q51 0 106 -20l131 -49l45 -7q80 0 97 95h106 q-31 -223 -209 -224q-43 0 -80 13l-161 53q-31 10 -54 10q-68 0 -96 -92h-100z" />
<glyph unicode="&#xc4;" horiz-adv-x="1302" d="M55 504q0 281 144 592q172 373 413 372q98 0 172 -43q46 -26 140 -112q47 47 159 47q88 0 88 -51q0 -129 -28 -387q-27 -223 -31 -387q-2 -43 -4 -101q-2 -47 -2 -59q0 -197 57 -197q53 0 199 58l33 -15l6 -20q0 -59 -93.5 -114.5t-156.5 -55.5q-223 0 -252 280 q-82 -160 -139 -227q-100 -117 -228 -117q-477 0 -477 537zM305 457q0 -338 123 -338q92 0 207 114q268 268 268 775q0 100 -41 176q-49 94 -141 94q-174 0 -307 -336q-109 -274 -109 -485zM483 1665v211h188v-211h-188zM815 1665v211h190v-211h-190z" />
<glyph unicode="&#xc5;" horiz-adv-x="1265" d="M55 504q0 281 144 592q172 373 413 372q98 0 172 -43q46 -26 140 -112q47 47 159 47q88 0 88 -51q0 -129 -28 -387q-27 -223 -31 -387q-2 -43 -4 -101q-2 -47 -2 -59q0 -197 57 -197q53 0 199 58l33 -15l6 -20q0 -59 -93.5 -114.5t-156.5 -55.5q-223 0 -252 280 q-82 -160 -139 -227q-100 -117 -228 -117q-477 0 -477 537zM305 457q0 -338 123 -338q92 0 207 114q268 268 268 775q0 100 -41 176q-49 94 -141 94q-174 0 -307 -336q-109 -274 -109 -485zM625 1856q0 80 53 134t133 54q84 0 139 -52t55 -136q0 -80 -54 -135.5t-134 -55.5 q-82 0 -137 54.5t-55 136.5zM709 1854q0 -43 29.5 -74t72.5 -31q108 1 108 107q0 43 -30.5 73.5t-73.5 30.5q-47 0 -76.5 -29.5t-29.5 -76.5z" />
<glyph unicode="&#xc6;" horiz-adv-x="2435" d="M55 504q0 281 144 592q172 373 413 372q98 0 172 -43q45 -27 140 -112q47 47 159 47q88 0 88 -51q0 -129 -28 -387q-27 -223 -31 -387q-2 -43 -4 -101q-2 -47 -2 -59q0 -197 57 -197q33 0 103 23q-55 78 -56 172q0 145 160 256q115 80 293 129q-406 78 -406 284 q0 201 361 340q295 115 541 115q117 0 189.5 -67.5t72.5 -184.5q0 -51 -36 -93t-85 -42q-72 0 -113 59q-37 49 -39 125l-41 2q-150 8 -352 -86q-190 -88 -299 -202q-4 -104 461 -105q281 0 315 15q53 -10 54 -144q0 -55 -25 -67q-6 -4 -80 -15q-166 -25 -455 -145 q-352 -147 -352 -266q0 -78 113 -99q33 -6 166 -6q334 0 655 148q139 88 176 88q63 0 64 -62q0 -117 -344 -250q-303 -117 -457 -116q-219 0 -397 133q-18 -16 -47 -33q-88 -53 -152 -53q-223 0 -252 280q-82 -160 -139 -227q-100 -117 -228 -117q-477 0 -477 537zM305 457 q0 -338 123 -338q92 0 207 114q268 268 268 775q0 100 -41 176q-49 94 -141 94q-174 0 -307 -336q-109 -274 -109 -485z" />
<glyph unicode="&#xc7;" horiz-adv-x="1327" d="M57 526q0 315 115 594q150 362 418 363q256 0 401 -203q131 -180 131 -444q0 -62 -18 -121l-14 -2q-14 -2 -37 -2q-104 0 -148 88q-29 59 -28 211v39q0 121 -17 165q-27 72 -104 72q-252 0 -377 -295q-94 -221 -94 -522q0 -313 307 -313q121 0 266 88q92 55 213 162 q100 88 113 88q25 0 44 -22.5t19 -47.5q0 -129 -241 -293q-231 -156 -379 -156h-2l-52 -61q39 10 66 10q74 0 122 -40t48 -113q0 -94 -80 -146q-68 -45 -166 -45t-196 47l36 82q76 -33 136 -33q113 0 112 84q0 39 -29.5 60.5t-68.5 21.5h-25q-12 -2 -55 -16l-37 41l90 117 q-162 31 -295 157q-174 164 -174 385z" />
<glyph unicode="&#xc8;" horiz-adv-x="1325" d="M66 373q0 145 159 256q117 80 293 129q-406 78 -405 284q0 201 360 340q297 115 541 115q119 0 190.5 -67.5t71.5 -184.5q0 -51 -35 -93t-86 -42q-72 0 -113 59q-35 49 -38 125l-41 2q-150 8 -351 -86q-193 -88 -301 -202q-4 -104 461 -105q281 0 315 15q53 -10 54 -144 q0 -55 -25 -67q-6 -4 -80 -15q-164 -25 -454 -145q-352 -147 -353 -266q0 -78 113 -99q35 -6 166 -6q334 0 655 148q141 88 176 88q63 0 64 -62q0 -117 -344 -250q-303 -117 -457 -116q-182 0 -346 100q-190 117 -190 289zM369 1958h223l184 -289h-141z" />
<glyph unicode="&#xc9;" horiz-adv-x="1366" d="M66 373q0 145 159 256q117 80 293 129q-406 78 -405 284q0 201 360 340q297 115 541 115q119 0 190.5 -67.5t71.5 -184.5q0 -51 -35 -93t-86 -42q-72 0 -113 59q-35 49 -38 125l-41 2q-150 8 -351 -86q-193 -88 -301 -202q-4 -104 461 -105q281 0 315 15q53 -10 54 -144 q0 -55 -25 -67q-6 -4 -80 -15q-164 -25 -454 -145q-352 -147 -353 -266q0 -78 113 -99q35 -6 166 -6q334 0 655 148q141 88 176 88q63 0 64 -62q0 -117 -344 -250q-303 -117 -457 -116q-182 0 -346 100q-190 117 -190 289zM637 1669l184 289h223l-268 -289h-139z" />
<glyph unicode="&#xca;" horiz-adv-x="1284" d="M66 373q0 145 159 256q117 80 293 129q-406 78 -405 284q0 201 360 340q297 115 541 115q119 0 190.5 -67.5t71.5 -184.5q0 -51 -35 -93t-86 -42q-72 0 -113 59q-35 49 -38 125l-41 2q-150 8 -351 -86q-193 -88 -301 -202q-4 -104 461 -105q281 0 315 15q53 -10 54 -144 q0 -55 -25 -67q-6 -4 -80 -15q-164 -25 -454 -145q-352 -147 -353 -266q0 -78 113 -99q35 -6 166 -6q334 0 655 148q141 88 176 88q63 0 64 -62q0 -117 -344 -250q-303 -117 -457 -116q-182 0 -346 100q-190 117 -190 289zM416 1669l201 289h194l203 -289h-168l-133 189 l-135 -189h-162z" />
<glyph unicode="&#xcb;" horiz-adv-x="1304" d="M66 373q0 145 159 256q117 80 293 129q-406 78 -405 284q0 201 360 340q297 115 541 115q119 0 190.5 -67.5t71.5 -184.5q0 -51 -35 -93t-86 -42q-72 0 -113 59q-35 49 -38 125l-41 2q-150 8 -351 -86q-193 -88 -301 -202q-4 -104 461 -105q281 0 315 15q53 -10 54 -144 q0 -55 -25 -67q-6 -4 -80 -15q-164 -25 -454 -145q-352 -147 -353 -266q0 -78 113 -99q35 -6 166 -6q334 0 655 148q141 88 176 88q63 0 64 -62q0 -117 -344 -250q-303 -117 -457 -116q-182 0 -346 100q-190 117 -190 289zM545 1671v211h188v-211h-188zM877 1671v211h190 v-211h-190z" />
<glyph unicode="&#xcc;" horiz-adv-x="647" d="M-4 74q0 33 76 61q24 10 96 33q18 39 22 627l3 235q2 127 -27 234h-12q-49 0 -100.5 33.5t-51.5 80.5q0 41 94 64q68 16 129 14q25 0 70 2t65 2q289 0 289 -112q0 -47 -80 -64q-109 -23 -116 -29q-27 -240 -25 -589l2 -463q0 -23 83 -55.5t83 -69.5q0 -80 -240 -80 q-158 0 -202 4q-158 14 -158 72zM70 1964h223l184 -289h-141z" />
<glyph unicode="&#xcd;" d="M-4 74q0 33 76 61q24 10 96 33q18 39 22 627l3 235q2 127 -27 234h-12q-49 0 -100.5 33.5t-51.5 80.5q0 41 94 64q68 16 129 14q25 0 70 2t65 2q289 0 289 -112q0 -47 -80 -64q-109 -23 -116 -29q-27 -240 -25 -589l2 -463q0 -23 83 -55.5t83 -69.5q0 -80 -240 -80 q-158 0 -202 4q-158 14 -158 72zM172 1669l184 289h223l-268 -289h-139z" />
<glyph unicode="&#xce;" horiz-adv-x="647" d="M-4 74q0 33 76 61q24 10 96 33q18 39 22 627l3 235q2 127 -27 234h-12q-49 0 -100.5 33.5t-51.5 80.5q0 41 94 64q68 16 129 14q25 0 70 2t65 2q289 0 289 -112q0 -47 -80 -64q-109 -23 -116 -29q-27 -240 -25 -589l2 -463q0 -23 83 -55.5t83 -69.5q0 -80 -240 -80 q-158 0 -202 4q-158 14 -158 72zM20 1675l201 289h194l203 -289h-168l-133 189l-135 -189h-162z" />
<glyph unicode="&#xcf;" horiz-adv-x="659" d="M-4 74q0 33 76 61q24 10 96 33q18 39 22 627l3 235q2 127 -27 234h-12q-49 0 -100.5 33.5t-51.5 80.5q0 41 94 64q68 16 129 14q25 0 70 2t65 2q289 0 289 -112q0 -47 -80 -64q-109 -23 -116 -29q-27 -240 -25 -589l2 -463q0 -23 83 -55.5t83 -69.5q0 -80 -240 -80 q-158 0 -202 4q-158 14 -158 72zM43 1671v211h188v-211h-188zM375 1671v211h190v-211h-190z" />
<glyph unicode="&#xd0;" horiz-adv-x="1378" d="M-102 1284q0 98 243 152q170 37 320 37q322 0 573 -197q274 -213 275 -528q0 -260 -243 -515.5t-501 -255.5q-27 0 -80 11.5t-79 11.5q-16 0 -47 -11.5t-46 -11.5q-94 0 -127 58q-22 39 -22 135q0 270 8 496h-172v178h178q10 203 29 362l-29 2q-37 2 -107.5 -24.5 t-97.5 -26.5q-76 0 -75 127zM397 209q8 -59 49 -59q225 0 437 237q203 231 202 461q0 236 -157 336q-125 78 -375 78q-72 0 -88 -22.5t-16 -96.5q0 -109 -15 -299h324v-178h-340q-20 -238 -21 -365v-92z" />
<glyph unicode="&#xd1;" horiz-adv-x="1234" d="M158 35q20 426 20 1057q0 217 21 258q39 78 213 77q61 0 77 -59q100 -358 164 -522q119 -303 273 -471q-16 104 -17 225q0 133 6 477q10 373 107 373q57 0 100 -41q-29 -727 -28 -1061q0 -154 4 -293q-68 -39 -156 -39q-135 0 -342 406q-72 139 -65 153q-33 53 -77 149.5 t-73 158.5q-16 -152 -16 -351q0 -88 4 -262t4 -262q0 -104 -123 -104q-102 0 -96 131zM357 1655q23 113 61 160q51 61 154 61q51 0 106 -20l131 -49l45 -7q80 0 97 95h106q-31 -223 -209 -224q-43 0 -80 13l-161 53q-31 10 -54 10q-68 0 -96 -92h-100z" />
<glyph unicode="&#xd2;" horiz-adv-x="1419" d="M57 690q0 272 129 504q154 274 406 274q80 0 291 -100q195 -92 262 -149q86 -72 114.5 -111t69.5 -143l2 -2q31 -123 31 -224q0 -336 -162 -540q-176 -225 -504 -226q-143 0 -322 118t-248 247t-69 352zM313 547q0 -170 90 -295q101 -139 265 -139q195 0 333 211 q125 190 125 393q0 225 -106 381q-121 180 -336 180q-205 0 -301 -279q-70 -201 -70 -452zM486 1956h223l184 -289h-141z" />
<glyph unicode="&#xd3;" horiz-adv-x="1427" d="M57 690q0 272 129 504q154 274 406 274q80 0 291 -100q195 -92 262 -149q86 -72 114.5 -111t69.5 -143l2 -2q31 -123 31 -224q0 -336 -162 -540q-176 -225 -504 -226q-143 0 -322 118t-248 247t-69 352zM313 547q0 -170 90 -295q101 -139 265 -139q195 0 333 211 q125 190 125 393q0 225 -106 381q-121 180 -336 180q-205 0 -301 -279q-70 -201 -70 -452zM524 1667l184 289h223l-268 -289h-139z" />
<glyph unicode="&#xd4;" horiz-adv-x="1427" d="M57 690q0 272 129 504q154 274 406 274q80 0 291 -100q195 -92 262 -149q86 -72 114.5 -111t69.5 -143l2 -2q31 -123 31 -224q0 -336 -162 -540q-176 -225 -504 -226q-143 0 -322 118t-248 247t-69 352zM313 547q0 -170 90 -295q101 -139 265 -139q195 0 333 211 q125 190 125 393q0 225 -106 381q-121 180 -336 180q-205 0 -301 -279q-70 -201 -70 -452zM436 1667l201 289h194l203 -289h-168l-133 189l-135 -189h-162z" />
<glyph unicode="&#xd5;" horiz-adv-x="1441" d="M57 690q0 272 129 504q154 274 406 274q80 0 291 -100q195 -92 262 -149q86 -72 114.5 -111t69.5 -143l2 -2q31 -123 31 -224q0 -336 -162 -540q-176 -225 -504 -226q-143 0 -322 118t-248 247t-69 352zM313 547q0 -170 90 -295q101 -139 265 -139q195 0 333 211 q125 190 125 393q0 225 -106 381q-121 180 -336 180q-205 0 -301 -279q-70 -201 -70 -452zM408 1645q23 113 61 160q51 61 154 61q51 0 106 -20l131 -49l45 -7q80 0 97 95h106q-31 -223 -209 -224q-43 0 -80 13l-161 53q-31 10 -54 10q-68 0 -96 -92h-100z" />
<glyph unicode="&#xd6;" horiz-adv-x="1462" d="M57 690q0 272 129 504q154 274 406 274q80 0 291 -100q195 -92 262 -149q86 -72 114.5 -111t69.5 -143l2 -2q31 -123 31 -224q0 -336 -162 -540q-176 -225 -504 -226q-143 0 -322 118t-248 247t-69 352zM313 547q0 -170 90 -295q101 -139 265 -139q195 0 333 211 q125 190 125 393q0 225 -106 381q-121 180 -336 180q-205 0 -301 -279q-70 -201 -70 -452zM428 1671v211h188v-211h-188zM760 1671v211h190v-211h-190z" />
<glyph unicode="&#xd7;" horiz-adv-x="1196" d="M78 932l108 104l412 -409l414 409l104 -104l-409 -414l409 -414l-104 -104l-414 412l-414 -414l-104 108l412 412z" />
<glyph unicode="&#xd8;" horiz-adv-x="1419" d="M57 690q0 272 129 504q154 274 406 274q80 0 291 -100q78 -37 135 -68l31 39q23 29 49 60q41 47 53 47q61 -55 61 -117q0 -35 -18 -69q-8 -14 -41 -48q82 -70 108.5 -107.5t67.5 -139.5l2 -2q31 -123 31 -224q0 -336 -162 -540q-176 -225 -504 -226q-141 0 -321 119 q-47 31 -86 62l-43 -62q-72 -100 -115 -100q-51 0 -53 53q-3 45 26 100l89 99q-41 47 -68 96q-68 127 -68 350zM313 547q1 -68 15 -127q207 272 520 667l86 107q-104 84 -250 84q-205 0 -301 -279q-70 -201 -70 -452zM383 283q104 -170 285 -170q195 0 333 211 q125 190 125 393q0 219 -100 373q-27 -27 -35 -37z" />
<glyph unicode="&#xd9;" horiz-adv-x="1304" d="M143 637q0 231 29 453q43 332 131 352q43 10 76 10t61 -14q37 -18 37 -47q0 -129 -47 -411t-47 -425q0 -129 29 -262q41 -190 114 -191q92 0 217 240q172 328 211 614q10 82 37 297q10 80 45 109t117 29q84 0 84 -62q0 -96 -30.5 -288.5t-30.5 -288.5q0 -297 32 -453 q6 -27 23 -57q25 -43 39 -37q102 39 127 39q74 0 73 -49q0 -49 -84 -101q-76 -45 -131 -45q-117 0 -170 57q-33 35 -61 136q-35 114 -55 147q-78 -186 -158 -276q-115 -129 -276 -129q-211 0 -328 194l-21 88q-43 184 -43 371zM564 1960h223l184 -289h-141z" />
<glyph unicode="&#xda;" horiz-adv-x="1331" d="M143 637q0 231 29 453q43 332 131 352q43 10 76 10t61 -14q37 -18 37 -47q0 -129 -47 -411t-47 -425q0 -129 29 -262q41 -190 114 -191q92 0 217 240q172 328 211 614q10 82 37 297q10 80 45 109t117 29q84 0 84 -62q0 -96 -30.5 -288.5t-30.5 -288.5q0 -297 32 -453 q6 -27 23 -57q25 -43 39 -37q102 39 127 39q74 0 73 -49q0 -49 -84 -101q-76 -45 -131 -45q-117 0 -170 57q-33 35 -61 136q-35 114 -55 147q-78 -186 -158 -276q-115 -129 -276 -129q-211 0 -328 194l-21 88q-43 184 -43 371zM559 1669l184 289h223l-268 -289h-139z" />
<glyph unicode="&#xdb;" horiz-adv-x="1323" d="M143 637q0 231 29 453q43 332 131 352q43 10 76 10t61 -14q37 -18 37 -47q0 -129 -47 -411t-47 -425q0 -129 29 -262q41 -190 114 -191q92 0 217 240q172 328 211 614q10 82 37 297q10 80 45 109t117 29q84 0 84 -62q0 -96 -30.5 -288.5t-30.5 -288.5q0 -297 32 -453 q6 -27 23 -57q25 -43 39 -37q102 39 127 39q74 0 73 -49q0 -49 -84 -101q-76 -45 -131 -45q-117 0 -170 57q-33 35 -61 136q-35 114 -55 147q-78 -186 -158 -276q-115 -129 -276 -129q-211 0 -328 194l-21 88q-43 184 -43 371zM506 1669l201 289h194l203 -289h-168l-133 189 l-135 -189h-162z" />
<glyph unicode="&#xdc;" horiz-adv-x="1357" d="M143 637q0 231 29 453q43 332 131 352q43 10 76 10t61 -14q37 -18 37 -47q0 -129 -47 -411t-47 -425q0 -129 29 -262q41 -190 114 -191q92 0 217 240q172 328 211 614q10 82 37 297q10 80 45 109t117 29q84 0 84 -62q0 -96 -30.5 -288.5t-30.5 -288.5q0 -297 32 -453 q6 -27 23 -57q25 -43 39 -37q102 39 127 39q74 0 73 -49q0 -49 -84 -101q-76 -45 -131 -45q-117 0 -170 57q-33 35 -61 136q-35 114 -55 147q-78 -186 -158 -276q-115 -129 -276 -129q-211 0 -328 194l-21 88q-43 184 -43 371zM500 1671v211h188v-211h-188zM832 1671v211 h190v-211h-190z" />
<glyph unicode="&#xdd;" horiz-adv-x="1341" d="M143 618q0 354 62 680q16 88 41 115q33 35 114 35q121 0 121 -45q0 -53 -32 -174q-39 -145 -46 -178q-25 -141 -24 -502q0 -412 145 -412q184 0 338 500q117 379 135 668q4 66 68 65h109q47 -20 47 -63q0 -63 -17 -179q-16 -127 -18 -180l-29 -712q-16 -408 -16 -713 q0 -86 -90 -86q-67 0 -133 47l-5 225q-2 90 13 289q10 147 10 289v53q-33 -37 -94 -143q-53 -90 -99 -129q-68 -57 -168 -58q-432 0 -432 608zM686 1669l184 289h223l-268 -289h-139z" />
<glyph unicode="&#xde;" horiz-adv-x="1193" d="M-236 1264q0 57 236 135q211 70 285 69q2 37 20 117q2 23 8 67t39 89q16 23 73.5 41t100.5 18q25 0 52.5 -39t27.5 -69q0 -31 -22 -76q-20 -35 -36 -69t-28 -87q213 -14 352 -59q346 -111 347 -408q0 -240 -289 -368q-225 -100 -502 -101q-18 -121 -18 -458 q0 -57 -52 -76q-29 -10 -104 -10q-90 0 -90 141q0 604 65 1124q-39 -4 -188 -41q-131 -33 -184 -33q-31 0 -62 31t-31 62zM442 672q150 6 283 67q143 66 227 179q72 96 72 151q0 104 -174 154q-123 35 -256 34q-53 0 -111 -16q-47 -266 -41 -569z" />
<glyph unicode="&#xdf;" horiz-adv-x="1251" d="M137 0v1110q0 184 150 289q131 92 323 92q203 0 334 -82q156 -100 156 -291q0 -193 -168 -299q111 -37 175 -131t64 -213q0 -238 -136 -372t-373 -134q-63 0 -119 15v155q57 -8 100 -8q154 0 242 70q96 78 96 227q0 297 -338 297q-43 0 -90 -10v164l82 -2q115 -2 194 51 q88 61 89 172q0 121 -97 182q-84 53 -211 53q-190 0 -252 -106q-39 -68 -39 -152v-1077h-182z" />
<glyph unicode="&#xe0;" horiz-adv-x="974" d="M57 326q0 170 74 340q92 213 240 213q264 0 360 -162l23 6q76 0 88 -35q-53 -145 -54 -276v-170q0 -92 60 -92q37 0 104.5 58t79.5 58q37 0 37 -37q0 -74 -64.5 -134t-138.5 -60q-162 0 -227 129l-107 -125q-61 -55 -147 -55q-176 0 -252 81.5t-76 260.5zM291 250 q0 -152 57 -152q35 0 66 41q106 145 129 209q14 41 45 242q12 80 12 74q0 31 -28.5 51t-61.5 20q-113 0 -174 -194q-45 -144 -45 -291zM312 1255h223l184 -289h-141z" />
<glyph unicode="&#xe1;" horiz-adv-x="987" d="M57 326q0 170 74 340q92 213 240 213q264 0 360 -162l23 6q76 0 88 -35q-53 -145 -54 -276v-170q0 -92 60 -92q37 0 104.5 58t79.5 58q37 0 37 -37q0 -74 -64.5 -134t-138.5 -60q-162 0 -227 129l-107 -125q-61 -55 -147 -55q-176 0 -252 81.5t-76 260.5zM291 250 q0 -152 57 -152q35 0 66 41q106 145 129 209q14 41 45 242q12 80 12 74q0 31 -28.5 51t-61.5 20q-113 0 -174 -194q-45 -144 -45 -291zM348 960l184 289h223l-268 -289h-139z" />
<glyph unicode="&#xe2;" horiz-adv-x="962" d="M57 326q0 170 74 340q92 213 240 213q264 0 360 -162l23 6q76 0 88 -35q-53 -145 -54 -276v-170q0 -92 60 -92q37 0 104.5 58t79.5 58q37 0 37 -37q0 -74 -64.5 -134t-138.5 -60q-162 0 -227 129l-107 -125q-61 -55 -147 -55q-176 0 -252 81.5t-76 260.5zM215 966 l201 289h194l203 -289h-168l-133 189l-135 -189h-162zM291 250q0 -152 57 -152q35 0 66 41q106 145 129 209q14 41 45 242q12 80 12 74q0 31 -28.5 51t-61.5 20q-113 0 -174 -194q-45 -144 -45 -291z" />
<glyph unicode="&#xe3;" horiz-adv-x="968" d="M57 326q0 170 74 340q92 213 240 213q264 0 360 -162l23 6q76 0 88 -35q-53 -145 -54 -276v-170q0 -92 60 -92q37 0 104.5 58t79.5 58q37 0 37 -37q0 -74 -64.5 -134t-138.5 -60q-162 0 -227 129l-107 -125q-61 -55 -147 -55q-176 0 -252 81.5t-76 260.5zM219 958 q23 113 61 160q51 61 154 61q51 0 106 -20l131 -49l45 -7q80 0 97 95h106q-31 -223 -209 -224q-43 0 -80 13l-161 53q-31 10 -54 10q-68 0 -96 -92h-100zM291 250q0 -152 57 -152q35 0 66 41q106 145 129 209q14 41 45 242q12 80 12 74q0 31 -28.5 51t-61.5 20 q-113 0 -174 -194q-45 -144 -45 -291z" />
<glyph unicode="&#xe4;" horiz-adv-x="968" d="M57 326q0 170 74 340q92 213 240 213q264 0 360 -162l23 6q76 0 88 -35q-53 -145 -54 -276v-170q0 -92 60 -92q37 0 104.5 58t79.5 58q37 0 37 -37q0 -74 -64.5 -134t-138.5 -60q-162 0 -227 129l-107 -125q-61 -55 -147 -55q-176 0 -252 81.5t-76 260.5zM291 250 q0 -152 57 -152q35 0 66 41q106 145 129 209q14 41 45 242q12 80 12 74q0 31 -28.5 51t-61.5 20q-113 0 -174 -194q-45 -144 -45 -291zM295 965v211h188v-211h-188zM627 965v211h190v-211h-190z" />
<glyph unicode="&#xe5;" horiz-adv-x="956" d="M57 326q0 170 74 340q92 213 240 213q264 0 360 -162l23 6q76 0 88 -35q-53 -145 -54 -276v-170q0 -92 60 -92q37 0 104.5 58t79.5 58q37 0 37 -37q0 -74 -64.5 -134t-138.5 -60q-162 0 -227 129l-107 -125q-61 -55 -147 -55q-176 0 -252 81.5t-76 260.5zM291 250 q0 -152 57 -152q35 0 66 41q106 145 129 209q14 41 45 242q12 80 12 74q0 31 -28.5 51t-61.5 20q-113 0 -174 -194q-45 -144 -45 -291zM422 1151q0 80 53 134t133 54q84 0 139 -52t55 -136q0 -80 -54 -135.5t-134 -55.5q-82 0 -137 54.5t-55 136.5zM506 1149q0 -43 29.5 -74 t72.5 -31q108 1 108 107q0 43 -30.5 73.5t-73.5 30.5q-47 0 -76.5 -29.5t-29.5 -76.5z" />
<glyph unicode="&#xe6;" horiz-adv-x="1312" d="M57 326q0 170 74 340q92 213 240 213q197 0 309 -101q57 129 156 129q133 0 272 -84q156 -94 156 -221q0 -135 -158 -221q-138 -74 -279 -66l-6 -45q0 -76 19 -108q25 -45 94 -45q162 0 369 178q35 31 73 61q53 0 54 -59q0 -106 -183 -217q-168 -102 -282 -103 q-70 0 -197 70q-82 45 -119 119l-117 -127q-61 -55 -147 -55q-176 0 -252 81.5t-76 260.5zM291 250q0 -152 57 -152q35 0 66 41q106 145 129 209q14 41 45 242q12 80 12 74q0 31 -28.5 51t-61.5 20q-113 0 -174 -194q-45 -144 -45 -291zM838 438q94 0 165.5 65t71.5 159 q0 92 -80 92q-72 0 -121 -129q-37 -98 -36 -187z" />
<glyph unicode="&#xe7;" horiz-adv-x="860" d="M57 367q0 166 52 317q72 213 206 213q160 0 273.5 -106.5t113.5 -266.5q0 -182 -102 -182q-162 0 -162 248q1 63 13 129q-16 10 -33 10q-53 0 -94 -139q-33 -113 -33 -195q0 -127 10 -178q23 -113 102 -113q76 0 199 50q94 37 193 90q88 49 75 49q35 0 35 -49 q0 -82 -172 -178q-127 -72 -215 -84l-51 -68q43 10 70 10q70 0 117.5 -42t47.5 -111q0 -94 -75 -146q-68 -45 -166 -45q-100 0 -199 47l37 82q76 -33 135 -33q111 0 111 84q0 35 -26.5 58.5t-61.5 23.5q-25 0 -66 -10l-24 -6l-33 41l84 113q-164 18 -262.5 120.5 t-98.5 266.5z" />
<glyph unicode="&#xe8;" horiz-adv-x="757" d="M57 387q0 164 41 309q59 211 185 211q133 0 272 -84q156 -94 156 -221q0 -135 -158 -221q-138 -74 -279 -66l-6 -45q0 -76 19 -108q25 -45 94 -45q162 0 369 178q35 31 73 61q53 0 54 -59q0 -106 -183 -217q-168 -102 -282 -103q-70 0 -197 70q-96 53 -131 143 q-27 70 -27 197zM271 1259h223l184 -289h-141zM285 438q94 0 165.5 65t71.5 159q0 92 -80 92q-72 0 -120 -129q-37 -98 -37 -187z" />
<glyph unicode="&#xe9;" horiz-adv-x="788" d="M57 387q0 164 41 309q59 211 185 211q133 0 272 -84q156 -94 156 -221q0 -135 -158 -221q-138 -74 -279 -66l-6 -45q0 -76 19 -108q25 -45 94 -45q162 0 369 178q35 31 73 61q53 0 54 -59q0 -106 -183 -217q-168 -102 -282 -103q-70 0 -197 70q-96 53 -131 143 q-27 70 -27 197zM285 438q94 0 165.5 65t71.5 159q0 92 -80 92q-72 0 -120 -129q-37 -98 -37 -187zM316 970l184 289h223l-268 -289h-139z" />
<glyph unicode="&#xea;" horiz-adv-x="782" d="M57 387q0 164 41 309q59 211 185 211q133 0 272 -84q156 -94 156 -221q0 -135 -158 -221q-138 -74 -279 -66l-6 -45q0 -76 19 -108q25 -45 94 -45q162 0 369 178q35 31 73 61q53 0 54 -59q0 -106 -183 -217q-168 -102 -282 -103q-70 0 -197 70q-96 53 -131 143 q-27 70 -27 197zM168 970l201 289h194l203 -289h-168l-133 189l-135 -189h-162zM285 438q94 0 165.5 65t71.5 159q0 92 -80 92q-72 0 -120 -129q-37 -98 -37 -187z" />
<glyph unicode="&#xeb;" horiz-adv-x="763" d="M57 387q0 164 41 309q59 211 185 211q133 0 272 -84q156 -94 156 -221q0 -135 -158 -221q-138 -74 -279 -66l-6 -45q0 -76 19 -108q25 -45 94 -45q162 0 369 178q35 31 73 61q53 0 54 -59q0 -106 -183 -217q-168 -102 -282 -103q-70 0 -197 70q-96 53 -131 143 q-27 70 -27 197zM127 969v211h188v-211h-188zM285 438q94 0 165.5 65t71.5 159q0 92 -80 92q-72 0 -120 -129q-37 -98 -37 -187zM459 969v211h190v-211h-190z" />
<glyph unicode="&#xec;" horiz-adv-x="569" d="M21 1257h223l184 -289h-141zM113 344q2 25 10 115q2 41 7 122t37 116.5t109 35.5q72 0 86 -35q-35 -162 -34 -446q0 -145 53 -146q18 0 116.5 50.5t131.5 50.5t33 -39q0 -33 -60 -86q-70 -63 -104 -80q-51 -25 -131 -25q-154 0 -213 115q-41 82 -41 252z" />
<glyph unicode="&#xed;" horiz-adv-x="569" d="M113 344q2 25 10 115q2 41 7 122t37 116.5t109 35.5q72 0 86 -35q-35 -162 -34 -446q0 -145 53 -146q18 0 116.5 50.5t131.5 50.5t33 -39q0 -33 -60 -86q-70 -63 -104 -80q-51 -25 -131 -25q-154 0 -213 115q-41 82 -41 252zM152 972l184 289h223l-268 -289h-139z" />
<glyph unicode="&#xee;" horiz-adv-x="569" d="M-10 966l201 289h194l203 -289h-168l-133 189l-135 -189h-162zM113 344q2 25 10 115q2 41 7 122t37 116.5t109 35.5q72 0 86 -35q-35 -162 -34 -446q0 -145 53 -146q18 0 116.5 50.5t131.5 50.5t33 -39q0 -33 -60 -86q-70 -63 -104 -80q-51 -25 -131 -25q-154 0 -213 115 q-41 82 -41 252z" />
<glyph unicode="&#xef;" horiz-adv-x="569" d="M33 969v211h188v-211h-188zM113 344q2 25 10 115q2 41 7 122t37 116.5t109 35.5q72 0 86 -35q-35 -162 -34 -446q0 -145 53 -146q18 0 116.5 50.5t131.5 50.5t33 -39q0 -33 -60 -86q-70 -63 -104 -80q-51 -25 -131 -25q-154 0 -213 115q-41 82 -41 252zM365 969v211h190 v-211h-190z" />
<glyph unicode="&#xf0;" horiz-adv-x="1138" d="M72 518q0 229 121 383q133 170 354 170q162 0 266 -110q-61 160 -223 290l-254 -127l-88 88l244 117q-84 59 -115 74l-68 33l154 73q111 -49 184 -104l217 104l99 -82l-220 -104q109 -106 156 -170q57 -82 107 -205q63 -162 63 -350q0 -268 -111 -434 q-129 -195 -383 -195q-229 0 -370 162q-133 154 -133 387zM260 522q0 -164 72 -272q84 -125 239 -125q150 0 234 127q74 110 74 268q0 162 -72 271q-84 125 -238 124q-152 0 -235 -124q-74 -109 -74 -269z" />
<glyph unicode="&#xf1;" horiz-adv-x="989" d="M115 139q0 61 6 154l10 153q2 31 2 248q18 182 107 183q119 0 118 -64q0 -25 -11 -76t-9 -78l2 -45q72 117 80 125q59 76 121 76q125 0 215 -78q94 -84 94 -207q0 -39 -10.5 -117.5t-10.5 -117.5q0 -111 64 -111q25 0 87 34t85 34q41 0 41 -53q0 -59 -94 -109 q-84 -45 -150 -45q-131 0 -187.5 63.5t-56.5 196.5q0 41 6.5 125t6.5 125q0 55 -33 92q-98 -6 -160 -176q-14 -55 -80 -313q-41 -166 -90 -166q-154 0 -153 147zM209 958q23 113 61 160q51 61 154 61q51 0 106 -20l131 -49l45 -7q80 0 97 95h106q-31 -223 -209 -224 q-43 0 -80 13l-161 53q-31 10 -54 10q-68 0 -96 -92h-100z" />
<glyph unicode="&#xf2;" horiz-adv-x="892" d="M57 426q0 76 13 117l16 53q35 113 98 190q82 100 181 101q127 0 254 -137.5t137 -268.5h8q57 0 109.5 130t89.5 130q47 0 47 -73q0 -113 -76 -224q-80 -121 -186 -135q-43 -174 -86 -233q-70 -96 -222 -96q-186 0 -288 133q-94 121 -95 313zM236 1259h223l184 -289h-141z M272 344q0 -88 27 -154q37 -92 111 -92q63 0 120 113q49 98 50 166q0 12 -55.5 124.5t-55.5 188.5q-23 10 -41 10q-70 0 -117 -147q-39 -121 -39 -209z" />
<glyph unicode="&#xf3;" horiz-adv-x="911" d="M57 426q0 76 13 117l16 53q35 113 98 190q82 100 181 101q127 0 254 -137.5t137 -268.5h8q57 0 109.5 130t89.5 130q47 0 47 -73q0 -113 -76 -224q-80 -121 -186 -135q-43 -174 -86 -233q-70 -96 -222 -96q-186 0 -288 133q-94 121 -95 313zM234 970l184 289h223 l-268 -289h-139zM272 344q0 -88 27 -154q37 -92 111 -92q63 0 120 113q49 98 50 166q0 12 -55.5 124.5t-55.5 188.5q-23 10 -41 10q-70 0 -117 -147q-39 -121 -39 -209z" />
<glyph unicode="&#xf4;" horiz-adv-x="905" d="M57 426q0 76 13 117l16 53q35 113 98 190q82 100 181 101q127 0 254 -137.5t137 -268.5h8q57 0 109.5 130t89.5 130q47 0 47 -73q0 -113 -76 -224q-80 -121 -186 -135q-43 -174 -86 -233q-70 -96 -222 -96q-186 0 -288 133q-94 121 -95 313zM82 970l201 289h194l203 -289 h-168l-133 189l-135 -189h-162zM272 344q0 -88 27 -154q37 -92 111 -92q63 0 120 113q49 98 50 166q0 12 -55.5 124.5t-55.5 188.5q-23 10 -41 10q-70 0 -117 -147q-39 -121 -39 -209z" />
<glyph unicode="&#xf5;" horiz-adv-x="905" d="M57 426q0 76 13 117l16 53q35 113 98 190q82 100 181 101q127 0 254 -137.5t137 -268.5h8q57 0 109.5 130t89.5 130q47 0 47 -73q0 -113 -76 -224q-80 -121 -186 -135q-43 -174 -86 -233q-70 -96 -222 -96q-186 0 -288 133q-94 121 -95 313zM121 950q23 113 61 160 q51 61 154 61q51 0 106 -20l131 -49l45 -7q80 0 97 95h106q-31 -223 -209 -224q-43 0 -80 13l-161 53q-31 10 -54 10q-68 0 -96 -92h-100zM272 344q0 -88 27 -154q37 -92 111 -92q63 0 120 113q49 98 50 166q0 12 -55.5 124.5t-55.5 188.5q-23 10 -41 10q-70 0 -117 -147 q-39 -121 -39 -209z" />
<glyph unicode="&#xf6;" horiz-adv-x="892" d="M57 426q0 76 13 117l16 53q35 113 98 190q82 100 181 101q127 0 254 -137.5t137 -268.5h8q57 0 109.5 130t89.5 130q47 0 47 -73q0 -113 -76 -224q-80 -121 -186 -135q-43 -174 -86 -233q-70 -96 -222 -96q-186 0 -288 133q-94 121 -95 313zM137 969v211h188v-211h-188z M272 344q0 -88 27 -154q37 -92 111 -92q63 0 120 113q49 98 50 166q0 12 -55.5 124.5t-55.5 188.5q-23 10 -41 10q-70 0 -117 -147q-39 -121 -39 -209zM469 969v211h190v-211h-190z" />
<glyph unicode="&#xf7;" horiz-adv-x="1030" d="M33 477q0 -96 129 -96q33 0 98.5 4t97.5 4h252q357 0 367 47q6 18 6 37q0 84 -123 105q-49 8 -219 8h-29q-172 0 -413 -19q-137 -10 -151.5 -30.5t-14.5 -59.5zM418 150q0 49 35.5 99t83.5 50q74 0 73 -149q0 -51 -22 -93q-27 -51 -74 -49q-66 2 -84 43q-12 27 -12 99z M418 807q0 49 35.5 100t83.5 51q74 0 73 -151q0 -51 -22 -92q-27 -51 -74 -49q-66 2 -84 43q-12 26 -12 98z" />
<glyph unicode="&#xf8;" horiz-adv-x="1251" d="M55 8l131 148q-115 170 -114 381q0 244 127 399q137 166 374 166q193 0 332 -131l129 145l68 -53l-144 -160q109 -158 109 -366q0 -240 -127 -398q-137 -168 -373 -168q-195 0 -323 123l-123 -139zM260 539q0 -86 8 -125q8 -45 43 -117l482 543q-98 106 -222 106 q-160 0 -241 -129q-70 -109 -70 -278zM358 221q84 -92 209 -92q162 0 244 131q68 109 68 281q0 123 -43 221z" />
<glyph unicode="&#xf9;" horiz-adv-x="1024" d="M113 449q0 53 13 159.5t13 160.5t15.5 79.5t68.5 25.5q39 0 82 -10q61 -14 57 -39q-35 -199 -34 -372v-123q-1 -147 32 -219q78 70 150 229q66 143 84 264q16 104 33 127q29 41 118 41q92 0 93 -86q0 -20 -33 -125q-8 -27 -8 -250q0 -47 16 -98q20 -68 57 -68 q23 0 92.5 57.5t98.5 57.5q43 0 43 -41q0 -61 -107.5 -133t-173.5 -72q-86 0 -139 62q-27 33 -80 135q-35 -94 -65 -141q-53 -82 -121 -82q-211 0 -271 129q-35 76 -34 332zM306 1261h223l184 -289h-141z" />
<glyph unicode="&#xfa;" horiz-adv-x="989" d="M113 449q0 53 13 159.5t13 160.5t15.5 79.5t68.5 25.5q39 0 82 -10q61 -14 57 -39q-35 -199 -34 -372v-123q-1 -147 32 -219q78 70 150 229q66 143 84 264q16 104 33 127q29 41 118 41q92 0 93 -86q0 -20 -33 -125q-8 -27 -8 -250q0 -47 16 -98q20 -68 57 -68 q23 0 92.5 57.5t98.5 57.5q43 0 43 -41q0 -61 -107.5 -133t-173.5 -72q-86 0 -139 62q-27 33 -80 135q-35 -94 -65 -141q-53 -82 -121 -82q-211 0 -271 129q-35 76 -34 332zM299 966l184 289h223l-268 -289h-139z" />
<glyph unicode="&#xfb;" horiz-adv-x="989" d="M113 449q0 53 13 159.5t13 160.5t15.5 79.5t68.5 25.5q39 0 82 -10q61 -14 57 -39q-35 -199 -34 -372v-123q-1 -147 32 -219q78 70 150 229q66 143 84 264q16 104 33 127q29 41 118 41q92 0 93 -86q0 -20 -33 -125q-8 -27 -8 -250q0 -47 16 -98q20 -68 57 -68 q23 0 92.5 57.5t98.5 57.5q43 0 43 -41q0 -61 -107.5 -133t-173.5 -72q-86 0 -139 62q-27 33 -80 135q-35 -94 -65 -141q-53 -82 -121 -82q-211 0 -271 129q-35 76 -34 332zM260 978l201 289h194l203 -289h-168l-133 189l-135 -189h-162z" />
<glyph unicode="&#xfc;" horiz-adv-x="983" d="M113 449q0 53 13 159.5t13 160.5t15.5 79.5t68.5 25.5q39 0 82 -10q61 -14 57 -39q-35 -199 -34 -372v-123q-1 -147 32 -219q78 70 150 229q66 143 84 264q16 104 33 127q29 41 118 41q92 0 93 -86q0 -20 -33 -125q-8 -27 -8 -250q0 -47 16 -98q20 -68 57 -68 q23 0 92.5 57.5t98.5 57.5q43 0 43 -41q0 -61 -107.5 -133t-173.5 -72q-86 0 -139 62q-27 33 -80 135q-35 -94 -65 -141q-53 -82 -121 -82q-211 0 -271 129q-35 76 -34 332zM279 973v211h188v-211h-188zM611 973v211h190v-211h-190z" />
<glyph unicode="&#xfd;" horiz-adv-x="948" d="M115 479q0 360 108 361q43 0 91 -33t48 -74q0 -49 -13 -149.5t-13 -149.5v-123q8 -92 43 -92q51 0 137 244q80 223 88 303l8 72q2 25 4 26q16 59 60 60q43 0 94 -17q63 -20 64 -53q0 -150 -26 -450t-26 -449q0 -217 -34 -293q-57 -123 -246 -123q-102 0 -221 65.5 t-160 155.5q33 12 61 13q55 0 171 -62.5t141 -62.5q70 0 92 272q4 39 18 330q-125 -188 -262 -189q-145 0 -197 148q-31 88 -30 270zM361 968l184 289h223l-268 -289h-139z" />
<glyph unicode="&#xfe;" horiz-adv-x="927" d="M106 498q-6 135 23 317q94 596 152 596q70 0 99.5 -20.5t29.5 -87.5q0 -63 -20 -293t-28 -271q49 41 103 86q43 35 127 35q141 0 213 -94q66 -84 65 -229q0 -193 -77 -306q-90 -133 -275 -133q-72 0 -170 39q-23 -90 -22 -229q0 -49 4 -147.5t4 -147.5v-111 q-70 -37 -139 -37q-74 0 -74 43zM367 334q0 -43 44 -79t89 -36q72 0 110 107q29 80 29 166v81q0 145 -41 146q-57 0 -147 -166q-84 -156 -84 -219z" />
<glyph unicode="&#xff;" horiz-adv-x="962" d="M115 479q0 360 108 361q43 0 91 -33t48 -74q0 -49 -13 -149.5t-13 -149.5v-123q8 -92 43 -92q51 0 137 244q80 223 88 303l8 72q2 25 4 26q16 59 60 60q43 0 94 -17q63 -20 64 -53q0 -150 -26 -450t-26 -449q0 -217 -34 -293q-57 -123 -246 -123q-102 0 -221 65.5 t-160 155.5q33 12 61 13q55 0 171 -62.5t141 -62.5q70 0 92 272q4 39 18 330q-125 -188 -262 -189q-145 0 -197 148q-31 88 -30 270zM244 971v211h188v-211h-188zM576 971v211h190v-211h-190z" />
<glyph unicode="&#x152;" horiz-adv-x="2328" d="M57 690q0 272 129 504q154 274 406 274q80 0 291 -100q195 -92 262 -149q23 -19 41 -35q84 111 311 198q297 115 541 115q119 0 190.5 -67.5t71.5 -184.5q0 -51 -35 -93t-86 -42q-72 0 -113 59q-35 49 -38 125l-41 2q-150 8 -351 -86q-193 -88 -301 -202 q-4 -104 461 -105q281 0 315 15q53 -10 54 -144q0 -55 -25 -67q-6 -4 -80 -15q-164 -25 -454 -145q-227 -94 -308 -178q-20 -47 -45 -93q2 -74 113 -94q35 -6 166 -6q334 0 655 148q141 88 176 88q63 0 64 -62q0 -117 -344 -250q-303 -117 -457 -116q-182 0 -346 100 q-63 39 -106 84q-174 -195 -478 -195q-143 0 -322 118t-248 247t-69 352zM313 547q0 -170 90 -295q101 -139 265 -139q195 0 333 211q125 190 125 393q0 225 -106 381q-121 180 -336 180q-205 0 -301 -279q-70 -201 -70 -452zM1358 807q4 -35 4 -68v-49q80 39 180 68 q-104 20 -184 49z" />
<glyph unicode="&#x153;" horiz-adv-x="1312" d="M57 326q0 170 74 340q92 213 240 213q197 0 309 -101q57 129 156 129q133 0 272 -84q156 -94 156 -221q0 -135 -158 -221q-138 -74 -279 -66l-6 -45q0 -76 19 -108q25 -45 94 -45q162 0 369 178q35 31 73 61q53 0 54 -59q0 -106 -183 -217q-168 -102 -282 -103 q-70 0 -197 70q-82 45 -119 119l-117 -127q-61 -55 -147 -55q-176 0 -252 81.5t-76 260.5zM291 250q0 -152 57 -152q35 0 66 41q106 145 129 209q14 41 45 242q12 80 12 74q0 31 -28.5 51t-61.5 20q-113 0 -174 -194q-45 -144 -45 -291zM838 438q94 0 165.5 65t71.5 159 q0 92 -80 92q-72 0 -121 -129q-37 -98 -36 -187z" />
<glyph unicode="&#x178;" horiz-adv-x="1323" d="M143 618q0 354 62 680q16 88 41 115q33 35 114 35q121 0 121 -45q0 -53 -32 -174q-39 -145 -46 -178q-25 -141 -24 -502q0 -412 145 -412q184 0 338 500q117 379 135 668q4 66 68 65h109q47 -20 47 -63q0 -63 -17 -179q-16 -127 -18 -180l-29 -712q-16 -408 -16 -713 q0 -86 -90 -86q-67 0 -133 47l-5 225q-2 90 13 289q10 147 10 289v53q-33 -37 -94 -143q-53 -90 -99 -129q-68 -57 -168 -58q-432 0 -432 608zM586 1673v211h188v-211h-188zM918 1673v211h190v-211h-190z" />
<glyph unicode="&#x2c6;" d="M43 1214l201 289h194l203 -289h-168l-133 189l-135 -189h-162z" />
<glyph unicode="&#x2dc;" d="M-8 1239q23 113 61 160q51 61 154 61q51 0 106 -20l131 -49l45 -7q80 0 97 95h106q-31 -223 -209 -224q-43 0 -80 13l-161 53q-31 10 -54 10q-68 0 -96 -92h-100z" />
<glyph unicode="&#x2000;" horiz-adv-x="1022" />
<glyph unicode="&#x2001;" horiz-adv-x="2044" />
<glyph unicode="&#x2002;" horiz-adv-x="1022" />
<glyph unicode="&#x2003;" horiz-adv-x="2044" />
<glyph unicode="&#x2004;" />
<glyph unicode="&#x2005;" horiz-adv-x="511" />
<glyph unicode="&#x2006;" horiz-adv-x="340" />
<glyph unicode="&#x2007;" horiz-adv-x="340" />
<glyph unicode="&#x2008;" horiz-adv-x="255" />
<glyph unicode="&#x2009;" horiz-adv-x="408" />
<glyph unicode="&#x200a;" horiz-adv-x="113" />
<glyph unicode="&#x2010;" horiz-adv-x="735" d="M43 539q0 47 391 47q115 0 170 -21q90 -33 90 -129q0 -47 -186 -47h-227q-92 0 -125 12q-43 16 -88 80q-25 35 -25 58z" />
<glyph unicode="&#x2011;" horiz-adv-x="735" d="M43 539q0 47 391 47q115 0 170 -21q90 -33 90 -129q0 -47 -186 -47h-227q-92 0 -125 12q-43 16 -88 80q-25 35 -25 58z" />
<glyph unicode="&#x2012;" horiz-adv-x="735" d="M43 539q0 47 391 47q115 0 170 -21q90 -33 90 -129q0 -47 -186 -47h-227q-92 0 -125 12q-43 16 -88 80q-25 35 -25 58z" />
<glyph unicode="&#x2013;" horiz-adv-x="1138" d="M-2 492v151h1141v-151h-1141z" />
<glyph unicode="&#x2014;" horiz-adv-x="1118" d="M-14 459v164h1147v-164h-1147z" />
<glyph unicode="&#x2018;" horiz-adv-x="385" d="M55 1016q0 27 47 237q6 29 29 148q25 67 107 67q86 0 86 -88q0 -76 -19 -155q-2 -80 -12 -170q-12 -121 -88 -121q-150 0 -150 82z" />
<glyph unicode="&#x2019;" horiz-adv-x="387" d="M57 1038q0 57 21 144q2 80 12 168q12 121 84 120q154 0 154 -77q0 -80 -27 -179l-47 -174q-18 -70 -25 -79q-14 -25 -71 -25h-15q-53 0 -71 27q-15 20 -15 75z" />
<glyph unicode="&#x201a;" horiz-adv-x="454" d="M106 0v217h218v-94q0 -223 -35 -293q-51 -104 -183 -135v96q109 18 109 195v14h-109z" />
<glyph unicode="&#x201c;" horiz-adv-x="729" d="M55 1016q0 27 47 237q6 29 29 148q25 67 107 67q86 0 86 -88q0 -76 -19 -155q-2 -80 -12 -170q-12 -121 -88 -121q-150 0 -150 82zM362 1016q0 27 48 237q6 29 28 148q25 67 107 67q86 0 86 -88q0 -76 -19 -155q-2 -80 -12 -170q-12 -121 -88 -121q-150 0 -150 82z" />
<glyph unicode="&#x201d;" horiz-adv-x="702" d="M57 1038q0 57 21 144q2 80 12 168q12 121 84 120q154 0 154 -77q0 -80 -27 -179l-47 -174q-18 -70 -25 -79q-14 -25 -71 -25h-15q-53 0 -71 27q-15 20 -15 75zM365 1038q0 57 20 144q2 80 12 168q12 121 84 120q154 0 154 -77q0 -80 -27 -179l-47 -174q-18 -70 -24 -79 q-14 -25 -72 -25h-14q-53 0 -72 27q-14 20 -14 75z" />
<glyph unicode="&#x201e;" d="M51 0v217h217v-111q0 -207 -32 -272q-55 -111 -185 -139v98q111 14 111 207h-111zM391 0v217h215v-96q0 -219 -35 -291q-51 -104 -180 -135v96q106 20 107 195v14h-107z" />
<glyph unicode="&#x2022;" horiz-adv-x="716" d="M37 735q0 137 93 230.5t230 93.5q133 0 228.5 -95.5t95.5 -228.5t-95 -227t-231 -94q-135 0 -228 93t-93 228z" />
<glyph unicode="&#x2026;" horiz-adv-x="2048" d="M236 0v217h215v-217h-215zM915 0v217h215v-217h-215zM1597 0v217h215v-217h-215z" />
<glyph unicode="&#x202f;" horiz-adv-x="408" />
<glyph unicode="&#x2039;" d="M180 475v187l322 251l2 -180l-215 -166l213 -166l2 -182z" />
<glyph unicode="&#x203a;" d="M180 219v182l215 166l-215 166v182l324 -253v-189z" />
<glyph unicode="&#x205f;" horiz-adv-x="511" />
<glyph unicode="&#x2122;" horiz-adv-x="1556" d="M55 1274q0 14 13 24q33 2 264 35q160 23 260 17q92 -6 100 -11q18 -10 49 -82l-10 -12q-39 -8 -108 -10q-80 0 -111 -4q-16 -43 -31 -285q-10 -178 -10 -311q-14 -16 -35 -17q-49 0 -57 7q-16 8 -17 51q0 344 17 545h-166q-158 0 -158 53zM721 680q23 207 35 321 q18 186 20 324q27 31 90 31q68 0 68 -47q0 -225 102 -508q29 57 97 278q63 211 77 230q25 33 88 32q53 0 54 -100q0 -18 -3 -57t-3 -58q0 -395 57 -395q14 0 37 12l26 15q31 -8 31 -29q0 -29 -52 -59.5t-85 -30.5q-98 0 -127 168q-4 25 -16 246q-33 -117 -64 -215 q-53 -164 -100 -164q-80 0 -113 39q-25 29 -43 123q-39 188 -47 204q-41 -258 -45 -372v-31q-14 -25 -41 -25q-51 0 -43 68z" />
<glyph unicode="&#xe000;" horiz-adv-x="921" d="M0 0v922h922v-922h-922z" />
</font>
</defs>
</svg>
