<?xml version="1.0" standalone="no"?>
<!DOCTYPE svg PUBLIC "-//W3C//DTD SVG 1.1//EN" "http://www.w3.org/Graphics/SVG/1.1/DTD/svg11.dtd" >
<svg xmlns="http://www.w3.org/2000/svg">
<metadata>
This is a custom SVG webfont generated by Font Squirrel.
Copyright   : Copyright  2011 Nokia All rights reserved  Reproduction transfer distribution or storage of part or all of the contents in this document in any form without the prior written permission of Nokia is prohibited
</metadata>
<defs>
<font id="NokiaPureHeadlineUltraLight" horiz-adv-x="1138" >
<font-face units-per-em="2048" ascent="1536" descent="-512" />
<missing-glyph horiz-adv-x="571" />
<glyph unicode=" "  horiz-adv-x="571" />
<glyph unicode="&#x09;" horiz-adv-x="571" />
<glyph unicode="&#xa0;" horiz-adv-x="571" />
<glyph unicode="!" horiz-adv-x="468" d="M160 61q0 43 22.5 63.5t51 20.5t51 -20.5t22.5 -63.5q0 -39 -22.5 -59t-51 -20t-51 20t-22.5 59zM195 406v1034h77v-1034h-77z" />
<glyph unicode="&#x22;" horiz-adv-x="612" d="M123 1440h90l-12 -512h-64zM399 1440h90l-12 -512h-63z" />
<glyph unicode="#" d="M37 424l12 65h213l96 488h-229l12 65h232l82 398h73l-84 -398h385l82 398h74l-84 -398h199l-13 -65h-200l-94 -488h221l-13 -65h-223l-80 -424h-73l80 424h-383l-82 -424h-74l82 424h-211zM336 489h383l96 488h-385z" />
<glyph unicode="$" d="M131 102l35 70q59 -35 156.5 -72t230.5 -41v633l-29 10q-76 27 -141.5 58t-113.5 74t-75.5 102t-27.5 143q0 78 27.5 141.5t79 109.5t123 73t157.5 31v184h72v-184q104 -4 202.5 -34t163.5 -71l-35 -67q-31 18 -70.5 35.5t-83.5 30.5t-89 21.5t-88 8.5v-608l59 -23 q74 -27 134.5 -59.5t104.5 -75.5t67.5 -99.5t23.5 -125.5q0 -160 -98.5 -262.5t-290.5 -120.5v-207h-72v207q-150 8 -250 41.5t-172 76.5zM246 1081q0 -61 19.5 -106t58 -81t96 -63.5t133.5 -54.5v582q-152 -4 -229.5 -79t-77.5 -198zM625 59q55 4 109 22.5t99.5 54.5 t72.5 92q28 54 28 134q0 68 -23.5 114t-65.5 80t-98.5 59.5t-121.5 50.5v-607z" />
<glyph unicode="%" horiz-adv-x="1703" d="M59 1058.5q0 409.5 297 409.5t297 -409.5t-297 -409.5t-297 409.5zM135 1058.5q0 -100.5 15.5 -166t44 -104t69.5 -54t92.5 -15.5t92 15.5t69.5 54t44.5 104t15.5 166t-15.5 166t-44.5 104.5t-69.5 54.5t-92 15.5t-92.5 -15.5t-69.5 -54.5t-44 -104.5t-15.5 -166zM420 0 l788 1440h78l-784 -1440h-82zM1055 393.5q0 409.5 297 409.5t297 -409.5t-297 -409.5t-297 409.5zM1130 393.5q0 -100.5 15.5 -166t44.5 -104.5t69.5 -54.5t92 -15.5t92.5 15.5t69.5 54.5t44 104.5t15.5 166t-15.5 166t-44 104t-69.5 54t-92.5 15.5t-92 -15.5t-69.5 -54 t-44.5 -104t-15.5 -166z" />
<glyph unicode="&#x26;" horiz-adv-x="1306" d="M102 367q0 84 24 149.5t68 117.5t105 93t137 76l-52 60q-30 34 -56.5 77t-45 95t-18.5 116q0 68 23.5 126t65.5 100t101.5 65.5t133.5 23.5q72 0 131 -21.5t102 -60t67.5 -94t24.5 -123.5q0 -74 -29.5 -133t-79.5 -106t-113.5 -84t-131.5 -68l438 -510q29 31 57.5 68 t55.5 77t48.5 77.5t35.5 70.5l68 -33q-41 -90 -97.5 -172t-115.5 -147l178 -207h-101l-131 152q-78 -70 -195.5 -122.5t-252.5 -52.5q-106 0 -189.5 29t-139.5 81t-86 123t-30 157zM184 367q0 -76 27 -133.5t76 -97.5t116.5 -60.5t149.5 -20.5q57 0 115.5 14.5t110.5 37 t94 50t71 54.5l-459 534q-55 -25 -109 -57.5t-96 -77.5t-69 -104t-27 -139zM342 1151q0 -90 52 -168t116 -149q166 76 246 150.5t80 180.5q0 109 -70 169.5t-176 60.5q-117 0 -182.5 -69t-65.5 -175z" />
<glyph unicode="'" horiz-adv-x="335" d="M123 1440h90l-14 -494h-66z" />
<glyph unicode="(" horiz-adv-x="495" d="M139 669.5q0 159.5 21.5 297t51.5 248t63.5 192.5t58.5 129h69q-31 -63 -64.5 -152.5t-61 -199t-45 -239.5t-17.5 -275.5t17.5 -275.5t45 -240.5t61.5 -199.5t64 -151h-69q-25 47 -58.5 129t-63.5 193t-51.5 248t-21.5 296.5z" />
<glyph unicode=")" horiz-adv-x="495" d="M92 -197q31 61 63.5 150.5t60.5 200t46.5 240.5t18.5 275.5t-18.5 275.5t-46.5 239.5t-60.5 199t-63.5 152.5h70q25 -47 58.5 -129t63 -192.5t51 -248t21.5 -297t-21.5 -296.5t-51 -248t-63.5 -193t-58 -129h-70z" />
<glyph unicode="*" horiz-adv-x="811" d="M61 1260l29 73l285 -123l-10 326h81l-10 -326l285 123l29 -73l-291 -105l211 -256l-62 -47l-202 266l-203 -266l-62 47l209 256z" />
<glyph unicode="+" d="M117 688v72h415v442h74v-442h416v-72h-416v-442h-74v442h-415z" />
<glyph unicode="," horiz-adv-x="403" d="M66 -279q57 63 87.5 123t41.5 121q-27 6 -49.5 28.5t-22.5 63.5q0 47 21.5 73t56.5 26q41 0 65.5 -27t24.5 -80q0 -84 -46 -179t-139 -187z" />
<glyph unicode="-" horiz-adv-x="813" d="M113 537v71h587v-71h-587z" />
<glyph unicode="." horiz-adv-x="438" d="M143 66q0 47 23.5 67.5t52.5 20.5t52.5 -20.5t23.5 -67.5q0 -39 -23.5 -60.5t-52.5 -21.5t-52.5 21.5t-23.5 60.5z" />
<glyph unicode="/" horiz-adv-x="759" d="M20 -96l639 1632h80l-639 -1632h-80z" />
<glyph unicode="0" horiz-adv-x="1110" d="M76 721q0 387 118.5 567t360.5 180t360.5 -179t118.5 -566t-118.5 -567.5t-360.5 -180.5t-360.5 179.5t-118.5 566.5zM160 720.5q0 -190.5 27.5 -319.5t77.5 -206.5t124 -110.5t166 -33t166 33t124 111.5t77.5 207.5t27.5 319.5t-27.5 319.5t-77.5 207t-124 111t-166 33 t-166 -33t-124 -112t-77.5 -208t-27.5 -319.5z" />
<glyph unicode="1" horiz-adv-x="864" d="M72 1153l456 287h70v-1440h-80v1333l-412 -243z" />
<glyph unicode="2" horiz-adv-x="942" d="M61 1298q27 29 62 58.5t81 54.5t106.5 41t135.5 16q98 0 171 -27.5t121 -75.5t70.5 -111.5t22.5 -137.5q0 -84 -28.5 -150.5t-74.5 -123t-102 -103.5l-114 -92q-80 -61 -145.5 -121.5t-112.5 -126t-73.5 -144.5t-26.5 -177h706v-78h-786v27q0 131 25.5 225t73.5 170 t118.5 140.5t161.5 135.5l126 104q56 48 94 96t58.5 100.5t20.5 117.5q0 129 -77 204t-239 75q-59 0 -107 -13.5t-87 -34t-71 -48t-58 -54.5z" />
<glyph unicode="3" horiz-adv-x="952" d="M61 39l19 67q29 -16 107.5 -35.5t172.5 -19.5q188 0 292 86t104 246q0 68 -24.5 126t-73 101t-120 67.5t-165.5 24.5h-101v74h95q84 0 151.5 24.5t114.5 67.5t72.5 102.5t25.5 127.5q0 61 -16.5 114.5t-53 93.5t-98 63.5t-151.5 23.5q-106 0 -178 -40t-111 -77l-47 55 q20 20 51 45t74 45.5t97 33.5t122 13q102 0 176 -28.5t122 -78.5t70.5 -117.5t22.5 -145.5q0 -129 -58.5 -217t-193.5 -136q141 -35 211 -131t70 -227q0 -100 -36 -177t-99.5 -129t-151.5 -79t-193 -27q-49 0 -95 6.5t-86 16.5t-71 20.5t-47 20.5z" />
<glyph unicode="4" horiz-adv-x="1040" d="M61 352v54l555 1034h84l-538 -1014h497v459h80v-459h230v-74h-230v-352h-80v352h-598z" />
<glyph unicode="5" horiz-adv-x="927" d="M51 39l25 67q14 -8 41.5 -17t63.5 -17.5t79 -14.5t86 -6q195 0 296 101.5t101 293.5q0 78 -18 142.5t-57 112t-99.5 74t-142.5 26.5q-100 0 -159.5 -18.5t-98.5 -39.5l-49 37l76 660h579v-76h-510l-63 -535q49 23 110.5 34t114.5 11q86 0 158.5 -26.5t127 -80.5t84 -134 t29.5 -187q0 -98 -31.5 -183t-92 -149.5t-148.5 -101.5t-201 -37q-104 0 -185 23t-116 41z" />
<glyph unicode="6" horiz-adv-x="1030" d="M104 635q0 420 140.5 626.5t394.5 206.5q80 0 140.5 -15t113.5 -40l-33 -74q-35 18 -91 36t-136 18q-111 0 -195 -52.5t-139 -143.5t-83 -212t-28 -256v-6q0 2 2 4q45 86 134.5 147.5t224.5 61.5q88 0 163.5 -32t130 -91t85 -147t30.5 -201q0 -104 -28.5 -193.5 t-81.5 -156t-130 -103.5t-173 -37q-233 0 -337 171.5t-104 488.5zM197 489q0 -209 94 -323.5t254 -114.5q70 0 131 25.5t105 77t70 130t26 183.5q0 195 -92.5 294t-239.5 99q-72 0 -135.5 -25.5t-110.5 -73.5t-74.5 -117t-27.5 -155z" />
<glyph unicode="7" horiz-adv-x="917" d="M31 1364v76h825v-60l-549 -1380h-88l547 1364h-735z" />
<glyph unicode="8" horiz-adv-x="1081" d="M102 324q0 76 27 140t75 116.5t112.5 94.5t140.5 70l-4 3q-59 25 -114.5 58.5t-98.5 78.5t-70 102t-27 129q0 74 29 137.5t82 111.5t129 75.5t168 27.5q98 0 175 -24.5t130 -69.5t81 -105.5t28 -133.5q0 -139 -86 -240.5t-215 -153.5q55 -23 111 -55.5t103.5 -79.5 t77 -106.5t29.5 -132.5q0 -82 -28.5 -154t-86 -124t-140.5 -83t-193 -31q-121 0 -203 30t-134.5 78t-75 110.5t-22.5 130.5zM186 326q0 -68 27 -120t74 -86t111.5 -51.5t142.5 -17.5q76 0 142.5 20.5t115.5 60.5t76.5 99.5t27.5 135t-37 132t-91 97.5t-117.5 68.5 t-118.5 44.5q-53 -18 -115 -51t-115 -80.5t-88 -109.5t-35 -142zM227 1116q0 -68 33 -121t84 -95t111.5 -71.5t113.5 -48.5q53 18 108.5 48t100.5 73t74 101.5t29 134.5q0 117 -88 186.5t-242 69.5q-84 0 -144.5 -22.5t-100.5 -60.5t-59.5 -88.5t-19.5 -105.5z" />
<glyph unicode="9" horiz-adv-x="1036" d="M72 977q0 109 27.5 199t82 155.5t132 101t175.5 35.5q217 0 329 -157.5t112 -481.5q0 -428 -128 -641t-396 -213q-72 0 -146 13.5t-139 46.5l24 69q55 -25 119 -40t142 -15q217 0 328.5 177t111.5 501q-23 -43 -60.5 -83t-85 -70.5t-104.5 -48t-121 -17.5 q-90 0 -163.5 31.5t-127 92t-83 147.5t-29.5 198zM154 979q0 -195 89 -295t234 -100q68 0 132.5 25.5t114.5 74.5t81 119.5t31 163.5q0 104 -26 183t-72 133t-109.5 82t-139.5 28q-72 0 -133 -25t-106 -76t-70.5 -129t-25.5 -184z" />
<glyph unicode=":" horiz-adv-x="376" d="M104 66q0 47 24 67.5t52.5 20.5t52 -20.5t23.5 -67.5q0 -39 -23.5 -60.5t-52 -21.5t-52.5 21.5t-24 60.5zM104 922q0 47 24 67.5t52.5 20.5t52 -20.5t23.5 -67.5q0 -39 -23.5 -60.5t-52 -21.5t-52.5 21.5t-24 60.5z" />
<glyph unicode=";" horiz-adv-x="421" d="M74 -279q57 63 88 123t41 121q-27 6 -49.5 28.5t-22.5 63.5q0 47 21.5 73t56.5 26q41 0 65.5 -27t24.5 -80q0 -84 -46 -179t-138 -187zM141 922q0 47 23.5 67.5t52.5 20.5t52.5 -20.5t23.5 -67.5q0 -39 -23.5 -60.5t-52.5 -21.5t-52.5 21.5t-23.5 60.5z" />
<glyph unicode="&#x3c;" d="M205 698v82l700 355l29 -64l-651 -332l651 -331l-33 -62z" />
<glyph unicode="=" d="M147 467v72h844v-72h-844zM147 897v72h844v-72h-844z" />
<glyph unicode="&#x3e;" d="M205 408l651 331l-651 332l28 64l701 -355v-82l-696 -352z" />
<glyph unicode="?" horiz-adv-x="1015" d="M84 1260q31 37 68.5 74.5t90 68.5t118 50.5t151.5 19.5q84 0 153.5 -26t120 -73t78 -112.5t27.5 -145.5q0 -72 -16.5 -125t-45 -97t-68.5 -83l-85 -80q-43 -39 -77 -72.5t-57.5 -72.5t-35.5 -88t-12 -119h-76q0 72 8 123t32.5 95t68.5 91t116 111q37 33 67.5 63.5 t52 66.5t34 81t12.5 106q0 127 -75 205t-228 78q-125 0 -217 -59.5t-152 -135.5zM403 66q0 43 24 65.5t52.5 22.5t52 -20.5t23.5 -67.5q0 -39 -23.5 -60.5t-52 -21.5t-52.5 20.5t-24 61.5z" />
<glyph unicode="@" horiz-adv-x="1990" d="M102 461q0 227 75 415.5t207 323.5t311 210t386 75q193 0 342.5 -51.5t253 -147.5t157.5 -235.5t54 -313.5q0 -168 -46 -299t-119.5 -222t-165 -139t-179.5 -48q-82 0 -130 30.5t-58 85.5q-10 -12 -35 -30.5t-59.5 -36t-79.5 -30.5t-94 -13q-70 0 -131.5 24.5 t-106.5 71.5t-70.5 119t-25.5 168q0 141 37 251.5t98 185.5t142 115t171 40q61 0 108.5 -17.5t81.5 -44t55.5 -57.5t31.5 -55l33 143h63l-141 -721q-4 -20 -7.5 -47t-3.5 -37q0 -39 25 -61.5t88 -22.5q102 0 184 53.5t138.5 142.5t87 204.5t30.5 242.5q0 186 -59 316.5 t-159.5 211t-233.5 116.5t-281 36q-184 0 -348 -64.5t-284.5 -187.5t-191.5 -299t-71 -399q0 -201 60.5 -356.5t168 -262t257 -162t329.5 -55.5q227 0 405.5 68.5t303.5 165.5l39 -58q-47 -35 -116.5 -77.5t-163 -79.5t-209 -61.5t-252.5 -24.5q-176 0 -338 52t-288 161.5 t-201 279.5t-75 408zM664 420q0 -84 20.5 -143.5t54 -99.5t79.5 -58.5t100 -18.5q82 0 143 30t125 95l94 482q0 47 -17.5 90t-50 75.5t-80 52t-108.5 19.5q-70 0 -134.5 -34.5t-114.5 -102.5t-80.5 -165t-30.5 -222z" />
<glyph unicode="A" horiz-adv-x="1107" d="M14 0l484 1440h110l486 -1440h-93l-139 420h-622l-138 -420h-88zM266 498h572l-287 858z" />
<glyph unicode="B" horiz-adv-x="1120" d="M156 0v1440h368q211 0 322.5 -91.5t111.5 -256.5q0 -135 -59 -220.5t-147 -119.5q119 -31 199.5 -125.5t80.5 -239.5q0 -172 -112.5 -279.5t-337.5 -107.5h-426zM238 78h337q184 0 276.5 74.5t92.5 234.5q0 143 -97 229t-302 86h-307v-624zM238 780h290q174 0 259 80 t85 232q0 74 -27.5 125t-74.5 83.5t-109.5 47t-134.5 14.5h-288v-582z" />
<glyph unicode="C" horiz-adv-x="1183" d="M102 705q0 172 38 312t114 239.5t186.5 153.5t257.5 54q88 0 154 -15t114 -36.5t80.5 -46.5t51.5 -41l-49 -65q-57 51 -141.5 88.5t-209.5 37.5q-233 0 -370.5 -171t-137.5 -510q0 -332 136.5 -491t371.5 -159q66 0 119 12.5t96 31t76 41t58 42.5l47 -63 q-68 -61 -164 -101.5t-232 -40.5q-158 0 -270.5 54.5t-184 151t-106.5 229.5t-35 293z" />
<glyph unicode="D" horiz-adv-x="1288" d="M156 0v1440h368q328 0 495 -180.5t167 -538.5q0 -182 -46 -317.5t-130 -225.5t-202 -134t-263 -44h-389zM240 80h301q127 0 229 39t175 118.5t113 199.5t40 284q0 170 -39 291t-112 198.5t-175 113.5t-231 36h-301v-1280z" />
<glyph unicode="E" horiz-adv-x="983" d="M156 0v1440h755v-78h-671v-574h524v-77h-524v-633h692v-78h-776z" />
<glyph unicode="F" horiz-adv-x="976" d="M156 0v1440h780v-78h-696v-574h571v-77h-571v-711h-84z" />
<glyph unicode="G" horiz-adv-x="1249" d="M102 713q0 162 38 301t114 241.5t188.5 160t262.5 57.5q135 0 233 -30t180 -95l-43 -68q-20 16 -50 36.5t-73 38t-102 30t-137 12.5q-109 0 -203 -38t-166 -121t-113 -213t-41 -312q0 -184 39 -311.5t111 -204t174 -110.5t229 -34q39 0 82 5t84 14.5t76 19.5t59 21v516 h-342v73h424v-624q-18 -12 -56 -29.5t-91 -34t-118.5 -28t-141.5 -11.5q-303 0 -460 183.5t-157 554.5z" />
<glyph unicode="H" horiz-adv-x="1269" d="M156 0v1440h84v-637h790v637h84v-1440h-84v723h-790v-723h-84z" />
<glyph unicode="I" horiz-adv-x="403" d="M160 0v1440h84v-1440h-84z" />
<glyph unicode="J" horiz-adv-x="880" d="M33 66l33 69l35 -17q28 -13 68 -27.5t88 -25t97 -10.5q82 0 138.5 19.5t90 61.5t48 108.5t14.5 163.5v1032h84v-1063q0 -211 -87 -305.5t-273 -94.5q-68 0 -124.5 10.5t-99.5 25t-71.5 30t-40.5 23.5z" />
<glyph unicode="K" horiz-adv-x="1021" d="M156 0v1440h82v-674l602 674h100l-600 -676l682 -764h-107l-677 758v-758h-82z" />
<glyph unicode="L" horiz-adv-x="983" d="M156 0v1440h84v-1360h692v-80h-776z" />
<glyph unicode="M" horiz-adv-x="1486" d="M156 0v1440h96l489 -883l488 883h102v-1440h-84v1313l-469 -846h-76l-464 829v-1296h-82z" />
<glyph unicode="N" horiz-adv-x="1259" d="M156 0v1440h92l774 -1305v1305h82v-1440h-90l-776 1303v-1303h-82z" />
<glyph unicode="O" horiz-adv-x="1400" d="M109 723q0 168 39.5 306t115.5 236.5t186.5 151.5t249.5 53q141 0 252 -54t185.5 -152.5t114.5 -235.5t40 -305t-40 -306t-115.5 -236.5t-186 -152t-250.5 -53.5q-141 0 -251.5 54.5t-185.5 153t-114.5 235.5t-39.5 305zM199 723q0 -152 31.5 -274.5t94 -210.5 t156.5 -135.5t219 -47.5q129 0 223.5 48.5t157 135.5t93 209.5t30.5 274t-31.5 274.5t-95 211t-158 135.5t-219.5 47.5q-129 0 -223 -48.5t-155.5 -135.5t-92 -210.5t-30.5 -273.5z" />
<glyph unicode="P" horiz-adv-x="1058" d="M156 0v1440h403q217 0 327.5 -111.5t110.5 -320.5q0 -94 -28.5 -172t-85 -134.5t-142.5 -88t-200 -31.5h-301v-582h-84zM240 659h295q182 0 278 84t96 265q0 197 -94 275.5t-262 78.5h-313v-703z" />
<glyph unicode="Q" horiz-adv-x="1400" d="M109 723q0 168 39.5 306t115.5 236.5t186.5 151.5t249.5 53q141 0 252 -54t185.5 -152.5t114.5 -235.5t40 -305q0 -270 -99 -456.5t-286 -256.5q27 -39 68 -73.5t91 -62.5t106.5 -47.5t115.5 -29.5l-20 -76q-61 10 -125 35t-124.5 58.5t-111.5 78t-88 95.5 q-55 -12 -119 -13q-141 0 -251.5 54.5t-185.5 153t-114.5 235.5t-39.5 305zM197 723q0 -152 31.5 -274.5t95 -210.5t158 -135.5t218.5 -47.5q129 0 223.5 48.5t157 135.5t93 209.5t30.5 274t-31.5 274.5t-95 211t-158 135.5t-219.5 47.5q-129 0 -223 -48.5t-156.5 -135.5 t-93 -210.5t-30.5 -273.5z" />
<glyph unicode="R" horiz-adv-x="1085" d="M156 0v1440h370q213 0 325 -109q114 -111 114 -317q0 -142 -70 -245q-72 -105 -215 -146l367 -623h-95l-362 606q-20 -2 -40 -3t-42 -1h-268v-602h-84zM240 680h262q180 0 277.5 83t97.5 259q0 94 -26 159.5t-73 105.5t-113.5 57.5t-148.5 17.5h-276v-682z" />
<glyph unicode="S" horiz-adv-x="1019" d="M61 94l37 76l67 -39q36 -20 82 -36.5t104.5 -28t131.5 -11.5q76 0 143.5 16.5t119 52.5t82 93t30.5 139q0 123 -73.5 199t-215.5 121l-108 35q-176 59 -263 147t-87 240q0 70 24.5 136t77.5 118.5t137 84t203 31.5q43 0 91 -7t96 -19t91 -29.5t78 -38.5l-32 -74 q-55 35 -138.5 62t-193.5 27q-170 0 -259 -81t-89 -210q0 -61 14 -104.5t49 -77t91.5 -62.5t140.5 -59l122 -43q176 -61 253 -155.5t77 -231.5q0 -78 -28.5 -148t-86 -124t-144.5 -86t-204 -32q-74 0 -138 12.5t-118.5 31t-96.5 39t-67 36.5z" />
<glyph unicode="T" horiz-adv-x="1040" d="M33 1360v80h975v-80h-443v-1360h-84v1360h-448z" />
<glyph unicode="U" horiz-adv-x="1257" d="M152 575v865h84v-844q0 -160 26.5 -265.5t76.5 -167t124 -86t166 -24.5q90 0 162.5 24.5t124 86t79 166t27.5 264.5v846h84v-869q0 -117 -20.5 -224t-74 -190t-147.5 -132.5t-241.5 -49.5t-238.5 50.5t-143.5 133.5t-70.5 191t-18 225z" />
<glyph unicode="V" horiz-adv-x="1062" d="M0 1440h92l440 -1336l441 1336h88l-486 -1440h-88z" />
<glyph unicode="W" horiz-adv-x="1474" d="M31 1440h86l270 -1299l309 1262h86l310 -1264l270 1301h82l-301 -1440h-92l-312 1245l-311 -1245h-94z" />
<glyph unicode="X" horiz-adv-x="1069" d="M16 0l476 766l-406 674h96l365 -604l373 604h92l-422 -680l463 -760h-97l-421 692l-426 -692h-93z" />
<glyph unicode="Y" horiz-adv-x="1013" d="M18 1440h99l391 -729l397 729h96l-452 -815v-625h-82v623z" />
<glyph unicode="Z" horiz-adv-x="1099" d="M70 0v68l843 1292h-792v80h897v-66l-848 -1294h864v-80h-964z" />
<glyph unicode="[" horiz-adv-x="612" d="M160 -207v1743h391v-72h-311v-1599h311v-72h-391z" />
<glyph unicode="\" horiz-adv-x="759" d="M20 1536h80l639 -1632h-80z" />
<glyph unicode="]" horiz-adv-x="612" d="M61 -135h312v1599h-312v72h392v-1743h-392v72z" />
<glyph unicode="^" d="M166 647l393 766h31l381 -766h-80l-320 647l-325 -647h-80z" />
<glyph unicode="_" horiz-adv-x="770" d="M-31 -311h832v-70h-832v70z" />
<glyph unicode="`" horiz-adv-x="968" d="M246 1413l37 74l440 -223l-29 -62z" />
<glyph unicode="a" horiz-adv-x="972" d="M78 285q0 147 93 238t280 91q111 0 192.5 -13t122.5 -23v110q0 78 -20.5 131t-58.5 85t-91 46.5t-117 14.5q-59 0 -106 -8.5t-85 -19.5t-66.5 -24.5t-51.5 -25.5l-29 67q20 12 53 26.5t76 28t97.5 22.5t117.5 9q176 0 267.5 -81.5t91.5 -256.5v-702h-78v195 q-35 -63 -82 -103.5t-98 -64t-101.5 -32.5t-89.5 -9q-59 0 -116.5 16t-101.5 52t-71.5 92.5t-27.5 138.5zM158 285q0 -119 70.5 -173.5t181.5 -54.5q76 0 141 30t112.5 76t75 102.5t27.5 111.5v127q-53 12 -130 24.5t-175 12.5q-160 0 -231.5 -66.5t-71.5 -189.5z" />
<glyph unicode="b" horiz-adv-x="1095" d="M147 0v1536h78v-725q57 123 151.5 177t225.5 54q98 0 172 -38.5t125 -108.5t76.5 -167t25.5 -214q0 -147 -39.5 -247.5t-101 -162t-136.5 -89t-146 -27.5q-86 0 -176.5 28.5t-176.5 114.5v-131h-78zM225 244q14 -25 44 -56.5t74 -59.5t101.5 -47.5t128.5 -19.5 q74 0 136.5 28t109.5 84t74 141t27 200q0 100 -18.5 183t-58.5 142.5t-101.5 93.5t-147.5 34q-82 0 -149.5 -32t-116.5 -89.5t-76 -134t-27 -168.5v-299z" />
<glyph unicode="c" horiz-adv-x="892" d="M94 510q0 117 31 215t89 169t140 109.5t185 38.5q55 0 98 -7t77 -19t60.5 -28.5t48.5 -35.5l-39 -63q-39 27 -96 53.5t-145 26.5q-164 0 -265.5 -117t-101.5 -342q0 -119 27.5 -205t76 -141t115 -82t144.5 -27q98 0 154.5 20.5t103.5 43.5l28 -60q-41 -29 -106.5 -53 t-179.5 -24q-211 0 -328 135t-117 393z" />
<glyph unicode="d" horiz-adv-x="1107" d="M94 508q0 100 24.5 195.5t77 171t134.5 121.5t194 46q111 0 207 -51t152 -178v723h78v-1536h-72v147q-70 -72 -157 -116.5t-210 -44.5q-78 0 -153.5 26.5t-137 88t-99.5 162t-38 245.5zM176 506q0 -111 26.5 -195t73 -140t110 -84t137 -28t131 17.5t100.5 45.5t74.5 61.5 t54.5 66.5v282q0 98 -27 178.5t-75 137.5t-113.5 88t-143.5 31q-92 0 -158.5 -36t-108.5 -98.5t-61.5 -146.5t-19.5 -180z" />
<glyph unicode="e" horiz-adv-x="1019" d="M98 510q0 123 31 221t86 167t135 106.5t178 37.5q90 0 165 -30.5t129.5 -95t85 -168t30.5 -246.5v-19h-760q10 -203 100.5 -315.5t292.5 -112.5q84 0 152 19.5t115 42.5l24 -62q-37 -25 -114.5 -49t-180.5 -24q-119 0 -207 37.5t-146 106.5t-87 166t-29 218zM178 555h678 q-4 96 -24.5 173t-60.5 130t-100.5 82t-144.5 29q-154 0 -245 -108.5t-103 -305.5z" />
<glyph unicode="f" horiz-adv-x="675" d="M41 944v72h205v94q0 100 16.5 179t55 134.5t99 84t150.5 28.5q41 0 82 -7t58 -11l-13 -70q-16 4 -49 9t-65 5q-72 0 -121 -18.5t-79 -61.5t-43 -112.5t-13 -169.5v-84h309v-72h-309v-944h-78v944h-205z" />
<glyph unicode="g" horiz-adv-x="1017" d="M53 -197q0 82 38 148.5t95 114.5q-25 16 -51 50t-26 89q0 76 39.5 132t87.5 95q-49 45 -80 108.5t-31 149.5q0 88 32.5 153.5t85 109.5t120 66.5t139.5 22.5q37 0 67.5 -4t59 -10t57.5 -10t62 -4h249v-70h-43q-59 0 -110 4t-99 15q59 -45 96.5 -113t37.5 -160 q0 -86 -30 -151.5t-82 -110.5t-120.5 -67.5t-144.5 -22.5q-119 0 -215 57q-37 -37 -67 -80t-30 -96q0 -66 53.5 -91.5t184.5 -29.5l225 -6q59 -2 115.5 -14t100.5 -39t71 -71t27 -107q0 -66 -30 -125.5t-92.5 -105.5t-159.5 -73.5t-232 -27.5q-86 0 -159 15.5t-126 49 t-84 84.5t-31 125zM131 -195q0 -53 24.5 -91t67.5 -62.5t100.5 -36.5t125.5 -12q213 0 326.5 67.5t113.5 177.5q0 68 -50.5 116t-187.5 52l-196 4q-35 0 -92.5 4.5t-112.5 18.5q-43 -41 -81 -103.5t-38 -134.5zM201 690q0 -78 26.5 -132t69.5 -88t96 -48t109 -14 q57 0 111.5 15t96.5 49t67.5 88t25.5 130q0 78 -27.5 132.5t-70.5 88t-97.5 48t-105.5 14.5q-53 0 -106.5 -15.5t-96.5 -48t-70.5 -87t-27.5 -132.5z" />
<glyph unicode="h" horiz-adv-x="1075" d="M147 0v1536h78v-745q117 251 373 251h2q166 0 256 -96t90 -282v-664h-78v653q0 170 -75.5 243t-198.5 73q-90 0 -158.5 -40t-115 -102.5t-71 -138.5t-24.5 -149v-539h-78z" />
<glyph unicode="i" horiz-adv-x="385" d="M117 1358q0 37 22.5 59.5t53 22.5t53 -22.5t22.5 -59.5q0 -41 -22.5 -61.5t-53 -20.5t-53 20.5t-22.5 61.5zM154 0v1016h77v-1016h-77z" />
<glyph unicode="j" horiz-adv-x="428" d="M-158 -444l11 71q10 -2 41.5 -6t62.5 -4q78 0 126 27.5t73.5 82t35 131t9.5 175.5v983h78v-1032q0 -215 -73 -329t-239 -114q-39 0 -77 5.5t-48 9.5zM164 1358q0 37 22.5 59.5t53 22.5t53 -22.5t22.5 -59.5q0 -41 -22.5 -61.5t-53 -20.5t-53 20.5t-22.5 61.5z" />
<glyph unicode="k" horiz-adv-x="811" d="M147 0v1536h78v-979l437 459h98l-447 -467l496 -549h-94l-490 543v-543h-78z" />
<glyph unicode="l" horiz-adv-x="380" d="M152 0v1536h77v-1536h-77z" />
<glyph unicode="m" horiz-adv-x="1687" d="M143 0v1016h82v-195q49 98 134 159.5t208 61.5q266 0 314 -247q53 123 145 185t209 62q166 0 245 -96t79 -282v-664h-78v651q0 170 -61.5 244t-182.5 74q-90 0 -154.5 -39t-107.5 -100.5t-63.5 -137.5t-20.5 -151v-541h-78v664q0 168 -65.5 236.5t-182.5 68.5 q-82 0 -146.5 -36t-108.5 -94.5t-66.5 -134t-22.5 -153.5v-551h-78z" />
<glyph unicode="n" horiz-adv-x="1071" d="M143 0v1016h78v-228q117 254 375 254q166 0 256 -96t90 -282v-664h-78v653q0 170 -76.5 243t-199.5 73q-90 0 -158 -40t-115 -102.5t-70.5 -138.5t-23.5 -149v-539h-78z" />
<glyph unicode="o" horiz-adv-x="1110" d="M98 512q0 115 29 212t85 168t142 110.5t201 39.5q119 0 205 -38.5t142 -109.5t83 -168t27 -214q0 -115 -29 -211t-86 -168t-143 -111.5t-199 -39.5q-117 0 -203 40.5t-142 111.5t-84 168t-28 210zM180 512q0 -213 90 -335t283 -122q98 0 169 33t117 92.5t68.5 143.5 t22.5 188q0 213 -90 335t-285 122q-96 0 -167 -33t-117 -92.5t-68.5 -143.5t-22.5 -188z" />
<glyph unicode="p" horiz-adv-x="1095" d="M147 -451v1467h78v-207q53 117 148.5 175t222.5 58q100 0 176 -38.5t127 -108.5t76.5 -167t25.5 -214q0 -147 -40.5 -247.5t-104 -162t-141.5 -89t-152 -27.5q-96 0 -181 28.5t-159 79.5v-547h-76zM225 188q20 -20 54 -42.5t77 -41t95.5 -31t109.5 -12.5q78 0 143.5 28 t113.5 84t75 141t27 200q0 98 -19.5 181t-59.5 143.5t-101.5 95.5t-145.5 35t-152.5 -33t-117 -90.5t-74 -135t-25.5 -165.5v-357z" />
<glyph unicode="q" horiz-adv-x="1110" d="M94 508q0 100 24.5 195.5t77 171t135.5 121.5t201 46q51 0 102.5 -12t97.5 -38.5t85 -70.5t68 -108v203h78v-1467h-76v594q-27 -29 -61.5 -56.5t-80 -50t-100.5 -36.5t-123 -14q-86 0 -163.5 29.5t-136 92t-93.5 162t-35 238.5zM176 508q0 -115 26.5 -199t73 -139 t111 -83t141.5 -28q74 0 132.5 18.5t101.5 47.5t73.5 60.5t49.5 60.5v280q0 106 -28 189.5t-77 139.5t-114.5 85t-141.5 29q-92 0 -158.5 -36t-108.5 -98.5t-61.5 -146.5t-19.5 -180z" />
<glyph unicode="r" horiz-adv-x="665" d="M143 0v1016h80v-242q47 121 141.5 185.5t227.5 64.5q12 0 32.5 -1t34.5 -5l-8 -76q-14 2 -35.5 3t-31.5 1q-90 0 -158 -36t-113 -97t-68.5 -143t-23.5 -172v-498h-78z" />
<glyph unicode="s" horiz-adv-x="843" d="M59 74l33 67q45 -29 127 -57.5t191 -28.5q80 0 135 16.5t89 45t49 67.5t15 82q0 37 -9 69t-33.5 58.5t-68.5 46t-114 31.5l-111 21q-150 27 -219 88t-69 184q0 70 27.5 122t74.5 87t109.5 52t132.5 17q102 0 175 -22.5t126 -50.5l-29 -70q-47 25 -115.5 47.5t-158.5 22.5 q-123 0 -192.5 -56.5t-69.5 -154.5q0 -41 11 -71t39.5 -52.5t75 -38.5t117.5 -31l97 -18q57 -10 109 -29.5t91 -52.5t61.5 -80t22.5 -113q0 -137 -99 -213.5t-267 -76.5q-127 0 -217.5 31.5t-135.5 60.5z" />
<glyph unicode="t" horiz-adv-x="698" d="M20 944v72h213v305l78 20v-325h312v-72h-312v-635q0 -76 14.5 -124t43 -75.5t72.5 -38t104 -10.5q31 0 82 11l10 -66q-16 -6 -52 -11t-77 -5q-78 0 -130 21.5t-84 60.5t-46.5 92t-14.5 115v665h-213z" />
<glyph unicode="u" horiz-adv-x="1075" d="M135 379v637h78v-617q0 -188 66.5 -266t187.5 -78q82 0 152.5 37t123 97.5t82 138.5t29.5 161v527h78v-1016h-78v246q-53 -125 -155.5 -194.5t-239.5 -69.5q-160 0 -242 100t-82 297z" />
<glyph unicode="v" horiz-adv-x="872" d="M6 1016h92l342 -922l338 922h88l-389 -1016h-78z" />
<glyph unicode="w" horiz-adv-x="1306" d="M6 1016h84l279 -918l237 889h101l235 -887l279 916h79l-311 -1016h-96l-238 889l-239 -889h-97z" />
<glyph unicode="x" horiz-adv-x="849" d="M14 0l361 526l-344 490h90l303 -428l293 428h88l-338 -490l369 -526h-88l-332 469l-314 -469h-88z" />
<glyph unicode="y" horiz-adv-x="886" d="M6 1016h88l346 -869l355 869h86l-605 -1467h-81l206 500z" />
<glyph unicode="z" horiz-adv-x="880" d="M68 0v55l645 889h-619v72h719v-55l-641 -887h627v-74h-731z" />
<glyph unicode="{" horiz-adv-x="591" d="M82 612v99q86 16 118.5 81.5t32.5 145.5v252q0 160 79 253t227 93v-66q-3 0 -7 1q-110 0 -165 -70q-57 -72 -58 -242v-201q0 -129 -39 -197.5t-114 -94.5q59 -20 106 -94t47 -201v-217q0 -154 53 -229q50 -71 164 -71q6 0 13 1v-64q-86 0 -144.5 25.5t-94.5 74t-51.5 115 t-15.5 148.5v225q0 37 -7 75t-25.5 69.5t-47 56t-71.5 32.5z" />
<glyph unicode="|" horiz-adv-x="407" d="M168 -451v1987h72v-1987h-72z" />
<glyph unicode="}" horiz-adv-x="591" d="M53 -152h6q108 0 165 70q58 72 59 242v200q0 129 38.5 200t114.5 97q-59 20 -106 92t-47 199v226q0 154 -54 228q-50 71 -163 71h-13v63q86 0 144.5 -26.5t94.5 -73.5t51 -114t15 -148v-234q0 -37 7.5 -75t26 -69.5t47 -56t71.5 -32.5v-99q-86 -16 -119 -81.5t-33 -145.5 v-252q0 -160 -78.5 -253t-226.5 -93v65z" />
<glyph unicode="~" d="M70 799q27 27 59.5 54.5t69.5 50t78.5 36.5t89.5 14q43 0 75.5 -6t61 -17t57.5 -28l66 -39q61 -37 103 -52t83 -15q59 0 109.5 35.5t101.5 82.5l47 -49q-53 -53 -119.5 -96t-140.5 -43q-61 0 -119.5 22.5t-124.5 63.5q-49 31 -90 49.5t-98 18.5q-74 0 -137.5 -37 t-124.5 -96z" />
<glyph unicode="&#xa1;" horiz-adv-x="468" d="M160 958q0 -43 22.5 -63t51 -20t51 20t22.5 63q0 39 -22.5 59.5t-51 20.5t-51 -20.5t-22.5 -59.5zM195 -420h77v1034h-77v-1034z" />
<glyph unicode="&#xa2;" d="M131 707q0 129 36 225t95.5 160.5t139 99.5t169.5 45v203h70v-203q94 -4 168 -29.5t121 -58.5l-35 -62q-20 12 -50 28t-63.5 28t-70.5 19q-29 6 -55 6q-7 0 -15 -1v-921q78 0 145.5 22.5t108.5 44.5l31 -63q-41 -25 -116 -49.5t-169 -28.5v-207h-70v207q-92 6 -172 43 t-140 104.5t-94 164t-34 223.5zM211 707q0 -125 29.5 -209t80 -137.5t115 -80t135.5 -34.5v919q-72 -8 -136 -37.5t-114.5 -85t-80 -138t-29.5 -197.5z" />
<glyph unicode="&#xa3;" d="M162 743v70h174l-13 121q-7 68 -8 102q0 86 21.5 163t70 135.5t123 92t181.5 33.5q104 0 187 -32.5t130 -75.5l-43 -64q-18 14 -46 31.5t-63.5 32t-76.5 24.5t-84 10q-92 0 -152.5 -31.5t-96.5 -81.5t-50.5 -112.5t-14.5 -122.5q0 -41 7.5 -109.5t13.5 -115.5h379v-70 h-365q10 -72 15.5 -141.5t5.5 -109.5q0 -72 -16.5 -134.5t-42 -117t-55.5 -96.5t-56 -72h721v-74h-828l-2 59q18 18 51 59.5t65 97.5t55.5 127t23.5 151q0 72 -6.5 139t-14.5 112h-190z" />
<glyph unicode="&#xa4;" d="M94 254l191 190q-39 51 -61.5 112.5t-22.5 131.5q0 68 22.5 130.5t61.5 111.5l-191 192l51 56l189 -201q102 80 235 80q135 0 234 -80l190 201l51 -56l-192 -192q41 -49 63.5 -111.5t22.5 -130.5q0 -70 -22.5 -131t-63.5 -113l192 -190l-51 -55l-190 198 q-96 -78 -234 -78q-135 0 -235 78l-189 -198zM276 688.5q0 -63.5 19.5 -118t57.5 -94.5t92.5 -62.5t124 -22.5t124 22.5t92 62.5t57 94.5t19.5 118t-19.5 117.5t-57 94t-92 62.5t-124 22.5t-124 -22.5t-92.5 -62.5t-57.5 -94t-19.5 -117.5z" />
<glyph unicode="&#xa5;" d="M78 1440h98l391 -729l398 729h96l-422 -758h338v-72h-369v-233h369v-72h-369v-305h-82v305h-368v72h368v233h-368v72h336z" />
<glyph unicode="&#xa6;" horiz-adv-x="407" d="M168 229h72v-680h-72v680zM168 856v680h72v-680h-72z" />
<glyph unicode="&#xa7;" horiz-adv-x="1064" d="M152 690q0 86 40.5 167t104.5 134q-41 39 -66.5 92.5t-25.5 139.5q0 74 27.5 135t77.5 107t119 72t151 26q98 0 169.5 -23.5t127.5 -56.5l-33 -66q-41 25 -104.5 48.5t-161.5 23.5q-61 0 -115.5 -18.5t-93.5 -52.5t-61.5 -83t-22.5 -110q0 -35 5 -68t25.5 -63.5t57.5 -59 t102 -55.5l176 -70q135 -53 198.5 -126.5t63.5 -190.5q0 -88 -42 -169t-105 -134q41 -39 70.5 -91.5t29.5 -130t-27.5 -139t-76.5 -103.5t-118 -64.5t-150 -22.5q-98 0 -170 23.5t-127 56.5l34 69q41 -25 103.5 -50t161.5 -25q125 0 207.5 62.5t82.5 182.5q0 35 -6 68 t-27.5 63.5t-60.5 59t-102 55.5l-176 70q-135 53 -198.5 126.5t-63.5 190.5zM231 688q0 -86 51.5 -143.5t155.5 -98.5l160 -63q61 -25 109 -51q43 41 85 105.5t42 156.5q0 86 -51.5 143.5t-155.5 98.5l-160 63l-58 24q-28 11 -53 25q-20 -18 -42.5 -43.5t-41 -58.5t-30 -73 t-11.5 -85z" />
<glyph unicode="&#xa8;" horiz-adv-x="886" d="M160 1327q0 37 23.5 60.5t54 23.5t54 -23.5t23.5 -60.5q0 -41 -23.5 -62.5t-54 -21.5t-54 21.5t-23.5 62.5zM567 1327q0 37 23.5 60.5t54.5 23.5t54.5 -23.5t23.5 -60.5q0 -41 -23.5 -62.5t-54.5 -21.5t-54.5 21.5t-23.5 62.5z" />
<glyph unicode="&#xa9;" horiz-adv-x="1630" d="M72 725q0 158 53 294t150.5 237.5t234.5 159t305 57.5t305 -57.5t234.5 -159t151 -237.5t53.5 -294t-53.5 -294t-151 -237.5t-234.5 -160t-305 -58.5t-305 58.5t-234.5 160t-150.5 237.5t-53 294zM141 725q0 -152 50.5 -276.5t140.5 -216t214 -141.5t269.5 -50t269 50 t214 141.5t140.5 216t50 276.5q0 150 -51.5 275.5t-141.5 216t-212.5 140.5t-268 50t-268.5 -50t-213 -140.5t-141.5 -216t-51.5 -275.5zM508 717q0 86 25.5 157.5t70.5 125t107.5 83t136.5 29.5q82 0 139 -24.5t72 -38.5l-27 -52q-20 12 -71.5 34t-116.5 22 q-121 0 -193.5 -86t-72.5 -250q0 -162 71.5 -245t190.5 -83q90 0 134 19.5t58 27.5l23 -51q-20 -14 -72.5 -34.5t-144.5 -20.5q-152 0 -241 105.5t-89 281.5z" />
<glyph unicode="&#xaa;" horiz-adv-x="636" d="M82 1020q0 96 71.5 144t182.5 48q27 0 74 -5t75 -9v47q0 94 -48 131t-122 37q-41 0 -91 -11t-85 -30l-22 58q41 20 95 31.5t101 11.5q133 0 185.5 -65t52.5 -181v-389h-51l-13 71q-35 -35 -87 -59.5t-105 -24.5q-100 0 -156.5 49.5t-56.5 145.5zM84 666v57h467v-57h-467z M150 1020q0 -78 39.5 -107.5t105.5 -29.5q59 0 112.5 28.5t77.5 71.5v158q-31 4 -70.5 8t-74.5 4q-190 0 -190 -133z" />
<glyph unicode="&#xab;" horiz-adv-x="833" d="M90 512l236 395h86l-228 -395l228 -395h-86zM422 512l235 395h86l-227 -395l227 -395h-86z" />
<glyph unicode="&#xac;" d="M168 842v67h782v-460h-69v393h-713z" />
<glyph unicode="&#xad;" horiz-adv-x="808" d="M111 537v71h587v-71h-587z" />
<glyph unicode="&#xae;" horiz-adv-x="1630" d="M72 725q0 158 53 294t150.5 237.5t234.5 159t305 57.5t305 -57.5t234.5 -159t151 -237.5t53.5 -294t-53.5 -294t-151 -237.5t-234.5 -160t-305 -58.5t-305 58.5t-234.5 160t-150.5 237.5t-53 294zM141 725q0 -152 50.5 -276.5t140.5 -216t214 -141.5t269.5 -50t269 50 t214 141.5t140.5 216t50 276.5q0 150 -51.5 275.5t-141.5 216t-212.5 140.5t-268 50t-268.5 -50t-213 -140.5t-141.5 -216t-51.5 -275.5zM586 338v764h219q135 0 197.5 -61.5t62.5 -161.5q0 -72 -40 -132.5t-107 -84.5l167 -324h-71l-162 311h-199v-311h-67zM653 711h181 q76 0 118.5 46t42.5 122q0 66 -35.5 112.5t-123.5 46.5h-183v-327z" />
<glyph unicode="&#xaf;" horiz-adv-x="958" d="M188 1276v74h582v-74h-582z" />
<glyph unicode="&#xb0;" horiz-adv-x="737" d="M113 1139q0 51 18.5 97t52 80t80.5 53.5t104.5 19.5t104.5 -19.5t81 -53.5t52.5 -80t18.5 -97q0 -53 -18.5 -98.5t-52.5 -79t-81 -53t-104.5 -19.5t-104.5 19.5t-80.5 53t-52 79t-18.5 98.5zM182 1139q0 -80 50.5 -134.5t136.5 -54.5t136 54.5t50 134.5t-50 134t-136 54 t-136.5 -54t-50.5 -134z" />
<glyph unicode="&#xb1;" d="M117 0v72h905v-72h-905zM117 688v72h415v442h74v-442h416v-72h-416v-442h-74v442h-415z" />
<glyph unicode="&#xb2;" horiz-adv-x="741" d="M127 1352q14 18 35.5 38.5t51.5 37t67.5 27.5t85.5 11q104 0 166.5 -53t62.5 -151q0 -49 -15.5 -87t-43 -70t-66.5 -59.5t-84 -56.5q-35 -23 -66.5 -46t-57 -53t-42 -67t-16.5 -86h413v-63h-487v26q0 57 11.5 103.5t39 87.5t72.5 79t113 79q72 43 116.5 89t44.5 124 q0 66 -44 103.5t-115 37.5q-74 0 -118 -27.5t-81 -66.5z" />
<glyph unicode="&#xb3;" horiz-adv-x="749" d="M121 1384q45 35 104.5 58.5t145.5 23.5q66 0 110.5 -17t72.5 -45t40 -63.5t12 -70.5q0 -82 -40 -128t-95 -65q29 -6 57.5 -20.5t50 -37t35 -54t13.5 -76.5q0 -94 -71 -162t-226 -68q-59 0 -108.5 10.5t-90.5 24.5l14 60q35 -12 83 -22.5t102 -10.5q119 0 173 48t54 120 q0 74 -47 113.5t-160 39.5h-106v60h106q78 0 131.5 41t53.5 127q0 72 -50.5 103.5t-117.5 31.5q-82 0 -134.5 -27.5t-76.5 -44.5z" />
<glyph unicode="&#xb4;" horiz-adv-x="845" d="M184 1264l441 223l37 -74l-449 -211z" />
<glyph unicode="&#xb5;" horiz-adv-x="1081" d="M143 -451v1461h76v-637q0 -162 74 -240t194 -78q76 0 144.5 37t120 98.5t81 140.5t29.5 163v516h76v-1010h-78v252q-16 -41 -47 -89t-77 -88t-110.5 -66.5t-146.5 -26.5q-92 0 -161.5 38.5t-102.5 102.5v-574h-72z" />
<glyph unicode="&#xb6;" horiz-adv-x="1034" d="M113 1040q0 82 23.5 155t72.5 127t125 86t180 32h346v-1719h-76v1645h-219v-1645h-76v934q-193 10 -284.5 110.5t-91.5 274.5z" />
<glyph unicode="&#xb7;" horiz-adv-x="335" d="M94 696q0 47 23.5 67.5t52.5 20.5t52.5 -20.5t23.5 -67.5q0 -39 -23.5 -60.5t-52.5 -21.5t-52.5 21.5t-23.5 60.5z" />
<glyph unicode="&#xb8;" horiz-adv-x="835" d="M205 -442l18 65q33 -12 72 -22.5t86 -10.5q74 0 123 33t49 96q0 59 -45 87t-109 28q-27 0 -41 -1t-30 -5l37 172h75l-20 -106q98 -4 154.5 -47.5t56.5 -120.5q0 -94 -67.5 -148.5t-178.5 -54.5q-82 0 -126 15.5t-54 19.5z" />
<glyph unicode="&#xb9;" horiz-adv-x="729" d="M123 1294l268 166h51v-786h-67v694l-219 -129z" />
<glyph unicode="&#xba;" horiz-adv-x="696" d="M72 1145q0 70 21.5 130t58 104t87 69t110 25t109.5 -24t87 -67t58.5 -103t21.5 -134q0 -143 -73 -231.5t-204 -88.5t-203.5 88.5t-72.5 231.5zM92 666v57h514v-57h-514zM139 1145q0 -131 53.5 -196.5t156 -65.5t155.5 65.5t53 196.5q0 133 -56.5 201.5t-152.5 68.5 t-152.5 -68.5t-56.5 -201.5z" />
<glyph unicode="&#xbb;" horiz-adv-x="833" d="M90 117l227 395l-227 395h86l236 -395l-236 -395h-86zM422 117l227 395l-227 395h86l235 -395l-235 -395h-86z" />
<glyph unicode="&#xbc;" horiz-adv-x="1802" d="M113 1294l268 166h51v-786h-67v694l-220 -129zM451 0l786 1440h76l-785 -1440h-77zM1122 174v43l336 571h74l-322 -550h279v217h67v-217h140v-64h-140v-172h-67v172h-367z" />
<glyph unicode="&#xbd;" horiz-adv-x="1802" d="M113 1294l268 166h51v-786h-67v694l-220 -129zM451 0l786 1440h76l-785 -1440h-77zM1163 680q14 18 36 38.5t51.5 37t67.5 28t85 11.5q104 0 166.5 -53.5t62.5 -151.5q0 -49 -15 -87t-43 -70t-67 -59.5t-84 -56.5q-35 -23 -66.5 -46t-57 -53t-42 -66.5t-16.5 -85.5h414 v-64h-488v27q0 57 11.5 103t39 87t72.5 79t113 79q72 43 117 89t45 124q0 66 -44 103.5t-116 37.5q-74 0 -118 -27.5t-81 -66.5z" />
<glyph unicode="&#xbe;" horiz-adv-x="1802" d="M113 1384q45 35 104 58.5t145 23.5q66 0 111 -17t72.5 -45t40 -63.5t12.5 -70.5q0 -82 -40 -128t-95 -65q29 -6 57.5 -20.5t50 -37t34.5 -54t13 -76.5q0 -94 -70.5 -162t-225.5 -68q-59 0 -108.5 10.5t-90.5 24.5l14 60q35 -12 83 -22.5t102 -10.5q119 0 173 48t54 120 q0 74 -47 113.5t-160 39.5h-106v60h106q78 0 131 41t53 127q0 72 -50 103.5t-118 31.5q-82 0 -134 -27.5t-77 -44.5zM451 0l786 1440h76l-785 -1440h-77zM1122 174v43l336 571h74l-322 -550h279v217h67v-217h140v-64h-140v-172h-67v172h-367z" />
<glyph unicode="&#xbf;" horiz-adv-x="964" d="M166 -90q0 72 16.5 125t45 97t68.5 83l85 80q43 39 77 72.5t57.5 72.5t35.5 88.5t12 118.5h76q0 -72 -8 -123t-33 -95t-69 -91t-115 -111q-37 -33 -68 -63.5t-52.5 -66t-33.5 -81t-12 -106.5q0 -127 74.5 -205t228.5 -78q125 0 217 59.5t152 135.5l53 -55 q-31 -37 -69 -75t-90 -68.5t-117.5 -50t-151.5 -19.5q-84 0 -153.5 25.5t-120 72.5t-78 112.5t-27.5 145.5zM502 961q0 39 23.5 60t52 21t52 -20.5t23.5 -60.5q0 -43 -23.5 -66t-52 -23t-52 21t-23.5 68z" />
<glyph unicode="&#xc0;" horiz-adv-x="1107" d="M14 0l484 1440h110l486 -1440h-93l-139 420h-622l-138 -420h-88zM266 498h572l-287 858zM328 1757l37 82l450 -213l-29 -65z" />
<glyph unicode="&#xc1;" horiz-adv-x="1107" d="M14 0l484 1440h110l486 -1440h-93l-139 420h-622l-138 -420h-88zM266 498h572l-287 858zM309 1626l451 213l37 -82l-459 -196z" />
<glyph unicode="&#xc2;" horiz-adv-x="1107" d="M14 0l484 1440h110l486 -1440h-93l-139 420h-622l-138 -420h-88zM229 1616l289 246h66l288 -246l-49 -51l-272 213l-272 -213zM266 498h572l-287 858z" />
<glyph unicode="&#xc3;" horiz-adv-x="1107" d="M14 0l484 1440h110l486 -1440h-93l-139 420h-622l-138 -420h-88zM209 1591q2 94 45 149.5t145 55.5q53 0 94.5 -20.5t77 -45t70.5 -45t74 -20.5q98 0 98 133h86q0 -207 -194 -207q-53 0 -93.5 19.5t-76 44t-68.5 44t-72 19.5q-47 0 -73.5 -28.5t-26.5 -98.5h-86zM266 498 h572l-287 858z" />
<glyph unicode="&#xc4;" horiz-adv-x="1107" d="M14 0l484 1440h110l486 -1440h-93l-139 420h-622l-138 -420h-88zM266 498h572l-287 858zM270 1702q0 41 22.5 63.5t55.5 22.5t55.5 -22.5t22.5 -63.5t-22.5 -61.5t-55.5 -20.5t-55.5 20.5t-22.5 61.5zM674 1702q0 41 22.5 63.5t55 22.5t55 -22.5t22.5 -63.5t-22.5 -61.5 t-55 -20.5t-55 20.5t-22.5 61.5z" />
<glyph unicode="&#xc5;" horiz-adv-x="1107" d="M14 0l471 1407q-66 16 -104.5 65.5t-38.5 124.5q0 45 17.5 83t46 63.5t66.5 40t81 14.5q92 0 147.5 -53t55.5 -146q0 -76 -38 -125t-100 -67l476 -1407h-90l-140 420h-622l-138 -420h-90zM268 498h572l-287 858zM416 1597q0 -66 38 -101.5t95 -35.5q61 0 97 33t36 104 q0 70 -36 104t-97 34q-53 0 -93 -34t-40 -104z" />
<glyph unicode="&#xc6;" horiz-adv-x="1622" d="M23 0l733 1440h794v-78h-673v-574h526v-77h-526v-633h694v-78h-776v408h-473l-207 -408h-92zM360 485h435v858z" />
<glyph unicode="&#xc7;" horiz-adv-x="1183" d="M102 705q0 172 38 312t114 239.5t186.5 153.5t257.5 54q88 0 154 -15t114 -36.5t80.5 -46.5t51.5 -41l-49 -65q-57 51 -141.5 88.5t-209.5 37.5q-233 0 -370.5 -171t-137.5 -510q0 -332 136.5 -491t371.5 -159q66 0 119 12.5t96 31t76 41t58 42.5l47 -63 q-68 -61 -164 -101.5t-232 -40.5h-4l-16 -79q100 -6 151.5 -50.5t51.5 -121.5q0 -94 -61.5 -148.5t-178.5 -54.5q-74 0 -120 15.5t-56 19.5l16 71l68 -21q35 -11 88 -11q72 0 117 27.5t45 96.5q0 49 -39 78t-113 29q-37 0 -69 -6l34 160q-133 14 -229 73.5t-158.5 154.5 t-92.5 221.5t-30 273.5z" />
<glyph unicode="&#xc8;" horiz-adv-x="983" d="M156 0v1440h755v-78h-671v-574h524v-77h-524v-633h692v-78h-776zM285 1757l37 82l450 -213l-29 -65z" />
<glyph unicode="&#xc9;" horiz-adv-x="983" d="M156 0v1440h755v-78h-671v-574h524v-77h-524v-633h692v-78h-776zM291 1626l450 213l37 -82l-459 -196z" />
<glyph unicode="&#xca;" horiz-adv-x="983" d="M156 0v1440h755v-78h-671v-574h524v-77h-524v-633h692v-78h-776zM209 1616l289 246h65l289 -246l-49 -51l-273 213l-272 -213z" />
<glyph unicode="&#xcb;" horiz-adv-x="983" d="M156 0v1440h755v-78h-671v-574h524v-77h-524v-633h692v-78h-776zM240 1702q0 41 22.5 63.5t55 22.5t55 -22.5t22.5 -63.5t-22.5 -61.5t-55 -20.5t-55 20.5t-22.5 61.5zM643 1702q0 41 22.5 63.5t55.5 22.5t55.5 -22.5t22.5 -63.5t-22.5 -61.5t-55.5 -20.5t-55.5 20.5 t-22.5 61.5z" />
<glyph unicode="&#xcc;" horiz-adv-x="403" d="M-51 1757l37 82l450 -213l-28 -65zM160 0v1440h84v-1440h-84z" />
<glyph unicode="&#xcd;" horiz-adv-x="403" d="M-16 1626l450 213l37 -82l-459 -196zM160 0v1440h84v-1440h-84z" />
<glyph unicode="&#xce;" horiz-adv-x="403" d="M-119 1612l289 246h66l288 -246l-49 -51l-272 213l-273 -213zM160 0v1440h84v-1440h-84z" />
<glyph unicode="&#xcf;" horiz-adv-x="403" d="M-76 1702q0 41 22.5 63.5t55.5 22.5t55.5 -22.5t22.5 -63.5t-22.5 -61.5t-55.5 -20.5t-55.5 20.5t-22.5 61.5zM160 0v1440h84v-1440h-84zM328 1702q0 41 22.5 63.5t55 22.5t55 -22.5t22.5 -63.5t-22.5 -61.5t-55 -20.5t-55 20.5t-22.5 61.5z" />
<glyph unicode="&#xd0;" horiz-adv-x="1347" d="M41 696v72h174v672h369q328 0 494.5 -178.5t166.5 -540.5q0 -182 -46 -317.5t-130 -225.5t-201.5 -134t-263.5 -44h-389v696h-174zM299 80h301q127 0 229.5 39t175 118.5t112.5 199.5t40 284q0 170 -40 291t-113.5 198.5t-177 113.5t-232.5 36h-295v-592h336v-72h-336 v-616z" />
<glyph unicode="&#xd1;" horiz-adv-x="1259" d="M156 0v1440h92l774 -1305v1305h82v-1440h-90l-776 1303v-1303h-82zM293 1591q2 94 45 149.5t145 55.5q53 0 94 -20.5t77 -45t71 -45t74 -20.5q98 0 98 133h86q0 -207 -195 -207q-53 0 -93 19.5t-75.5 44t-68.5 44t-72 19.5q-47 0 -73.5 -28.5t-26.5 -98.5h-86z" />
<glyph unicode="&#xd2;" horiz-adv-x="1400" d="M109 723q0 168 39.5 306t115.5 236.5t186.5 151.5t249.5 53q141 0 252 -54t185.5 -152.5t114.5 -235.5t40 -305t-40 -306t-115.5 -236.5t-186 -152t-250.5 -53.5q-141 0 -251.5 54.5t-185.5 153t-114.5 235.5t-39.5 305zM199 723q0 -152 31.5 -274.5t94 -210.5 t156.5 -135.5t219 -47.5q129 0 223.5 48.5t157 135.5t93 209.5t30.5 274t-31.5 274.5t-95 211t-158 135.5t-219.5 47.5q-129 0 -223 -48.5t-155.5 -135.5t-92 -210.5t-30.5 -273.5zM457 1757l37 82l450 -213l-29 -65z" />
<glyph unicode="&#xd3;" horiz-adv-x="1400" d="M109 723q0 168 39.5 306t115.5 236.5t186.5 151.5t249.5 53q141 0 252 -54t185.5 -152.5t114.5 -235.5t40 -305t-40 -306t-115.5 -236.5t-186 -152t-250.5 -53.5q-141 0 -251.5 54.5t-185.5 153t-114.5 235.5t-39.5 305zM199 723q0 -152 31.5 -274.5t94 -210.5 t156.5 -135.5t219 -47.5q129 0 223.5 48.5t157 135.5t93 209.5t30.5 274t-31.5 274.5t-95 211t-158 135.5t-219.5 47.5q-129 0 -223 -48.5t-155.5 -135.5t-92 -210.5t-30.5 -273.5zM457 1626l450 213l37 -82l-459 -196z" />
<glyph unicode="&#xd4;" horiz-adv-x="1400" d="M109 723q0 168 39.5 306t115.5 236.5t186.5 151.5t249.5 53q141 0 252 -54t185.5 -152.5t114.5 -235.5t40 -305t-40 -306t-115.5 -236.5t-186 -152t-250.5 -53.5q-141 0 -251.5 54.5t-185.5 153t-114.5 235.5t-39.5 305zM199 723q0 -152 31.5 -274.5t94 -210.5 t156.5 -135.5t219 -47.5q129 0 223.5 48.5t157 135.5t93 209.5t30.5 274t-31.5 274.5t-95 211t-158 135.5t-219.5 47.5q-129 0 -223 -48.5t-155.5 -135.5t-92 -210.5t-30.5 -273.5zM379 1616l289 246h65l289 -246l-49 -51l-273 213l-272 -213z" />
<glyph unicode="&#xd5;" horiz-adv-x="1400" d="M109 723q0 168 39.5 306t115.5 236.5t186.5 151.5t249.5 53q141 0 252 -54t185.5 -152.5t114.5 -235.5t40 -305t-40 -306t-115.5 -236.5t-186 -152t-250.5 -53.5q-141 0 -251.5 54.5t-185.5 153t-114.5 235.5t-39.5 305zM199 723q0 -152 31.5 -274.5t94 -210.5 t156.5 -135.5t219 -47.5q129 0 223.5 48.5t157 135.5t93 209.5t30.5 274t-31.5 274.5t-95 211t-158 135.5t-219.5 47.5q-129 0 -223 -48.5t-155.5 -135.5t-92 -210.5t-30.5 -273.5zM379 1591q2 94 45 149.5t145 55.5q53 0 94.5 -20.5t77 -45t70.5 -45t74 -20.5q98 0 98 133 h86q0 -207 -195 -207q-53 0 -93 19.5t-75.5 44t-68.5 44t-72 19.5q-47 0 -73.5 -28.5t-26.5 -98.5h-86z" />
<glyph unicode="&#xd6;" horiz-adv-x="1400" d="M109 723q0 168 39.5 306t115.5 236.5t186.5 151.5t249.5 53q141 0 252 -54t185.5 -152.5t114.5 -235.5t40 -305t-40 -306t-115.5 -236.5t-186 -152t-250.5 -53.5q-141 0 -251.5 54.5t-185.5 153t-114.5 235.5t-39.5 305zM199 723q0 -152 31.5 -274.5t94 -210.5 t156.5 -135.5t219 -47.5q129 0 223.5 48.5t157 135.5t93 209.5t30.5 274t-31.5 274.5t-95 211t-158 135.5t-219.5 47.5q-129 0 -223 -48.5t-155.5 -135.5t-92 -210.5t-30.5 -273.5zM422 1702q0 41 22.5 63.5t55 22.5t55.5 -22.5t23 -63.5t-23 -61.5t-55.5 -20.5t-55 20.5 t-22.5 61.5zM825 1702q0 41 22.5 63.5t55.5 22.5t55.5 -22.5t22.5 -63.5t-22.5 -61.5t-55.5 -20.5t-55.5 20.5t-22.5 61.5z" />
<glyph unicode="&#xd7;" d="M203 1047l55 51l313 -344l310 338l57 -52l-315 -335l307 -330l-53 -49l-310 331l-307 -327l-53 49l307 330z" />
<glyph unicode="&#xd8;" horiz-adv-x="1404" d="M111 723q0 168 39.5 305t115.5 235.5t186.5 151.5t249.5 53q213 0 359 -127l113 177l59 -39l-121 -189q88 -98 135 -243.5t47 -325.5q0 -168 -40 -305t-115.5 -235.5t-186 -152t-250.5 -53.5q-213 0 -358 123l-111 -172l-61 39l119 185q-88 100 -134 245.5t-46 327.5z M199 723q0 -160 33.5 -287t105.5 -215l680 1055q-59 53 -138 83t-178 30q-129 0 -223 -47.5t-156.5 -135.5t-93 -210.5t-30.5 -272.5zM387 166q123 -111 315 -111q129 0 223.5 47.5t158 135.5t94 209.5t30.5 273.5q0 160 -34.5 287t-106.5 215z" />
<glyph unicode="&#xd9;" horiz-adv-x="1257" d="M152 575v865h84v-844q0 -160 26.5 -265.5t76.5 -167t124 -86t166 -24.5q90 0 162.5 24.5t124 86t79 166t27.5 264.5v846h84v-869q0 -117 -20.5 -224t-74 -190t-147.5 -132.5t-241.5 -49.5t-238.5 50.5t-143.5 133.5t-70.5 191t-18 225zM338 1757l37 82l450 -213l-28 -65z " />
<glyph unicode="&#xda;" horiz-adv-x="1257" d="M152 575v865h84v-844q0 -160 26.5 -265.5t76.5 -167t124 -86t166 -24.5q90 0 162.5 24.5t124 86t79 166t27.5 264.5v846h84v-869q0 -117 -20.5 -224t-74 -190t-147.5 -132.5t-241.5 -49.5t-238.5 50.5t-143.5 133.5t-70.5 191t-18 225zM438 1626l451 213l37 -82 l-459 -196z" />
<glyph unicode="&#xdb;" horiz-adv-x="1257" d="M152 575v865h84v-844q0 -160 26.5 -265.5t76.5 -167t124 -86t166 -24.5q90 0 162.5 24.5t124 86t79 166t27.5 264.5v846h84v-869q0 -117 -20.5 -224t-74 -190t-147.5 -132.5t-241.5 -49.5t-238.5 50.5t-143.5 133.5t-70.5 191t-18 225zM303 1612l289 246h65l289 -246 l-49 -51l-272 213l-273 -213z" />
<glyph unicode="&#xdc;" horiz-adv-x="1257" d="M152 575v865h84v-844q0 -160 26.5 -265.5t76.5 -167t124 -86t166 -24.5q90 0 162.5 24.5t124 86t79 166t27.5 264.5v846h84v-869q0 -117 -20.5 -224t-74 -190t-147.5 -132.5t-241.5 -49.5t-238.5 50.5t-143.5 133.5t-70.5 191t-18 225zM340 1702q0 41 22.5 63.5 t55.5 22.5t55.5 -22.5t22.5 -63.5t-22.5 -61.5t-55.5 -20.5t-55.5 20.5t-22.5 61.5zM743 1702q0 41 22.5 63.5t55.5 22.5t55.5 -22.5t22.5 -63.5t-22.5 -61.5t-55.5 -20.5t-55.5 20.5t-22.5 61.5z" />
<glyph unicode="&#xdd;" horiz-adv-x="1013" d="M18 1440h99l391 -729l397 729h96l-452 -815v-625h-82v623zM317 1626l451 213l37 -82l-459 -196z" />
<glyph unicode="&#xde;" horiz-adv-x="1075" d="M156 0v1440h82v-279h321q82 0 161 -20.5t139.5 -69.5t97 -131t36.5 -207q0 -117 -36.5 -197.5t-98 -133t-139.5 -76t-160 -23.5h-321v-303h-82zM238 381h307q176 0 268 89t92 263q0 188 -93 269t-267 81h-307v-702z" />
<glyph unicode="&#xdf;" horiz-adv-x="1130" d="M143 0v1032q0 102 21.5 194.5t69 161t124 108.5t187.5 40q86 0 152.5 -23.5t112.5 -65.5t70.5 -97.5t24.5 -116.5q0 -66 -27.5 -122t-86.5 -120l-52 -50q-27 -26 -48 -51.5t-34.5 -52t-13.5 -57.5q0 -55 51 -91t142 -83q63 -35 110 -68.5t76 -71.5t43 -82t14 -101 q0 -59 -22.5 -114.5t-65.5 -98.5t-106.5 -69t-145.5 -26q-88 0 -160.5 26t-111.5 48l31 70q49 -29 106.5 -49.5t126.5 -20.5q127 0 196.5 60.5t69.5 175.5q0 47 -10 81.5t-34.5 64.5t-64.5 55.5t-97 54.5q-125 61 -176.5 112.5t-51.5 126.5q0 39 13.5 71t35 60.5t47 55 t52.5 51.5q59 57 87.5 105t28.5 108q0 111 -73.5 171t-208.5 60q-172 0 -248 -116.5t-76 -331.5v-1014h-78z" />
<glyph unicode="&#xe0;" horiz-adv-x="972" d="M78 285q0 147 93 238t280 91q111 0 192.5 -13t122.5 -23v110q0 78 -20.5 131t-58.5 85t-91 46.5t-117 14.5q-59 0 -106 -8.5t-85 -19.5t-66.5 -24.5t-51.5 -25.5l-29 67q20 12 53 26.5t76 28t97.5 22.5t117.5 9q176 0 267.5 -81.5t91.5 -256.5v-702h-78v195 q-35 -63 -82 -103.5t-98 -64t-101.5 -32.5t-89.5 -9q-59 0 -116.5 16t-101.5 52t-71.5 92.5t-27.5 138.5zM158 285q0 -119 70.5 -173.5t181.5 -54.5q76 0 141 30t112.5 76t75 102.5t27.5 111.5v127q-53 12 -130 24.5t-175 12.5q-160 0 -231.5 -66.5t-71.5 -189.5zM246 1413 l37 74l440 -223l-29 -62z" />
<glyph unicode="&#xe1;" horiz-adv-x="972" d="M78 285q0 147 93 238t280 91q111 0 192.5 -13t122.5 -23v110q0 78 -20.5 131t-58.5 85t-91 46.5t-117 14.5q-59 0 -106 -8.5t-85 -19.5t-66.5 -24.5t-51.5 -25.5l-29 67q20 12 53 26.5t76 28t97.5 22.5t117.5 9q176 0 267.5 -81.5t91.5 -256.5v-702h-78v195 q-35 -63 -82 -103.5t-98 -64t-101.5 -32.5t-89.5 -9q-59 0 -116.5 16t-101.5 52t-71.5 92.5t-27.5 138.5zM158 285q0 -119 70.5 -173.5t181.5 -54.5q76 0 141 30t112.5 76t75 102.5t27.5 111.5v127q-53 12 -130 24.5t-175 12.5q-160 0 -231.5 -66.5t-71.5 -189.5zM248 1264 l440 223l37 -74l-449 -211z" />
<glyph unicode="&#xe2;" horiz-adv-x="972" d="M78 285q0 147 93 238t280 91q111 0 192.5 -13t122.5 -23v110q0 78 -20.5 131t-58.5 85t-91 46.5t-117 14.5q-59 0 -106 -8.5t-85 -19.5t-66.5 -24.5t-51.5 -25.5l-29 67q20 12 53 26.5t76 28t97.5 22.5t117.5 9q176 0 267.5 -81.5t91.5 -256.5v-702h-78v195 q-35 -63 -82 -103.5t-98 -64t-101.5 -32.5t-89.5 -9q-59 0 -116.5 16t-101.5 52t-71.5 92.5t-27.5 138.5zM158 285q0 -119 70.5 -173.5t181.5 -54.5q76 0 141 30t112.5 76t75 102.5t27.5 111.5v127q-53 12 -130 24.5t-175 12.5q-160 0 -231.5 -66.5t-71.5 -189.5zM184 1239 l273 252h67l273 -252l-45 -45l-263 213l-260 -213z" />
<glyph unicode="&#xe3;" horiz-adv-x="972" d="M78 285q0 147 93 238t280 91q111 0 192.5 -13t122.5 -23v110q0 78 -20.5 131t-58.5 85t-91 46.5t-117 14.5q-59 0 -106 -8.5t-85 -19.5t-66.5 -24.5t-51.5 -25.5l-29 67q20 12 53 26.5t76 28t97.5 22.5t117.5 9q176 0 267.5 -81.5t91.5 -256.5v-702h-78v195 q-35 -63 -82 -103.5t-98 -64t-101.5 -32.5t-89.5 -9q-59 0 -116.5 16t-101.5 52t-71.5 92.5t-27.5 138.5zM158 285q0 -119 70.5 -173.5t181.5 -54.5q76 0 141 30t112.5 76t75 102.5t27.5 111.5v127q-53 12 -130 24.5t-175 12.5q-160 0 -231.5 -66.5t-71.5 -189.5zM160 1204 q0 92 47 147.5t137 55.5q51 0 89 -20.5t72 -44.5l65 -44q32 -20 71 -20q49 0 70.5 35t21.5 94h84q-4 -94 -49 -148.5t-135 -54.5q-49 0 -87 20.5t-72 44t-66.5 44t-67.5 20.5q-51 0 -73.5 -33.5t-22.5 -95.5h-84z" />
<glyph unicode="&#xe4;" horiz-adv-x="972" d="M78 285q0 147 93 238t280 91q111 0 192.5 -13t122.5 -23v110q0 78 -20.5 131t-58.5 85t-91 46.5t-117 14.5q-59 0 -106 -8.5t-85 -19.5t-66.5 -24.5t-51.5 -25.5l-29 67q20 12 53 26.5t76 28t97.5 22.5t117.5 9q176 0 267.5 -81.5t91.5 -256.5v-702h-78v195 q-35 -63 -82 -103.5t-98 -64t-101.5 -32.5t-89.5 -9q-59 0 -116.5 16t-101.5 52t-71.5 92.5t-27.5 138.5zM158 285q0 -119 70.5 -173.5t181.5 -54.5q76 0 141 30t112.5 76t75 102.5t27.5 111.5v127q-53 12 -130 24.5t-175 12.5q-160 0 -231.5 -66.5t-71.5 -189.5zM193 1327 q0 37 23.5 60.5t54 23.5t54 -23.5t23.5 -60.5q0 -41 -23.5 -62.5t-54 -21.5t-54 21.5t-23.5 62.5zM600 1327q0 37 23.5 60.5t54.5 23.5t54.5 -23.5t23.5 -60.5q0 -41 -23.5 -62.5t-54.5 -21.5t-54.5 21.5t-23.5 62.5z" />
<glyph unicode="&#xe5;" horiz-adv-x="972" d="M78 285q0 147 93 238t280 91q111 0 192.5 -13t122.5 -23v110q0 78 -20.5 131t-58.5 85t-91 46.5t-117 14.5q-59 0 -106 -8.5t-85 -19.5t-66.5 -24.5t-51.5 -25.5l-29 67q20 12 53 26.5t76 28t97.5 22.5t117.5 9q176 0 267.5 -81.5t91.5 -256.5v-702h-78v195 q-35 -63 -82 -103.5t-98 -64t-101.5 -32.5t-89.5 -9q-59 0 -116.5 16t-101.5 52t-71.5 92.5t-27.5 138.5zM158 285q0 -119 70.5 -173.5t181.5 -54.5q76 0 141 30t112.5 76t75 102.5t27.5 111.5v127q-53 12 -130 24.5t-175 12.5q-160 0 -231.5 -66.5t-71.5 -189.5zM274 1376 q0 92 55.5 144.5t152 52.5t151.5 -52.5t55 -144.5t-55 -144t-151.5 -52t-152 52t-55.5 144zM344 1376.5q0 -69.5 37 -102.5t100.5 -33t100 33t36.5 102.5t-36.5 102t-100 32.5t-100.5 -32.5t-37 -102z" />
<glyph unicode="&#xe6;" horiz-adv-x="1669" d="M59 289q0 145 95.5 235t275.5 90q111 0 194 -13t124 -23v73q0 147 -77 230.5t-225 83.5q-104 0 -175.5 -28t-118.5 -50l-29 67q20 12 53 26.5t75 28t93 22.5t109 9q145 0 230 -67.5t122 -169.5q53 113 148.5 176t224.5 63q90 0 164.5 -29.5t129 -95t84 -168t29.5 -245.5 v-21h-760q8 -203 100.5 -315.5t295.5 -112.5q84 0 150.5 19.5t113.5 42.5l24 -62q-37 -25 -113.5 -49t-178.5 -24q-168 0 -275.5 72.5t-155.5 201.5q-51 -127 -161.5 -198.5t-251.5 -71.5q-53 0 -108.5 15t-101.5 51t-75 94.5t-29 142.5zM139 289q0 -123 71 -177.5 t181 -54.5q70 0 134.5 28t113.5 72t79 101t30 117v129q-53 12 -131 24.5t-177 12.5q-156 0 -228.5 -65.5t-72.5 -186.5zM825 555h680q-4 96 -24.5 173t-60.5 130t-100 82t-144 29q-154 0 -246.5 -108.5t-104.5 -305.5z" />
<glyph unicode="&#xe7;" horiz-adv-x="890" d="M94 510q0 117 31 215t89 169t140 109.5t185 38.5q55 0 98 -7t77 -19t60.5 -28.5t48.5 -35.5l-39 -63q-39 27 -96 52.5t-145 25.5q-164 0 -265.5 -116t-101.5 -341q0 -119 26.5 -204t75 -140t115 -81t144.5 -26q98 0 153 18.5t103 41.5l28 -60q-41 -29 -103.5 -52 t-180.5 -23h-7l-16 -90q98 -4 154.5 -47.5t56.5 -120.5q0 -94 -67.5 -148.5t-178.5 -54.5q-82 0 -126 15.5t-54 19.5l18 65q33 -12 72 -22.5t86 -10.5q74 0 123 33t49 96q0 59 -45 87t-108 28q-27 0 -41.5 -1t-30.5 -5l35 162q-174 23 -268.5 155t-94.5 365z" />
<glyph unicode="&#xe8;" horiz-adv-x="1019" d="M98 510q0 123 31 221t86 167t135 106.5t178 37.5q90 0 165 -30.5t129.5 -95t85 -168t30.5 -246.5v-19h-760q10 -203 100.5 -315.5t292.5 -112.5q84 0 152 19.5t115 42.5l24 -62q-37 -25 -114.5 -49t-180.5 -24q-119 0 -207 37.5t-146 106.5t-87 166t-29 218zM178 555h678 q-4 96 -24.5 173t-60.5 130t-100.5 82t-144.5 29q-154 0 -245 -108.5t-103 -305.5zM295 1413l37 74l440 -223l-29 -62z" />
<glyph unicode="&#xe9;" horiz-adv-x="1019" d="M98 510q0 123 31 221t86 167t135 106.5t178 37.5q90 0 165 -30.5t129.5 -95t85 -168t30.5 -246.5v-19h-760q10 -203 100.5 -315.5t292.5 -112.5q84 0 152 19.5t115 42.5l24 -62q-37 -25 -114.5 -49t-180.5 -24q-119 0 -207 37.5t-146 106.5t-87 166t-29 218zM178 555h678 q-4 96 -24.5 173t-60.5 130t-100.5 82t-144.5 29q-154 0 -245 -108.5t-103 -305.5zM281 1264l440 223l37 -74l-449 -211z" />
<glyph unicode="&#xea;" horiz-adv-x="1019" d="M98 510q0 123 31 221t86 167t135 106.5t178 37.5q90 0 165 -30.5t129.5 -95t85 -168t30.5 -246.5v-19h-760q10 -203 100.5 -315.5t292.5 -112.5q84 0 152 19.5t115 42.5l24 -62q-37 -25 -114.5 -49t-180.5 -24q-119 0 -207 37.5t-146 106.5t-87 166t-29 218zM178 555h678 q-4 96 -24.5 173t-60.5 130t-100.5 82t-144.5 29q-154 0 -245 -108.5t-103 -305.5zM227 1239l273 252h67l273 -252l-45 -45l-263 213l-260 -213z" />
<glyph unicode="&#xeb;" horiz-adv-x="1019" d="M98 510q0 123 31 221t86 167t135 106.5t178 37.5q90 0 165 -30.5t129.5 -95t85 -168t30.5 -246.5v-19h-760q10 -203 100.5 -315.5t292.5 -112.5q84 0 152 19.5t115 42.5l24 -62q-37 -25 -114.5 -49t-180.5 -24q-119 0 -207 37.5t-146 106.5t-87 166t-29 218zM178 555h678 q-4 96 -24.5 173t-60.5 130t-100.5 82t-144.5 29q-154 0 -245 -108.5t-103 -305.5zM250 1327q0 37 23.5 60.5t54 23.5t54.5 -23.5t24 -60.5q0 -41 -24 -62.5t-54.5 -21.5t-54 21.5t-23.5 62.5zM657 1327q0 37 24 60.5t54.5 23.5t54 -23.5t23.5 -60.5q0 -41 -23.5 -62.5 t-54 -21.5t-54.5 21.5t-24 62.5z" />
<glyph unicode="&#xec;" horiz-adv-x="385" d="M-51 1413l37 74l440 -223l-29 -62zM154 0v1016h77v-1016h-77z" />
<glyph unicode="&#xed;" horiz-adv-x="385" d="M-33 1264l441 223l36 -74l-448 -211zM154 0v1016h77v-1016h-77z" />
<glyph unicode="&#xee;" horiz-adv-x="385" d="M-117 1239l273 252h67l273 -252l-45 -45l-263 213l-260 -213zM154 0v1016h77v-1016h-77z" />
<glyph unicode="&#xef;" horiz-adv-x="385" d="M-90 1327q0 37 23.5 60.5t54 23.5t54.5 -23.5t24 -60.5q0 -41 -24 -62.5t-54.5 -21.5t-54 21.5t-23.5 62.5zM154 0v1016h77v-1016h-77zM317 1327q0 37 24 60.5t54.5 23.5t54 -23.5t23.5 -60.5q0 -41 -23.5 -62.5t-54 -21.5t-54.5 21.5t-24 62.5z" />
<glyph unicode="&#xf0;" horiz-adv-x="1046" d="M86 446q0 100 26.5 189.5t81 154t134.5 102.5t186 38q102 0 189.5 -52.5t136.5 -132.5q8 -12 20 -42.5t19 -69.5q0 4 -2.5 23.5t-5.5 45t-7 56t-6 55.5q-18 150 -83.5 274.5t-190.5 223.5l-213 -174l-45 53l198 166q-53 37 -120.5 70.5t-135.5 60.5l23 65 q88 -33 166 -72.5t131 -74.5l182 151l45 -55l-170 -141q293 -244 293 -727q0 -147 -23.5 -267t-76 -205t-135 -131t-201.5 -46q-109 0 -186.5 33.5t-129 95t-76 146.5t-24.5 187zM168 446q0 -195 87 -291t247 -96q174 0 258 113t84 313q0 80 -22.5 147.5t-64.5 117 t-103.5 77t-139.5 27.5q-88 0 -152.5 -29.5t-107.5 -83t-64.5 -128.5t-21.5 -167z" />
<glyph unicode="&#xf1;" horiz-adv-x="1071" d="M143 0v1016h78v-228q117 254 375 254q166 0 256 -96t90 -282v-664h-78v653q0 170 -76.5 243t-199.5 73q-90 0 -158 -40t-115 -102.5t-70.5 -138.5t-23.5 -149v-539h-78zM201 1204q0 92 47 147.5t137 55.5q51 0 89 -20.5t72 -44.5l65 -44q32 -20 71 -20q49 0 70.5 35 t21.5 94h84q-4 -94 -49 -148.5t-135 -54.5q-49 0 -87 20.5t-72 44t-66.5 44t-67.5 20.5q-51 0 -73.5 -33.5t-22.5 -95.5h-84z" />
<glyph unicode="&#xf2;" horiz-adv-x="1110" d="M98 512q0 115 29 212t85 168t142 110.5t201 39.5q119 0 205 -38.5t142 -109.5t83 -168t27 -214q0 -115 -29 -211t-86 -168t-143 -111.5t-199 -39.5q-117 0 -203 40.5t-142 111.5t-84 168t-28 210zM180 512q0 -213 90 -335t283 -122q98 0 169 33t117 92.5t68.5 143.5 t22.5 188q0 213 -90 335t-285 122q-96 0 -167 -33t-117 -92.5t-68.5 -143.5t-22.5 -188zM309 1413l37 74l440 -223l-28 -62z" />
<glyph unicode="&#xf3;" horiz-adv-x="1110" d="M98 512q0 115 29 212t85 168t142 110.5t201 39.5q119 0 205 -38.5t142 -109.5t83 -168t27 -214q0 -115 -29 -211t-86 -168t-143 -111.5t-199 -39.5q-117 0 -203 40.5t-142 111.5t-84 168t-28 210zM180 512q0 -213 90 -335t283 -122q98 0 169 33t117 92.5t68.5 143.5 t22.5 188q0 213 -90 335t-285 122q-96 0 -167 -33t-117 -92.5t-68.5 -143.5t-22.5 -188zM319 1264l441 223l37 -74l-449 -211z" />
<glyph unicode="&#xf4;" horiz-adv-x="1110" d="M98 512q0 115 29 212t85 168t142 110.5t201 39.5q119 0 205 -38.5t142 -109.5t83 -168t27 -214q0 -115 -29 -211t-86 -168t-143 -111.5t-199 -39.5q-117 0 -203 40.5t-142 111.5t-84 168t-28 210zM180 512q0 -213 90 -335t283 -122q98 0 169 33t117 92.5t68.5 143.5 t22.5 188q0 213 -90 335t-285 122q-96 0 -167 -33t-117 -92.5t-68.5 -143.5t-22.5 -188zM252 1239l272 252h68l272 -252l-45 -45l-262 213l-260 -213z" />
<glyph unicode="&#xf5;" horiz-adv-x="1110" d="M98 512q0 115 29 212t85 168t142 110.5t201 39.5q119 0 205 -38.5t142 -109.5t83 -168t27 -214q0 -115 -29 -211t-86 -168t-143 -111.5t-199 -39.5q-117 0 -203 40.5t-142 111.5t-84 168t-28 210zM180 512q0 -213 90 -335t283 -122q98 0 169 33t117 92.5t68.5 143.5 t22.5 188q0 213 -90 335t-285 122q-96 0 -167 -33t-117 -92.5t-68.5 -143.5t-22.5 -188zM229 1204q0 92 47.5 147.5t137.5 55.5q51 0 89 -20.5t71 -44.5l66 -44q32 -20 71 -20q49 0 70.5 35t21.5 94h84q-4 -94 -49 -148.5t-136 -54.5q-49 0 -86.5 20.5t-71.5 44t-67 44 t-67 20.5q-51 0 -74 -33.5t-23 -95.5h-84z" />
<glyph unicode="&#xf6;" horiz-adv-x="1110" d="M98 512q0 115 29 212t85 168t142 110.5t201 39.5q119 0 205 -38.5t142 -109.5t83 -168t27 -214q0 -115 -29 -211t-86 -168t-143 -111.5t-199 -39.5q-117 0 -203 40.5t-142 111.5t-84 168t-28 210zM180 512q0 -213 90 -335t283 -122q98 0 169 33t117 92.5t68.5 143.5 t22.5 188q0 213 -90 335t-285 122q-96 0 -167 -33t-117 -92.5t-68.5 -143.5t-22.5 -188zM274 1327q0 37 24 60.5t54.5 23.5t54 -23.5t23.5 -60.5q0 -41 -23.5 -62.5t-54 -21.5t-54.5 21.5t-24 62.5zM682 1327q0 37 23.5 60.5t54.5 23.5t54.5 -23.5t23.5 -60.5 q0 -41 -23.5 -62.5t-54.5 -21.5t-54.5 21.5t-23.5 62.5z" />
<glyph unicode="&#xf7;" d="M145 686v74h846v-74h-846zM492 381q0 41 23.5 62.5t52 21.5t51 -22.5t22.5 -61.5t-22.5 -61.5t-51 -22.5t-52 21.5t-23.5 62.5zM492 1061q0 41 23.5 62.5t52 21.5t51 -22.5t22.5 -61.5t-22.5 -61.5t-51 -22.5t-52 21.5t-23.5 62.5z" />
<glyph unicode="&#xf8;" horiz-adv-x="1118" d="M102 510q0 115 29 211t85 166.5t142 110.5t201 40q86 0 154.5 -20.5t122.5 -59.5l94 134l57 -41l-98 -142q66 -72 96.5 -173t30.5 -226q0 -115 -29 -211t-86 -166t-143 -109.5t-199 -39.5q-84 0 -150.5 20.5t-119.5 56.5l-94 -131l-58 39l99 137q-68 72 -101 175.5 t-33 228.5zM184 510q0 -225 97 -340l510 725q-45 33 -102.5 50.5t-129.5 17.5q-195 0 -285 -123t-90 -330zM332 123q84 -63 225 -64q195 0 286 122t91 329q0 217 -92 334z" />
<glyph unicode="&#xf9;" horiz-adv-x="1075" d="M135 379v637h78v-617q0 -188 66.5 -266t187.5 -78q82 0 152.5 37t123 97.5t82 138.5t29.5 161v527h78v-1016h-78v246q-53 -125 -155.5 -194.5t-239.5 -69.5q-160 0 -242 100t-82 297zM301 1413l37 74l440 -223l-28 -62z" />
<glyph unicode="&#xfa;" horiz-adv-x="1075" d="M135 379v637h78v-617q0 -188 66.5 -266t187.5 -78q82 0 152.5 37t123 97.5t82 138.5t29.5 161v527h78v-1016h-78v246q-53 -125 -155.5 -194.5t-239.5 -69.5q-160 0 -242 100t-82 297zM319 1264l441 223l37 -74l-449 -211z" />
<glyph unicode="&#xfb;" horiz-adv-x="1075" d="M135 379v637h78v-617q0 -188 66.5 -266t187.5 -78q82 0 152.5 37t123 97.5t82 138.5t29.5 161v527h78v-1016h-78v246q-53 -125 -155.5 -194.5t-239.5 -69.5q-160 0 -242 100t-82 297zM240 1239l272 252h68l272 -252l-45 -45l-262 213l-260 -213z" />
<glyph unicode="&#xfc;" horiz-adv-x="1075" d="M135 379v637h78v-617q0 -188 66.5 -266t187.5 -78q82 0 152.5 37t123 97.5t82 138.5t29.5 161v527h78v-1016h-78v246q-53 -125 -155.5 -194.5t-239.5 -69.5q-160 0 -242 100t-82 297zM262 1327q0 37 23.5 60.5t54.5 23.5t54.5 -23.5t23.5 -60.5q0 -41 -23.5 -62.5 t-54.5 -21.5t-54.5 21.5t-23.5 62.5zM670 1327q0 37 23.5 60.5t54 23.5t54 -23.5t23.5 -60.5q0 -41 -23.5 -62.5t-54 -21.5t-54 21.5t-23.5 62.5z" />
<glyph unicode="&#xfd;" horiz-adv-x="886" d="M6 1016h88l346 -869l355 869h86l-605 -1467h-81l206 500zM244 1264l440 223l37 -74l-449 -211z" />
<glyph unicode="&#xfe;" horiz-adv-x="1099" d="M152 -451v1987h75v-735q115 242 379 241q98 0 172 -38.5t125 -108.5t77 -167t26 -214q0 -147 -42 -247.5t-106.5 -163t-143.5 -90t-151 -27.5q-92 0 -177 29.5t-159 80.5v-547h-75zM229 190q20 -20 53 -43.5t76 -43t94.5 -32t108.5 -12.5q78 0 144.5 28t114.5 85t76 142 t28 200q0 98 -18.5 181t-58.5 143.5t-101.5 94.5t-147.5 34q-88 0 -156.5 -32t-115.5 -89.5t-72 -134t-25 -166.5v-355z" />
<glyph unicode="&#xff;" horiz-adv-x="886" d="M6 1016h88l346 -869l355 869h86l-605 -1467h-81l206 500zM160 1327q0 37 23.5 60.5t54 23.5t54 -23.5t23.5 -60.5q0 -41 -23.5 -62.5t-54 -21.5t-54 21.5t-23.5 62.5zM567 1327q0 37 23.5 60.5t54.5 23.5t54.5 -23.5t23.5 -60.5q0 -41 -23.5 -62.5t-54.5 -21.5 t-54.5 21.5t-23.5 62.5z" />
<glyph unicode="&#x152;" horiz-adv-x="1746" d="M109 706.5q0 167.5 45 304t129 231.5t202.5 146.5t266.5 51.5h923v-78h-669v-574h522v-77h-522v-633h690v-78h-942q-147 0 -267 47t-204 138t-129 222.5t-45 299zM197 707q0 -305 141 -467t407 -162h177v1284h-158q-143 0 -249.5 -46t-177.5 -131t-105.5 -206.5 t-34.5 -271.5z" />
<glyph unicode="&#x153;" horiz-adv-x="1837" d="M82 510q0 115 28.5 211t85 166.5t142.5 110.5t201 40q166 0 268 -74.5t149 -203.5q47 131 147.5 204.5t242.5 73.5q90 0 164.5 -30.5t129 -95t85 -168t30.5 -246.5v-19h-762q10 -203 101.5 -314.5t294.5 -111.5q84 0 151.5 20.5t114.5 43.5l24 -62q-37 -25 -114.5 -48 t-180.5 -23q-172 0 -278.5 72.5t-153.5 205.5q-47 -129 -150.5 -203.5t-262.5 -74.5q-117 0 -203 39.5t-142.5 110.5t-84 167t-27.5 209zM162 510q0 -213 91 -333t284 -120q195 0 286.5 123t91.5 330q0 213 -91 334t-285 121q-96 0 -168 -32t-118 -91.5t-68.5 -143.5 t-22.5 -188zM993 551h682q-10 195 -86 304.5t-246 109.5q-154 0 -246 -108.5t-104 -305.5z" />
<glyph unicode="&#x178;" horiz-adv-x="1013" d="M18 1440h99l391 -729l397 729h96l-452 -815v-625h-82v623zM242 1702q0 41 22.5 63.5t55 22.5t55 -22.5t22.5 -63.5t-22.5 -61.5t-55 -20.5t-55 20.5t-22.5 61.5zM645 1702q0 41 22.5 63.5t55.5 22.5t55.5 -22.5t22.5 -63.5t-22.5 -61.5t-55.5 -20.5t-55.5 20.5 t-22.5 61.5z" />
<glyph unicode="&#x2c6;" horiz-adv-x="882" d="M166 1239l272 252h68l272 -252l-45 -45l-262 213l-260 -213z" />
<glyph unicode="&#x2dc;" horiz-adv-x="985" d="M164 1212q0 92 47 147.5t137 55.5q51 0 89 -20.5t72 -43.5l65 -44q32 -20 71 -21q49 0 70.5 35t21.5 94h84q-4 -94 -49 -148.5t-135 -54.5q-49 0 -87 20.5t-72 44t-66.5 44t-67.5 20.5q-51 0 -73.5 -33.5t-22.5 -95.5h-84z" />
<glyph unicode="&#x2000;" horiz-adv-x="931" />
<glyph unicode="&#x2001;" horiz-adv-x="1862" />
<glyph unicode="&#x2002;" horiz-adv-x="931" />
<glyph unicode="&#x2003;" horiz-adv-x="1862" />
<glyph unicode="&#x2004;" horiz-adv-x="620" />
<glyph unicode="&#x2005;" horiz-adv-x="465" />
<glyph unicode="&#x2006;" horiz-adv-x="310" />
<glyph unicode="&#x2007;" horiz-adv-x="310" />
<glyph unicode="&#x2008;" horiz-adv-x="232" />
<glyph unicode="&#x2009;" horiz-adv-x="372" />
<glyph unicode="&#x200a;" horiz-adv-x="103" />
<glyph unicode="&#x2010;" horiz-adv-x="813" d="M113 537v71h587v-71h-587z" />
<glyph unicode="&#x2011;" horiz-adv-x="813" d="M113 537v71h587v-71h-587z" />
<glyph unicode="&#x2012;" horiz-adv-x="813" d="M113 537v71h587v-71h-587z" />
<glyph unicode="&#x2013;" horiz-adv-x="712" d="M0 518v64h713v-64h-713z" />
<glyph unicode="&#x2014;" horiz-adv-x="1423" d="M0 518v64h1423v-64h-1423z" />
<glyph unicode="&#x2018;" horiz-adv-x="393" d="M113 1133q0 53 16 112.5t40 113.5t47.5 96t37.5 61l43 -27q-14 -29 -30.5 -68t-31 -80t-24.5 -78.5t-12 -62.5q29 -4 53 -27.5t24 -64.5q0 -51 -21.5 -74.5t-49.5 -23.5q-47 0 -69.5 34t-22.5 89z" />
<glyph unicode="&#x2019;" horiz-adv-x="393" d="M96 1036q12 27 29 67l32 81q15 41 25.5 78.5t12.5 62.5q-29 4 -53.5 27.5t-24.5 64.5q0 51 23.5 75t52.5 24q47 0 67.5 -34t20.5 -89q0 -53 -16.5 -112.5t-40 -114t-47 -96.5t-38.5 -60z" />
<glyph unicode="&#x201a;" horiz-adv-x="393" d="M96 -313l29 67q16 39 31.5 80t26 79t12.5 62q-29 4 -53.5 28t-24.5 65q0 51 21.5 74.5t49.5 23.5q47 0 70 -34t23 -89q0 -53 -16.5 -112.5t-40 -114t-47 -96.5t-38.5 -60z" />
<glyph unicode="&#x201c;" horiz-adv-x="671" d="M113 1133q0 53 16 112.5t40 113.5t47.5 96t37.5 61l43 -27q-14 -29 -30.5 -68t-31 -80t-24.5 -78.5t-12 -62.5q29 -4 53 -27.5t24 -64.5q0 -51 -21.5 -74.5t-49.5 -23.5q-47 0 -69.5 34t-22.5 89zM391 1133q0 53 16.5 112.5t40 113.5t47 96t37.5 61l43 -27 q-14 -29 -30.5 -68t-30.5 -80t-24.5 -78.5t-12.5 -62.5q29 -4 53.5 -27.5t24.5 -64.5q0 -51 -21.5 -74.5t-50.5 -23.5q-47 0 -69.5 34t-22.5 89z" />
<glyph unicode="&#x201d;" horiz-adv-x="671" d="M96 1036q12 27 29 67l32 81q15 41 25.5 78.5t12.5 62.5q-29 4 -53.5 27.5t-24.5 64.5q0 51 23.5 75t52.5 24q47 0 67.5 -34t20.5 -89q0 -53 -16.5 -112.5t-40 -114t-47 -96.5t-38.5 -60zM375 1036q12 27 28 67l32 81q15 41 25.5 78.5t12.5 62.5q-29 4 -53.5 27.5 t-24.5 64.5q0 51 23.5 75t52.5 24q47 0 67.5 -34t20.5 -89q0 -53 -16.5 -112.5t-40 -114t-47 -96.5t-37.5 -60z" />
<glyph unicode="&#x201e;" horiz-adv-x="671" d="M96 -313l29 67q16 39 31.5 80t26 79t12.5 62q-29 4 -53.5 28t-24.5 65q0 51 21.5 74.5t49.5 23.5q47 0 70 -34t23 -89q0 -53 -16.5 -112.5t-40 -114t-47 -96.5t-38.5 -60zM375 -313l28 67q16 39 32 80t26 79t12 62q-29 4 -53.5 28t-24.5 65q0 51 21.5 74.5t50.5 23.5 q47 0 69.5 -34t22.5 -89q0 -53 -16.5 -112.5t-40 -114t-47 -96.5t-37.5 -60z" />
<glyph unicode="&#x2022;" horiz-adv-x="720" d="M154 678q0 43 16 80t44 64.5t65.5 43t80.5 15.5t81 -15.5t66 -43t44 -64.5t16 -80q0 -90 -59 -149.5t-147.5 -59.5t-147.5 59.5t-59 149.5z" />
<glyph unicode="&#x2026;" horiz-adv-x="1314" d="M143 66q0 47 23.5 67.5t52.5 20.5t52.5 -20.5t23.5 -67.5q0 -39 -23.5 -60.5t-52.5 -21.5t-52.5 21.5t-23.5 60.5zM582 66q0 47 23.5 67.5t52 20.5t52 -20.5t23.5 -67.5q0 -39 -23.5 -60.5t-52 -21.5t-52 21.5t-23.5 60.5zM1020 66q0 47 23.5 67.5t52 20.5t52 -20.5 t23.5 -67.5q0 -39 -23.5 -60.5t-52 -21.5t-52 21.5t-23.5 60.5z" />
<glyph unicode="&#x202f;" horiz-adv-x="372" />
<glyph unicode="&#x2039;" horiz-adv-x="501" d="M90 512l236 395h86l-228 -395l228 -395h-86z" />
<glyph unicode="&#x203a;" horiz-adv-x="501" d="M90 117l227 395l-227 395h86l236 -395l-236 -395h-86z" />
<glyph unicode="&#x205f;" horiz-adv-x="465" />
<glyph unicode="&#x20ac;" d="M31 516v72h141q-2 29 -3 59.5t-1 61.5q0 33 1 64.5t3 64.5h-139v71h147q16 123 56 225.5t105 176t155 114.5t209 41q92 0 158.5 -14t114.5 -35.5t80 -45t56 -44.5l-47 -63q-72 59 -152.5 92t-209.5 33q-197 0 -304.5 -122t-138.5 -358h598l-22 -71h-582q-4 -31 -4 -63 v-66v-63q0 -30 2 -58h534l-22 -72h-504q29 -244 139.5 -353.5t303.5 -109.5q129 0 215 37t141 86l45 -61q-70 -59 -165 -99.5t-236 -40.5q-129 0 -221.5 40t-155 112t-98 172t-52.5 217h-147z" />
<glyph unicode="&#x2122;" horiz-adv-x="1546" d="M31 1374v66h565v-66h-248v-719h-69v719h-248zM770 655v785h72l266 -467l262 467h72v-785h-68v660l-229 -402h-78l-229 402v-660h-68z" />
<glyph unicode="&#xe000;" horiz-adv-x="1014" d="M0 1015h1015v-1015h-1015v1015z" />
<glyph unicode="&#xfb01;" horiz-adv-x="1083" d="M41 944v72h205v94q0 100 16.5 179t55 134.5t99 84t150.5 28.5q41 0 82 -7t58 -11l-13 -72q-16 4 -49 9t-65 5q-72 0 -121 -18.5t-79 -60.5t-43 -111.5t-13 -169.5v-84h610v-1016h-78v944h-532v-944h-78v944h-205zM817 1358q0 37 22.5 59.5t53.5 22.5t53.5 -22.5 t22.5 -59.5q0 -41 -22.5 -61.5t-53.5 -20.5t-53.5 20.5t-22.5 61.5z" />
<glyph unicode="&#xfb02;" horiz-adv-x="1122" d="M41 944v72h205v94q0 100 16.5 179t55 134.5t99 84t150.5 28.5q41 0 82 -7t58 -11l-13 -70q-16 4 -49 9t-65 5q-72 0 -121 -18.5t-79 -61.5t-43 -112.5t-13 -169.5v-84h309v-72h-309v-944h-78v944h-205zM893 0v1536h78v-1536h-78z" />
<glyph unicode="&#xfb03;" horiz-adv-x="1691" d="M41 944v72h205v94q0 100 16.5 179t55 134.5t99 84t150.5 28.5q41 0 82 -7t58 -11l-13 -72q-16 4 -49 9t-65 5q-72 0 -121 -18.5t-79 -60.5t-43 -111.5t-13 -169.5v-84h530v94q0 100 16.5 179t55.5 134.5t99 84t151 28.5q41 0 81.5 -7t57.5 -11l-12 -72q-16 4 -49 9t-66 5 q-72 0 -121 -18.5t-79 -60.5t-43 -111.5t-13 -169.5v-84h610v-1016h-78v944h-532v-944h-78v944h-530v-944h-78v944h-205zM1425 1358q0 37 22.5 59.5t53.5 22.5t53.5 -22.5t22.5 -59.5q0 -41 -22.5 -61.5t-53.5 -20.5t-53.5 20.5t-22.5 61.5z" />
<glyph unicode="&#xfb04;" horiz-adv-x="1728" d="M41 944v72h205v94q0 100 16.5 179t55 134.5t99 84t150.5 28.5q41 0 82 -7t58 -11l-13 -72q-16 4 -49 9t-65 5q-72 0 -121 -18.5t-79 -60.5t-43 -111.5t-13 -169.5v-84h530v94q0 100 16.5 179t55.5 134.5t99 84t151 28.5q41 0 81.5 -7t57.5 -11l-12 -72q-16 4 -49 9t-66 5 q-72 0 -121 -18.5t-79 -60.5t-43 -111.5t-13 -169.5v-84h309v-72h-309v-944h-78v944h-530v-944h-78v944h-205zM1499 0v1536h78v-1536h-78z" />
</font>
</defs>
</svg>
