<?xml version="1.0" standalone="no"?>
<!DOCTYPE svg PUBLIC "-//W3C//DTD SVG 1.1//EN" "http://www.w3.org/Graphics/SVG/1.1/DTD/svg11.dtd" >
<svg xmlns="http://www.w3.org/2000/svg">
<metadata>
This is a custom SVG webfont generated by Font Squirrel.
Copyright   : Copyright  2011 Nokia All rights reserved  Reproduction transfer distribution or storage of part or all of the contents in this document in any form without the prior written permission of Nokia is prohibited
</metadata>
<defs>
<font id="NokiaPureHeadlineLight" horiz-adv-x="1138" >
<font-face units-per-em="2048" ascent="1563" descent="-485" />
<missing-glyph horiz-adv-x="518" />
<glyph unicode=" "  horiz-adv-x="518" />
<glyph unicode="&#x09;" horiz-adv-x="518" />
<glyph unicode="&#xa0;" horiz-adv-x="518" />
<glyph unicode="!" horiz-adv-x="499" d="M150 90q0 49 28.5 79t71.5 30t71.5 -29t28.5 -80q0 -49 -28.5 -78.5t-71.5 -29.5t-71.5 29.5t-28.5 78.5zM186 406v1034h123v-1034h-123z" />
<glyph unicode="&#x22;" horiz-adv-x="720" d="M135 1440h135l-16 -512h-104zM451 1440h135l-15 -512h-104z" />
<glyph unicode="#" horiz-adv-x="1116" d="M12 410l19 100h200l88 446h-223l19 101h225l78 383h108l-77 -383h348l77 383h109l-78 -383h199l-19 -101h-200l-88 -446h223l-19 -100h-223l-80 -410h-108l82 410h-353l-79 -410h-109l80 410h-199zM340 510h350l86 446h-348z" />
<glyph unicode="$" d="M86 104l53 101q25 -16 64 -35.5t88 -38t110.5 -32t133.5 -15.5v590q-84 31 -156 61.5t-124 72.5t-83 100.5t-31 146.5q0 174 103.5 272t290.5 115v176h96v-176q57 0 115.5 -11.5t109.5 -26.5t90 -33.5t60 -33.5l-50 -100q-51 33 -140 62.5t-185 33.5v-565l69 -25 q150 -53 237 -138t87 -230q0 -160 -98.5 -267.5t-294.5 -130.5v-200h-96v196q-88 2 -160 17.5t-128.5 35t-96 41t-64.5 37.5zM264 1063q0 -51 15.5 -90t48 -70t84 -55.5t123.5 -48.5v534q-271 -30 -271 -270zM631 88q57 6 106 25.5t85 53.5t56.5 84t20.5 116 q0 117 -68.5 175t-199.5 101v-555z" />
<glyph unicode="%" horiz-adv-x="1738" d="M61 1053q0 203 79 309t229 106q154 0 227.5 -106.5t73.5 -308.5q0 -211 -79 -313.5t-222 -102.5q-158 0 -233 103.5t-75 312.5zM174 1053q0 -88 12.5 -147.5t37 -96.5t60 -53.5t85.5 -16.5q94 0 142 70t48 244q0 90 -12 150.5t-37 96t-60.5 51t-80.5 15.5t-81 -14.5 t-61.5 -50t-39 -96t-13.5 -152.5zM424 0l784 1440h119l-782 -1440h-121zM1069 389q0 203 79 309.5t228 106.5q154 0 227.5 -106.5t73.5 -309.5q0 -211 -78.5 -313.5t-222.5 -102.5q-158 0 -232.5 103.5t-74.5 312.5zM1182 389q0 -88 12 -147.5t36.5 -96t60.5 -53t85 -16.5 q94 0 142.5 69.5t48.5 243.5q0 90 -12.5 150.5t-37 96.5t-60.5 51t-81 15t-80.5 -14t-61.5 -50t-39 -96.5t-13 -152.5z" />
<glyph unicode="&#x26;" horiz-adv-x="1337" d="M98 373q0 160 86 261t240 171q-29 33 -57.5 69.5t-51 78.5t-37 88t-14.5 100q0 70 23.5 130t68.5 105t108.5 71t141.5 26q143 0 236.5 -80t93.5 -226q0 -68 -24.5 -125t-68.5 -104t-104.5 -88t-134.5 -76l414 -485q23 20 48.5 53t52 72t49 78.5t38.5 74.5l99 -49 q-41 -88 -95.5 -169t-117.5 -144l174 -205h-156l-111 133q-78 -66 -191.5 -113t-248.5 -47q-115 0 -201 30t-144 83t-87 127t-29 160zM223 379q0 -141 88 -218t254 -77q111 0 207 41t154 90l-434 508q-55 -25 -104.5 -55.5t-86.5 -72.5t-57.5 -95t-20.5 -121zM381 1149 q0 -88 47 -157.5t107 -137.5q141 66 213.5 136.5t72.5 176.5q0 98 -59.5 150.5t-155.5 52.5q-104 0 -164.5 -62.5t-60.5 -158.5z" />
<glyph unicode="'" horiz-adv-x="405" d="M135 1440h135l-16 -512h-104z" />
<glyph unicode="(" horiz-adv-x="503" d="M123 669.5q0 159.5 21.5 297t52 248t64.5 192.5t58 129h113q-31 -63 -64.5 -151.5t-60 -199t-44 -240.5t-17.5 -275.5t17.5 -275.5t44 -240.5t60 -199.5t64.5 -151h-113q-25 47 -58.5 129t-64 193t-52 248t-21.5 296.5z" />
<glyph unicode=")" horiz-adv-x="503" d="M72 -197q31 61 64.5 150.5t60 200t44 240.5t17.5 275.5t-17.5 275.5t-44 240.5t-60.5 199t-64 151.5h112q25 -47 58.5 -129t64.5 -192.5t52.5 -248t21.5 -297t-21.5 -296.5t-52.5 -248t-64.5 -193t-58.5 -129h-112z" />
<glyph unicode="*" horiz-adv-x="792" d="M49 1235l43 108l264 -112l-14 305h117l-10 -305l264 123l39 -109l-275 -98l205 -240l-92 -67l-189 254l-186 -254l-92 71l199 234z" />
<glyph unicode="+" d="M117 668v110h395v424h115v-424h395v-110h-395v-424h-115v424h-395z" />
<glyph unicode="," horiz-adv-x="446" d="M55 -283q59 66 94 135.5t44 133.5q-27 6 -51.5 29.5t-24.5 70.5q0 53 29.5 83t70.5 30q49 0 74.5 -33t25.5 -86q0 -92 -49 -204t-153 -210z" />
<glyph unicode="-" horiz-adv-x="790" d="M100 516v117h588v-117h-588z" />
<glyph unicode="." horiz-adv-x="440" d="M121 88q0 49 28.5 80t71.5 31t72 -30t29 -81q0 -49 -30 -77.5t-73 -28.5t-70.5 28.5t-27.5 77.5z" />
<glyph unicode="/" horiz-adv-x="776" d="M10 -96l639 1632h117l-639 -1632h-117z" />
<glyph unicode="0" d="M78 719q0 373 122 561t371 188q254 0 372 -188t118 -561q0 -377 -124 -561.5t-366 -184.5q-250 0 -371.5 183.5t-121.5 562.5zM207 719q0 -172 23.5 -293t69.5 -195.5t113.5 -109.5t155.5 -35q176 0 269.5 147.5t93.5 485.5q0 176 -24.5 297t-70.5 196.5t-114 108.5 t-154 33t-153.5 -33t-113.5 -108.5t-70.5 -196.5t-24.5 -297z" />
<glyph unicode="1" horiz-adv-x="897" d="M41 1151l461 289h106v-1440h-125v1294l-393 -237z" />
<glyph unicode="2" horiz-adv-x="997" d="M53 1274q25 31 62 64.5t88 63.5t116.5 48t147.5 18q104 0 179 -30.5t123 -81.5t69.5 -116.5t21.5 -135.5q0 -84 -27.5 -150.5t-73.5 -123t-103.5 -104.5t-116.5 -93q-80 -63 -144.5 -121.5t-110.5 -120t-71 -129t-25 -149.5h697v-113h-822v35q0 119 24 211t71 169 t117.5 145.5t164.5 141.5l123 102q55 46 93 92t58.5 94t20.5 108q0 115 -67.5 186.5t-214.5 71.5q-61 0 -111.5 -14.5t-89.5 -36t-68.5 -48t-50.5 -53.5z" />
<glyph unicode="3" horiz-adv-x="958" d="M59 27l29 102q35 -14 109.5 -29.5t181.5 -15.5q174 0 275.5 76t101.5 231q0 125 -90.5 208t-270.5 83h-119v111h113q84 0 147.5 23.5t106.5 63.5t64.5 92t21.5 111q0 57 -15.5 107.5t-50 87.5t-90 58.5t-135.5 21.5q-117 0 -188.5 -37t-110.5 -76l-65 76q20 23 53 49.5 t79 48t105.5 35.5t132.5 14q106 0 184.5 -29.5t127.5 -79.5t72.5 -115.5t23.5 -139.5q0 -143 -69.5 -232.5t-194.5 -126.5q141 -31 216 -124t75 -228q0 -102 -37 -181t-102.5 -132t-154.5 -81t-196 -28q-117 0 -203 19t-127 37z" />
<glyph unicode="4" horiz-adv-x="1062" d="M51 358v86l537 996h127l-525 -975h461v424h117v-424h223v-107h-223v-358h-117v358h-600z" />
<glyph unicode="5" horiz-adv-x="960" d="M27 33l28 102q35 -14 110 -29.5t179 -15.5q180 0 280.5 91t100.5 270q0 68 -15.5 127t-51 103t-94 70.5t-142.5 26.5q-92 0 -153.5 -19.5t-98.5 -39.5l-72 53l80 668h627v-113h-533l-59 -483q35 18 96.5 29.5t130.5 11.5q90 0 165 -27t129 -80t85 -134t31 -191 q0 -98 -33 -185.5t-95.5 -152t-155.5 -101.5t-214 -37q-115 0 -199.5 19t-125.5 37z" />
<glyph unicode="6" horiz-adv-x="1075" d="M111 625q0 420 144 631.5t409 211.5q88 0 157.5 -18t126.5 -49l-47 -96q-41 25 -101.5 40t-140.5 15q-102 0 -177.5 -45t-128 -125t-80 -190.5t-31.5 -241.5q51 76 142 128t208 52q88 0 163.5 -28.5t132 -87t88.5 -145.5t32 -204q0 -115 -31 -207t-88.5 -156.5 t-139 -100.5t-184.5 -36q-223 0 -338.5 164t-115.5 488zM248 498q0 -94 21.5 -171t62.5 -131.5t100.5 -84t132.5 -29.5q147 0 231.5 98.5t84.5 280.5q0 184 -81 275t-222 91q-66 0 -125.5 -24.5t-105.5 -67.5t-72.5 -103t-26.5 -134z" />
<glyph unicode="7" horiz-adv-x="958" d="M31 1325v115h870v-94l-547 -1346h-131l547 1325h-739z" />
<glyph unicode="8" horiz-adv-x="1136" d="M106 324q0 76 25 139t68 115.5t103 93.5t132 73q-55 25 -108.5 60t-93 81t-64.5 102t-25 128t30 135.5t86 111.5t136 76.5t180 28.5q104 0 184.5 -25.5t134.5 -71.5t80.5 -108.5t26.5 -136.5q0 -64 -21.5 -120t-60 -103t-90 -86t-108.5 -67q61 -27 116.5 -65t98.5 -88 t68.5 -112.5t25.5 -140.5q0 -80 -30.5 -148.5t-89 -117.5t-145.5 -77t-198 -28q-119 0 -206 28t-143 76t-84 111.5t-28 135.5zM233 342q0 -129 90.5 -194.5t245.5 -65.5q152 0 242 66.5t90 205.5q0 72 -30.5 126.5t-80 94t-113 68.5t-126.5 49q-53 -23 -108.5 -53.5 t-102.5 -72.5t-77 -98t-30 -126zM268 1110q0 -66 31 -115t78 -86t106.5 -63.5t116.5 -44.5q47 18 96 48t89 69.5t65 92t25 113.5q0 109 -76 173.5t-224 64.5q-154 0 -230.5 -71.5t-76.5 -180.5z" />
<glyph unicode="9" horiz-adv-x="1073" d="M68 971q0 113 30.5 205t88 157.5t138.5 100t183 34.5q223 0 339 -156.5t116 -475.5q0 -438 -139.5 -650.5t-411.5 -212.5q-92 0 -169 15.5t-124 38.5l35 100q41 -16 107.5 -30.5t141.5 -14.5q106 0 185.5 42t131.5 121t80.5 190.5t35.5 252.5q-51 -74 -143.5 -128 t-209.5 -54q-88 0 -163.5 28.5t-132 87t-88 145.5t-31.5 204zM195 983q0 -184 80.5 -275.5t220.5 -91.5q66 0 126 25t106 68t72.5 103t26.5 134q0 207 -84 310.5t-235 103.5q-147 0 -230 -97.5t-83 -279.5z" />
<glyph unicode=":" horiz-adv-x="440" d="M84 84q0 49 28.5 80t71.5 31t72 -30t29 -81q0 -49 -30 -78t-73 -29t-70.5 29t-27.5 78zM86 907q0 49 28.5 80t71.5 31t72 -30t29 -81q0 -49 -30 -77.5t-73 -28.5t-70.5 28.5t-27.5 77.5z" />
<glyph unicode=";" horiz-adv-x="446" d="M20 -283q59 66 94.5 135.5t43.5 133.5q-27 6 -51.5 29.5t-24.5 70.5q0 53 29.5 83t70.5 30q49 0 75 -33t26 -86q0 -92 -49.5 -204t-153.5 -210zM84 907q0 49 28.5 80t71.5 31t72 -30t29 -81q0 -49 -30 -77.5t-73 -28.5t-70.5 28.5t-27.5 77.5z" />
<glyph unicode="&#x3c;" d="M182 680v104l729 377l45 -100l-653 -326l653 -329l-43 -101z" />
<glyph unicode="=" d="M152 453v110h835v-110h-835zM152 877v108h835v-108h-835z" />
<glyph unicode="&#x3e;" d="M182 406l654 325l-654 330l43 100l731 -377v-104l-729 -375z" />
<glyph unicode="?" horiz-adv-x="1044" d="M66 1257q27 33 67.5 71t96 71t127 53.5t161.5 20.5q102 0 178 -30t126 -81t75 -118.5t25 -143.5q0 -68 -17.5 -122t-45.5 -98t-62.5 -80t-69.5 -67q-43 -37 -78 -70.5t-59.5 -73.5t-38.5 -90t-14 -120h-117q0 78 12 135t39 104.5t69 92.5t101 98q23 20 50.5 48t51 63.5 t39 77.5t15.5 92q0 123 -72 196.5t-221 73.5q-119 0 -211 -53.5t-152 -126.5zM385 90q0 49 28.5 79t71.5 30t72 -29t29 -80q0 -49 -29 -78.5t-72 -29.5t-71.5 29.5t-28.5 78.5z" />
<glyph unicode="@" horiz-adv-x="1992" d="M115 453q0 225 73.5 418.5t203.5 335t310.5 221t395.5 79.5q197 0 349 -53t256.5 -151.5t159 -239.5t54.5 -318q0 -170 -46 -303t-119 -225t-164 -140t-183 -48q-49 0 -81 9t-53.5 23.5t-35.5 33t-25 36.5q-14 -12 -39.5 -29.5t-59.5 -34t-76 -27.5t-87 -11 q-76 0 -140.5 24.5t-111.5 72.5t-73.5 119.5t-26.5 166.5q0 137 37 247.5t100.5 188.5t146.5 120t175 42q70 0 120 -18.5t82.5 -43t50 -50.5t23.5 -38l33 123h94l-141 -727q-6 -31 -6 -51q0 -78 102 -78q76 0 145.5 44t124 126t86 194.5t31.5 251.5q0 172 -54 296 t-148.5 204t-223.5 118t-278 38q-184 0 -341 -68.5t-272.5 -193.5t-180 -299t-64.5 -383q0 -182 51 -328.5t152.5 -250t252 -160t346.5 -56.5q129 0 235.5 22.5t193.5 57.5t156 78t122 86l65 -88q-57 -49 -138 -96.5t-179 -84t-213 -60.5t-240 -24q-209 0 -379.5 59.5 t-292.5 174.5t-188.5 283t-66.5 385zM717 414q0 -141 66.5 -210t172.5 -69q68 0 132.5 33t115.5 82l45 244q2 18 8.5 44.5t10.5 54.5t8 52.5t4 34.5q0 92 -59.5 159.5t-171.5 67.5q-66 0 -126.5 -30.5t-106.5 -92t-72.5 -154.5t-26.5 -216z" />
<glyph unicode="A" horiz-adv-x="1128" d="M6 0l481 1440h152l483 -1440h-137l-129 401h-588l-131 -401h-131zM303 514h516l-256 776z" />
<glyph unicode="B" horiz-adv-x="1153" d="M152 0v1440h403q113 0 193.5 -30t132 -79t76 -114.5t24.5 -139.5q0 -70 -20.5 -124t-52 -94t-69.5 -65.5t-71 -37.5q51 -12 102.5 -40t92.5 -71t67.5 -104.5t26.5 -141.5q0 -178 -115 -288.5t-360 -110.5h-430zM276 115h322q176 0 252 75.5t76 210.5q0 141 -97.5 213 t-277.5 72h-275v-571zM276 799h256q172 0 247 77.5t75 200.5q0 70 -26.5 118t-69.5 76.5t-99.5 41t-117.5 12.5h-265v-526z" />
<glyph unicode="C" horiz-adv-x="1208" d="M102 713q0 168 38 306t115 236.5t192.5 152.5t271.5 54q84 0 153.5 -16t123 -40t91 -49.5t60.5 -45.5l-68 -97q-27 20 -60.5 44t-77.5 43.5t-98.5 32t-119.5 12.5q-231 0 -358 -161t-127 -472q0 -324 127 -471.5t358 -147.5q68 0 124 12.5t102 31t83 41t64 42.5l61 -94 q-70 -59 -183.5 -104.5t-258.5 -45.5q-313 0 -463 191t-150 545z" />
<glyph unicode="D" horiz-adv-x="1323" d="M152 0v1440h428q311 0 475 -188.5t164 -532.5q0 -174 -44.5 -308.5t-127 -225.5t-201.5 -138t-266 -47h-428zM281 119h299q233 0 369 153.5t136 448.5q0 309 -136 454.5t-369 145.5h-299v-1202z" />
<glyph unicode="E" horiz-adv-x="1017" d="M152 0v1440h794v-119h-665v-512h520v-119h-520v-571h686v-119h-815z" />
<glyph unicode="F" horiz-adv-x="1017" d="M156 0v1440h800v-119h-671v-512h546v-119h-546v-690h-129z" />
<glyph unicode="G" horiz-adv-x="1261" d="M100 713q0 164 38 303t115 240.5t191.5 159t268.5 57.5q139 0 244.5 -36t189.5 -104l-66 -102q-25 18 -57.5 39.5t-75.5 40t-100 30t-131 11.5q-109 0 -198 -39t-151.5 -119t-97 -200t-34.5 -281q0 -328 128 -476.5t379 -148.5q94 0 172 16.5t125 34.5v482h-305v110h426 v-665q-18 -10 -56 -26.5t-93.5 -32t-127 -27t-157.5 -11.5q-315 0 -471 188.5t-156 555.5z" />
<glyph unicode="H" horiz-adv-x="1292" d="M152 0v1440h129v-611h731v611h129v-1440h-129v709h-731v-709h-129z" />
<glyph unicode="I" horiz-adv-x="432" d="M152 0v1440h129v-1440h-129z" />
<glyph unicode="J" horiz-adv-x="894" d="M18 63l50 103l33 -18q26 -13 65 -27.5t87 -25.5t101 -11q70 0 122 15.5t85 51t49.5 95t16.5 147.5v1047h129v-1065q0 -219 -101.5 -313.5t-281.5 -94.5q-76 0 -137.5 12.5t-107.5 30t-74 32.5t-36 21z" />
<glyph unicode="K" horiz-adv-x="1081" d="M152 0v1440h129v-664l600 664h157l-604 -670l647 -770h-170l-630 750v-750h-129z" />
<glyph unicode="L" horiz-adv-x="991" d="M156 0v1440h129v-1321h665v-119h-794z" />
<glyph unicode="M" horiz-adv-x="1517" d="M147 0v1440h148l463 -856l461 856h151v-1440h-131v1229l-430 -793h-113l-417 768v-1204h-132z" />
<glyph unicode="N" horiz-adv-x="1294" d="M152 0v1440h143l723 -1211v1211h125v-1440h-133l-734 1217v-1217h-124z" />
<glyph unicode="O" horiz-adv-x="1429" d="M104 721q0 168 40 306t118 236.5t192.5 152.5t262 54t261.5 -54t190.5 -152.5t116.5 -236.5t40 -306t-40 -306.5t-116.5 -237.5t-191.5 -153.5t-262.5 -54.5t-262 54.5t-191.5 153.5t-117 237.5t-40 306.5zM240 721q0 -143 28.5 -259t88 -199t148.5 -128t210 -45t210 45 t148.5 128t88 199t28.5 259t-28.5 259t-88 198t-148.5 127t-210 45t-210 -45t-148.5 -127t-88 -198t-28.5 -259z" />
<glyph unicode="P" horiz-adv-x="1085" d="M152 0v1440h401q119 0 205 -35t142 -94.5t83 -139t27 -172.5q0 -86 -27 -164.5t-85 -139t-148.5 -96.5t-214.5 -36h-259v-563h-124zM276 680h252q170 0 260.5 80t90.5 239q0 170 -88.5 248t-243.5 78h-271v-645z" />
<glyph unicode="Q" horiz-adv-x="1429" d="M104 721q0 168 40 306t117 236.5t191.5 152.5t262 54t262.5 -54t191.5 -152.5t116.5 -236.5t40 -306q0 -260 -95 -446.5t-276 -260.5q27 -37 67 -69.5t89 -59t104.5 -44t112.5 -25.5l-24 -105q-68 8 -137.5 34t-133 60.5t-117 79.5t-90.5 95q-25 -4 -50 -6.5t-54 -2.5 q-160 0 -276.5 58.5t-191.5 160t-112 237.5t-37 294zM240 721q0 -143 28.5 -259t88 -199t148.5 -128t210 -45t210 45t148.5 128t88 199t28.5 259t-28.5 259t-88 198t-148.5 127t-210 45t-210 -45t-148.5 -127t-88 -198t-28.5 -259z" />
<glyph unicode="R" horiz-adv-x="1107" d="M152 0v1440h378q129 0 216.5 -37t140.5 -97.5t76.5 -135t23.5 -150.5q0 -84 -21.5 -149.5t-60.5 -114.5t-90 -85t-108 -57l364 -614h-149l-353 592h-293v-592h-124zM276 705h246q174 0 255 83.5t81 225.5q0 143 -81 227t-263 84h-238v-620z" />
<glyph unicode="S" horiz-adv-x="1069" d="M57 96l54 109q29 -18 68.5 -38t91 -37t115 -28.5t136.5 -11.5q152 0 244 67.5t92 204.5q0 102 -59.5 172t-200.5 115l-129 41q-172 53 -264 146.5t-92 234.5q0 84 27.5 158t85 129t143.5 87t202 32q55 0 112.5 -8.5t111 -22.5t98.5 -33.5t76 -40.5l-49 -108 q-47 31 -141.5 61.5t-215.5 30.5q-156 0 -237.5 -72t-81.5 -197q0 -49 13 -87.5t44 -71.5t82 -59.5t127 -53.5l147 -51q176 -61 255 -153.5t79 -237.5q0 -84 -29.5 -158t-88 -128t-147.5 -86t-206 -32q-88 0 -163.5 14.5t-136 35t-103 42t-60.5 35.5z" />
<glyph unicode="T" horiz-adv-x="1081" d="M35 1319v121h1012v-121h-441v-1319h-129v1319h-442z" />
<glyph unicode="U" horiz-adv-x="1265" d="M131 565v875h129v-846q0 -145 22.5 -243.5t68.5 -157t117 -83t165 -24.5t163.5 24.5t115.5 83t70 155.5t24 243v848h129v-877q0 -131 -24 -240.5t-82 -188.5t-155.5 -123t-245 -44t-242.5 44t-152.5 124t-80 189.5t-22.5 240.5z" />
<glyph unicode="V" horiz-adv-x="1110" d="M6 1440h141l414 -1260l408 1260h135l-481 -1440h-127z" />
<glyph unicode="W" horiz-adv-x="1560" d="M20 1440h136l262 -1233l291 1198h143l283 -1196l272 1231h133l-330 -1440h-151l-281 1182l-295 -1182h-149z" />
<glyph unicode="X" horiz-adv-x="1153" d="M33 0l475 768l-404 672h154l332 -568l350 568h139l-417 -674l458 -766h-155l-390 653l-397 -653h-145z" />
<glyph unicode="Y" horiz-adv-x="1056" d="M6 1440h148l374 -688l383 688h140l-463 -807v-633h-129v629z" />
<glyph unicode="Z" horiz-adv-x="1112" d="M66 0v106l808 1215h-788v119h944v-107l-811 -1214h836v-119h-989z" />
<glyph unicode="[" horiz-adv-x="624" d="M154 -209v1745h419v-109h-299v-1527h299v-109h-419z" />
<glyph unicode="\" horiz-adv-x="776" d="M10 1536h117l639 -1632h-117z" />
<glyph unicode="]" horiz-adv-x="624" d="M51 -100h299v1527h-299v109h420v-1745h-420v109z" />
<glyph unicode="^" d="M131 647l389 766h105l383 -766h-123l-314 643l-319 -643h-121z" />
<glyph unicode="_" horiz-adv-x="839" d="M-37 -268h914v-113h-914v113z" />
<glyph unicode="`" horiz-adv-x="978" d="M236 1419l57 115l452 -240l-47 -92z" />
<glyph unicode="a" horiz-adv-x="987" d="M63 287q0 152 95.5 245t287.5 93q45 0 92.5 -3t87.5 -8.5t70.5 -10.5t46.5 -7v90q0 133 -75.5 190.5t-216.5 57.5q-100 0 -171 -25.5t-112 -48.5l-41 94q39 23 127 54.5t227 31.5q180 0 279.5 -85t99.5 -259v-696h-110l-5 145q-31 -49 -72.5 -81.5t-91 -52t-101.5 -28 t-99 -8.5q-53 0 -109.5 16.5t-102.5 53.5t-76 96.5t-30 145.5zM184 287q0 -109 67.5 -158t176.5 -49q61 0 118.5 24.5t101.5 65.5t69.5 93t25.5 108v121q-16 4 -45.5 9t-68.5 9t-84 7t-88 3q-152 0 -212.5 -63.5t-60.5 -169.5z" />
<glyph unicode="b" horiz-adv-x="1112" d="M129 0v1536h121v-684q47 86 134 138t220 52q104 0 182 -39.5t130.5 -109.5t79 -167t26.5 -210q0 -150 -39 -251t-100.5 -163.5t-139 -89t-155.5 -26.5q-96 0 -186.5 32.5t-157.5 100.5q0 -37 -1 -59.5t-1 -59.5h-113zM250 262q14 -23 44 -51.5t72 -54t95 -43t114 -17.5 q147 0 234.5 101.5t87.5 318.5q0 90 -18.5 167t-55.5 132t-95 86t-138 31q-164 0 -252 -116t-88 -308v-246z" />
<glyph unicode="c" horiz-adv-x="888" d="M90 508q0 119 32 217t91 169t143 109.5t191 38.5q63 0 113.5 -10t88 -25.5t62.5 -32.5l41 -30l-57 -92q-29 20 -89.5 50t-152.5 30q-147 0 -242.5 -104.5t-95.5 -317.5q0 -111 25.5 -189.5t69.5 -131t106.5 -77t136.5 -24.5q94 0 153.5 20.5t96.5 38.5l45 -90 q-29 -23 -101.5 -51.5t-201.5 -28.5q-217 0 -336 137.5t-119 393.5z" />
<glyph unicode="d" horiz-adv-x="1112" d="M92 508q0 100 25.5 196.5t78 172t134.5 120.5t196 45q121 0 205 -47t135 -137v678h121v-1536h-113l-2 123q-59 -59 -145 -98t-209 -39q-80 0 -156.5 25.5t-137 86t-96.5 160.5t-36 250zM217 508q0 -213 87 -312.5t231 -99.5q63 0 116.5 15.5t95 40t71.5 54.5t48 58v228 q0 209 -88 324.5t-252 115.5q-80 0 -138 -33t-96 -89t-56.5 -134t-18.5 -168z" />
<glyph unicode="e" horiz-adv-x="1042" d="M90 508q0 121 31 220t88 169t140 107.5t188 37.5q98 0 176 -29.5t132 -96t82.5 -170t28.5 -250.5v-25h-745q10 -178 101 -280.5t280 -102.5q92 0 157.5 20.5t104.5 36.5l37 -96q-31 -20 -113 -46t-198 -26q-248 0 -369 138.5t-121 392.5zM213 575h623q-10 170 -78 264.5 t-223 94.5q-154 0 -230 -94.5t-92 -264.5z" />
<glyph unicode="f" horiz-adv-x="675" d="M33 909v107h200v110q0 94 17.5 173t59.5 134.5t108.5 86t165.5 30.5q53 0 97 -7t67 -13l-17 -105q-16 4 -52 10.5t-67 6.5q-76 0 -125 -18.5t-78.5 -59.5t-41 -105.5t-11.5 -158.5v-84h314v-107h-314v-909h-123v909h-200z" />
<glyph unicode="g" horiz-adv-x="1052" d="M51 -203q0 78 35 140.5t94 109.5q-35 23 -55.5 61.5t-20.5 96.5q0 63 33 121.5t78 95.5q-47 41 -73.5 106.5t-26.5 153.5q0 94 37.5 161.5t96 111.5t130.5 65.5t139 21.5q41 0 74 -4t60.5 -9t53 -9t54.5 -4h276v-96h-57q-31 0 -82 2t-86 6q57 -41 86 -106.5t29 -141.5 q0 -94 -37 -161.5t-95.5 -111.5t-129 -66t-138.5 -22q-59 0 -120.5 11.5t-116.5 42.5q-29 -27 -52.5 -63t-23.5 -87q0 -59 48 -87.5t181 -31.5l226 -4q68 -2 129 -14t109 -40t76 -74t28 -115q0 -68 -33 -128.5t-100.5 -105.5t-169 -71.5t-236.5 -26.5q-84 0 -159.5 13 t-133 46t-92.5 84t-35 129zM170 -190q0 -49 24.5 -85t66.5 -57.5t97.5 -32t116.5 -10.5q188 0 299 58.5t111 156.5q0 29 -8.5 55.5t-32 47t-64.5 34t-106 15.5l-201 4q-43 2 -97 3t-104 13q-41 -35 -71.5 -87t-30.5 -115zM236 684q0 -72 25.5 -123t65.5 -83t91 -46t102 -14 t101.5 14t91.5 46t66.5 82t25.5 124q0 72 -25.5 122t-65.5 81t-90.5 44t-101.5 13t-102 -14.5t-92 -45t-66.5 -80.5t-25.5 -120z" />
<glyph unicode="h" horiz-adv-x="1077" d="M129 0v1536h121v-696q47 98 137 150t225 52q166 0 255 -96t89 -282v-664h-120v647q0 80 -19.5 135.5t-53.5 88t-80 47t-101 14.5q-84 0 -146.5 -38t-103.5 -98.5t-61.5 -136t-20.5 -153.5v-506h-121z" />
<glyph unicode="i" horiz-adv-x="395" d="M104 1356q0 45 26 72.5t67 27.5t67.5 -27.5t26.5 -72.5q0 -47 -26.5 -74t-67.5 -27t-67 28t-26 73zM137 0v1016h121v-1016h-121z" />
<glyph unicode="j" horiz-adv-x="423" d="M-180 -440l14 102q20 -4 48 -8t55 -4q74 0 118.5 21.5t69.5 66.5t33 113.5t8 162.5v1002h121v-1045q0 -215 -80 -322.5t-260 -107.5q-29 0 -66.5 5.5t-60.5 13.5zM133 1356q0 45 25.5 72.5t66.5 27.5t67.5 -27.5t26.5 -72.5q0 -47 -26.5 -74t-67.5 -27t-66.5 28t-25.5 73 z" />
<glyph unicode="k" horiz-adv-x="890" d="M129 0v1536h121v-971l428 451h153l-440 -455l500 -561h-158l-483 549v-549h-121z" />
<glyph unicode="l" horiz-adv-x="378" d="M129 0v1536h121v-1536h-121z" />
<glyph unicode="m" horiz-adv-x="1689" d="M129 0v1016h113l4 -182q47 96 134 152t210 56q106 0 186 -55t109 -168q49 104 141 163.5t217 59.5q160 0 243 -97t83 -281v-664h-121v649q0 160 -58.5 221.5t-168.5 61.5q-78 0 -136.5 -36t-97.5 -94.5t-58.5 -130t-19.5 -145.5v-526h-121v649q0 160 -59 221.5t-168 61.5 q-78 0 -136 -38t-97 -99.5t-58.5 -137t-19.5 -151.5v-506h-121z" />
<glyph unicode="n" horiz-adv-x="1077" d="M129 0v1016h113l4 -182q47 98 138 153t220 55q176 0 264 -96t88 -282v-664h-120v647q0 80 -19.5 135.5t-53.5 88t-80 47t-101 14.5q-84 0 -146.5 -38t-103.5 -98.5t-61.5 -136t-20.5 -153.5v-506h-121z" />
<glyph unicode="o" horiz-adv-x="1116" d="M90 510q0 117 31 214t89 168t145 110.5t202 39.5q117 0 204 -39.5t145.5 -110.5t88 -168t29.5 -214t-30.5 -215t-89 -169t-146.5 -110t-201 -39q-115 0 -203 39t-146 110t-88 169t-30 215zM215 510q0 -195 84 -308.5t258 -113.5q176 0 260 113.5t84 308.5q0 190 -85 306 t-259 116q-172 0 -257 -116t-85 -306z" />
<glyph unicode="p" horiz-adv-x="1112" d="M129 -451v1467h113l4 -178q43 96 135 150t225 54q104 0 182 -39.5t130.5 -109.5t78 -165t25.5 -206q0 -150 -40 -252t-103.5 -165.5t-142.5 -91t-158 -27.5q-100 0 -183.5 28.5t-144.5 67.5v-533h-121zM250 221q14 -18 45 -40.5t73 -42t93 -32t108 -12.5 q145 0 236.5 104.5t91.5 323.5q0 88 -18.5 163t-56.5 130t-95 86t-137 31q-98 0 -164 -39t-104.5 -101.5t-55 -142.5t-16.5 -160v-268z" />
<glyph unicode="q" horiz-adv-x="1112" d="M90 508q0 113 27.5 210t81 168.5t133.5 113.5t182 42q141 0 229 -57t125 -137l4 168h113v-1467h-121v564q-18 -20 -49 -43t-75 -41.5t-100 -30.5t-124 -12q-82 0 -158.5 26.5t-136 87t-95.5 161t-36 247.5zM215 508q0 -109 24.5 -186.5t67.5 -129t101.5 -75t126.5 -23.5 q63 0 117.5 15.5t96.5 39t70.5 51t44.5 50.5v221q0 104 -20.5 189t-62.5 145.5t-105.5 93.5t-151.5 33q-147 0 -228 -112.5t-81 -311.5z" />
<glyph unicode="r" horiz-adv-x="692" d="M135 0v1016h113l4 -215q41 98 132 161.5t222 63.5q23 0 49.5 -2t34.5 -6l-10 -111q-16 4 -39 5t-43 1q-84 0 -147.5 -33.5t-106.5 -95t-65.5 -147.5t-22.5 -191v-446h-121z" />
<glyph unicode="s" horiz-adv-x="876" d="M59 70l45 98q45 -27 130 -55.5t202 -28.5q74 0 124 14.5t81 39t44 57t13 67.5q0 74 -44 120t-171 69l-110 20q-66 12 -119 31.5t-93 52.5t-61.5 79t-21.5 114q0 141 104.5 217.5t272.5 76.5q102 0 185 -22.5t130 -46.5l-43 -101q-47 25 -113.5 43.5t-152.5 18.5 q-135 0 -200.5 -47t-65.5 -125q0 -39 10 -67.5t36.5 -49t69.5 -36t109 -27.5l112 -21q123 -25 204 -90t81 -190q0 -139 -99.5 -221.5t-279.5 -82.5q-127 0 -229.5 31t-149.5 62z" />
<glyph unicode="t" horiz-adv-x="731" d="M33 909v107h211v299l121 33v-332h309v-107h-309v-592q0 -70 14 -112.5t43 -67t71 -33t95 -8.5q29 0 53.5 2t42.5 6l12 -98q-20 -6 -61 -12t-90 -6q-164 0 -232.5 77.5t-68.5 217.5v626h-211z" />
<glyph unicode="u" horiz-adv-x="1083" d="M129 352v664h121v-647q0 -80 18.5 -134.5t52 -87t79.5 -47t102 -14.5q80 0 141.5 37t104.5 96.5t64.5 134t21.5 152.5v510h120v-1016h-112l-4 188q-49 -98 -138.5 -155.5t-230.5 -57.5q-168 0 -254 95.5t-86 281.5z" />
<glyph unicode="v" horiz-adv-x="917" d="M8 1016h133l322 -889l317 889h127l-383 -1016h-131z" />
<glyph unicode="w" horiz-adv-x="1335" d="M6 1016h129l250 -877l219 846h137l220 -846l247 877h121l-305 -1016h-137l-217 827l-219 -827h-138z" />
<glyph unicode="x" horiz-adv-x="905" d="M14 0l363 530l-330 486h139l267 -398l266 398h133l-332 -479l369 -537h-141l-306 446l-292 -446h-136z" />
<glyph unicode="y" horiz-adv-x="937" d="M8 1016h139l322 -819l328 819h133l-613 -1467h-127l211 500z" />
<glyph unicode="z" horiz-adv-x="913" d="M78 0v84l602 827h-594v105h752v-86l-609 -828h615v-102h-766z" />
<glyph unicode="{" horiz-adv-x="616" d="M82 602v121q41 8 69.5 29.5t46 50t24.5 63.5t7 72v256q0 78 18.5 141.5t58.5 107.5t104.5 68.5t156.5 24.5v-104q-127 0 -173 -62.5t-46 -200.5v-237q0 -92 -40 -163t-103 -103q63 -29 103 -93.5t40 -171.5v-243q0 -63 10.5 -112.5t35 -83.5t66.5 -51t107 -17v-103 q-98 0 -163.5 26.5t-104.5 74t-54.5 113t-15.5 145.5v239q0 72 -32.5 134.5t-114.5 78.5z" />
<glyph unicode="|" horiz-adv-x="438" d="M162 -451v1987h114v-1987h-114z" />
<glyph unicode="}" horiz-adv-x="614" d="M49 -106q129 0 174 68.5t45 195.5v243q0 106 39 170t105 93q-66 33 -105 104.5t-39 163.5v237q0 137 -46 200t-173 63v104q92 0 156.5 -24.5t104.5 -68.5t58.5 -107.5t18.5 -141.5v-256q0 -37 7 -72t24.5 -63.5t45.5 -50t68 -29.5v-121q-82 -16 -113.5 -78.5 t-31.5 -134.5v-239q0 -80 -15.5 -145.5t-54 -113t-104.5 -74t-164 -26.5v103z" />
<glyph unicode="~" d="M61 831q27 27 63 57t78 54.5t90 39.5t99 15q72 0 129.5 -26.5t104.5 -55.5q37 -23 77.5 -42t88.5 -19q72 0 119.5 29.5t99.5 77.5l65 -74q-55 -59 -124.5 -100.5t-164.5 -41.5q-72 0 -129 27t-104 55q-37 23 -76 42.5t-90 19.5q-66 0 -132.5 -39t-127.5 -98z" />
<glyph unicode="&#xa1;" horiz-adv-x="499" d="M150 932q0 49 28.5 78.5t71.5 29.5t71.5 -29.5t28.5 -78.5q0 -51 -28.5 -80t-71.5 -29t-71.5 30t-28.5 79zM186 -418v1034h123v-1034h-123z" />
<glyph unicode="&#xa2;" d="M176 705q0 117 32 210t88 160.5t134 107.5t170 50v207h96v-203q55 -2 103.5 -12.5t86.5 -24.5t65.5 -28.5t41.5 -26.5l-51 -92q-12 8 -37.5 21t-57.5 25.5t-71 21.5t-80 9v-851q88 2 151.5 24.5t98.5 38.5l43 -86q-29 -18 -105.5 -48t-187.5 -36v-199h-96v201 q-94 8 -172 47t-134 105.5t-87 161t-31 217.5zM297 705q0 -106 23.5 -182.5t65.5 -125.5t97.5 -75.5t116.5 -36.5v841q-61 -10 -116.5 -37.5t-97.5 -79t-65.5 -126t-23.5 -178.5z" />
<glyph unicode="&#xa3;" d="M139 731v107h160q-6 53 -12 112.5t-6 93.5q0 88 25.5 165t79.5 133.5t136 89t195 32.5q66 0 121 -14t99 -33.5t74.5 -42t47.5 -39.5l-68 -88q-12 12 -37.5 29.5t-60.5 35t-79 30t-95 12.5q-84 0 -143.5 -24.5t-96.5 -67.5t-54 -99.5t-17 -120.5q0 -41 5 -99t11 -105h364 v-107h-346q10 -53 15.5 -121.5t5.5 -109.5q0 -72 -17.5 -132.5t-42 -109.5t-51 -86t-45.5 -59h713v-113h-852v96q20 25 49 64t55.5 91t45 116.5t18.5 142.5q0 53 -5 112.5t-14 108.5h-178z" />
<glyph unicode="&#xa4;" d="M94 301l168 166q-72 96 -72 233q0 139 78 240l-174 176l68 70l174 -180q100 76 233 75q137 0 234 -71l174 176l70 -68l-175 -176q78 -96 78 -240q0 -135 -73 -231l167 -170l-65 -68l-170 170q-100 -82 -242 -81q-145 0 -239 79l-168 -168zM297 702q0 -129 74.5 -204.5 t197.5 -75.5q125 0 199 75.5t74 204.5q0 125 -74 203t-199 78q-123 0 -197.5 -78t-74.5 -203z" />
<glyph unicode="&#xa5;" d="M53 1440h148l370 -695l383 695h140l-424 -731h321v-105h-362v-209h362v-104h-362v-291h-123v291h-348v104h348v209h-348v105h305z" />
<glyph unicode="&#xa6;" horiz-adv-x="438" d="M162 221h114v-672h-114v672zM162 866v670h114v-670h-114z" />
<glyph unicode="&#xa7;" horiz-adv-x="1071" d="M143 682q0 82 37 159t109 138q-53 47 -77 103.5t-24 134.5q0 82 30 146t82 108.5t123 68t150 23.5q63 0 115.5 -10.5t92.5 -23.5t69 -28.5t47 -27.5l-45 -93q-29 18 -98.5 48t-169.5 30q-59 0 -109.5 -13t-89.5 -42t-60.5 -72t-21.5 -104q0 -160 191 -236l178 -71 q127 -51 193.5 -126t66.5 -196q0 -86 -39 -159.5t-105 -131.5q47 -41 74 -98t27 -143q0 -74 -26.5 -137.5t-76 -109.5t-121 -72t-159.5 -26q-66 0 -119 10.5t-94 25t-70 29.5l-43 24l45 94q37 -20 108.5 -49t172.5 -29q55 0 104 14.5t85 44t57.5 74.5t21.5 109q0 80 -47 133 t-135 88l-189 76q-53 20 -100 48.5t-82 66.5t-56.5 88.5t-21.5 113.5zM252 698q0 -86 53 -140t156 -95l151 -62q51 -20 92 -45q18 14 39 37t38.5 51.5t29.5 64.5t12 77q0 86 -56 142t-153 95l-159 64q-53 23 -84 41q-45 -35 -82 -96.5t-37 -133.5z" />
<glyph unicode="&#xa8;" horiz-adv-x="935" d="M168 1311q0 47 27.5 74.5t68.5 27.5t67.5 -27.5t26.5 -74.5t-26.5 -75t-67.5 -28t-68.5 28t-27.5 75zM578 1311q0 47 26.5 74.5t67.5 27.5t68.5 -27.5t27.5 -74.5t-27.5 -75t-68.5 -28t-67.5 28t-26.5 75z" />
<glyph unicode="&#xa9;" horiz-adv-x="1611" d="M61 723q0 162 55.5 299t154 237.5t235.5 157t303 56.5q162 0 299 -56.5t235.5 -157t153.5 -237.5t55 -299q0 -164 -55 -302t-154.5 -237.5t-236.5 -155t-299 -55.5q-164 0 -300 55.5t-235.5 155t-155 237.5t-55.5 302zM164 721q0 -141 48 -261t134 -207t204 -136t257 -49 q137 0 255 49t204 136t134 207t48 261t-48 261t-134 208t-203 137t-254 49q-139 0 -257 -49t-204 -137t-135 -208t-49 -261zM487 719q0 86 25 157.5t69 124t108.5 82t144.5 29.5q49 0 90 -9t70.5 -21.5t48 -23.5t24.5 -18l-41 -73q-16 10 -68.5 32.5t-123.5 22.5 q-113 0 -178.5 -77t-65.5 -226q0 -154 64.5 -227.5t176.5 -73.5q84 0 133.5 18.5t65.5 26.5l31 -70q-6 -6 -23.5 -16t-47 -20.5t-70.5 -18.5t-93 -8q-166 0 -253 103.5t-87 285.5z" />
<glyph unicode="&#xaa;" horiz-adv-x="663" d="M76 1020q0 96 68.5 146.5t191.5 50.5q18 0 40.5 -1.5t44 -3.5t39 -3t25.5 -3v43q0 78 -42 112t-128 34q-47 0 -99 -13.5t-79 -29.5l-26 71q27 16 85 33t130 17q131 0 191.5 -59.5t60.5 -182.5v-391h-80l-6 71q-33 -39 -90.5 -63.5t-114.5 -24.5q-92 0 -151.5 47.5 t-59.5 149.5zM84 639v82h494v-82h-494zM168 1022q0 -66 35 -93.5t96 -27.5q37 0 69.5 11.5t59.5 30t42 43t15 52.5v95q-4 0 -18 2t-35.5 3t-46.5 3t-45 2q-80 0 -126 -29t-46 -92z" />
<glyph unicode="&#xab;" horiz-adv-x="886" d="M80 512l235 395h123l-227 -395l227 -395h-123zM449 512l235 395h123l-227 -395l227 -395h-123z" />
<glyph unicode="&#xac;" d="M168 834v106h801v-491h-111v385h-690z" />
<glyph unicode="&#xad;" horiz-adv-x="790" d="M100 516v117h588v-117h-588z" />
<glyph unicode="&#xae;" horiz-adv-x="1611" d="M61 723q0 162 55.5 299t154 237.5t235.5 157t303 56.5q162 0 299 -56.5t235.5 -157t153.5 -237.5t55 -299q0 -164 -55 -302t-154.5 -237.5t-236.5 -155t-299 -55.5q-164 0 -300 55.5t-235.5 155t-155 237.5t-55.5 302zM164 721q0 -139 48 -259t134 -207t204 -137t257 -50 q137 0 255 50t204 138t134 207t48 258t-48 259t-134 208t-203 138t-254 50q-139 0 -257 -50t-204 -138t-135 -208t-49 -259zM557 338v764h256q70 0 120 -18.5t82 -50.5t46 -72.5t14 -86.5q0 -88 -45 -138t-110 -72l186 -326h-109l-172 303h-170v-303h-98zM655 727h156 q78 0 122 40t44 105.5t-38 104.5t-122 39h-162v-289z" />
<glyph unicode="&#xaf;" horiz-adv-x="960" d="M190 1255v109h582v-109h-582z" />
<glyph unicode="&#xb0;" horiz-adv-x="741" d="M96 1139q0 55 20.5 103t57.5 85t87 57.5t110 20.5q121 0 197.5 -74t76.5 -190q0 -57 -21.5 -106.5t-58.5 -84.5t-87 -55.5t-107 -20.5q-123 0 -199 74t-76 191zM190 1139q0 -82 51.5 -131.5t131.5 -49.5q76 0 127 49.5t51 133.5q0 78 -51 129t-129 51q-80 0 -130.5 -52 t-50.5 -130z" />
<glyph unicode="&#xb1;" horiz-adv-x="1064" d="M80 0v109h903v-109h-903zM80 709v110h395v402h115v-402h393v-110h-393v-402h-115v402h-395z" />
<glyph unicode="&#xb2;" horiz-adv-x="757" d="M106 1337q12 18 36 41t55.5 42.5t74.5 32.5t97 13q123 0 189.5 -60t66.5 -155q0 -45 -17.5 -83t-46.5 -69.5t-67.5 -61t-81.5 -56.5l-70 -47q-33 -23 -57.5 -48.5t-40 -57t-15.5 -72.5h408v-90h-516v39q0 59 12 105t40 86t73 77t110 78q72 45 115 88t43 108q0 59 -39 94 t-113 35q-37 0 -66.5 -10t-54 -24.5t-43 -32t-30.5 -31.5z" />
<glyph unicode="&#xb3;" horiz-adv-x="757" d="M102 1372q35 33 103.5 63.5t161.5 30.5q70 0 117.5 -17t77.5 -45t43 -64.5t13 -75.5q0 -74 -37.5 -120t-88.5 -69q61 -20 104 -66t43 -128q0 -104 -80 -168t-231 -64q-72 0 -125 9.5t-94 21.5l18 86q33 -10 81 -19.5t107 -9.5q115 0 165 40t50 106q0 63 -40.5 102 t-143.5 39h-115v86h111q82 0 128 40t46 110q0 59 -43 88.5t-117 29.5q-78 0 -130 -27.5t-77 -45.5z" />
<glyph unicode="&#xb4;" horiz-adv-x="978" d="M233 1294l453 240l57 -115l-462 -217z" />
<glyph unicode="&#xb5;" horiz-adv-x="1083" d="M129 -451v1467h121v-631q0 -158 70.5 -228.5t181.5 -70.5q78 0 139 36t104 94t66 134t23 158v508h120v-1016h-112l-4 190q-16 -37 -46 -74.5t-74 -69.5t-101.5 -51.5t-131.5 -19.5q-37 0 -73.5 10.5t-68.5 27t-56.5 37t-38.5 38.5v-539h-119z" />
<glyph unicode="&#xb6;" horiz-adv-x="1126" d="M72 1049q0 86 26.5 157.5t78.5 123.5t131 81t186 29h471v-1719h-119v1604h-250v-1604h-123v936q-207 0 -304 108t-97 284z" />
<glyph unicode="&#xb7;" horiz-adv-x="368" d="M86 708.5q0 49.5 28.5 80t71.5 30.5t72 -29.5t29 -80.5q0 -49 -30 -78t-73 -29t-70.5 28.5t-27.5 78z" />
<glyph unicode="&#xb8;" horiz-adv-x="960" d="M254 -442l22 86l72 -21q37 -10 82 -10q72 0 116 26.5t44 79.5q0 94 -154 95q-29 0 -61 -7l41 193h100l-20 -100q98 -8 150 -53.5t52 -116.5q0 -98 -70.5 -152.5t-181.5 -54.5q-86 0 -134 15.5t-58 19.5z" />
<glyph unicode="&#xb9;" horiz-adv-x="757" d="M117 1288l266 164h90v-786h-104v667l-209 -123z" />
<glyph unicode="&#xba;" horiz-adv-x="706" d="M59 1147q0 72 20.5 131t59.5 102t93.5 68t119.5 25q141 0 218 -91.5t77 -234.5t-79 -233.5t-216 -90.5q-141 0 -217 89.5t-76 234.5zM70 639v82h569v-82h-569zM158 1147q0 -117 48 -179.5t146.5 -62.5t147.5 62.5t49 179.5t-49 180.5t-148 63.5q-92 0 -143 -63.5 t-51 -180.5z" />
<glyph unicode="&#xbb;" horiz-adv-x="886" d="M80 117l227 395l-227 395h123l235 -395l-235 -395h-123zM449 117l227 395l-227 395h122l236 -395l-236 -395h-122z" />
<glyph unicode="&#xbc;" horiz-adv-x="194" d="M-651 1288l266 164h90v-786h-104v667l-209 -123zM-354 0l784 1440h119l-782 -1440h-121zM293 199v59l325 557h107l-309 -528h243v202h93v-202h131v-88h-131v-170h-93v170h-366z" />
<glyph unicode="&#xbd;" horiz-adv-x="1802" d="M98 1288l267 164h90v-786h-105v667l-209 -123zM395 0l785 1440h118l-782 -1440h-121zM1092 700q12 18 35.5 41t55 42.5t74.5 32.5t97 13q123 0 189.5 -60t66.5 -155q0 -45 -17.5 -82.5t-46 -69.5t-67.5 -61.5t-82 -56.5l-70 -47q-33 -23 -57.5 -48.5t-40 -57t-15.5 -72.5 h408v-90h-516v39q0 59 12 105t40 86t73 77t110 78q72 45 115 88t43 108q0 59 -39 94t-112 35q-37 0 -67 -10t-54.5 -24.5t-43 -32t-30.5 -31.5z" />
<glyph unicode="&#xbe;" horiz-adv-x="1802" d="M115 1372q35 33 103.5 63.5t160.5 30.5q70 0 118 -17t77.5 -45t43 -64.5t13.5 -75.5q0 -74 -38 -120t-89 -69q61 -20 104 -66t43 -128q0 -104 -79.5 -168t-231.5 -64q-72 0 -125 9.5t-94 21.5l18 86q33 -10 81 -19.5t108 -9.5q115 0 165 40t50 106q0 63 -41 102t-144 39 h-114v86h110q82 0 128 40t46 110q0 59 -43 88.5t-116 29.5q-78 0 -130.5 -27.5t-76.5 -45.5zM471 0l784 1440h119l-782 -1440h-121zM1108 199v59l326 557h106l-309 -528h244v202h92v-202h131v-88h-131v-170h-92v170h-367z" />
<glyph unicode="&#xbf;" horiz-adv-x="978" d="M123 -68q0 68 17.5 122.5t45 98.5t62.5 79.5t69 66.5q43 37 78 70.5t59.5 73.5t39 90.5t14.5 119.5h117q0 -78 -12.5 -135t-39 -104t-68.5 -92.5t-102 -98.5q-23 -20 -50 -48t-50.5 -63.5t-39 -77.5t-15.5 -91q0 -123 71.5 -197t221.5 -74q119 0 211 53.5t151 127.5 l76 -78q-27 -35 -68 -72t-96 -69.5t-127 -53t-162 -20.5q-102 0 -178 29.5t-126 80.5t-74.5 118.5t-24.5 143.5zM459 942q0 49 28.5 79t71.5 30t71.5 -30t28.5 -79t-28.5 -78.5t-71.5 -29.5t-71.5 28.5t-28.5 79.5z" />
<glyph unicode="&#xc0;" horiz-adv-x="1128" d="M6 0l481 1440h152l483 -1440h-137l-129 401h-588l-131 -401h-131zM293 1763l53 119l465 -227l-41 -94zM303 514h516l-256 776z" />
<glyph unicode="&#xc1;" horiz-adv-x="1128" d="M6 0l481 1440h152l483 -1440h-137l-129 401h-588l-131 -401h-131zM303 514h516l-256 776zM305 1655l465 227l53 -119l-477 -202z" />
<glyph unicode="&#xc2;" horiz-adv-x="1128" d="M6 0l481 1440h152l483 -1440h-137l-129 401h-588l-131 -401h-131zM215 1630l293 252h110l293 -252l-69 -71l-279 200l-278 -200zM303 514h516l-256 776z" />
<glyph unicode="&#xc3;" horiz-adv-x="1128" d="M6 0l481 1440h152l483 -1440h-137l-129 401h-588l-131 -401h-131zM207 1591q0 106 51 165t154 59q51 0 91 -18.5t73.5 -42t66.5 -42t72 -18.5q96 0 96 118h109q0 -111 -54.5 -167t-152.5 -56q-51 0 -89 18.5t-72 41t-66.5 41t-69.5 18.5q-100 0 -101 -117h-108zM303 514 h516l-256 776z" />
<glyph unicode="&#xc4;" horiz-adv-x="1128" d="M6 0l481 1440h152l483 -1440h-137l-129 401h-588l-131 -401h-131zM260 1708q0 49 28.5 78t69.5 29q43 0 71 -29t28 -78q0 -47 -28 -76.5t-71 -29.5q-41 0 -69.5 29.5t-28.5 76.5zM303 514h516l-256 776zM666 1708q0 49 28.5 78t69.5 29q43 0 71.5 -29t28.5 -78 q0 -47 -28.5 -76.5t-71.5 -29.5q-41 0 -69.5 29.5t-28.5 76.5z" />
<glyph unicode="&#xc5;" horiz-adv-x="1128" d="M6 0l469 1401q-61 23 -98 74t-37 122q0 49 17.5 88t48 68t71.5 44t86 15q96 0 157.5 -58t61.5 -155q0 -72 -35.5 -123t-95.5 -73l471 -1403h-135l-131 401h-588l-129 -401h-133zM303 514h516l-256 774zM438 1597q0 -57 35 -90.5t88 -33.5q55 0 90 32.5t35 92t-35 93 t-90 33.5q-51 0 -87 -33t-36 -94z" />
<glyph unicode="&#xc6;" horiz-adv-x="1683" d="M6 0l760 1440h856v-119h-664v-512h519v-119h-519v-571h684v-119h-811v416h-469l-217 -416h-139zM424 526h407v789z" />
<glyph unicode="&#xc7;" horiz-adv-x="1208" d="M102 713q0 168 38 306t115 236.5t192.5 152.5t271.5 54q84 0 153.5 -16t123 -40t91 -49.5t60.5 -45.5l-66 -94q-51 43 -139 87t-219 44q-231 0 -358 -161t-127 -474q0 -324 127 -472.5t358 -148.5q68 0 124 12.5t103 31t84 41t64 42.5l59 -92q-70 -59 -183.5 -104.5 t-264.5 -45.5l-17 -77q102 -8 152.5 -59.5t50.5 -125.5q0 -98 -69.5 -151t-182.5 -53q-86 0 -134 14t-58 18l20 92q35 -10 72 -19t84 -9q72 0 111.5 23.5t39.5 80.5q0 45 -33.5 70.5t-109.5 25.5q-16 0 -34.5 -1t-35.5 -5l39 185q-258 31 -380 217t-122 510z" />
<glyph unicode="&#xc8;" horiz-adv-x="1017" d="M152 0v1440h794v-119h-665v-512h520v-119h-520v-571h686v-119h-815zM291 1763l53 119l465 -227l-41 -94z" />
<glyph unicode="&#xc9;" horiz-adv-x="1017" d="M152 0v1440h794v-119h-665v-512h520v-119h-520v-571h686v-119h-815zM313 1655l465 227l53 -119l-477 -202z" />
<glyph unicode="&#xca;" horiz-adv-x="1017" d="M152 0v1440h794v-119h-665v-512h520v-119h-520v-571h686v-119h-815zM219 1630l293 252h111l292 -252l-69 -71l-279 200l-278 -200z" />
<glyph unicode="&#xcb;" horiz-adv-x="1017" d="M152 0v1440h794v-119h-665v-512h520v-119h-520v-571h686v-119h-815zM252 1708q0 49 28.5 78t69.5 29q43 0 71 -29t28 -78q0 -47 -28 -76.5t-71 -29.5q-41 0 -69.5 29.5t-28.5 76.5zM657 1708q0 49 29 78t70 29q43 0 71.5 -29t28.5 -78q0 -47 -28.5 -76.5t-71.5 -29.5 q-41 0 -70 29.5t-29 76.5z" />
<glyph unicode="&#xcc;" horiz-adv-x="432" d="M-33 1763l53 119l465 -227l-41 -94zM152 0v1440h129v-1440h-129z" />
<glyph unicode="&#xcd;" horiz-adv-x="432" d="M-41 1655l465 227l53 -119l-477 -202zM152 0v1440h129v-1440h-129z" />
<glyph unicode="&#xce;" horiz-adv-x="432" d="M-131 1630l293 252h110l293 -252l-69 -71l-279 200l-278 -200zM152 0v1440h129v-1440h-129z" />
<glyph unicode="&#xcf;" horiz-adv-x="432" d="M-84 1708q0 49 28.5 78t69.5 29q43 0 71 -29t28 -78q0 -47 -28 -76.5t-71 -29.5q-41 0 -69.5 29.5t-28.5 76.5zM152 0v1440h129v-1440h-129zM322 1708q0 49 28.5 78t69.5 29q43 0 71.5 -29t28.5 -78q0 -47 -28.5 -76.5t-71.5 -29.5q-41 0 -69.5 29.5t-28.5 76.5z" />
<glyph unicode="&#xd0;" horiz-adv-x="1349" d="M20 678v110h158v652h428q313 0 477 -188.5t164 -532.5q0 -174 -45 -308.5t-128 -225.5t-201.5 -138t-266.5 -47h-428v678h-158zM307 119h299q236 0 371 152.5t135 449.5q0 309 -136 454.5t-370 145.5h-299v-533h332v-110h-332v-559z" />
<glyph unicode="&#xd1;" horiz-adv-x="1294" d="M152 0v1440h143l723 -1211v1211h125v-1440h-133l-734 1217v-1217h-124zM299 1591q0 106 51 165t154 59q51 0 91 -18.5t73.5 -42t66.5 -42t72 -18.5q96 0 96 118h109q0 -111 -54.5 -167t-152.5 -56q-51 0 -89 18.5t-72 41t-66.5 41t-69.5 18.5q-100 0 -100 -117h-109z" />
<glyph unicode="&#xd2;" horiz-adv-x="1429" d="M104 721q0 168 40 306t118 236.5t192.5 152.5t262 54t261.5 -54t190.5 -152.5t116.5 -236.5t40 -306t-40 -306.5t-116.5 -237.5t-191.5 -153.5t-262.5 -54.5t-262 54.5t-191.5 153.5t-117 237.5t-40 306.5zM240 721q0 -143 28.5 -259t88 -199t148.5 -128t210 -45t210 45 t148.5 128t88 199t28.5 259t-28.5 259t-88 198t-148.5 127t-210 45t-210 -45t-148.5 -127t-88 -198t-28.5 -259zM479 1763l53 119l465 -227l-41 -94z" />
<glyph unicode="&#xd3;" horiz-adv-x="1429" d="M104 721q0 168 40 306t118 236.5t192.5 152.5t262 54t261.5 -54t190.5 -152.5t116.5 -236.5t40 -306t-40 -306.5t-116.5 -237.5t-191.5 -153.5t-262.5 -54.5t-262 54.5t-191.5 153.5t-117 237.5t-40 306.5zM240 721q0 -143 28.5 -259t88 -199t148.5 -128t210 -45t210 45 t148.5 128t88 199t28.5 259t-28.5 259t-88 198t-148.5 127t-210 45t-210 -45t-148.5 -127t-88 -198t-28.5 -259zM463 1655l465 227l53 -119l-477 -202z" />
<glyph unicode="&#xd4;" horiz-adv-x="1429" d="M104 721q0 168 40 306t118 236.5t192.5 152.5t262 54t261.5 -54t190.5 -152.5t116.5 -236.5t40 -306t-40 -306.5t-116.5 -237.5t-191.5 -153.5t-262.5 -54.5t-262 54.5t-191.5 153.5t-117 237.5t-40 306.5zM240 721q0 -143 28.5 -259t88 -199t148.5 -128t210 -45t210 45 t148.5 128t88 199t28.5 259t-28.5 259t-88 198t-148.5 127t-210 45t-210 -45t-148.5 -127t-88 -198t-28.5 -259zM379 1630l293 252h110l293 -252l-69 -71l-279 200l-278 -200z" />
<glyph unicode="&#xd5;" horiz-adv-x="1429" d="M104 721q0 168 40 306t118 236.5t192.5 152.5t262 54t261.5 -54t190.5 -152.5t116.5 -236.5t40 -306t-40 -306.5t-116.5 -237.5t-191.5 -153.5t-262.5 -54.5t-262 54.5t-191.5 153.5t-117 237.5t-40 306.5zM240 721q0 -143 28.5 -259t88 -199t148.5 -128t210 -45t210 45 t148.5 128t88 199t28.5 259t-28.5 259t-88 198t-148.5 127t-210 45t-210 -45t-148.5 -127t-88 -198t-28.5 -259zM375 1591q0 106 51 165t154 59q51 0 91 -18.5t73.5 -42t66.5 -42t72 -18.5q96 0 96 118h108q0 -111 -54 -167t-152 -56q-51 0 -89 18.5t-72 41t-66.5 41 t-69.5 18.5q-100 0 -101 -117h-108z" />
<glyph unicode="&#xd6;" horiz-adv-x="1429" d="M104 721q0 168 40 306t118 236.5t192.5 152.5t262 54t261.5 -54t190.5 -152.5t116.5 -236.5t40 -306t-40 -306.5t-116.5 -237.5t-191.5 -153.5t-262.5 -54.5t-262 54.5t-191.5 153.5t-117 237.5t-40 306.5zM240 721q0 -143 28.5 -259t88 -199t148.5 -128t210 -45t210 45 t148.5 128t88 199t28.5 259t-28.5 259t-88 198t-148.5 127t-210 45t-210 -45t-148.5 -127t-88 -198t-28.5 -259zM424 1708q0 49 28.5 78t69.5 29q43 0 71 -29t28 -78q0 -47 -28 -76.5t-71 -29.5q-41 0 -69.5 29.5t-28.5 76.5zM829 1708q0 49 29 78t70 29q43 0 71.5 -29 t28.5 -78q0 -47 -28.5 -76.5t-71.5 -29.5q-41 0 -70 29.5t-29 76.5z" />
<glyph unicode="&#xd7;" horiz-adv-x="1064" d="M158 1032l80 74l294 -324l295 320l80 -72l-303 -321l297 -318l-78 -72l-293 316l-292 -313l-78 71l297 318z" />
<glyph unicode="&#xd8;" horiz-adv-x="1429" d="M104 721q0 168 40 306t117 236.5t191.5 152.5t262.5 54q106 0 192 -28.5t158 -81.5l113 176l90 -55l-123 -191q90 -98 135 -243.5t45 -325.5q0 -168 -40 -306.5t-116.5 -237.5t-191.5 -153.5t-262 -54.5q-104 0 -191.5 28t-158.5 81l-103 -162l-90 57l113 177 q-90 98 -135.5 244.5t-45.5 326.5zM240 721q0 -143 29.5 -260t88.5 -199l641 993q-55 45 -125.5 70t-158.5 25q-121 0 -210 -45t-148.5 -127t-88 -198t-28.5 -259zM434 182q111 -92 281 -92q121 0 210 45t148.5 128t88 199t28.5 259q0 289 -119 455z" />
<glyph unicode="&#xd9;" horiz-adv-x="1265" d="M131 565v875h129v-846q0 -145 22.5 -243.5t68.5 -157t117 -83t165 -24.5t163.5 24.5t115.5 83t70 155.5t24 243v848h129v-877q0 -131 -24 -240.5t-82 -188.5t-155.5 -123t-245 -44t-242.5 44t-152.5 124t-80 189.5t-22.5 240.5zM371 1763l53 119l465 -227l-41 -94z" />
<glyph unicode="&#xda;" horiz-adv-x="1265" d="M131 565v875h129v-846q0 -145 22.5 -243.5t68.5 -157t117 -83t165 -24.5t163.5 24.5t115.5 83t70 155.5t24 243v848h129v-877q0 -131 -24 -240.5t-82 -188.5t-155.5 -123t-245 -44t-242.5 44t-152.5 124t-80 189.5t-22.5 240.5zM422 1655l465 227l53 -119l-477 -202z" />
<glyph unicode="&#xdb;" horiz-adv-x="1265" d="M131 565v875h129v-846q0 -145 22.5 -243.5t68.5 -157t117 -83t165 -24.5t163.5 24.5t115.5 83t70 155.5t24 243v848h129v-877q0 -131 -24 -240.5t-82 -188.5t-155.5 -123t-245 -44t-242.5 44t-152.5 124t-80 189.5t-22.5 240.5zM305 1630l293 252h111l292 -252l-69 -71 l-279 200l-278 -200z" />
<glyph unicode="&#xdc;" horiz-adv-x="1265" d="M131 565v875h129v-846q0 -145 22.5 -243.5t68.5 -157t117 -83t165 -24.5t163.5 24.5t115.5 83t70 155.5t24 243v848h129v-877q0 -131 -24 -240.5t-82 -188.5t-155.5 -123t-245 -44t-242.5 44t-152.5 124t-80 189.5t-22.5 240.5zM344 1708q0 49 28.5 78t69.5 29 q43 0 71 -29t28 -78q0 -47 -28 -76.5t-71 -29.5q-41 0 -69.5 29.5t-28.5 76.5zM750 1708q0 49 28.5 78t69.5 29q43 0 71.5 -29t28.5 -78q0 -47 -28.5 -76.5t-71.5 -29.5q-41 0 -69.5 29.5t-28.5 76.5z" />
<glyph unicode="&#xdd;" horiz-adv-x="1056" d="M6 1440h148l374 -688l383 688h140l-463 -807v-633h-129v629zM340 1655l465 227l53 -119l-477 -202z" />
<glyph unicode="&#xde;" horiz-adv-x="1077" d="M152 0v1440h124v-269h279q104 0 188 -29.5t143.5 -86t91.5 -138t32 -184.5q0 -98 -33 -179t-92.5 -138.5t-145.5 -89t-192 -31.5h-271v-295h-124zM276 410h261q166 0 254 84t88 239q0 166 -87 245t-247 79h-269v-647z" />
<glyph unicode="&#xdf;" horiz-adv-x="1167" d="M129 0v1030q0 109 21.5 204t71.5 165.5t131 110.5t198 40q90 0 160.5 -25.5t120 -69.5t75 -100.5t25.5 -117.5q0 -86 -36 -146.5t-91 -117.5l-91 -94q-40 -43 -40 -99q0 -31 15.5 -51t42 -38.5t61 -35t73.5 -37.5q61 -33 106.5 -64.5t75 -70.5t45 -85t15.5 -107 q0 -66 -22.5 -123t-67.5 -100t-111.5 -69t-154.5 -26q-43 0 -85 6.5t-81 16.5t-69 22.5t-48 24.5l43 98q49 -29 113.5 -46t124.5 -17q117 0 176 58.5t59 154.5q0 41 -11 72.5t-36 59.5t-66 52.5t-98 52.5q-125 59 -174 111.5t-49 132.5q0 76 43 131t96 107q47 47 83 97 t36 122q0 98 -73.5 155.5t-190.5 57.5q-147 0 -220 -106.5t-73 -313.5v-1022h-123z" />
<glyph unicode="&#xe0;" horiz-adv-x="987" d="M63 287q0 152 95.5 245t287.5 93q45 0 92.5 -3.5t87.5 -8.5t70.5 -10t46.5 -7v90q0 133 -75.5 190.5t-216.5 57.5q-100 0 -171 -25.5t-112 -48.5l-41 94q39 23 127 54.5t227 31.5q180 0 279.5 -85t99.5 -259v-696h-110l-5 145q-31 -49 -72.5 -81.5t-91 -52t-101.5 -28 t-99 -8.5q-53 0 -109.5 16.5t-102.5 53.5t-76 96.5t-30 145.5zM184 287q0 -109 67.5 -158t176.5 -49q61 0 118.5 24.5t101.5 65.5t69.5 93t25.5 108v121q-16 4 -45.5 9t-68.5 9t-84 7t-88 3q-152 0 -212.5 -63.5t-60.5 -169.5zM240 1419l57 115l453 -240l-48 -92z" />
<glyph unicode="&#xe1;" horiz-adv-x="987" d="M63 287q0 152 95.5 245t287.5 93q45 0 92.5 -3.5t87.5 -8.5t70.5 -10t46.5 -7v90q0 133 -75.5 190.5t-216.5 57.5q-100 0 -171 -25.5t-112 -48.5l-41 94q39 23 127 54.5t227 31.5q180 0 279.5 -85t99.5 -259v-696h-110l-5 145q-31 -49 -72.5 -81.5t-91 -52t-101.5 -28 t-99 -8.5q-53 0 -109.5 16.5t-102.5 53.5t-76 96.5t-30 145.5zM184 287q0 -109 67.5 -158t176.5 -49q61 0 118.5 24.5t101.5 65.5t69.5 93t25.5 108v121q-16 4 -45.5 9t-68.5 9t-84 7t-88 3q-152 0 -212.5 -63.5t-60.5 -169.5zM233 1294l453 240l57 -115l-462 -217z" />
<glyph unicode="&#xe2;" horiz-adv-x="987" d="M63 287q0 152 95.5 245t287.5 93q45 0 92.5 -3.5t87.5 -8.5t70.5 -10t46.5 -7v90q0 133 -75.5 190.5t-216.5 57.5q-100 0 -171 -25.5t-112 -48.5l-41 94q39 23 127 54.5t227 31.5q180 0 279.5 -85t99.5 -259v-696h-110l-5 145q-31 -49 -72.5 -81.5t-91 -52t-101.5 -28 t-99 -8.5q-53 0 -109.5 16.5t-102.5 53.5t-76 96.5t-30 145.5zM168 1253l278 258h99l278 -258l-71 -67l-256 203l-256 -203zM184 287q0 -109 67.5 -158t176.5 -49q61 0 118.5 24.5t101.5 65.5t69.5 93t25.5 108v121q-16 4 -45.5 9t-68.5 9t-84 7t-88 3q-152 0 -212.5 -63.5 t-60.5 -169.5z" />
<glyph unicode="&#xe3;" horiz-adv-x="987" d="M63 287q0 152 95.5 245t287.5 93q45 0 92.5 -3.5t87.5 -8.5t70.5 -10t46.5 -7v90q0 133 -75.5 190.5t-216.5 57.5q-100 0 -171 -25.5t-112 -48.5l-41 94q39 23 127 54.5t227 31.5q180 0 279.5 -85t99.5 -259v-696h-110l-5 145q-31 -49 -72.5 -81.5t-91 -52t-101.5 -28 t-99 -8.5q-53 0 -109.5 16.5t-102.5 53.5t-76 96.5t-30 145.5zM139 1194q0 106 50.5 166.5t148.5 60.5q51 0 89 -18.5t69.5 -42t63.5 -42t71 -18.5q51 0 71.5 32t20.5 87h108q0 -111 -51 -169t-149 -58q-49 0 -86 18.5t-71 41t-64.5 41t-67.5 18.5q-51 0 -72.5 -31 t-21.5 -86h-109zM184 287q0 -109 67.5 -158t176.5 -49q61 0 118.5 24.5t101.5 65.5t69.5 93t25.5 108v121q-16 4 -45.5 9t-68.5 9t-84 7t-88 3q-152 0 -212.5 -63.5t-60.5 -169.5z" />
<glyph unicode="&#xe4;" horiz-adv-x="987" d="M63 287q0 152 95.5 245t287.5 93q45 0 92.5 -3.5t87.5 -8.5t70.5 -10t46.5 -7v90q0 133 -75.5 190.5t-216.5 57.5q-100 0 -171 -25.5t-112 -48.5l-41 94q39 23 127 54.5t227 31.5q180 0 279.5 -85t99.5 -259v-696h-110l-5 145q-31 -49 -72.5 -81.5t-91 -52t-101.5 -28 t-99 -8.5q-53 0 -109.5 16.5t-102.5 53.5t-76 96.5t-30 145.5zM184 287q0 -109 67.5 -158t176.5 -49q61 0 118.5 24.5t101.5 65.5t69.5 93t25.5 108v121q-16 4 -45.5 9t-68.5 9t-84 7t-88 3q-152 0 -212.5 -63.5t-60.5 -169.5zM193 1311q0 47 27.5 74.5t68.5 27.5 t67.5 -27.5t26.5 -74.5t-26.5 -75t-67.5 -28t-68.5 28t-27.5 75zM602 1311q0 47 26.5 74.5t67.5 27.5t69 -27.5t28 -74.5t-28 -75t-69 -28t-67.5 28t-26.5 75z" />
<glyph unicode="&#xe5;" horiz-adv-x="987" d="M63 287q0 152 95.5 245t287.5 93q45 0 92.5 -3.5t87.5 -8.5t70.5 -10t46.5 -7v90q0 133 -75.5 190.5t-216.5 57.5q-100 0 -171 -25.5t-112 -48.5l-41 94q39 23 127 54.5t227 31.5q180 0 279.5 -85t99.5 -259v-696h-110l-5 145q-31 -49 -72.5 -81.5t-91 -52t-101.5 -28 t-99 -8.5q-53 0 -109.5 16.5t-102.5 53.5t-76 96.5t-30 145.5zM184 287q0 -109 67.5 -158t176.5 -49q61 0 118.5 24.5t101.5 65.5t69.5 93t25.5 108v121q-16 4 -45.5 9t-68.5 9t-84 7t-88 3q-152 0 -212.5 -63.5t-60.5 -169.5zM279 1378q0 98 63.5 154.5t155.5 56.5 q96 0 155.5 -56t59.5 -153q0 -98 -60.5 -154.5t-154.5 -56.5q-96 0 -157.5 56.5t-61.5 152.5zM373 1378q0 -59 34.5 -93t88.5 -34q55 0 90 34t35 93.5t-35 93t-90 33.5q-51 0 -87 -33t-36 -94z" />
<glyph unicode="&#xe6;" horiz-adv-x="1691" d="M63 287q0 152 95.5 245t287.5 93q45 0 92.5 -3.5t87.5 -8.5t70.5 -10t46.5 -7v68q0 133 -75.5 201.5t-216.5 68.5q-100 0 -171 -25.5t-112 -48.5l-41 94q39 23 127 54.5t227 31.5q129 0 218 -52t130 -150q53 98 142.5 151t214.5 53q98 0 176 -29.5t132 -95t83 -169 t29 -248.5v-25h-746q10 -182 101.5 -284.5t279.5 -102.5q92 0 157.5 20.5t104.5 36.5l37 -96q-31 -20 -112.5 -46t-198.5 -26q-162 0 -266.5 63.5t-157.5 174.5q-72 -139 -179.5 -189.5t-244.5 -50.5q-53 0 -109.5 16.5t-102.5 53.5t-76 96.5t-30 145.5zM184 287 q0 -109 67.5 -159t176.5 -50q61 0 118.5 24.5t101.5 65.5t69.5 93t25.5 108v123q-16 4 -45.5 9t-68.5 9t-84 7t-88 3q-152 0 -212.5 -63.5t-60.5 -169.5zM862 580h623q-10 170 -79 262t-222.5 92t-229.5 -94t-92 -260z" />
<glyph unicode="&#xe7;" horiz-adv-x="888" d="M90 508q0 119 32 217t91 169t143 109.5t191 38.5q63 0 113.5 -10t88 -25.5t62.5 -32.5l41 -30l-57 -92q-29 20 -89.5 50t-152.5 30q-147 0 -242.5 -104.5t-95.5 -317.5q0 -111 25.5 -189.5t69.5 -131t106.5 -77t136.5 -24.5q94 0 153.5 20.5t96.5 38.5l45 -90 q-14 -10 -40 -24.5t-62.5 -26.5t-87 -20.5t-115.5 -8.5l-17 -77q98 -8 150.5 -54.5t52.5 -119.5q0 -96 -71.5 -149.5t-180.5 -53.5q-86 0 -134 15.5t-58 19.5l22 86l72 -21q37 -10 82 -10q72 0 116 26.5t44 79.5q0 94 -154 95q-29 0 -61 -7l36 179q-170 33 -261 166t-91 356 z" />
<glyph unicode="&#xe8;" horiz-adv-x="1042" d="M90 508q0 121 31 220t88 169t140 107.5t188 37.5q98 0 176 -29.5t132 -96t82.5 -170t28.5 -250.5v-25h-745q10 -178 101 -280.5t280 -102.5q92 0 157.5 20.5t104.5 36.5l37 -96q-31 -20 -113 -46t-198 -26q-248 0 -369 138.5t-121 392.5zM213 575h623q-10 170 -78 264.5 t-223 94.5q-154 0 -230 -94.5t-92 -264.5zM311 1419l58 115l452 -240l-47 -92z" />
<glyph unicode="&#xe9;" horiz-adv-x="1042" d="M90 508q0 121 31 220t88 169t140 107.5t188 37.5q98 0 176 -29.5t132 -96t82.5 -170t28.5 -250.5v-25h-745q10 -178 101 -280.5t280 -102.5q92 0 157.5 20.5t104.5 36.5l37 -96q-31 -20 -113 -46t-198 -26q-248 0 -369 138.5t-121 392.5zM213 575h623q-10 170 -78 264.5 t-223 94.5q-154 0 -230 -94.5t-92 -264.5zM287 1294l452 240l58 -115l-463 -217z" />
<glyph unicode="&#xea;" horiz-adv-x="1042" d="M90 508q0 121 31 220t88 169t140 107.5t188 37.5q98 0 176 -29.5t132 -96t82.5 -170t28.5 -250.5v-25h-745q10 -178 101 -280.5t280 -102.5q92 0 157.5 20.5t104.5 36.5l37 -96q-31 -20 -113 -46t-198 -26q-248 0 -369 138.5t-121 392.5zM213 575h623q-10 170 -78 264.5 t-223 94.5q-154 0 -230 -94.5t-92 -264.5zM219 1253l279 258h98l278 -258l-71 -67l-256 203l-256 -203z" />
<glyph unicode="&#xeb;" horiz-adv-x="1042" d="M90 508q0 121 31 220t88 169t140 107.5t188 37.5q98 0 176 -29.5t132 -96t82.5 -170t28.5 -250.5v-25h-745q10 -178 101 -280.5t280 -102.5q92 0 157.5 20.5t104.5 36.5l37 -96q-31 -20 -113 -46t-198 -26q-248 0 -369 138.5t-121 392.5zM213 575h623q-10 170 -78 264.5 t-223 94.5q-154 0 -230 -94.5t-92 -264.5zM246 1311q0 47 27.5 74.5t68.5 27.5t67.5 -27.5t26.5 -74.5t-26.5 -75t-67.5 -28t-68.5 28t-27.5 75zM655 1311q0 47 27 74.5t68 27.5t68.5 -27.5t27.5 -74.5t-27.5 -75t-68.5 -28t-68 28t-27 75z" />
<glyph unicode="&#xec;" horiz-adv-x="395" d="M-53 1419l57 115l453 -240l-47 -92zM135 0v1016h123v-1016h-123z" />
<glyph unicode="&#xed;" horiz-adv-x="395" d="M-39 1294l453 240l57 -115l-463 -217zM135 0v1016h123v-1016h-123z" />
<glyph unicode="&#xee;" horiz-adv-x="395" d="M-121 1253l279 258h98l279 -258l-72 -67l-256 203l-256 -203zM135 0v1016h123v-1016h-123z" />
<glyph unicode="&#xef;" horiz-adv-x="395" d="M-104 1311q0 47 27.5 74.5t68.5 27.5t67.5 -27.5t26.5 -74.5t-26.5 -75t-67.5 -28t-68.5 28t-27.5 75zM135 0v1016h123v-1016h-123zM305 1311q0 47 26.5 74.5t67.5 27.5t69 -27.5t28 -74.5t-28 -75t-69 -28t-67.5 28t-26.5 75z" />
<glyph unicode="&#xf0;" horiz-adv-x="1079" d="M94 471q0 111 32 200t89 150.5t135 94t168 32.5q115 0 203 -40t141 -126q-27 322 -260 512l-213 -178l-63 72l198 162q-55 37 -118.5 66.5t-131.5 51.5l33 97q88 -29 167 -67t136 -79l183 152l61 -74l-166 -131q158 -129 233.5 -319.5t75.5 -421.5q0 -152 -25.5 -273 t-80.5 -205t-141 -129t-207 -45q-227 0 -338 133.5t-111 364.5zM217 469q0 -193 80 -289t246 -96q160 0 238.5 102.5t78.5 294.5q0 70 -21.5 134.5t-63.5 114.5t-102.5 80t-137.5 30q-162 0 -240 -102.5t-78 -268.5z" />
<glyph unicode="&#xf1;" horiz-adv-x="1077" d="M129 0v1016h113l4 -182q47 98 138 153t220 55q176 0 264 -96t88 -282v-664h-120v647q0 80 -19.5 135.5t-53.5 88t-80 47t-101 14.5q-84 0 -146.5 -38t-103.5 -98.5t-61.5 -136t-20.5 -153.5v-506h-121zM203 1194q0 106 50 166.5t148 60.5q51 0 89 -18.5t70 -42t63.5 -42 t70.5 -18.5q51 0 71.5 32t20.5 87h109q0 -111 -51 -169t-150 -58q-49 0 -86 18.5t-70.5 41t-64.5 41t-67 18.5q-51 0 -73 -31t-22 -86h-108z" />
<glyph unicode="&#xf2;" horiz-adv-x="1116" d="M90 510q0 117 31 214t89 168t145 110.5t202 39.5q117 0 204 -39.5t145.5 -110.5t88 -168t29.5 -214t-30.5 -215t-89 -169t-146.5 -110t-201 -39q-115 0 -203 39t-146 110t-88 169t-30 215zM215 510q0 -195 84 -308.5t258 -113.5q176 0 260 113.5t84 308.5q0 190 -85 306 t-259 116q-172 0 -257 -116t-85 -306zM330 1419l57 115l453 -240l-47 -92z" />
<glyph unicode="&#xf3;" horiz-adv-x="1116" d="M90 510q0 117 31 214t89 168t145 110.5t202 39.5q117 0 204 -39.5t145.5 -110.5t88 -168t29.5 -214t-30.5 -215t-89 -169t-146.5 -110t-201 -39q-115 0 -203 39t-146 110t-88 169t-30 215zM215 510q0 -195 84 -308.5t258 -113.5q176 0 260 113.5t84 308.5q0 190 -85 306 t-259 116q-172 0 -257 -116t-85 -306zM307 1294l453 240l57 -115l-463 -217z" />
<glyph unicode="&#xf4;" horiz-adv-x="1116" d="M90 510q0 117 31 214t89 168t145 110.5t202 39.5q117 0 204 -39.5t145.5 -110.5t88 -168t29.5 -214t-30.5 -215t-89 -169t-146.5 -110t-201 -39q-115 0 -203 39t-146 110t-88 169t-30 215zM215 510q0 -195 84 -308.5t258 -113.5q176 0 260 113.5t84 308.5q0 190 -85 306 t-259 116q-172 0 -257 -116t-85 -306zM246 1253l278 258h99l278 -258l-72 -67l-256 203l-256 -203z" />
<glyph unicode="&#xf5;" horiz-adv-x="1116" d="M90 510q0 117 31 214t89 168t145 110.5t202 39.5q117 0 204 -39.5t145.5 -110.5t88 -168t29.5 -214t-30.5 -215t-89 -169t-146.5 -110t-201 -39q-115 0 -203 39t-146 110t-88 169t-30 215zM215 510q0 -195 84 -308.5t258 -113.5q176 0 260 113.5t84 308.5q0 190 -85 306 t-259 116q-172 0 -257 -116t-85 -306zM219 1194q0 106 50 166.5t149 60.5q51 0 89 -18.5t69.5 -42t63.5 -42t71 -18.5q51 0 71.5 32t20.5 87h108q0 -111 -51 -169t-149 -58q-49 0 -86 18.5t-71 41t-64.5 41t-67.5 18.5q-51 0 -72.5 -31t-21.5 -86h-109z" />
<glyph unicode="&#xf6;" horiz-adv-x="1116" d="M90 510q0 117 31 214t89 168t145 110.5t202 39.5q117 0 204 -39.5t145.5 -110.5t88 -168t29.5 -214t-30.5 -215t-89 -169t-146.5 -110t-201 -39q-115 0 -203 39t-146 110t-88 169t-30 215zM215 510q0 -195 84 -308.5t258 -113.5q176 0 260 113.5t84 308.5q0 190 -85 306 t-259 116q-172 0 -257 -116t-85 -306zM266 1311q0 47 28 74.5t68.5 27.5t67.5 -27.5t27 -74.5t-27 -75t-67.5 -28t-68.5 28t-28 75zM676 1311q0 47 26.5 74.5t67.5 27.5t68.5 -27.5t27.5 -74.5t-27.5 -75t-68.5 -28t-67.5 28t-26.5 75z" />
<glyph unicode="&#xf7;" horiz-adv-x="1064" d="M100 670v108h865v-108h-865zM432 379q0 47 28.5 76.5t71.5 29.5q41 0 70 -29.5t29 -76.5t-29 -77t-70 -30q-43 0 -71.5 30t-28.5 77zM432 1061q0 47 28.5 76.5t71.5 29.5q41 0 70 -29.5t29 -76.5q0 -45 -29 -76t-70 -31q-43 0 -71.5 30t-28.5 77z" />
<glyph unicode="&#xf8;" horiz-adv-x="1116" d="M90 510q0 117 31 214t89 168t145 110.5t202 39.5q156 0 264 -73l94 135l78 -53l-100 -144q66 -72 98.5 -173t32.5 -224q0 -117 -30.5 -215t-89 -169t-146.5 -110t-201 -39q-78 0 -144.5 18.5t-119.5 53.5l-88 -127l-80 51l96 138q-66 72 -98.5 174t-32.5 225zM215 510 q0 -190 76 -297l463 661q-80 57 -197 58q-172 0 -257 -114.5t-85 -307.5zM360 145q80 -57 197 -57q86 0 150.5 29.5t107.5 84t64.5 129.5t21.5 167q0 51 -4 92t-13.5 78t-23.5 70.5t-37 68.5z" />
<glyph unicode="&#xf9;" horiz-adv-x="1083" d="M129 352v664h121v-647q0 -80 18.5 -134.5t52 -87t79.5 -47t102 -14.5q80 0 141.5 37t104.5 96.5t64.5 134t21.5 152.5v510h120v-1016h-112l-4 188q-49 -98 -138.5 -155.5t-230.5 -57.5q-168 0 -254 95.5t-86 281.5zM272 1419l58 115l452 -240l-47 -92z" />
<glyph unicode="&#xfa;" horiz-adv-x="1083" d="M129 352v664h121v-647q0 -80 18.5 -134.5t52 -87t79.5 -47t102 -14.5q80 0 141.5 37t104.5 96.5t64.5 134t21.5 152.5v510h120v-1016h-112l-4 188q-49 -98 -138.5 -155.5t-230.5 -57.5q-168 0 -254 95.5t-86 281.5zM315 1294l453 240l57 -115l-463 -217z" />
<glyph unicode="&#xfb;" horiz-adv-x="1083" d="M129 352v664h121v-647q0 -80 18.5 -134.5t52 -87t79.5 -47t102 -14.5q80 0 141.5 37t104.5 96.5t64.5 134t21.5 152.5v510h120v-1016h-112l-4 188q-49 -98 -138.5 -155.5t-230.5 -57.5q-168 0 -254 95.5t-86 281.5zM225 1253l279 258h98l279 -258l-72 -67l-256 203 l-256 -203z" />
<glyph unicode="&#xfc;" horiz-adv-x="1083" d="M129 352v664h121v-647q0 -80 18.5 -134.5t52 -87t79.5 -47t102 -14.5q80 0 141.5 37t104.5 96.5t64.5 134t21.5 152.5v510h120v-1016h-112l-4 188q-49 -98 -138.5 -155.5t-230.5 -57.5q-168 0 -254 95.5t-86 281.5zM244 1311q0 47 27.5 74.5t68.5 27.5t67.5 -27.5 t26.5 -74.5t-26.5 -75t-67.5 -28t-68.5 28t-27.5 75zM653 1311q0 47 27 74.5t67.5 27.5t68.5 -27.5t28 -74.5t-28 -75t-68.5 -28t-67.5 28t-27 75z" />
<glyph unicode="&#xfd;" horiz-adv-x="937" d="M8 1016h139l322 -819l328 819h133l-613 -1467h-127l211 500zM268 1294l453 240l57 -115l-463 -217z" />
<glyph unicode="&#xfe;" horiz-adv-x="1112" d="M129 -451v1987h121v-690q45 92 136 144t220 52q104 0 182 -39.5t130.5 -109.5t78 -165t25.5 -206q0 -150 -40 -252t-103.5 -165.5t-142.5 -91t-158 -27.5q-100 0 -183.5 28.5t-144.5 67.5v-533h-121zM250 221q14 -18 45 -40.5t73 -42t93 -32t108 -12.5q145 0 236.5 104.5 t91.5 323.5q0 88 -18.5 163t-56.5 130t-95 86t-137 31q-98 0 -164 -39t-104.5 -101.5t-55 -142.5t-16.5 -160v-268z" />
<glyph unicode="&#xff;" horiz-adv-x="937" d="M8 1016h139l322 -819l328 819h133l-613 -1467h-127l211 500zM178 1311q0 47 27.5 74.5t68.5 27.5t68 -27.5t27 -74.5t-27 -75t-68 -28t-68.5 28t-27.5 75zM588 1311q0 47 26.5 74.5t67.5 27.5t68.5 -27.5t27.5 -74.5t-27.5 -75t-68.5 -28t-67.5 28t-26.5 75z" />
<glyph unicode="&#x152;" horiz-adv-x="1746" d="M102 715q0 166 40 300t121 228t203 145.5t286 51.5h954v-121h-664v-510h519v-119h-519v-569h684v-121h-976q-330 0 -489 180.5t-159 534.5zM236 715q0 -301 125.5 -447.5t388.5 -146.5h165v1200h-161q-264 0 -391 -152.5t-127 -453.5z" />
<glyph unicode="&#x153;" horiz-adv-x="1853" d="M90 510q0 117 31 214t89 168t145 110.5t202 39.5q158 0 256 -69.5t150 -188.5v-8q47 125 143 195.5t242 70.5q98 0 176 -29.5t132 -96t82.5 -170t28.5 -250.5v-25h-745q10 -178 101 -280.5t280 -102.5q92 0 157.5 20.5t104.5 36.5l37 -96q-31 -20 -113 -46t-198 -26 q-172 0 -277.5 69t-152.5 183q-53 -117 -154.5 -184.5t-249.5 -67.5q-115 0 -203 39t-146 110t-88 169t-30 215zM215 510q0 -195 84 -308.5t258 -113.5q176 0 261 113.5t85 308.5q0 190 -86 306t-260 116q-172 0 -257 -116t-85 -306zM1024 575h623q-12 174 -82 266.5 t-219 92.5q-154 0 -230 -94.5t-92 -264.5z" />
<glyph unicode="&#x178;" horiz-adv-x="1056" d="M6 1440h148l374 -688l383 688h140l-463 -807v-633h-129v629zM236 1708q0 49 28.5 78t69.5 29q43 0 70.5 -29t27.5 -78q0 -47 -27.5 -76.5t-70.5 -29.5q-41 0 -69.5 29.5t-28.5 76.5zM641 1708q0 49 28.5 78t69.5 29q43 0 72 -29t29 -78q0 -47 -29 -76.5t-72 -29.5 q-41 0 -69.5 29.5t-28.5 76.5z" />
<glyph unicode="&#x2c6;" horiz-adv-x="960" d="M158 1253l278 258h99l278 -258l-72 -67l-256 203l-256 -203z" />
<glyph unicode="&#x2dc;" horiz-adv-x="960" d="M125 1194q0 106 50 166.5t149 60.5q51 0 89 -18.5t69.5 -42t63.5 -42t70 -18.5q51 0 72 32t21 87h108q0 -111 -51 -169t-150 -58q-49 0 -85.5 18.5t-70.5 41t-64.5 41t-67.5 18.5q-51 0 -73 -31t-22 -86h-108z" />
<glyph unicode="&#x2000;" horiz-adv-x="941" />
<glyph unicode="&#x2001;" horiz-adv-x="1882" />
<glyph unicode="&#x2002;" horiz-adv-x="941" />
<glyph unicode="&#x2003;" horiz-adv-x="1882" />
<glyph unicode="&#x2004;" horiz-adv-x="627" />
<glyph unicode="&#x2005;" horiz-adv-x="470" />
<glyph unicode="&#x2006;" horiz-adv-x="313" />
<glyph unicode="&#x2007;" horiz-adv-x="313" />
<glyph unicode="&#x2008;" horiz-adv-x="235" />
<glyph unicode="&#x2009;" horiz-adv-x="376" />
<glyph unicode="&#x200a;" horiz-adv-x="104" />
<glyph unicode="&#x2010;" horiz-adv-x="790" d="M100 516v117h588v-117h-588z" />
<glyph unicode="&#x2011;" horiz-adv-x="790" d="M100 516v117h588v-117h-588z" />
<glyph unicode="&#x2012;" horiz-adv-x="790" d="M100 516v117h588v-117h-588z" />
<glyph unicode="&#x2013;" horiz-adv-x="845" d="M0 522v109h846v-109h-846z" />
<glyph unicode="&#x2014;" horiz-adv-x="1691" d="M0 522v109h1692v-109h-1692z" />
<glyph unicode="&#x2018;" horiz-adv-x="432" d="M113 1135q0 55 22.5 120.5t51 123t56 101.5t40.5 56l69 -45l-30 -58q-18 -36 -35 -76t-30 -77t-17 -63q29 -8 51 -33t22 -66q0 -53 -29.5 -81.5t-70.5 -28.5q-49 0 -74.5 35t-25.5 92z" />
<glyph unicode="&#x2019;" horiz-adv-x="432" d="M80 1053l31 58q18 36 34.5 76t29.5 76.5t18 63.5q-29 8 -51.5 32.5t-22.5 65.5q0 53 29.5 82t70.5 29q49 0 74.5 -35t25.5 -92q0 -55 -22.5 -120.5t-51 -123t-56 -101.5t-39.5 -56z" />
<glyph unicode="&#x201a;" horiz-adv-x="432" d="M80 -270l31 58q18 36 34.5 76t29.5 76.5t18 63.5q-29 8 -51.5 32.5t-22.5 65.5q0 53 29.5 82t70.5 29q49 0 74.5 -35t25.5 -92q0 -55 -22.5 -120.5t-51 -123t-56 -101.5t-39.5 -56z" />
<glyph unicode="&#x201c;" horiz-adv-x="763" d="M113 1135q0 55 22.5 120.5t51 123t56 101.5t40.5 56l69 -45l-30 -58q-18 -36 -35 -76t-30 -77t-17 -63q29 -8 51 -33t22 -66q0 -53 -29.5 -81.5t-70.5 -28.5q-49 0 -74.5 35t-25.5 92zM444 1135q0 55 22.5 120.5t51.5 123t56.5 101.5t39.5 56l70 -45l-31 -58 q-18 -36 -34.5 -76t-30 -77t-17.5 -63q29 -8 51.5 -33t22.5 -66q0 -53 -29.5 -81.5t-70.5 -28.5q-49 0 -75 35t-26 92z" />
<glyph unicode="&#x201d;" horiz-adv-x="761" d="M80 1053l31 58q18 36 34.5 76t29.5 76.5t18 63.5q-29 8 -51.5 32.5t-22.5 65.5q0 53 29.5 82t70.5 29q49 0 74.5 -35t25.5 -92q0 -55 -22.5 -120.5t-51 -123t-56 -101.5t-39.5 -56zM410 1053l30 58q18 36 35 76t30 76.5t17 63.5q-29 8 -51 32.5t-22 65.5q0 53 29.5 82 t70.5 29q49 0 74.5 -35t25.5 -92q0 -55 -22.5 -120.5t-51 -123t-56 -101.5t-40.5 -56z" />
<glyph unicode="&#x201e;" horiz-adv-x="763" d="M45 -270l31 58q18 36 34.5 76t30 76.5t17.5 63.5q-29 8 -51.5 32.5t-22.5 65.5q0 53 29.5 82t70.5 29q49 0 75 -35t26 -92q0 -55 -22.5 -120.5t-51.5 -123t-56.5 -101.5t-39.5 -56zM375 -270l31 58q18 36 34.5 76t29.5 76.5t17 63.5q-29 8 -51 32.5t-22 65.5 q0 53 29.5 82t70.5 29q49 0 74.5 -35t25.5 -92q0 -55 -22.5 -120.5t-51 -123t-56 -101.5t-40.5 -56z" />
<glyph unicode="&#x2022;" horiz-adv-x="841" d="M141 694q0 57 21.5 108.5t59.5 89.5t89 59.5t111 21.5q57 0 108.5 -21.5t89 -59.5t59 -89t21.5 -109q0 -59 -21.5 -111.5t-59 -90t-89 -59t-108.5 -21.5q-59 0 -110.5 21.5t-89.5 59t-59.5 90t-21.5 111.5z" />
<glyph unicode="&#x2026;" horiz-adv-x="1441" d="M121 88q0 49 28.5 80t71.5 31t72 -30t29 -81q0 -49 -30 -77.5t-73 -28.5t-70.5 28.5t-27.5 77.5zM623 88q0 49 28.5 80t71.5 31t71.5 -30t28.5 -81q0 -49 -29.5 -77.5t-72.5 -28.5t-70.5 28.5t-27.5 77.5zM1122 88q0 49 29 80t72 31t71.5 -30t28.5 -81q0 -49 -29.5 -77.5 t-72.5 -28.5t-71 28.5t-28 77.5z" />
<glyph unicode="&#x202f;" horiz-adv-x="376" />
<glyph unicode="&#x2039;" horiz-adv-x="518" d="M80 512l235 395h123l-227 -395l227 -395h-123z" />
<glyph unicode="&#x203a;" horiz-adv-x="518" d="M80 117l227 395l-227 395h123l235 -395l-235 -395h-123z" />
<glyph unicode="&#x205f;" horiz-adv-x="470" />
<glyph unicode="&#x20ac;" d="M23 498v104h139q-4 51 -4 73v40v19v21q0 11 1 27.5t3 44.5h-137v105h151q16 109 54 205t104.5 168.5t162 115.5t224.5 43q145 0 240.5 -44t154.5 -97l-63 -92l-47 36q-29 22 -70 40t-93 31.5t-118 13.5q-106 0 -181 -36t-125 -95.5t-78 -135t-36 -153.5h590l-33 -105 h-569q-2 -12 -3 -50t-1 -62q0 -29 1 -63t3 -50h526l-31 -104h-483q8 -80 35 -154t74 -131t120.5 -91t178.5 -34q74 0 129 12.5t96 31t69.5 38.5t47.5 37l61 -88q-55 -53 -155.5 -98.5t-251.5 -45.5q-127 0 -221.5 37t-159 104.5t-103.5 164t-53 217.5h-149z" />
<glyph unicode="&#x2122;" horiz-adv-x="1679" d="M20 1346v94h615v-94h-256v-691h-105v691h-254zM801 655v785h110l256 -445l260 445h107v-785h-100v621l-230 -387h-84l-219 379v-613h-100z" />
<glyph unicode="&#xe000;" horiz-adv-x="1014" d="M0 1015h1015v-1015h-1015v1015z" />
<glyph unicode="&#xfb01;" horiz-adv-x="1105" d="M33 909v107h200v110q0 94 17.5 172t58.5 134.5t106.5 87t162.5 30.5q53 0 96 -7t65 -13l-16 -105q-16 4 -52 10.5t-65 6.5q-74 0 -122 -18.5t-76.5 -59.5t-40 -105.5t-11.5 -158.5v-84h615v-1016h-121v909h-494v-909h-123v909h-200zM815 1356q0 45 25.5 72.5t66.5 27.5 t67.5 -27.5t26.5 -72.5q0 -47 -26.5 -74t-67.5 -27t-66.5 28t-25.5 73z" />
<glyph unicode="&#xfb02;" horiz-adv-x="1124" d="M33 909v107h200v110q0 94 17.5 172t58.5 134.5t106.5 87t162.5 30.5q53 0 96 -7t65 -13l-16 -105q-16 4 -52 10.5t-65 6.5q-74 0 -122 -18.5t-76.5 -59.5t-40 -105.5t-11.5 -158.5v-84h314v-107h-314v-909h-123v909h-200zM872 0v1536h123v-1536h-123z" />
<glyph unicode="&#xfb03;" horiz-adv-x="1720" d="M33 909v107h200v110q0 94 17.5 172t59.5 134.5t108.5 87t165.5 30.5q53 0 97 -7t67 -13l-17 -105q-16 4 -52 10.5t-67 6.5q-76 0 -125 -18.5t-78.5 -59.5t-41 -105.5t-11.5 -158.5v-84h490v110q0 94 17.5 172t58.5 134.5t106.5 87t161.5 30.5q53 0 96 -7t66 -13l-17 -105 q-16 4 -52 10.5t-64 6.5q-74 0 -122 -18.5t-77 -59.5t-40 -105.5t-11 -158.5v-84h614v-1016h-121v909h-493v-909h-123v909h-490v-909h-123v909h-200zM1430 1356q0 45 25.5 72.5t66.5 27.5t67.5 -27.5t26.5 -72.5q0 -47 -26.5 -74t-67.5 -27t-66.5 28t-25.5 73z" />
<glyph unicode="&#xfb04;" horiz-adv-x="1738" d="M33 909v107h200v110q0 94 17.5 172t59.5 134.5t108.5 87t165.5 30.5q53 0 97 -7t67 -13l-17 -105q-16 4 -52 10.5t-67 6.5q-76 0 -125 -18.5t-78.5 -59.5t-41 -105.5t-11.5 -158.5v-84h490v110q0 94 17.5 172t59.5 134.5t108.5 87t164.5 30.5q53 0 97 -7t67 -13l-17 -105 q-16 4 -52 10.5t-66 6.5q-76 0 -125 -18.5t-79 -59.5t-41 -105.5t-11 -158.5v-84h313v-107h-313v-909h-123v909h-490v-909h-123v909h-200zM1487 0v1536h123v-1536h-123z" />
</font>
</defs>
</svg>
