<?xml version="1.0" standalone="no"?>
<!DOCTYPE svg PUBLIC "-//W3C//DTD SVG 1.1//EN" "http://www.w3.org/Graphics/SVG/1.1/DTD/svg11.dtd" >
<svg xmlns="http://www.w3.org/2000/svg">
<metadata>
This is a custom SVG webfont generated by Font Squirrel.
Copyright   : Copyright  2011 Nokia All rights reserved  Reproduction transfer distribution or storage of part or all of the contents in this document in any form without the prior written permission of Nokia is prohibited
</metadata>
<defs>
<font id="NokiaPureHeadlineRegular" horiz-adv-x="1138" >
<font-face units-per-em="2048" ascent="1563" descent="-485" />
<missing-glyph horiz-adv-x="446" />
<glyph unicode=" "  horiz-adv-x="446" />
<glyph unicode="&#x09;" horiz-adv-x="446" />
<glyph unicode="&#xa0;" horiz-adv-x="446" />
<glyph unicode="!" horiz-adv-x="544" d="M141 110.5q0 59.5 36 98.5t95.5 39t95 -39t35.5 -98.5t-35.5 -98.5t-95 -39t-95.5 39t-36 98.5zM178 395v1045h189v-1045h-189z" />
<glyph unicode="&#x22;" horiz-adv-x="847" d="M143 1440h195l-19 -537h-155zM510 1440h195l-19 -537h-156z" />
<glyph unicode="#" horiz-adv-x="1157" d="M2 391l27 148h204l78 389h-227l27 147h229l72 365h161l-71 -365h293l71 365h162l-72 -365h199l-27 -147h-200l-78 -389h223l-26 -148h-224l-78 -391h-161l78 391h-295l-78 -391h-162l78 391h-203zM395 539h293l78 389h-293z" />
<glyph unicode="$" d="M66 113l75 133l58 -33q33 -18 75.5 -34.5t95 -30t115.5 -15.5v522l-69 23q-68 25 -124 55.5t-96 73.5t-61.5 99.5t-21.5 133.5q0 156 96 259.5t276 125.5v193h138v-189q113 -10 198.5 -41.5t139.5 -66.5l-68 -135q-35 20 -103.5 50t-166.5 40v-496l55 -18 q158 -53 238.5 -140t80.5 -235q0 -160 -94 -267.5t-280 -129.5v-213h-138v207q-92 2 -165.5 20.5t-127 41t-86 42t-40.5 25.5zM283 1053q0 -43 9 -78t31.5 -62.5t61.5 -51t100 -44.5v457q-98 -16 -150 -72.5t-52 -148.5zM623 139q113 23 155.5 84.5t42.5 151.5 q0 82 -42 142.5t-156 100.5v-479z" />
<glyph unicode="%" horiz-adv-x="1802" d="M76 1044q0 199 80 304.5t241 105.5q160 0 241 -105.5t81 -304t-81 -303t-241 -104.5q-321 -1 -321 407zM233 1044.5q0 -274.5 164 -274.5q80 0 122 69.5t42 204.5q0 274 -164 274.5t-164 -274zM418 0l780 1440h186l-780 -1440h-186zM1083 393q0 199 80 304.5t242 105.5 q160 0 240.5 -105.5t80.5 -304t-80.5 -303t-240.5 -104.5q-322 -1 -322 407zM1241 393.5q0 -274.5 164 -274.5q80 0 122 69.5t42 204.5q0 274 -164 274.5t-164 -274z" />
<glyph unicode="&#x26;" horiz-adv-x="1333" d="M66 381q0 152 86 255t233 173q-74 88 -109.5 160.5t-35.5 163.5q0 154 96 247t274 93q72 0 136.5 -19.5t113.5 -58.5t78 -98.5t29 -137.5q0 -72 -22.5 -128t-64.5 -102t-101.5 -84t-133.5 -73l361 -430q45 49 82.5 107.5t72.5 130.5l137 -70q-35 -78 -84 -153.5 t-106 -137.5l186 -219h-229l-90 104q-92 -59 -194.5 -95t-225.5 -36q-129 0 -221 31t-151.5 84t-88 128t-28.5 165zM260 397q0 -262 303 -262q172 0 311 88l-397 475q-104 -57 -160.5 -131t-56.5 -170zM416 1135q0 -72 39 -130.5t96 -123.5q51 25 96 50t78 56t51.5 70 t18.5 92q0 86 -52.5 134t-134.5 48q-92 0 -142 -53t-50 -143z" />
<glyph unicode="'" horiz-adv-x="481" d="M143 1440h195l-19 -537h-155z" />
<glyph unicode="(" horiz-adv-x="512" d="M86 669.5q0 159.5 21.5 297t52 248t65.5 192.5t62 129h180q-33 -61 -65.5 -150.5t-59.5 -200t-43 -240.5t-16 -275.5t16 -275.5t43 -240.5t59.5 -199.5t65.5 -151h-180q-27 47 -62 129t-65.5 193t-52 248t-21.5 296.5z" />
<glyph unicode=")" horiz-adv-x="512" d="M45 -197q33 61 65.5 150.5t59.5 200t43 240.5t16 275.5t-16 275.5t-43 240.5t-59.5 200t-65.5 150.5h180q27 -47 62 -129t65.5 -192.5t52 -248t21.5 -297t-21.5 -296.5t-52 -248t-65.5 -193t-62 -129h-180z" />
<glyph unicode="*" horiz-adv-x="759" d="M25 1227l51 143l243 -117l-30 283h180l-31 -283l244 117l53 -143l-262 -80l205 -223l-127 -99l-172 238l-172 -238l-125 99l203 223z" />
<glyph unicode="+" d="M117 639v164h366v399h172v-399h367v-164h-367v-399h-172v399h-366z" />
<glyph unicode="," horiz-adv-x="479" d="M35 -301l34 53q22 35 43 76t40.5 83t27.5 73q-33 16 -54.5 46.5t-21.5 78.5q0 66 37 102.5t99 36.5q57 0 94 -40t37 -107.5t-32 -144.5t-73 -145.5t-77.5 -118.5t-49.5 -65z" />
<glyph unicode="-" horiz-adv-x="759" d="M86 479v189h588v-189h-588z" />
<glyph unicode="." horiz-adv-x="479" d="M109 110.5q0 59.5 35.5 98.5t95 39t95.5 -39t36 -98.5t-36 -98.5t-95.5 -39t-95 39t-35.5 98.5z" />
<glyph unicode="/" horiz-adv-x="823" d="M-6 -96l639 1632h196l-639 -1632h-196z" />
<glyph unicode="0" horiz-adv-x="1204" d="M86 721q0 365 126 556t390 191t390 -191.5t126 -555.5q0 -367 -126 -558.5t-390 -191.5t-390 191.5t-126 558.5zM279 721q0 -293 77.5 -440.5t245.5 -147.5t246 147.5t78 440.5t-78 439.5t-246 146.5t-245.5 -146.5t-77.5 -439.5z" />
<glyph unicode="1" horiz-adv-x="901" d="M27 1161l469 279h131v-1440h-187v1221l-342 -199z" />
<glyph unicode="2" horiz-adv-x="1028" d="M39 1241q20 33 60 73t95.5 73.5t128 57t160.5 23.5q113 0 195 -32.5t133 -87t75.5 -123t24.5 -138.5q0 -78 -26.5 -144t-70.5 -124.5t-101.5 -110t-120.5 -100.5q-158 -123 -244 -225t-100 -223h682v-160h-875v31q0 113 24.5 204t73 170.5t122 152.5t171.5 149 q66 51 117 96t86 88t52.5 89t17.5 101q0 98 -59.5 163t-188.5 65q-63 0 -113.5 -17.5t-88.5 -42t-66.5 -54.5t-46.5 -54z" />
<glyph unicode="3" horiz-adv-x="1021" d="M20 27l41 147q39 -10 113 -25.5t197 -15.5q156 0 250 65.5t94 202.5q0 109 -78 181.5t-246 72.5h-143v160h137q80 0 138.5 20.5t96 55.5t55 82t17.5 100q0 100 -59.5 169t-192.5 69q-61 0 -109 -12.5t-86 -31t-67 -40t-47 -39.5l-100 106q20 23 57 53.5t89 57.5t120 45 t147 18q115 0 197 -30.5t135 -81.5t78 -116.5t25 -135.5q0 -68 -20.5 -124t-55.5 -100t-82 -78t-98 -57q59 -16 110 -45.5t90 -72.5t60.5 -99.5t21.5 -126.5q0 -104 -40 -184t-109.5 -135t-164.5 -83t-206 -28q-127 0 -219.5 19t-145.5 37z" />
<glyph unicode="4" horiz-adv-x="1097" d="M47 360v150l541 930h194l-540 -924h405v377h176v-377h213v-156h-213v-360h-176v360h-600z" />
<glyph unicode="5" horiz-adv-x="1019" d="M20 25l41 147q39 -10 112 -23.5t202 -13.5q162 0 260 81t98 241q0 51 -13 104t-47 95t-91.5 69t-143.5 27q-84 0 -142 -22.5t-93 -43.5l-103 74l82 680h690v-162h-557l-47 -418q16 10 73.5 25.5t145.5 15.5q94 0 174 -26.5t138.5 -81t91.5 -138.5t33 -198 q0 -100 -35 -188.5t-103.5 -155t-169 -104.5t-231.5 -38q-127 0 -219.5 18t-145.5 36z" />
<glyph unicode="6" horiz-adv-x="1091" d="M96 621q0 418 142.5 632.5t416.5 214.5q104 0 186.5 -25.5t143.5 -64.5l-72 -131q-115 61 -258 62q-180 0 -272 -138.5t-109 -398.5q45 74 134.5 122t201.5 48q86 0 163 -26.5t135.5 -84t92 -145.5t33.5 -211q0 -121 -32.5 -214t-94 -157.5t-146.5 -98.5t-190 -34 q-221 0 -348 161t-127 489zM289 463q0 -61 16.5 -121.5t50 -108t88 -77t128 -29.5t128 25.5t88 69.5t50 103.5t16.5 127.5q0 170 -70.5 249.5t-201.5 79.5q-141 0 -217 -89t-76 -230z" />
<glyph unicode="7" horiz-adv-x="1003" d="M33 1278v162h930v-152l-588 -1288h-193l594 1278h-743z" />
<glyph unicode="8" horiz-adv-x="1175" d="M100 340q0 76 23.5 136.5t63.5 107.5t95.5 82.5t120.5 66.5q-51 25 -99 57.5t-85 76.5t-59.5 101.5t-22.5 133.5t29 142.5t86 116.5t141 78.5t195 28.5q117 0 200.5 -28.5t139 -77.5t82 -114.5t26.5 -141.5q0 -63 -19.5 -115.5t-53 -96.5t-78.5 -80t-97 -64 q70 -33 123.5 -69t90 -81t55 -102.5t18.5 -130.5q0 -186 -129 -291t-358 -105q-117 0 -208 27t-153.5 76t-94.5 116.5t-32 149.5zM276 356q0 -106 78 -170.5t234 -64.5q147 0 228 61.5t81 182t-82 188.5t-237 121q-61 -27 -115.5 -56.5t-96.5 -66.5t-66 -85.5t-24 -109.5z M311 1102q0 -61 23.5 -107.5t65.5 -80t97.5 -59.5t121.5 -44q113 49 178 115.5t65 173.5q0 98 -67.5 161.5t-206.5 63.5q-137 0 -207 -63.5t-70 -159.5z" />
<glyph unicode="9" horiz-adv-x="1091" d="M57 965q0 121 33 215t94.5 158.5t147.5 97t190 32.5q219 0 346 -162.5t127 -496.5q0 -213 -40 -369.5t-115.5 -261t-184 -156t-245.5 -51.5q-117 0 -187.5 15.5t-91.5 23.5l37 150q12 -4 35.5 -9.5t56.5 -9.5t70 -8t73 -4q106 0 181 36t123.5 104.5t74 170t35.5 230.5 q-20 -37 -54 -68t-78 -53.5t-96 -35.5t-108 -13q-86 0 -162.5 26.5t-135 83t-92.5 144.5t-34 211zM238 989q0 -170 70.5 -250t201.5 -80q70 0 124 24t92 67t57.5 101t19.5 128q0 61 -16.5 120.5t-51.5 107.5t-87 77t-125.5 29t-128 -24.5t-89.5 -68.5t-51 -103.5t-16 -127.5 z" />
<glyph unicode=":" horiz-adv-x="479" d="M109 110.5q0 59.5 35.5 98.5t95 39t95.5 -39t36 -98.5t-36 -98.5t-95.5 -39t-95 39t-35.5 98.5zM109 890.5q0 59.5 35.5 98.5t95 39t95.5 -39t36 -98.5t-36 -98t-95.5 -38.5t-95 38.5t-35.5 98z" />
<glyph unicode=";" horiz-adv-x="479" d="M35 -301l34 53q21 35 42.5 76t41 83t27.5 73q-33 16 -54.5 46.5t-21.5 78.5q0 66 37 102.5t99 36.5q57 0 94 -40t37 -107.5t-32 -144.5t-73 -145.5t-77.5 -118.5t-49.5 -65zM109 886.5q0 59.5 35.5 98.5t95 39t95.5 -39t36 -98.5t-36 -98t-95.5 -38.5t-95 38.5t-35.5 98z " />
<glyph unicode="&#x3c;" d="M139 645v152l797 383l63 -156l-671 -303l671 -303l-63 -156z" />
<glyph unicode="=" d="M158 434v164h823v-164h-823zM158 844v164h823v-164h-823z" />
<glyph unicode="&#x3e;" d="M139 418l672 303l-672 303l64 156l796 -383v-152l-796 -383z" />
<glyph unicode="?" horiz-adv-x="1038" d="M51 1249q23 33 63 72t95 72.5t127 56.5t156 23q127 0 211.5 -35t135 -90.5t72 -124t21.5 -133.5q0 -63 -17.5 -114.5t-45 -94.5t-62.5 -79t-70 -67l-73 -67q-35 -33 -60.5 -71t-41 -87t-15.5 -115h-191q0 78 17.5 138.5t48.5 109.5t72 91t86 83l52 49q28 27 51.5 59.5 t37.5 70.5t14 85q0 96 -60.5 160t-199.5 64q-106 0 -178 -46.5t-131 -113.5zM319 110.5q0 59.5 36 98.5t95.5 39t95.5 -39t36 -98.5t-36 -98.5t-95.5 -39t-95.5 39t-36 98.5z" />
<glyph unicode="@" horiz-adv-x="1998" d="M94 442q0 223 71 422t200 348.5t311 236.5t405 87q201 0 358.5 -56.5t267.5 -159.5t167 -245.5t57 -314.5t-48 -308.5t-125 -230.5t-172 -143t-189 -49q-59 0 -96 11t-58.5 27.5t-32 34t-14.5 29.5q-45 -35 -112.5 -68.5t-176.5 -33.5q-74 0 -136 24.5t-107.5 72.5 t-71 117.5t-25.5 161.5q0 133 35 244t96.5 191t146.5 125t185 45q70 0 119 -19.5t80 -44t47 -48.5t20 -34l33 123h162l-119 -633q-6 -33 -10 -61.5t-4 -46.5q0 -35 19.5 -49.5t58.5 -14.5q41 0 97 33t107.5 102.5t87 179t35.5 263.5q0 150 -49 265.5t-139 194t-215 119.5 t-279 41q-184 0 -333.5 -74.5t-255 -202.5t-164 -299t-58.5 -362q0 -158 41 -296t134.5 -240.5t244 -162.5t369.5 -60q133 0 243.5 28.5t197.5 68.5t149.5 85t101.5 80l109 -119q-145 -133 -343 -217t-460 -84q-264 0 -448.5 71.5t-298 195.5t-165 292t-51.5 358zM750 405 q0 -111 53 -170t145 -59t150.5 37t85.5 68l41 219q4 20 8 59t4 84q0 90 -47 152.5t-148 62.5q-61 0 -114.5 -31.5t-93 -90t-62 -143t-22.5 -188.5z" />
<glyph unicode="A" horiz-adv-x="1175" d="M12 0l475 1440h199l477 -1440h-196l-119 369h-537l-118 -369h-181zM365 535h430l-213 665z" />
<glyph unicode="B" horiz-adv-x="1169" d="M137 0v1440h420q133 0 221 -35t140.5 -88t73 -118.5t20.5 -129.5q0 -78 -24.5 -135t-60.5 -95t-77 -58.5t-74 -26.5q39 -6 92.5 -24.5t102.5 -58.5t82.5 -105.5t33.5 -166.5q0 -86 -28.5 -159.5t-91 -127t-159.5 -83t-233 -29.5h-438zM322 164h280q82 0 138.5 20.5t91 54 t49 77.5t14.5 94q0 72 -25.5 120t-71.5 77.5t-110.5 43t-144.5 13.5h-221v-500zM322 823h210q84 0 140.5 20.5t90.5 54.5t47 76t13 85q0 111 -70.5 164t-201.5 53h-229v-453z" />
<glyph unicode="C" horiz-adv-x="1198" d="M88 719q0 166 40 303t120 234.5t198.5 151.5t278.5 54q145 0 253.5 -42t195.5 -113l-99 -138q-27 20 -59.5 41t-75.5 37.5t-95 26.5t-120 10q-219 0 -325.5 -150.5t-106.5 -414.5t105.5 -413.5t324.5 -149.5q61 0 115.5 11t98.5 27.5t79 37t57 36.5l98 -137 q-63 -55 -180 -104.5t-276 -49.5q-156 0 -272.5 51.5t-195.5 146.5t-119 233.5t-40 310.5z" />
<glyph unicode="D" horiz-adv-x="1353" d="M137 0v1440h479q158 0 280 -53.5t204 -148.5t124 -227t42 -292q0 -162 -42 -295t-124 -227.5t-204 -145.5t-280 -51h-479zM326 170h290q223 0 334 147.5t111 403.5t-111.5 402.5t-333.5 146.5h-290v-1100z" />
<glyph unicode="E" horiz-adv-x="1046" d="M137 0v1440h848v-170h-659v-436h516v-170h-516v-494h680v-170h-869z" />
<glyph unicode="F" horiz-adv-x="980" d="M137 0v1440h807v-170h-618v-436h495v-170h-495v-664h-189z" />
<glyph unicode="G" horiz-adv-x="1329" d="M88 719q0 166 40 304t120 238.5t198.5 156t278.5 55.5q147 0 266 -41t205 -113l-98 -137q-53 41 -145.5 77.5t-227.5 36.5q-111 0 -191.5 -41t-134 -115.5t-80 -182t-26.5 -238.5q0 -133 26.5 -239.5t82 -182.5t140.5 -117t203 -41q104 0 173 11.5t118 27.5v422h-258v168 h445v-713q-18 -10 -58.5 -24.5t-100.5 -28.5t-141 -24.5t-182 -10.5q-166 0 -287.5 52.5t-203.5 150.5t-122 237.5t-40 311.5z" />
<glyph unicode="H" horiz-adv-x="1314" d="M137 0v1440h189v-586h663v586h189v-1440h-189v684h-663v-684h-189z" />
<glyph unicode="I" horiz-adv-x="462" d="M137 0v1440h189v-1440h-189z" />
<glyph unicode="J" horiz-adv-x="919" d="M4 72l66 137q6 -4 29.5 -17.5t60.5 -26.5t86 -23.5t106 -10.5q51 0 97.5 11.5t81 41t54 81.5t19.5 136v1039h189v-1041q0 -123 -34 -204.5t-91.5 -133t-133 -73t-161.5 -21.5q-84 0 -150.5 15.5t-114 34t-74 35t-30.5 20.5z" />
<glyph unicode="K" horiz-adv-x="1167" d="M137 0v1440h189v-666l577 666h215l-575 -664l626 -776h-241l-602 754v-754h-189z" />
<glyph unicode="L" horiz-adv-x="985" d="M137 0v1440h189v-1270h628v-170h-817z" />
<glyph unicode="M" horiz-adv-x="1546" d="M137 0v1440h213l426 -875l420 875h213v-1440h-188v1116l-373 -758h-164l-360 742v-1100h-187z" />
<glyph unicode="N" horiz-adv-x="1323" d="M137 0v1440h197l667 -1098v1098h185v-1440h-185l-679 1116v-1116h-185z" />
<glyph unicode="O" horiz-adv-x="1449" d="M88 719q0 166 40 304t120 238.5t198.5 156t278.5 55.5q158 0 277.5 -55.5t199.5 -156t120 -238.5t40 -304q0 -168 -40 -306.5t-120 -237.5t-199.5 -153.5t-277.5 -54.5q-160 0 -278.5 54.5t-198.5 153.5t-120 237.5t-40 306.5zM293 719q0 -133 25.5 -239.5t80 -182.5 t135 -117t191.5 -41t192.5 41t135 117t79 182.5t25.5 239.5q0 131 -26.5 238.5t-80 182t-134 115.5t-191.5 41t-191.5 -41t-134 -115.5t-80 -182t-26.5 -238.5z" />
<glyph unicode="P" horiz-adv-x="1089" d="M137 0v1440h404q133 0 225 -42t149.5 -108.5t83 -146.5t25.5 -154t-25.5 -153.5t-85 -146t-154.5 -108.5t-237 -42h-200v-539h-185zM322 702h196q154 0 236 77t82 210t-80 210t-219 77h-215v-574z" />
<glyph unicode="Q" horiz-adv-x="1449" d="M88 719q0 166 40 304t120 238.5t198.5 156t278.5 55.5q158 0 277.5 -55.5t199.5 -156t120 -238.5t40 -304q0 -248 -85 -425t-251 -261q59 -59 154.5 -100.5t199.5 -57.5l-39 -158q-74 6 -152.5 30t-149 58.5t-130 77.5t-96.5 90q-43 -6 -88 -6q-160 0 -278.5 54.5 t-198.5 153.5t-120 237.5t-40 306.5zM293 719q0 -133 25.5 -239.5t80 -182.5t135 -117t191.5 -41t192.5 41t135 117t79 182.5t25.5 239.5q0 131 -26.5 238.5t-80 182t-134 115.5t-191.5 41t-191.5 -41t-134 -115.5t-80 -182t-26.5 -238.5z" />
<glyph unicode="R" horiz-adv-x="1134" d="M137 0v1440h416q133 0 222 -42t143.5 -106.5t77 -139.5t22.5 -142q0 -152 -77 -252.5t-212 -147.5l369 -610h-221l-342 580h-213v-580h-185zM322 743h213q147 0 220.5 71t73.5 196q0 123 -72.5 194.5t-207.5 71.5h-227v-533z" />
<glyph unicode="S" horiz-adv-x="1095" d="M47 98l80 148q27 -16 68 -36t95 -35t117.5 -25.5t135.5 -10.5q154 0 225.5 64.5t71.5 167.5q0 37 -10.5 72.5t-37 67.5t-72.5 58.5t-118 46.5l-168 48q-164 45 -263 138t-99 255q0 86 30.5 160.5t91 132t149.5 90.5t204 33q141 0 254.5 -34t179.5 -77l-70 -145 q-20 12 -59 26t-88 28.5t-106.5 24t-114.5 9.5q-137 0 -211 -63.5t-74 -166.5q0 -90 56.5 -145.5t187.5 -91.5l168 -47q180 -51 272 -144.5t92 -263.5q0 -92 -32.5 -169t-96 -132t-155 -85t-207.5 -30q-102 0 -186.5 16.5t-148 38t-104.5 44t-57 32.5z" />
<glyph unicode="T" horiz-adv-x="1122" d="M31 1270v170h1061v-170h-437v-1270h-188v1270h-436z" />
<glyph unicode="U" horiz-adv-x="1320" d="M127 563v877h188v-854q0 -127 17.5 -213t57.5 -138.5t106.5 -75t162.5 -22.5q98 0 164 22.5t107 75t58.5 138.5t17.5 213v854h188v-877q0 -152 -28.5 -263.5t-93 -185t-166 -110.5t-247 -37t-246 37t-165 110.5t-93 185t-28.5 263.5z" />
<glyph unicode="V" horiz-adv-x="1183" d="M12 1440h199l387 -1215l389 1215h184l-477 -1440h-205z" />
<glyph unicode="W" horiz-adv-x="1658" d="M20 1440h203l246 -1180l264 1147h213l256 -1149l252 1182h184l-331 -1440h-217l-259 1128l-260 -1128h-219z" />
<glyph unicode="X" horiz-adv-x="1193" d="M12 0l473 760l-409 680h223l305 -522l314 522h208l-415 -672l469 -768h-228l-360 610l-365 -610h-215z" />
<glyph unicode="Y" horiz-adv-x="1128" d="M10 1440h209l354 -619l351 619h194l-461 -789v-651h-188v651z" />
<glyph unicode="Z" horiz-adv-x="1130" d="M53 0v154l781 1116h-746v170h969v-156l-778 -1114h796v-170h-1022z" />
<glyph unicode="[" horiz-adv-x="634" d="M137 -197v1733h463v-156h-268v-1423h268v-154h-463z" />
<glyph unicode="\" horiz-adv-x="823" d="M-6 1536h196l639 -1632h-196z" />
<glyph unicode="]" horiz-adv-x="634" d="M35 -43h268v1423h-268v156h463v-1733h-463v154z" />
<glyph unicode="^" horiz-adv-x="1130" d="M80 647l383 766h203l385 -766h-199l-293 606l-293 -606h-186z" />
<glyph unicode="_" horiz-adv-x="1024" d="M0 -205h1024v-170h-1024v170z" />
<glyph unicode="`" horiz-adv-x="960" d="M219 1372l80 162l442 -240l-65 -131z" />
<glyph unicode="a" horiz-adv-x="999" d="M51 293q0 158 102.5 254t307.5 96q33 0 73.5 -3t77.5 -6t66 -6t39 -5v61q0 113 -66.5 162t-189.5 49q-111 0 -187.5 -25.5t-111.5 -46.5l-56 131q18 12 51 28.5t81.5 32t111 26t139.5 10.5q186 0 295 -91.5t109 -265.5v-694h-164l-8 115q-47 -66 -137 -104t-187 -38 q-61 0 -122.5 16.5t-110.5 53.5t-81 98.5t-32 151.5zM227 293q0 -88 58.5 -131t152.5 -43q51 0 100.5 17.5t89.5 49t64.5 77.5t24.5 102v112q-2 0 -26.5 4t-61.5 7.5t-80 6.5t-80 3q-66 0 -112 -16.5t-74.5 -44t-42 -64.5t-13.5 -80z" />
<glyph unicode="b" horiz-adv-x="1110" d="M106 0v1536h183v-639q8 18 31.5 44t62.5 50.5t92 42t123 17.5q113 0 197 -41t139 -113t81.5 -167t26.5 -206q0 -152 -40.5 -255t-106.5 -166.5t-148.5 -91t-166.5 -27.5q-61 0 -109.5 11t-85.5 27.5t-62.5 35t-39.5 34.5l-9 -92h-168zM287 270q12 -20 36.5 -42.5 t59.5 -42t78 -32t94 -12.5q137 0 218 91.5t81 291.5q0 78 -16.5 144.5t-51 114.5t-87 75t-124.5 27q-141 0 -214.5 -109.5t-73.5 -316.5v-189z" />
<glyph unicode="c" horiz-adv-x="907" d="M68 512q0 119 32.5 218t94 170t149.5 110t199 39q74 0 133 -15.5t102 -34t68.5 -36t30.5 -23.5l-80 -131q-6 6 -27.5 18.5t-54.5 24.5t-76 21.5t-92 9.5q-127 0 -209 -91.5t-82 -279.5q0 -195 82 -284t209 -89q96 0 162.5 24.5t89.5 37.5l71 -129q-4 -6 -30.5 -21.5 t-69.5 -32t-101.5 -30t-127.5 -13.5q-225 0 -349 140.5t-124 396.5z" />
<glyph unicode="d" horiz-adv-x="1110" d="M68 512q0 111 27.5 209t82.5 172t139 116t195 42q72 0 126 -18.5t91 -43t59.5 -49.5t32.5 -39v635h183v-1536h-168l-9 90q-43 -41 -114.5 -73.5t-192.5 -32.5q-86 0 -167 25.5t-144.5 87t-102 162.5t-38.5 253zM256 512q0 -100 21.5 -171t60.5 -115t94 -64.5t125 -20.5 q49 0 93 12.5t78 31t58.5 41t36.5 42.5v189q0 209 -73.5 318.5t-214.5 109.5q-72 0 -124.5 -28t-87 -77t-51 -117.5t-16.5 -150.5z" />
<glyph unicode="e" horiz-adv-x="1046" d="M68 514q0 119 30.5 218t90 170t146.5 110t202 39q104 0 186 -32t139.5 -99.5t88 -173t30.5 -252.5v-33h-729q10 -145 92 -235.5t252 -90.5q106 0 175 18.5t97 28.5l50 -135q-10 -6 -39 -18.5t-72 -24.5t-99.5 -21.5t-125.5 -9.5q-256 0 -385 143.5t-129 397.5zM256 608 h537q-10 137 -68.5 213t-187.5 76q-131 0 -196 -77t-85 -212z" />
<glyph unicode="f" horiz-adv-x="743" d="M25 870v154h194v117q0 92 22.5 170t69.5 133t123 87t180 32q70 0 121 -9.5t66 -13.5l-21 -139q-10 2 -50 6t-83 4q-117 0 -181.5 -62.5t-64.5 -222.5v-102h318v-154h-318v-870h-182v870h-194z" />
<glyph unicode="g" horiz-adv-x="1112" d="M45 -205q0 72 40 127t95 101q-51 35 -67.5 81t-16.5 84q0 72 41 123t82 86q-53 47 -83 115t-30 160q0 104 39 177t102.5 117t142.5 64.5t159 20.5q49 0 84 -4.5t63.5 -9.5t55 -9t57.5 -4h278v-137h-190q25 -20 43 -48t28.5 -58.5t15.5 -60.5t5 -54q0 -106 -40 -178 t-102.5 -115t-141 -61.5t-156.5 -18.5q-51 0 -110.5 9t-106.5 28q-14 -10 -39 -37t-25 -68q0 -20 7.5 -39.5t30 -35t62.5 -24.5t107 -11l215 -4q78 -2 148.5 -12.5t124 -39t85 -79t31.5 -130.5q0 -143 -148.5 -234t-422.5 -91q-80 0 -162 12t-148.5 43t-109.5 83t-43 132z M231 -180q0 -47 25 -75t67 -44t95 -21.5t108 -5.5q78 0 143.5 9.5t113.5 30t75 51t27 71.5q0 18 -6.5 38t-24.5 34t-55 24.5t-99 10.5l-200 4q-76 2 -127 8t-66 10q-35 -25 -55.5 -61.5t-20.5 -83.5zM289 671.5q0 -65.5 22.5 -111.5t58.5 -75.5t83 -44t96 -14.5t96 14.5 t83 44t58.5 75.5t22.5 111.5t-22.5 111.5t-58.5 76t-83 44.5t-96 14.5t-96 -14.5t-83 -44.5t-58.5 -76t-22.5 -111.5z" />
<glyph unicode="h" horiz-adv-x="1081" d="M106 0v1536h183v-643q14 25 41.5 52.5t67.5 51t94.5 39t121.5 15.5q176 0 268.5 -102.5t92.5 -280.5v-668h-182v629q0 78 -15.5 129t-44 80.5t-67.5 41t-84 11.5q-78 0 -134.5 -34t-91 -89t-51 -127t-16.5 -147v-494h-183z" />
<glyph unicode="i" horiz-adv-x="415" d="M88 1356q0 53 32 89t87 36t87 -35t32 -90.5t-32 -90t-87 -34.5t-87 36t-32 89zM117 0v1024h182v-1024h-182z" />
<glyph unicode="j" horiz-adv-x="415" d="M-242 -451l19 142q39 -10 71.5 -13.5t61.5 -3.5q61 0 101 16.5t63.5 53.5t33 94.5t9.5 141.5v1044h182v-1081q0 -217 -93 -317.5t-286 -100.5h-6q-73 0 -156 24zM88 1356q0 53 32 89t87 36t87 -35t32 -90.5t-32 -90t-87 -34.5t-87 36t-32 89z" />
<glyph unicode="k" horiz-adv-x="1007" d="M106 0v1536h183v-971l444 459h215l-446 -459l506 -565h-238l-481 545v-545h-183z" />
<glyph unicode="l" horiz-adv-x="415" d="M117 0v1536h182v-1536h-182z" />
<glyph unicode="m" horiz-adv-x="1689" d="M106 0v1024h168l9 -139q14 25 38.5 53.5t61.5 54t89 42t120 16.5q119 0 190.5 -50.5t110.5 -136.5q18 31 48 65t72 60.5t96 44t122 17.5q180 0 266 -101.5t86 -275.5v-674h-182v643q0 141 -50.5 194.5t-146.5 53.5q-74 0 -124 -35t-82.5 -91t-47 -128t-14.5 -148v-489 h-182v643q0 141 -52.5 194.5t-144.5 53.5q-74 0 -124 -36t-83 -92t-47 -128t-14 -146v-489h-183z" />
<glyph unicode="n" horiz-adv-x="1081" d="M106 0v1024h168l9 -141q12 25 38.5 54.5t68.5 55t97.5 42t126.5 16.5q176 0 268.5 -102.5t92.5 -280.5v-668h-182v629q0 78 -15.5 129t-44 80.5t-67.5 41t-84 11.5q-82 0 -137.5 -35t-90.5 -93t-50 -132t-15 -152v-479h-183z" />
<glyph unicode="o" horiz-adv-x="1097" d="M68 512q0 119 32.5 218t95 171t151.5 111t202 39t202 -39t151.5 -110t95 -170t32.5 -220q0 -123 -32.5 -222.5t-94 -170t-151.5 -108.5t-203 -38q-115 0 -204 39t-150.5 110t-94 170t-32.5 220zM256 512q0 -170 71.5 -273.5t221 -103.5t221.5 104.5t72 272.5 q0 82 -18.5 150.5t-54.5 118.5t-91 79t-129 29q-145 0 -219 -104.5t-74 -272.5z" />
<glyph unicode="p" horiz-adv-x="1110" d="M106 -451v1475h168l9 -133q14 25 40.5 53.5t66.5 52t91 39t117 15.5q113 0 197 -41t139 -113t81.5 -167t26.5 -206q0 -152 -40.5 -254t-107.5 -166.5t-152 -92t-171 -27.5q-104 0 -171.5 23.5t-110.5 47.5v-506h-183zM287 244q29 -33 99.5 -68t168.5 -35q137 0 218 91.5 t81 291.5q0 78 -16.5 144.5t-51 114.5t-87 75t-124.5 27q-143 0 -215.5 -109.5t-72.5 -316.5v-215z" />
<glyph unicode="q" horiz-adv-x="1110" d="M68 512q0 111 27.5 209t82.5 172t139 116t195 42q63 0 115.5 -15.5t92.5 -38t66.5 -49t40.5 -51.5l9 127h168v-1475h-183v521l-47 -28q-27 -15 -62.5 -28.5t-82.5 -21.5t-109 -8q-86 0 -167 25.5t-144.5 87t-102 162.5t-38.5 253zM256 512q0 -100 21.5 -171t60.5 -115 t94 -64.5t125 -20.5q49 0 93 11.5t78 30t58.5 40t36.5 41.5v195q0 207 -72.5 316.5t-215.5 109.5q-72 0 -124.5 -28t-87 -77t-51 -117.5t-16.5 -150.5z" />
<glyph unicode="r" horiz-adv-x="720" d="M106 0v1024h168l9 -174q18 35 47.5 68.5t70.5 59.5t93.5 42t115.5 16q29 0 67 -5t44 -7l-16 -156q-10 4 -40 8.5t-61 4.5q-145 0 -230 -121t-85 -332v-428h-183z" />
<glyph unicode="s" horiz-adv-x="919" d="M33 88l65 133q51 -27 141.5 -59.5t213.5 -32.5q68 0 111.5 11.5t69 30.5t37 45t11.5 56q0 55 -42 93t-146 59l-125 25q-66 12 -122.5 34.5t-97 58.5t-64.5 85t-24 116q0 139 109 223.5t291 84.5q119 0 213 -29t153 -64l-57 -135q-14 8 -46 20.5t-74 24t-91 19.5t-98 8 q-113 0 -166 -39t-53 -104q0 -55 37.5 -88t150.5 -54l127 -24q147 -29 229 -94.5t82 -202.5q0 -143 -107.5 -229.5t-305.5 -86.5q-145 0 -253 37t-169 78z" />
<glyph unicode="t" horiz-adv-x="753" d="M16 870v154h205v283l182 49v-332h306v-154h-306v-553q0 -61 15.5 -98t43 -56.5t65.5 -26.5t85 -7t77 4t40 6l14 -137q-27 -6 -74.5 -12t-107.5 -6q-176 0 -258 76.5t-82 236.5v573h-205z" />
<glyph unicode="u" horiz-adv-x="1081" d="M106 356v668h183v-641q0 -74 15 -122t43 -76.5t67 -40t86 -11.5q82 0 137 35t90 93t50.5 132t15.5 152v479h182v-1024h-168l-8 137q-12 -25 -39 -53.5t-68 -53t-96 -41t-127 -16.5q-176 0 -269.5 102.5t-93.5 280.5z" />
<glyph unicode="v" horiz-adv-x="989" d="M12 1024h195l295 -846l291 846h184l-379 -1024h-205z" />
<glyph unicode="w" horiz-adv-x="1406" d="M16 1024h193l215 -829l194 794h187l192 -794l211 829h183l-301 -1024h-199l-184 760l-191 -760h-199z" />
<glyph unicode="x" horiz-adv-x="985" d="M12 0l371 530l-342 494h215l240 -354l237 354h195l-336 -483l377 -541h-217l-271 399l-272 -399h-197z" />
<glyph unicode="y" horiz-adv-x="1011" d="M12 1024h205l291 -748l299 748h192l-616 -1475h-186l213 508z" />
<glyph unicode="z" horiz-adv-x="952" d="M66 0v145l598 725h-580v154h797v-147l-596 -723h602v-154h-821z" />
<glyph unicode="{" horiz-adv-x="641" d="M76 594v151q80 16 111.5 68.5t31.5 124.5v262q0 76 16.5 138.5t60.5 106.5t118.5 67.5t191.5 23.5v-156q-72 -2 -112.5 -15t-60 -39t-25 -62.5t-5.5 -81.5v-285q0 -78 -32.5 -132t-100.5 -95q68 -41 100.5 -95.5t32.5 -132.5v-284q0 -47 5.5 -83t25 -61.5t60.5 -39 t112 -15.5v-156q-117 0 -191.5 23.5t-118.5 68t-60.5 105.5t-16.5 139v262q0 72 -31.5 124.5t-111.5 68.5z" />
<glyph unicode="|" horiz-adv-x="479" d="M147 -451v1987h185v-1987h-185z" />
<glyph unicode="}" horiz-adv-x="641" d="M35 -41q70 2 110.5 15.5t61 39t26 61.5t5.5 83v284q0 78 32.5 132.5t98.5 95.5q-66 41 -98.5 95t-32.5 132v285q0 45 -5.5 81.5t-26 62.5t-61.5 39t-110 15v156q117 0 191.5 -23.5t118.5 -67.5t60.5 -106.5t16.5 -138.5v-262q0 -72 30.5 -124t112.5 -69v-151 q-82 -16 -112.5 -68.5t-30.5 -124.5v-262q0 -78 -16.5 -139t-60.5 -105.5t-118.5 -68t-191.5 -23.5v156z" />
<glyph unicode="~" horiz-adv-x="1136" d="M45 829q27 29 62.5 57.5t76.5 52.5t88 38t99 14q72 0 129 -26.5t104 -55.5q37 -23 75 -41t75 -18q70 0 121 26.5t112 84.5l105 -127q-29 -29 -64 -59t-77 -52.5t-88 -36.5t-97 -14q-72 0 -129 26.5t-105 55.5q-37 23 -74.5 41t-74.5 18q-72 0 -122 -26.5t-111 -84.5z" />
<glyph unicode="&#xa1;" horiz-adv-x="544" d="M141 913.5q0 59.5 36 98.5t95.5 39t95 -39t35.5 -98.5t-35.5 -98.5t-95 -39t-95.5 39t-36 98.5zM178 -451v1045h189v-1045h-189z" />
<glyph unicode="&#xa2;" d="M162 707q0 106 26.5 197t77.5 161t125 114t170 58v203h133v-199q68 -4 121 -20.5t92 -36t61.5 -35.5t26.5 -21l-73 -124q-12 10 -73 40.5t-155 38.5v-757q90 6 149 31l81 36l65 -123q-4 -6 -26.5 -20t-61.5 -30.5t-91 -31t-116 -18.5v-197h-133v203q-195 27 -297 164.5 t-102 366.5zM344 707q0 -166 57.5 -255.5t159.5 -115.5v737q-102 -29 -159.5 -118.5t-57.5 -247.5z" />
<glyph unicode="&#xa3;" d="M111 713v153h149q-6 53 -10 101.5t-4 85.5q0 88 24.5 164.5t75.5 133t130 89.5t190 33q84 0 151.5 -20.5t114.5 -46.5t75.5 -51.5t36.5 -33.5l-98 -123q-6 6 -28.5 24.5t-57.5 38t-83 35t-109 15.5q-123 0 -181.5 -66.5t-58.5 -200.5q0 -86 12 -178h344v-153h-321 q8 -59 14 -111.5t6 -87.5q0 -76 -19.5 -136.5t-46 -104.5t-52 -72.5t-37.5 -40.5h692v-160h-883v145l52 70q28 37 52.5 83t41 102.5t16.5 129.5q0 33 -5 80l-11 103h-172z" />
<glyph unicode="&#xa4;" d="M82 346l154 154q-29 47 -44.5 101t-15.5 119.5t15.5 120t44.5 99.5l-154 156l113 112l155 -155q47 29 102.5 45t116.5 16q59 0 115.5 -16.5t103.5 -44.5l156 155l113 -112l-156 -156q29 -45 45.5 -99.5t16.5 -119.5q0 -125 -62 -221l156 -154l-113 -113l-156 156 q-96 -61 -219 -61q-125 0 -219 61l-155 -156zM324 721q0 -59 19.5 -107.5t53 -82t78.5 -51t94.5 -17.5t94.5 17.5t78.5 51t53 82t19.5 107.5t-19.5 107.5t-53 82t-78.5 51t-94.5 17.5t-94.5 -17.5t-78.5 -51t-53 -82t-19.5 -107.5z" />
<glyph unicode="&#xa5;" d="M31 1440h205l344 -637l340 637h190l-391 -697h264v-139h-324v-184h324v-139h-324v-281h-180v281h-319v139h319v184h-319v139h260z" />
<glyph unicode="&#xa6;" horiz-adv-x="479" d="M147 211h185v-662h-185v662zM147 874v662h185v-662h-185z" />
<glyph unicode="&#xa7;" horiz-adv-x="1120" d="M125 670q0 96 39 163.5t106 131.5q-111 94 -110 243q0 94 34.5 162t91 111t131.5 62.5t154 19.5q78 0 143.5 -15.5t114 -34t77 -36t32.5 -23.5l-76 -125q-6 6 -32.5 18.5t-66.5 27t-89 24.5t-103 10q-39 0 -79.5 -7t-74.5 -27.5t-56.5 -57.5t-22.5 -96q0 -49 20.5 -83 t50 -58.5t62.5 -41t59 -26.5l181 -72q57 -23 106 -53.5t86 -69.5t57.5 -89t20.5 -114q0 -98 -39 -164.5t-108 -130.5q57 -49 86.5 -108t29.5 -135q0 -94 -35.5 -162t-95 -111t-136.5 -62.5t-159 -19.5q-78 0 -144.5 15.5t-115.5 34t-79.5 36t-34.5 23.5l69 127 q6 -6 35 -19.5t71 -26.5t94 -24.5t105 -11.5q43 0 87 7t79 27.5t56.5 57.5t21.5 96q0 49 -20.5 83t-50 58.5t-62.5 41t-60 26.5l-180 72q-57 23 -106 53.5t-86 69.5t-57.5 89.5t-20.5 113.5zM299 709q0 -43 17.5 -77t46 -61.5t65.5 -49t78 -38.5l108 -44q55 -22 103 -44 q37 35 63.5 78t26.5 102q0 43 -16.5 77t-45 61.5t-66.5 49t-79 38.5l-156 63q-16 6 -30.5 12.5t-24.5 12.5q-35 -39 -62.5 -80t-27.5 -100z" />
<glyph unicode="&#xa8;" horiz-adv-x="960" d="M166 1331q0 53 31.5 88t85 35t85 -35t31.5 -88t-31.5 -88t-85 -35t-85 35t-31.5 88zM561 1331q0 53 32 88t85 35t85 -35t32 -88t-32 -88t-85 -35t-85 35t-32 88z" />
<glyph unicode="&#xa9;" horiz-adv-x="1609" d="M59 723q0 156 57.5 293t158 238.5t237.5 160t295 58.5q156 0 292 -58.5t236.5 -160t157.5 -238.5t57 -293q0 -158 -57 -294t-157.5 -237.5t-236.5 -160t-294 -58.5t-294 58.5t-236.5 160t-158 237.5t-57.5 294zM217 721q0 -127 44 -237.5t123 -192.5t186.5 -128 t234.5 -46t234.5 46t186.5 128t123 192.5t44 237.5t-44 237.5t-123 192.5t-186.5 129t-232.5 47q-127 0 -234.5 -47t-186.5 -129t-124 -192.5t-45 -237.5zM451 721q0 176 97 283.5t275 107.5q59 0 107.5 -11t82.5 -26.5t52 -29t22 -17.5l-61 -104q-10 8 -65.5 30.5 t-133.5 22.5q-102 0 -162.5 -62.5t-60.5 -193.5q0 -135 60.5 -196.5t162.5 -61.5q76 0 129.5 17.5t69.5 25.5l57 -103q-4 -4 -24.5 -16t-54 -24.5t-79.5 -22.5t-102 -10q-180 0 -276 102.5t-96 288.5z" />
<glyph unicode="&#xaa;" horiz-adv-x="690" d="M49 592v129h555v-129h-555zM49 1022q0 94 64.5 153.5t205.5 59.5q43 0 87.5 -4t60.5 -6v16q0 57 -35 88t-117 31q-72 0 -120 -15.5t-70 -27.5l-39 98q23 14 83 36t165 22q127 0 198.5 -57.5t71.5 -180.5v-393h-129l-6 69q-33 -41 -86 -63.5t-123 -22.5q-39 0 -77 10.5 t-67.5 34t-48 61.5t-18.5 91zM186 1030q0 -94 109 -94q76 0 124 43t48 102v39q-31 4 -71 8.5t-79 4.5q-53 0 -92 -26t-39 -77z" />
<glyph unicode="&#xab;" horiz-adv-x="944" d="M66 512l235 395h174l-227 -395l227 -395h-174zM469 512l236 395h174l-228 -395l228 -395h-174z" />
<glyph unicode="&#xac;" d="M158 823v164h823v-532h-172v368h-651z" />
<glyph unicode="&#xad;" horiz-adv-x="759" d="M86 479v189h588v-189h-588z" />
<glyph unicode="&#xae;" horiz-adv-x="1609" d="M59 723q0 156 57.5 293t158 238.5t237.5 160t295 58.5q156 0 292 -58.5t236.5 -160t157.5 -238.5t57 -293q0 -158 -57 -294t-157.5 -237.5t-236.5 -160t-294 -58.5t-294 58.5t-236.5 160t-158 237.5t-57.5 294zM217 721q0 -127 44 -237.5t123 -192.5t186.5 -128 t234.5 -46t234.5 46t186.5 128t123 192.5t44 237.5t-44 237.5t-123 192.5t-186.5 129t-232.5 47q-127 0 -234.5 -47t-186.5 -129t-124 -192.5t-45 -237.5zM532 338v764h302q76 0 127 -23.5t81.5 -58.5t44 -77t13.5 -79q0 -84 -44 -136t-122 -79l209 -311h-160l-184 291h-129 v-291h-138zM670 748h123q82 0 125 25.5t43 90.5q0 68 -42 94.5t-120 26.5h-129v-237z" />
<glyph unicode="&#xaf;" horiz-adv-x="960" d="M184 1229v147h594v-147h-594z" />
<glyph unicode="&#xb0;" horiz-adv-x="747" d="M66 1138.5q0 65.5 23.5 121t65.5 95.5t97 62.5t120.5 22.5t122 -22.5t98.5 -62.5t65.5 -95.5t23.5 -118.5q0 -66 -23.5 -121t-65.5 -95t-98.5 -62.5t-119.5 -22.5q-66 0 -122 22.5t-98 62.5t-65.5 94t-23.5 119.5zM213 1138.5q0 -69.5 46 -116.5t115.5 -47t116 47 t46.5 119q0 68 -46.5 115t-117.5 47q-68 0 -114 -47.5t-46 -117z" />
<glyph unicode="&#xb1;" d="M117 0v164h905v-164h-905zM117 655v164h366v369h172v-369h367v-164h-367v-368h-172v368h-366z" />
<glyph unicode="&#xb2;" horiz-adv-x="757" d="M63 1311q14 18 42 43.5t65 47t84 37t102 15.5q74 0 126.5 -18.5t87 -49t51 -70.5t16.5 -83q0 -47 -17.5 -86t-47 -71t-66.5 -60.5t-76 -52.5q-82 -53 -126 -91t-58 -86h401v-133h-567v41q0 61 15.5 111.5t46 93.5t77.5 81t109 77q74 47 114.5 86t40.5 86q0 39 -31.5 66.5 t-97.5 27.5q-35 0 -66.5 -11.5t-57 -26.5t-45 -32.5t-29.5 -29.5z" />
<glyph unicode="&#xb3;" horiz-adv-x="757" d="M68 670l34 127q29 -10 79 -19.5t122 -9.5q182 0 182 115q0 47 -37.5 76.5t-132.5 29.5h-96v131h92q86 0 123 31t37 76q0 41 -29.5 69.5t-95.5 28.5q-70 0 -125 -27.5t-80 -48.5l-73 97q14 14 41.5 33.5t63.5 36t80 27.5t95 11q143 0 210 -63.5t67 -149.5q0 -61 -37 -106 t-88 -70q61 -20 100 -68.5t39 -113.5q0 -121 -93 -183.5t-235 -62.5q-78 0 -140 10t-103 23z" />
<glyph unicode="&#xb4;" horiz-adv-x="960" d="M219 1294l443 240l79 -162l-456 -209z" />
<glyph unicode="&#xb5;" horiz-adv-x="1081" d="M106 -451v1475h183v-635q0 -74 15 -124t44 -78.5t67 -41t85 -12.5q82 0 137 35t90 93t50.5 132t15.5 152v479h182v-1024h-168l-8 137q-33 -61 -111 -112.5t-196 -51.5q-76 0 -127.5 21.5t-75.5 46.5v-492h-183z" />
<glyph unicode="&#xb6;" horiz-adv-x="1251" d="M66 1059q0 104 34.5 177t99 118t152.5 65.5t197 20.5h555v-1719h-180v1575h-236v-1575h-180v971q-102 0 -184 26.5t-139.5 76t-88 117t-30.5 147.5z" />
<glyph unicode="&#xb7;" horiz-adv-x="479" d="M109 721q0 59 35.5 98t95 39t95.5 -39t36 -98t-36 -98t-95.5 -39t-95 39t-35.5 98z" />
<glyph unicode="&#xb8;" horiz-adv-x="960" d="M250 -444l33 104q35 -10 70.5 -17.5t74.5 -7.5q66 0 99.5 21.5t33.5 58.5q0 29 -27.5 50.5t-91.5 21.5q-37 0 -73 -6l47 219h121l-21 -100q94 -8 144.5 -57.5t50.5 -121.5q0 -49 -20.5 -85.5t-56.5 -62.5t-82 -38t-97 -12q-88 0 -141.5 14.5t-63.5 18.5z" />
<glyph unicode="&#xb9;" horiz-adv-x="757" d="M94 1282l297 158h115v-787h-154v615l-192 -107z" />
<glyph unicode="&#xba;" horiz-adv-x="720" d="M45 1149q0 145 82 235.5t233.5 90.5t233.5 -89.5t82 -237t-81 -235.5t-234.5 -88t-234.5 88.5t-81 235.5zM51 592v129h619v-129h-619zM190 1149q0 -94 39 -151.5t131.5 -57.5t131 58.5t38.5 150.5t-39.5 151.5t-130.5 59.5q-88 0 -129 -59.5t-41 -151.5z" />
<glyph unicode="&#xbb;" horiz-adv-x="944" d="M66 117l227 395l-227 395h174l235 -395l-235 -395h-174zM469 117l227 395l-227 395h174l236 -395l-236 -395h-174z" />
<glyph unicode="&#xbc;" horiz-adv-x="1802" d="M70 1282l297 158h114v-787h-153v615l-193 -107zM358 0l781 1440h182l-780 -1440h-183zM1020 178v111l330 499h159l-321 -481h198v158h140v-158h106v-129h-106v-176h-140v176h-366z" />
<glyph unicode="&#xbd;" horiz-adv-x="1802" d="M70 1282l297 158h114v-787h-153v615l-193 -107zM358 0l781 1440h182l-780 -1440h-183zM1083 659q14 18 42 44t65 47.5t84 37t102 15.5q74 0 126 -18.5t87 -49t51.5 -70.5t16.5 -83q0 -47 -17.5 -86t-47 -71t-66.5 -60.5t-76 -53.5q-82 -53 -126 -91t-58 -85h401v-133 h-567v41q0 61 15 111.5t46 93.5t78 81t109 77q74 47 114.5 85.5t40.5 86.5q0 39 -31.5 66.5t-97.5 27.5q-35 0 -66.5 -11.5t-57 -27t-45 -32.5t-29.5 -30z" />
<glyph unicode="&#xbe;" horiz-adv-x="1802" d="M86 670l35 127q29 -10 79 -19.5t122 -9.5q182 0 182 115q0 47 -38 76.5t-132 29.5h-96v131h92q86 0 122.5 31t36.5 76q0 41 -29.5 69.5t-94.5 28.5q-70 0 -125.5 -27.5t-79.5 -48.5l-74 97q14 14 42 33.5t63.5 36t79.5 27.5t96 11q143 0 209.5 -63.5t66.5 -149.5 q0 -61 -37 -106t-88 -70q61 -20 100 -68.5t39 -113.5q0 -121 -93 -183.5t-234 -62.5q-78 0 -140.5 10.5t-103.5 22.5zM420 0l780 1440h182l-780 -1440h-182zM1081 178v111l330 499h160l-322 -481h199v158h139v-158h107v-129h-107v-176h-139v176h-367z" />
<glyph unicode="&#xbf;" horiz-adv-x="1038" d="M106 -92q0 63 17.5 114.5t45.5 94.5t62.5 78.5t69.5 66.5l74 68q35 33 60.5 70.5t41 87t15.5 114.5h190q0 -78 -17.5 -138.5t-48 -109.5t-71.5 -91t-86 -83l-52 -50q-28 -28 -51.5 -59.5t-38 -70.5t-14.5 -84q0 -96 60.5 -159.5t199.5 -63.5q106 0 178 46t131 114 l115 -105q-23 -33 -62.5 -71.5t-95 -72.5t-127 -56.5t-155.5 -22.5q-127 0 -212 34.5t-136.5 90t-72 124t-20.5 134.5zM457 913.5q0 59.5 35.5 98.5t95 39t95.5 -39t36 -98.5t-36 -98.5t-95.5 -39t-95 39t-35.5 98.5z" />
<glyph unicode="&#xc0;" horiz-adv-x="1175" d="M12 0l475 1440h199l477 -1440h-196l-119 369h-537l-118 -369h-181zM264 1731l68 165l497 -215l-57 -133zM365 535h430l-213 665z" />
<glyph unicode="&#xc1;" horiz-adv-x="1175" d="M12 0l475 1440h199l477 -1440h-196l-119 369h-537l-118 -369h-181zM346 1681l498 215l67 -165l-508 -183zM365 535h430l-213 665z" />
<glyph unicode="&#xc2;" horiz-adv-x="1175" d="M12 0l475 1440h199l477 -1440h-196l-119 369h-537l-118 -369h-181zM221 1645l283 225h170l282 -225l-77 -97l-291 185l-289 -185zM365 535h430l-213 665z" />
<glyph unicode="&#xc3;" horiz-adv-x="1175" d="M12 0l475 1440h199l477 -1440h-196l-119 369h-537l-118 -369h-181zM209 1587q0 119 57.5 180.5t157.5 61.5q51 0 89 -17.5t71 -36.5l63 -37q31 -17 68 -18q53 0 73.5 29t20.5 76h135q0 -123 -57.5 -182.5t-157.5 -59.5q-51 0 -89 17.5t-71 36.5l-63 37q-31 17 -68 18 q-53 0 -73.5 -29t-20.5 -76h-135zM365 535h430l-213 665z" />
<glyph unicode="&#xc4;" horiz-adv-x="1175" d="M12 0l475 1440h199l477 -1440h-196l-119 369h-537l-118 -369h-181zM256 1714q0 55 33 92t90 37t90 -35.5t33 -93t-33 -93.5t-90 -36t-90 37t-33 92zM365 535h430l-213 665zM676 1714q0 55 32.5 92t90 37t90.5 -35.5t33 -93t-33 -93.5t-90.5 -36t-90 37t-32.5 92z" />
<glyph unicode="&#xc5;" horiz-adv-x="1175" d="M12 0l439 1331q-43 29 -69 76t-26 106q0 49 18.5 90.5t50.5 72t74 47t89 16.5q98 0 164.5 -62.5t66.5 -160.5q0 -59 -26.5 -107.5t-71.5 -79.5l442 -1329h-196l-119 369h-537l-118 -369h-181zM365 535h430l-213 686zM477 1513.5q0 -47.5 32 -81t79 -33.5t79.5 33.5 t32.5 81t-32.5 80t-79.5 32.5t-79 -32.5t-32 -80z" />
<glyph unicode="&#xc6;" horiz-adv-x="1763" d="M-4 0l782 1440h924v-170h-639v-436h496v-170h-496v-494h659v-170h-841v424h-469l-230 -424h-186zM498 584h383v706z" />
<glyph unicode="&#xc7;" horiz-adv-x="1198" d="M88 719q0 166 40 303t120 234.5t198.5 151.5t278.5 54q145 0 253.5 -42t195.5 -113l-99 -138q-27 20 -59.5 41t-75.5 37.5t-95 26.5t-120 10q-219 0 -325.5 -150.5t-106.5 -414.5t105.5 -413.5t324.5 -149.5q61 0 115.5 11t98.5 27.5t79 37t57 36.5l98 -137 q-59 -53 -168.5 -101t-261.5 -53l-16 -79q100 -8 151.5 -58.5t51.5 -124.5q0 -53 -21.5 -91t-57.5 -64.5t-84 -39t-101 -12.5q-92 0 -147.5 14.5t-65.5 18.5l32 109q35 -10 73 -17.5t77 -7.5q68 0 104.5 21.5t36.5 62.5q0 29 -29.5 50.5t-93.5 21.5q-41 0 -78 -6l43 209 q-262 31 -395 224.5t-133 510.5z" />
<glyph unicode="&#xc8;" horiz-adv-x="1046" d="M137 0v1440h848v-170h-659v-436h516v-170h-516v-494h680v-170h-869zM293 1731l67 165l498 -215l-57 -133z" />
<glyph unicode="&#xc9;" horiz-adv-x="1046" d="M137 0v1440h848v-170h-659v-436h516v-170h-516v-494h680v-170h-869zM293 1681l498 215l67 -165l-508 -183z" />
<glyph unicode="&#xca;" horiz-adv-x="1046" d="M137 0v1440h848v-170h-659v-436h516v-170h-516v-494h680v-170h-869zM209 1645l283 225h170l282 -225l-78 -97l-291 185l-288 -185z" />
<glyph unicode="&#xcb;" horiz-adv-x="1046" d="M137 0v1440h848v-170h-659v-436h516v-170h-516v-494h680v-170h-869zM223 1714q0 55 33 92t90 37t90 -35.5t33 -93t-33 -93.5t-90 -36t-90 37t-33 92zM643 1714q0 55 33 92t90 37t90 -35.5t33 -93t-33 -93.5t-90 -36t-90 37t-33 92z" />
<glyph unicode="&#xcc;" horiz-adv-x="462" d="M-104 1731l67 165l498 -215l-58 -133zM137 0v1440h189v-1440h-189z" />
<glyph unicode="&#xcd;" horiz-adv-x="462" d="M6 1681l498 215l67 -165l-508 -183zM137 0v1440h189v-1440h-189z" />
<glyph unicode="&#xce;" horiz-adv-x="462" d="M-133 1645l283 225h169l283 -225l-78 -97l-291 185l-288 -185zM137 0v1440h189v-1440h-189z" />
<glyph unicode="&#xcf;" horiz-adv-x="462" d="M-98 1714q0 55 32.5 92t90 37t90 -35.5t32.5 -93t-32.5 -93.5t-90 -36t-90 37t-32.5 92zM137 0v1440h189v-1440h-189zM322 1714q0 55 32.5 92t90 37t90 -35.5t32.5 -93t-32.5 -93.5t-90 -36t-90 37t-32.5 92z" />
<glyph unicode="&#xd0;" horiz-adv-x="1353" d="M0 653v162h137v625h479q158 0 280 -53.5t204 -148.5t124 -227t42 -292q0 -162 -42 -295t-124 -227.5t-204 -145.5t-280 -51h-479v653h-137zM326 170h290q223 0 334 147.5t111 403.5t-111.5 402.5t-333.5 146.5h-290v-455h327v-162h-327v-483z" />
<glyph unicode="&#xd1;" horiz-adv-x="1323" d="M137 0v1440h197l667 -1098v1098h185v-1440h-185l-679 1116v-1116h-185zM283 1587q0 119 57 180.5t158 61.5q51 0 89 -17.5t70 -36.5l64 -37q31 -17 67 -18q53 0 74 29t21 76h135q0 -123 -57.5 -182.5t-157.5 -59.5q-51 0 -89 17.5t-71 36.5l-63 37q-31 17 -68 18 q-53 0 -73.5 -29t-20.5 -76h-135z" />
<glyph unicode="&#xd2;" horiz-adv-x="1449" d="M88 719q0 166 40 304t120 238.5t198.5 156t278.5 55.5q158 0 277.5 -55.5t199.5 -156t120 -238.5t40 -304q0 -168 -40 -306.5t-120 -237.5t-199.5 -153.5t-277.5 -54.5q-160 0 -278.5 54.5t-198.5 153.5t-120 237.5t-40 306.5zM293 719q0 -133 25.5 -239.5t80 -182.5 t135 -117t191.5 -41t192.5 41t135 117t79 182.5t25.5 239.5q0 131 -26.5 238.5t-80 182t-134 115.5t-191.5 41t-191.5 -41t-134 -115.5t-80 -182t-26.5 -238.5zM422 1731l67 165l498 -215l-57 -133z" />
<glyph unicode="&#xd3;" horiz-adv-x="1449" d="M88 719q0 166 40 304t120 238.5t198.5 156t278.5 55.5q158 0 277.5 -55.5t199.5 -156t120 -238.5t40 -304q0 -168 -40 -306.5t-120 -237.5t-199.5 -153.5t-277.5 -54.5q-160 0 -278.5 54.5t-198.5 153.5t-120 237.5t-40 306.5zM293 719q0 -133 25.5 -239.5t80 -182.5 t135 -117t191.5 -41t192.5 41t135 117t79 182.5t25.5 239.5q0 131 -26.5 238.5t-80 182t-134 115.5t-191.5 41t-191.5 -41t-134 -115.5t-80 -182t-26.5 -238.5zM463 1681l498 215l67 -165l-508 -183z" />
<glyph unicode="&#xd4;" horiz-adv-x="1449" d="M88 719q0 166 40 304t120 238.5t198.5 156t278.5 55.5q158 0 277.5 -55.5t199.5 -156t120 -238.5t40 -304q0 -168 -40 -306.5t-120 -237.5t-199.5 -153.5t-277.5 -54.5q-160 0 -278.5 54.5t-198.5 153.5t-120 237.5t-40 306.5zM293 719q0 -133 25.5 -239.5t80 -182.5 t135 -117t191.5 -41t192.5 41t135 117t79 182.5t25.5 239.5q0 131 -26.5 238.5t-80 182t-134 115.5t-191.5 41t-191.5 -41t-134 -115.5t-80 -182t-26.5 -238.5zM358 1645l283 225h170l283 -225l-78 -97l-291 185l-289 -185z" />
<glyph unicode="&#xd5;" horiz-adv-x="1449" d="M88 719q0 166 40 304t120 238.5t198.5 156t278.5 55.5q158 0 277.5 -55.5t199.5 -156t120 -238.5t40 -304q0 -168 -40 -306.5t-120 -237.5t-199.5 -153.5t-277.5 -54.5q-160 0 -278.5 54.5t-198.5 153.5t-120 237.5t-40 306.5zM293 719q0 -133 25.5 -239.5t80 -182.5 t135 -117t191.5 -41t192.5 41t135 117t79 182.5t25.5 239.5q0 131 -26.5 238.5t-80 182t-134 115.5t-191.5 41t-191.5 -41t-134 -115.5t-80 -182t-26.5 -238.5zM346 1587q0 119 57.5 180.5t157.5 61.5q51 0 89 -17.5t71 -36.5l63 -37q31 -17 68 -18q53 0 73.5 29t20.5 76 h135q0 -123 -57 -182.5t-158 -59.5q-51 0 -89 17.5t-70 36.5l-64 37q-31 17 -68 18q-53 0 -73.5 -29t-20.5 -76h-135z" />
<glyph unicode="&#xd6;" horiz-adv-x="1449" d="M88 719q0 166 40 304t120 238.5t198.5 156t278.5 55.5q158 0 277.5 -55.5t199.5 -156t120 -238.5t40 -304q0 -168 -40 -306.5t-120 -237.5t-199.5 -153.5t-277.5 -54.5q-160 0 -278.5 54.5t-198.5 153.5t-120 237.5t-40 306.5zM293 719q0 -133 25.5 -239.5t80 -182.5 t135 -117t191.5 -41t192.5 41t135 117t79 182.5t25.5 239.5q0 131 -26.5 238.5t-80 182t-134 115.5t-191.5 41t-191.5 -41t-134 -115.5t-80 -182t-26.5 -238.5zM393 1714q0 55 33 92t90 37t90 -35.5t33 -93t-33 -93.5t-90 -36t-90 37t-33 92zM813 1714q0 55 33 92t90 37 t90 -35.5t33 -93t-33 -93.5t-90 -36t-90 37t-33 92z" />
<glyph unicode="&#xd7;" d="M184 414l281 299l-281 301l113 104l270 -295l273 295l112 -104l-282 -301l282 -299l-112 -105l-273 293l-270 -293z" />
<glyph unicode="&#xd8;" horiz-adv-x="1449" d="M88 719q0 166 40 304t120 238.5t198.5 156t278.5 55.5q98 0 180 -21.5t152 -62.5l112 176l136 -78l-127 -199q92 -100 138 -245.5t46 -323.5q0 -168 -40 -306.5t-120 -237.5t-199.5 -153.5t-277.5 -54.5q-100 0 -183 21.5t-153 62.5l-108 -172l-136 78l123 193 q-92 100 -136 244.5t-44 324.5zM293 719q0 -121 21.5 -220.5t64.5 -172.5l577 905q-94 66 -231 65q-111 0 -191.5 -41t-134 -115.5t-80 -182t-26.5 -238.5zM489 207q47 -33 105.5 -50.5t130.5 -17.5q111 0 192.5 41t135 117t79 182.5t25.5 239.5q0 246 -90 395z" />
<glyph unicode="&#xd9;" horiz-adv-x="1320" d="M127 563v877h188v-854q0 -127 17.5 -213t57.5 -138.5t106.5 -75t162.5 -22.5q98 0 164 22.5t107 75t58.5 138.5t17.5 213v854h188v-877q0 -152 -28.5 -263.5t-93 -185t-166 -110.5t-247 -37t-246 37t-165 110.5t-93 185t-28.5 263.5zM356 1731l68 165l498 -215l-58 -133z " />
<glyph unicode="&#xda;" horiz-adv-x="1320" d="M127 563v877h188v-854q0 -127 17.5 -213t57.5 -138.5t106.5 -75t162.5 -22.5q98 0 164 22.5t107 75t58.5 138.5t17.5 213v854h188v-877q0 -152 -28.5 -263.5t-93 -185t-166 -110.5t-247 -37t-246 37t-165 110.5t-93 185t-28.5 263.5zM397 1681l498 215l68 -165l-508 -183 z" />
<glyph unicode="&#xdb;" horiz-adv-x="1320" d="M127 563v877h188v-854q0 -127 17.5 -213t57.5 -138.5t106.5 -75t162.5 -22.5q98 0 164 22.5t107 75t58.5 138.5t17.5 213v854h188v-877q0 -152 -28.5 -263.5t-93 -185t-166 -110.5t-247 -37t-246 37t-165 110.5t-93 185t-28.5 263.5zM293 1645l282 225h170l283 -225 l-78 -97l-291 185l-288 -185z" />
<glyph unicode="&#xdc;" horiz-adv-x="1320" d="M127 563v877h188v-854q0 -127 17.5 -213t57.5 -138.5t106.5 -75t162.5 -22.5q98 0 164 22.5t107 75t58.5 138.5t17.5 213v854h188v-877q0 -152 -28.5 -263.5t-93 -185t-166 -110.5t-247 -37t-246 37t-165 110.5t-93 185t-28.5 263.5zM328 1714q0 55 32.5 92t90 37 t90 -35.5t32.5 -93t-32.5 -93.5t-90 -36t-90 37t-32.5 92zM748 1714q0 55 32.5 92t90 37t90 -35.5t32.5 -93t-32.5 -93.5t-90 -36t-90 37t-32.5 92z" />
<glyph unicode="&#xdd;" horiz-adv-x="1128" d="M10 1440h209l354 -619l351 619h194l-461 -789v-651h-188v651zM322 1681l497 215l68 -165l-508 -183z" />
<glyph unicode="&#xde;" horiz-adv-x="1089" d="M137 0v1440h185v-256h219q133 0 225 -42t149.5 -108.5t83 -146.5t25.5 -154t-25.5 -153.5t-85 -146t-154.5 -108.5t-237 -42h-200v-283h-185zM322 446h196q154 0 236 77t82 210t-80 210t-219 77h-215v-574z" />
<glyph unicode="&#xdf;" horiz-adv-x="1187" d="M106 0v1094q0 221 108 345t343 124q102 0 179 -26t127 -70t76 -105.5t26 -130.5q0 -47 -13.5 -88t-35 -76t-47 -63.5t-50.5 -53.5l-84 -83q-33 -32 -33 -83q0 -31 15.5 -53t40 -38.5t55.5 -29.5l61 -28q55 -27 103.5 -55.5t84.5 -67.5t55.5 -90t19.5 -121 q0 -147 -94.5 -237.5t-284.5 -90.5q-49 0 -95.5 7.5t-85 18.5t-68.5 23.5t-46 24.5l61 135q49 -27 108.5 -41t119.5 -14q102 0 150 49t48 121q0 39 -12 68.5t-36.5 54t-64.5 47t-96 47.5q-66 31 -108.5 57.5t-69 54t-37 59.5t-10.5 71q0 43 12.5 75.5t33 61.5t45.5 54l50 52 q41 41 82 97.5t41 132.5q0 72 -58 126t-165 54q-268 0 -268 -319v-1090h-183z" />
<glyph unicode="&#xe0;" horiz-adv-x="999" d="M51 293q0 158 102.5 254t307.5 96q33 0 73.5 -3t77.5 -6t66 -6t39 -5v61q0 113 -66.5 162t-189.5 49q-111 0 -187.5 -25.5t-111.5 -46.5l-56 131q18 12 51 28.5t81.5 32t111 26t139.5 10.5q186 0 295 -91.5t109 -265.5v-694h-164l-8 115q-47 -66 -137 -104t-187 -38 q-61 0 -122.5 16.5t-110.5 53.5t-81 98.5t-32 151.5zM227 293q0 -88 58.5 -131t152.5 -43q51 0 100.5 17.5t89.5 49t64.5 77.5t24.5 102v112q-2 0 -26.5 4t-61.5 7.5t-80 6.5t-80 3q-66 0 -112 -16.5t-74.5 -44t-42 -64.5t-13.5 -80zM240 1372l79 162l443 -240l-66 -131z " />
<glyph unicode="&#xe1;" horiz-adv-x="999" d="M51 293q0 158 102.5 254t307.5 96q33 0 73.5 -3t77.5 -6t66 -6t39 -5v61q0 113 -66.5 162t-189.5 49q-111 0 -187.5 -25.5t-111.5 -46.5l-56 131q18 12 51 28.5t81.5 32t111 26t139.5 10.5q186 0 295 -91.5t109 -265.5v-694h-164l-8 115q-47 -66 -137 -104t-187 -38 q-61 0 -122.5 16.5t-110.5 53.5t-81 98.5t-32 151.5zM227 293q0 -88 58.5 -131t152.5 -43q51 0 100.5 17.5t89.5 49t64.5 77.5t24.5 102v112q-2 0 -26.5 4t-61.5 7.5t-80 6.5t-80 3q-66 0 -112 -16.5t-74.5 -44t-42 -64.5t-13.5 -80zM260 1294l442 240l80 -162l-456 -209z " />
<glyph unicode="&#xe2;" horiz-adv-x="999" d="M51 293q0 158 102.5 254t307.5 96q33 0 73.5 -3t77.5 -6t66 -6t39 -5v61q0 113 -66.5 162t-189.5 49q-111 0 -187.5 -25.5t-111.5 -46.5l-56 131q18 12 51 28.5t81.5 32t111 26t139.5 10.5q186 0 295 -91.5t109 -265.5v-694h-164l-8 115q-47 -66 -137 -104t-187 -38 q-61 0 -122.5 16.5t-110.5 53.5t-81 98.5t-32 151.5zM172 1266l252 231h154l251 -231l-94 -90l-235 182l-234 -182zM227 293q0 -88 58.5 -131t152.5 -43q51 0 100.5 17.5t89.5 49t64.5 77.5t24.5 102v112q-2 0 -26.5 4t-61.5 7.5t-80 6.5t-80 3q-66 0 -112 -16.5t-74.5 -44 t-42 -64.5t-13.5 -80z" />
<glyph unicode="&#xe3;" horiz-adv-x="999" d="M51 293q0 158 102.5 254t307.5 96q33 0 73.5 -3t77.5 -6t66 -6t39 -5v61q0 113 -66.5 162t-189.5 49q-111 0 -187.5 -25.5t-111.5 -46.5l-56 131q18 12 51 28.5t81.5 32t111 26t139.5 10.5q186 0 295 -91.5t109 -265.5v-694h-164l-8 115q-47 -66 -137 -104t-187 -38 q-61 0 -122.5 16.5t-110.5 53.5t-81 98.5t-32 151.5zM147 1190q0 119 55.5 179.5t153.5 60.5q49 0 87 -16.5t71 -37t64.5 -37t66.5 -16.5q49 0 69.5 26.5t20.5 73.5h131q0 -119 -55 -179t-154 -60q-49 0 -87 17.5t-70 36.5l-64 37q-31 17 -65 17q-51 0 -71.5 -27.5 t-20.5 -74.5h-132zM227 293q0 -88 58.5 -131t152.5 -43q51 0 100.5 17.5t89.5 49t64.5 77.5t24.5 102v112q-2 0 -26.5 4t-61.5 7.5t-80 6.5t-80 3q-66 0 -112 -16.5t-74.5 -44t-42 -64.5t-13.5 -80z" />
<glyph unicode="&#xe4;" horiz-adv-x="999" d="M51 293q0 158 102.5 254t307.5 96q33 0 73.5 -3t77.5 -6t66 -6t39 -5v61q0 113 -66.5 162t-189.5 49q-111 0 -187.5 -25.5t-111.5 -46.5l-56 131q18 12 51 28.5t81.5 32t111 26t139.5 10.5q186 0 295 -91.5t109 -265.5v-694h-164l-8 115q-47 -66 -137 -104t-187 -38 q-61 0 -122.5 16.5t-110.5 53.5t-81 98.5t-32 151.5zM186 1331q0 53 32 88t85 35t85 -35t32 -88t-32 -88t-85 -35t-85 35t-32 88zM227 293q0 -88 58.5 -131t152.5 -43q51 0 100.5 17.5t89.5 49t64.5 77.5t24.5 102v112q-2 0 -26.5 4t-61.5 7.5t-80 6.5t-80 3 q-66 0 -112 -16.5t-74.5 -44t-42 -64.5t-13.5 -80zM582 1331q0 53 31.5 88t85 35t85 -35t31.5 -88t-31.5 -88t-85 -35t-85 35t-31.5 88z" />
<glyph unicode="&#xe5;" horiz-adv-x="999" d="M51 293q0 158 102.5 254t307.5 96q33 0 73.5 -3t77.5 -6t66 -6t39 -5v61q0 113 -66.5 162t-189.5 49q-111 0 -187.5 -25.5t-111.5 -46.5l-56 131q18 12 51 28.5t81.5 32t111 26t139.5 10.5q186 0 295 -91.5t109 -265.5v-694h-164l-8 115q-47 -66 -137 -104t-187 -38 q-61 0 -122.5 16.5t-110.5 53.5t-81 98.5t-32 151.5zM227 293q0 -88 58.5 -131t152.5 -43q51 0 100.5 17.5t89.5 49t64.5 77.5t24.5 102v112q-2 0 -26.5 4t-61.5 7.5t-80 6.5t-80 3q-66 0 -112 -16.5t-74.5 -44t-42 -64.5t-13.5 -80zM276 1384.5q0 47.5 17.5 87t48.5 69.5 t72 46.5t88 16.5t88 -16.5t71.5 -45.5t48 -68.5t17.5 -87t-17.5 -88.5t-48 -69.5t-71.5 -45t-86 -16.5q-47 0 -88 16.5t-72 45t-49.5 68.5t-18.5 87.5zM395 1384.5q0 -47.5 31 -79t76 -31.5t76.5 31.5t31.5 79t-31.5 78t-76.5 30.5t-76 -30.5t-31 -78z" />
<glyph unicode="&#xe6;" horiz-adv-x="1687" d="M51 293q0 158 102.5 254t307.5 96q33 0 73.5 -3t77.5 -6t66 -6t39 -5v61q0 113 -66.5 162t-189.5 49q-111 0 -187.5 -25.5t-111.5 -46.5l-56 131q18 12 51 28.5t80.5 32t108 26t131.5 10.5q127 0 222.5 -40t138.5 -132q51 76 138 124t202 48q104 0 186 -32t139.5 -99.5 t88 -173t30.5 -252.5v-33h-729q10 -145 92 -235.5t252 -90.5q106 0 175 18.5t97 28.5l50 -135q-10 -6 -39 -18.5t-72 -24.5t-99.5 -21.5t-125.5 -9.5q-90 0 -157 16.5t-117 43t-86 59.5t-60 68q-16 -23 -45 -54.5t-74 -60.5t-110.5 -50.5t-155.5 -21.5q-72 0 -137.5 16.5 t-116.5 53.5t-82 98.5t-31 151.5zM227 293q0 -88 58.5 -131t152.5 -43q63 0 115.5 19.5t88.5 52t55.5 77.5t19.5 94v115q-2 0 -26.5 4t-61.5 7.5t-80 6.5t-80 3q-66 0 -112 -16.5t-74.5 -44t-42 -64.5t-13.5 -80zM897 608h537q-10 137 -68.5 213t-187.5 76q-131 0 -196 -77 t-85 -212z" />
<glyph unicode="&#xe7;" horiz-adv-x="907" d="M68 512q0 119 32.5 218t94 170t149.5 110t199 39q74 0 133 -15.5t102 -34t68.5 -36t30.5 -23.5l-80 -131q-6 6 -27.5 18.5t-54.5 24.5t-76 21.5t-92 9.5q-127 0 -209 -91.5t-82 -279.5q0 -195 82 -284t209 -89q96 0 162.5 24.5t89.5 37.5l71 -129q-4 -6 -28.5 -20.5 t-64.5 -30t-94 -30t-118 -16.5l-14 -75q94 -8 144 -57.5t50 -121.5q0 -49 -20 -85.5t-56 -62.5t-82 -38t-98 -12q-88 0 -141 14t-63 19l32 104q35 -10 71 -17.5t75 -7.5q66 0 99.5 21.5t33.5 58.5q0 29 -27.5 50.5t-91.5 21.5q-37 0 -74 -6l43 203q-182 29 -280 165t-98 363 z" />
<glyph unicode="&#xe8;" horiz-adv-x="1046" d="M68 514q0 119 30.5 218t90 170t146.5 110t202 39q104 0 186 -32t139.5 -99.5t88 -173t30.5 -252.5v-33h-729q10 -145 92 -235.5t252 -90.5q106 0 175 18.5t97 28.5l50 -135q-10 -6 -39 -18.5t-72 -24.5t-99.5 -21.5t-125.5 -9.5q-256 0 -385 143.5t-129 397.5zM256 608 h537q-10 137 -68.5 213t-187.5 76q-131 0 -196 -77t-85 -212zM303 1372l80 162l442 -240l-65 -131z" />
<glyph unicode="&#xe9;" horiz-adv-x="1046" d="M68 514q0 119 30.5 218t90 170t146.5 110t202 39q104 0 186 -32t139.5 -99.5t88 -173t30.5 -252.5v-33h-729q10 -145 92 -235.5t252 -90.5q106 0 175 18.5t97 28.5l50 -135q-10 -6 -39 -18.5t-72 -24.5t-99.5 -21.5t-125.5 -9.5q-256 0 -385 143.5t-129 397.5zM256 608 h537q-10 137 -68.5 213t-187.5 76q-131 0 -196 -77t-85 -212zM293 1294l442 240l80 -162l-457 -209z" />
<glyph unicode="&#xea;" horiz-adv-x="1046" d="M68 514q0 119 30.5 218t90 170t146.5 110t202 39q104 0 186 -32t139.5 -99.5t88 -173t30.5 -252.5v-33h-729q10 -145 92 -235.5t252 -90.5q106 0 175 18.5t97 28.5l50 -135q-10 -6 -39 -18.5t-72 -24.5t-99.5 -21.5t-125.5 -9.5q-256 0 -385 143.5t-129 397.5zM205 1266 l252 231h153l252 -231l-94 -90l-236 182l-233 -182zM256 608h537q-10 137 -68.5 213t-187.5 76q-131 0 -196 -77t-85 -212z" />
<glyph unicode="&#xeb;" horiz-adv-x="1046" d="M68 514q0 119 30.5 218t90 170t146.5 110t202 39q104 0 186 -32t139.5 -99.5t88 -173t30.5 -252.5v-33h-729q10 -145 92 -235.5t252 -90.5q106 0 175 18.5t97 28.5l50 -135q-10 -6 -39 -18.5t-72 -24.5t-99.5 -21.5t-125.5 -9.5q-256 0 -385 143.5t-129 397.5zM219 1331 q0 53 32 88t85 35t85 -35t32 -88t-32 -88t-85 -35t-85 35t-32 88zM256 608h537q-10 137 -68.5 213t-187.5 76q-131 0 -196 -77t-85 -212zM614 1331q0 53 32 88t85 35t85 -35t32 -88t-32 -88t-85 -35t-85 35t-32 88z" />
<glyph unicode="&#xec;" horiz-adv-x="415" d="M-76 1372l80 162l442 -240l-65 -131zM117 0v1024h182v-1024h-182z" />
<glyph unicode="&#xed;" horiz-adv-x="415" d="M-25 1294l443 240l80 -162l-457 -209zM117 0v1024h182v-1024h-182z" />
<glyph unicode="&#xee;" horiz-adv-x="415" d="M-119 1266l252 231h154l252 -231l-95 -90l-235 182l-234 -182zM117 0v1024h182v-1024h-182z" />
<glyph unicode="&#xef;" horiz-adv-x="415" d="M-104 1331q0 53 31.5 88t85 35t85 -35t31.5 -88t-31.5 -88t-85 -35t-85 35t-31.5 88zM117 0v1024h182v-1024h-182zM291 1331q0 53 31.5 88t85 35t85 -35t31.5 -88t-31.5 -88t-85 -35t-85 35t-31.5 88z" />
<glyph unicode="&#xf0;" horiz-adv-x="1112" d="M68 492q0 117 32.5 211t93 159.5t146.5 100t192 34.5q92 0 165 -28.5t100 -59.5q-35 104 -87.5 189.5t-119.5 150.5l-191 -155l-82 100l168 137q-55 35 -113.5 59.5t-115.5 39.5l45 133q84 -23 159 -58t144 -80l168 140l82 -101l-143 -118q160 -141 245.5 -349.5 t85.5 -470.5q0 -279 -127 -416t-360 -137q-117 0 -208 36t-152.5 103.5t-94 164t-32.5 215.5zM256 492q0 -166 71.5 -263.5t227.5 -97.5t227.5 99.5t71.5 263.5q0 158 -72.5 253t-226.5 95q-152 0 -225.5 -94t-73.5 -256z" />
<glyph unicode="&#xf1;" horiz-adv-x="1081" d="M106 0v1024h168l9 -141q12 25 38.5 54.5t68.5 55t97.5 42t126.5 16.5q176 0 268.5 -102.5t92.5 -280.5v-668h-182v629q0 78 -15.5 129t-44 80.5t-67.5 41t-84 11.5q-82 0 -137.5 -35t-90.5 -93t-50 -132t-15 -152v-479h-183zM188 1190q0 119 55.5 179.5t153.5 60.5 q49 0 87 -16.5t71 -37t64.5 -37t66.5 -16.5q49 0 69.5 26.5t20.5 73.5h131q0 -119 -55 -179t-154 -60q-49 0 -87 17.5t-70 36.5l-64 37q-31 17 -65 17q-51 0 -72 -27.5t-21 -74.5h-131z" />
<glyph unicode="&#xf2;" horiz-adv-x="1097" d="M68 512q0 119 32.5 218t95 171t151.5 111t202 39t202 -39t151.5 -110t95 -170t32.5 -220q0 -123 -32.5 -222.5t-94 -170t-151.5 -108.5t-203 -38q-115 0 -204 39t-150.5 110t-94 170t-32.5 220zM256 512q0 -170 71.5 -273.5t221 -103.5t221.5 104.5t72 272.5 q0 82 -18.5 150.5t-54.5 118.5t-91 79t-129 29q-145 0 -219 -104.5t-74 -272.5zM289 1372l80 162l442 -240l-66 -131z" />
<glyph unicode="&#xf3;" horiz-adv-x="1097" d="M68 512q0 119 32.5 218t95 171t151.5 111t202 39t202 -39t151.5 -110t95 -170t32.5 -220q0 -123 -32.5 -222.5t-94 -170t-151.5 -108.5t-203 -38q-115 0 -204 39t-150.5 110t-94 170t-32.5 220zM256 512q0 -170 71.5 -273.5t221 -103.5t221.5 104.5t72 272.5 q0 82 -18.5 150.5t-54.5 118.5t-91 79t-129 29q-145 0 -219 -104.5t-74 -272.5zM289 1294l442 240l80 -162l-457 -209z" />
<glyph unicode="&#xf4;" horiz-adv-x="1097" d="M68 512q0 119 32.5 218t95 171t151.5 111t202 39t202 -39t151.5 -110t95 -170t32.5 -220q0 -123 -32.5 -222.5t-94 -170t-151.5 -108.5t-203 -38q-115 0 -204 39t-150.5 110t-94 170t-32.5 220zM221 1266l252 231h154l252 -231l-95 -90l-235 182l-234 -182zM256 512 q0 -170 71.5 -273.5t221 -103.5t221.5 104.5t72 272.5q0 82 -18.5 150.5t-54.5 118.5t-91 79t-129 29q-145 0 -219 -104.5t-74 -272.5z" />
<glyph unicode="&#xf5;" horiz-adv-x="1097" d="M68 512q0 119 32.5 218t95 171t151.5 111t202 39t202 -39t151.5 -110t95 -170t32.5 -220q0 -123 -32.5 -222.5t-94 -170t-151.5 -108.5t-203 -38q-115 0 -204 39t-150.5 110t-94 170t-32.5 220zM197 1190q0 119 55 179.5t154 60.5q49 0 86.5 -16.5t70.5 -37t64.5 -37 t66.5 -16.5q49 0 69.5 26.5t20.5 73.5h131q0 -119 -55 -179t-153 -60q-49 0 -87 17.5t-71 36.5l-64 37q-31 17 -65 17q-51 0 -71.5 -27.5t-20.5 -74.5h-131zM256 512q0 -170 71.5 -273.5t221 -103.5t221.5 104.5t72 272.5q0 82 -18.5 150.5t-54.5 118.5t-91 79t-129 29 q-145 0 -219 -104.5t-74 -272.5z" />
<glyph unicode="&#xf6;" horiz-adv-x="1097" d="M68 512q0 119 32.5 218t95 171t151.5 111t202 39t202 -39t151.5 -110t95 -170t32.5 -220q0 -123 -32.5 -222.5t-94 -170t-151.5 -108.5t-203 -38q-115 0 -204 39t-150.5 110t-94 170t-32.5 220zM236 1331q0 53 31.5 88t85 35t85 -35t31.5 -88t-31.5 -88t-85 -35t-85 35 t-31.5 88zM256 512q0 -170 71.5 -273.5t221 -103.5t221.5 104.5t72 272.5q0 82 -18.5 150.5t-54.5 118.5t-91 79t-129 29q-145 0 -219 -104.5t-74 -272.5zM631 1331q0 53 31.5 88t85 35t85 -35t31.5 -88t-31.5 -88t-85 -35t-85 35t-31.5 88z" />
<glyph unicode="&#xf7;" d="M117 639v164h905v-164h-905zM438 381q0 59 36 98t95.5 39t95 -39t35.5 -98t-35.5 -98t-95 -39t-95.5 39t-36 98zM438 1060.5q0 59.5 36 98.5t95.5 39t95 -39t35.5 -98.5t-35.5 -98t-95 -38.5t-95.5 38.5t-36 98z" />
<glyph unicode="&#xf8;" horiz-adv-x="1097" d="M68 512q0 119 32.5 218t95 171t151.5 111t202 39q141 0 250 -64l90 131l106 -69l-98 -142q66 -72 99.5 -172t33.5 -223t-32.5 -222.5t-94 -170t-151.5 -108.5t-203 -38q-74 0 -136.5 16.5t-115.5 45.5l-88 -129l-107 69l97 142q-63 72 -97 171t-34 224zM254 512 q0 -147 51 -242l397 578q-33 20 -70.5 31.5t-82.5 11.5q-72 0 -127 -27.5t-92 -78t-56.5 -120t-19.5 -153.5zM393 174q63 -41 156 -41q74 0 129 27.5t92 78t55.5 120t18.5 153.5q0 141 -53 238z" />
<glyph unicode="&#xf9;" horiz-adv-x="1081" d="M106 356v668h183v-641q0 -74 15 -122t43 -76.5t67 -40t86 -11.5q82 0 137 35t90 93t50.5 132t15.5 152v479h182v-1024h-168l-8 137q-12 -25 -39 -53.5t-68 -53t-96 -41t-127 -16.5q-176 0 -269.5 102.5t-93.5 280.5zM240 1372l79 162l443 -240l-66 -131z" />
<glyph unicode="&#xfa;" horiz-adv-x="1081" d="M106 356v668h183v-641q0 -74 15 -122t43 -76.5t67 -40t86 -11.5q82 0 137 35t90 93t50.5 132t15.5 152v479h182v-1024h-168l-8 137q-12 -25 -39 -53.5t-68 -53t-96 -41t-127 -16.5q-176 0 -269.5 102.5t-93.5 280.5zM322 1294l442 240l80 -162l-457 -209z" />
<glyph unicode="&#xfb;" horiz-adv-x="1081" d="M106 356v668h183v-641q0 -74 15 -122t43 -76.5t67 -40t86 -11.5q82 0 137 35t90 93t50.5 132t15.5 152v479h182v-1024h-168l-8 137q-12 -25 -39 -53.5t-68 -53t-96 -41t-127 -16.5q-176 0 -269.5 102.5t-93.5 280.5zM213 1266l252 231h153l252 -231l-94 -90l-235 182 l-234 -182z" />
<glyph unicode="&#xfc;" horiz-adv-x="1081" d="M106 356v668h183v-641q0 -74 15 -122t43 -76.5t67 -40t86 -11.5q82 0 137 35t90 93t50.5 132t15.5 152v479h182v-1024h-168l-8 137q-12 -25 -39 -53.5t-68 -53t-96 -41t-127 -16.5q-176 0 -269.5 102.5t-93.5 280.5zM227 1331q0 53 32 88t85 35t85 -35t32 -88t-32 -88 t-85 -35t-85 35t-32 88zM623 1331q0 53 31.5 88t85 35t85 -35t31.5 -88t-31.5 -88t-85 -35t-85 35t-31.5 88z" />
<glyph unicode="&#xfd;" horiz-adv-x="1011" d="M12 1024h205l291 -748l299 748h192l-616 -1475h-186l213 508zM305 1294l443 240l79 -162l-456 -209z" />
<glyph unicode="&#xfe;" horiz-adv-x="1110" d="M106 -451v1987h183v-635q16 25 43.5 51.5t65.5 48t88.5 36t111.5 14.5q113 0 197 -41t139 -113t81.5 -167t26.5 -206q0 -152 -40.5 -254t-107.5 -166.5t-152 -92t-171 -27.5q-104 0 -171.5 23.5t-110.5 47.5v-506h-183zM287 244q29 -33 99.5 -68t168.5 -35 q137 0 218 91.5t81 291.5q0 78 -16.5 144.5t-51 114.5t-87 75t-124.5 27q-143 0 -215.5 -109.5t-72.5 -316.5v-215z" />
<glyph unicode="&#xff;" horiz-adv-x="1011" d="M12 1024h205l291 -748l299 748h192l-616 -1475h-186l213 508zM190 1331q0 53 32 88t85 35t85 -35t32 -88t-32 -88t-85 -35t-85 35t-32 88zM586 1331q0 53 31.5 88t85 35t85 -35t31.5 -88t-31.5 -88t-85 -35t-85 35t-31.5 88z" />
<glyph unicode="&#x152;" horiz-adv-x="1792" d="M88 719q0 166 40 299t120 227t198.5 144.5t278.5 50.5h1006v-170h-639v-436h495v-170h-495v-494h659v-170h-1026q-160 0 -278.5 49t-198.5 142.5t-120 226.5t-40 301zM293 719q0 -266 104.5 -407.5t327.5 -141.5h178v1100h-178q-221 0 -326.5 -142.5t-105.5 -408.5z" />
<glyph unicode="&#x153;" horiz-adv-x="1810" d="M68 512q0 119 32.5 218t94 171t148.5 111t196 39q129 0 233.5 -55.5t155.5 -145.5q57 94 148 147.5t224 53.5q104 0 186.5 -32t139.5 -99.5t88 -173t31 -252.5v-33h-729q10 -145 92 -235.5t252 -90.5q106 0 175 18.5t97 28.5l49 -135q-10 -6 -38.5 -18.5t-71.5 -24.5 t-99.5 -21.5t-125.5 -9.5q-145 0 -250 48.5t-168 152.5q-63 -96 -160.5 -148.5t-228.5 -52.5q-111 0 -198 39t-147.5 110t-93 170t-32.5 220zM256 512q0 -170 71.5 -273.5t221 -103.5t221.5 104.5t72 272.5q0 82 -18.5 150.5t-54.5 118.5t-91 79t-129 29q-145 0 -219 -104.5 t-74 -272.5zM1020 608h536q-10 137 -68 213t-188 76q-131 0 -195.5 -77t-84.5 -212z" />
<glyph unicode="&#x178;" horiz-adv-x="1128" d="M10 1440h209l354 -619l351 619h194l-461 -789v-651h-188v651zM231 1714q0 55 33 92t90.5 37t90 -35.5t32.5 -93t-32.5 -93.5t-90 -36t-90.5 37t-33 92zM651 1714q0 55 33 92t90 37t90 -35.5t33 -93t-33 -93.5t-90 -36t-90 37t-33 92z" />
<glyph unicode="&#x2c6;" horiz-adv-x="960" d="M152 1266l251 231h154l252 -231l-94 -90l-236 182l-233 -182z" />
<glyph unicode="&#x2dc;" horiz-adv-x="960" d="M121 1190q0 119 55 179.5t154 60.5q49 0 87 -16.5t70.5 -37t64.5 -37t66 -16.5q49 0 70 26.5t21 73.5h131q0 -119 -55.5 -179t-153.5 -60q-49 0 -87 17.5t-71 36.5l-63 37q-31 17 -66 17q-51 0 -71.5 -27.5t-20.5 -74.5h-131z" />
<glyph unicode="&#x2000;" horiz-adv-x="948" />
<glyph unicode="&#x2001;" horiz-adv-x="1896" />
<glyph unicode="&#x2002;" horiz-adv-x="948" />
<glyph unicode="&#x2003;" horiz-adv-x="1896" />
<glyph unicode="&#x2004;" horiz-adv-x="632" />
<glyph unicode="&#x2005;" horiz-adv-x="474" />
<glyph unicode="&#x2006;" horiz-adv-x="316" />
<glyph unicode="&#x2007;" horiz-adv-x="316" />
<glyph unicode="&#x2008;" horiz-adv-x="237" />
<glyph unicode="&#x2009;" horiz-adv-x="379" />
<glyph unicode="&#x200a;" horiz-adv-x="105" />
<glyph unicode="&#x2010;" horiz-adv-x="759" d="M86 479v189h588v-189h-588z" />
<glyph unicode="&#x2011;" horiz-adv-x="759" d="M86 479v189h588v-189h-588z" />
<glyph unicode="&#x2012;" horiz-adv-x="759" d="M86 479v189h588v-189h-588z" />
<glyph unicode="&#x2013;" horiz-adv-x="1024" d="M0 520v176h1024v-176h-1024z" />
<glyph unicode="&#x2014;" horiz-adv-x="2048" d="M0 520v176h2048v-176h-2048z" />
<glyph unicode="&#x2018;" horiz-adv-x="479" d="M117 1136.5q0 61.5 28.5 131t65.5 131t70.5 106.5t44.5 58l94 -66q-12 -16 -31 -48l-39 -69q-20 -37 -36.5 -73.5t-24.5 -65.5q29 -16 48 -44t19 -69q0 -57 -32.5 -90.5t-87.5 -33.5q-51 0 -85 35.5t-34 97z" />
<glyph unicode="&#x2019;" horiz-adv-x="479" d="M59 1069q12 16 31 47l39 68q20 37 36.5 74.5t24.5 66.5q-29 16 -48 44t-19 69q0 57 32.5 91t88.5 34q51 0 84.5 -36t33.5 -97.5t-28.5 -131t-65.5 -131t-70.5 -106.5t-43.5 -57z" />
<glyph unicode="&#x201a;" horiz-adv-x="479" d="M59 -252q12 16 31 47l39 68q20 37 36.5 74.5t24.5 66.5q-29 16 -48 44t-19 69q0 57 32.5 91t88.5 34q51 0 84.5 -36t33.5 -97.5t-28.5 -131t-65.5 -131t-70.5 -106.5t-43.5 -57z" />
<glyph unicode="&#x201c;" horiz-adv-x="874" d="M117 1136.5q0 61.5 28.5 131t65.5 131t70.5 106.5t44.5 58l94 -66q-12 -16 -31 -48l-39 -69q-20 -37 -36.5 -73.5t-24.5 -65.5q29 -16 48 -44t19 -69q0 -57 -32.5 -90.5t-87.5 -33.5q-51 0 -85 35.5t-34 97zM512 1136.5q0 61.5 28.5 131t65.5 131t71 106.5t44 58l94 -66 q-12 -16 -31 -48l-39 -69q-20 -37 -36.5 -73.5t-24.5 -65.5q29 -16 48.5 -44t19.5 -69q0 -57 -33 -90.5t-88 -33.5q-51 0 -85 35.5t-34 97z" />
<glyph unicode="&#x201d;" horiz-adv-x="874" d="M59 1069q12 16 31 47l39 68q20 37 36.5 74.5t24.5 66.5q-29 16 -48 44t-19 69q0 57 32.5 91t88.5 34q51 0 84.5 -36t33.5 -97.5t-28.5 -131t-65.5 -131t-70.5 -106.5t-43.5 -57zM455 1069q12 16 30 47l39 68q20 37 37 74.5t25 66.5q-29 16 -48.5 44t-19.5 69q0 57 33 91 t88 34q51 0 85 -36t34 -97.5t-29 -131t-65.5 -131t-70.5 -106.5t-44 -57z" />
<glyph unicode="&#x201e;" horiz-adv-x="874" d="M59 -252q12 16 31 47l39 68q20 37 36.5 74.5t24.5 66.5q-29 16 -48 44t-19 69q0 57 32.5 91t88.5 34q51 0 84.5 -36t33.5 -97.5t-28.5 -131t-65.5 -131t-70.5 -106.5t-43.5 -57zM455 -252q12 16 30 47l39 68q20 37 37 74.5t25 66.5q-29 16 -48.5 44t-19.5 69q0 57 33 91 t88 34q51 0 85 -36t34 -97.5t-29 -131t-65.5 -131t-70.5 -106.5t-44 -57z" />
<glyph unicode="&#x2022;" horiz-adv-x="952" d="M119 694q0 74 27.5 139.5t75.5 113.5t113.5 76t139.5 28t139.5 -28t114.5 -76t77 -113.5t28 -139.5q0 -76 -28 -141.5t-77 -113.5t-114.5 -75.5t-139.5 -27.5t-139.5 27.5t-113.5 75.5t-75.5 113.5t-27.5 141.5z" />
<glyph unicode="&#x2026;" horiz-adv-x="2048" d="M174 110.5q0 59.5 36 98.5t95.5 39t95 -39t35.5 -98.5t-35.5 -98.5t-95 -39t-95.5 39t-36 98.5zM856 110.5q0 59.5 36 98.5t95.5 39t95 -39t35.5 -98.5t-35.5 -98.5t-95 -39t-95.5 39t-36 98.5zM1538 110.5q0 59.5 36 98.5t95.5 39t95 -39t35.5 -98.5t-35.5 -98.5 t-95 -39t-95.5 39t-36 98.5z" />
<glyph unicode="&#x202f;" horiz-adv-x="379" />
<glyph unicode="&#x2039;" horiz-adv-x="540" d="M66 512l235 395h174l-227 -395l227 -395h-174z" />
<glyph unicode="&#x203a;" horiz-adv-x="540" d="M66 117l227 395l-227 395h174l235 -395l-235 -395h-174z" />
<glyph unicode="&#x205f;" horiz-adv-x="474" />
<glyph unicode="&#x20ac;" d="M29 496v139h129q-2 20 -2 41v43q0 27 1 52.5t3 51.5h-131v140h145q20 113 62.5 206t111 160.5t163.5 105.5t222 38q145 0 244.5 -46.5t165.5 -107.5l-101 -127q-14 12 -39.5 31.5t-62.5 36t-88 28.5t-119 12q-154 0 -238.5 -89t-117.5 -248h549l-41 -140h-527 q-2 -27 -2 -52v-52v-84h488l-41 -139h-432q29 -168 112.5 -262.5t253.5 -94.5q61 0 110.5 11.5t86.5 28t62.5 33.5t43.5 32l101 -129q-57 -57 -160.5 -102.5t-249.5 -45.5q-127 0 -224 36t-166 104.5t-111 167t-60 221.5h-141z" />
<glyph unicode="&#x2122;" horiz-adv-x="1748" d="M25 1305v135h710v-135h-276v-650h-156v650h-278zM854 655v785h158l243 -416l232 416h158v-785h-140v562l-205 -361h-102l-205 352v-553h-139z" />
<glyph unicode="&#xe000;" horiz-adv-x="1025" d="M0 1025h1025v-1025h-1025v1025z" />
<glyph unicode="&#xfb01;" horiz-adv-x="1136" d="M25 870v154h194v106q0 92 19.5 171t63.5 137.5t115.5 91.5t176.5 33q53 0 91 -6.5t48 -8.5l-12 -143q-8 2 -29.5 4t-64.5 2q-117 0 -171.5 -67.5t-54.5 -227.5v-92h619v-1024h-182v870h-437v-870h-182v870h-194zM809 1356q0 53 31.5 89t87 36t87.5 -35t32 -90.5t-32 -90 t-87.5 -34.5t-87 36t-31.5 89z" />
<glyph unicode="&#xfb02;" horiz-adv-x="1136" d="M25 870v154h194v106q0 92 19.5 171t63.5 137.5t115.5 91.5t176.5 33q53 0 91 -6.5t48 -8.5l-12 -143q-8 2 -29.5 4t-64.5 2q-117 0 -171.5 -67.5t-54.5 -227.5v-92h318v-154h-318v-870h-182v870h-194zM838 0v1536h182v-1536h-182z" />
<glyph unicode="&#xfb03;" horiz-adv-x="1755" d="M25 870v154h194v117q0 92 22.5 170t69.5 133t123 87t180 32q70 0 121 -9.5t66 -13.5l-21 -139q-10 2 -50 6t-83 4q-117 0 -181.5 -62.5t-64.5 -222.5v-102h437v106q0 92 19.5 171t63.5 137.5t115.5 91.5t175.5 33q53 0 91 -6.5t49 -8.5l-13 -143q-8 2 -29.5 4t-64.5 2 q-117 0 -171 -67.5t-54 -227.5v-92h618v-1024h-182v870h-436v-870h-182v870h-437v-870h-182v870h-194zM1427 1356q0 53 32 89t87.5 36t87 -35t31.5 -90.5t-31.5 -90t-87 -34.5t-87.5 36t-32 89z" />
<glyph unicode="&#xfb04;" horiz-adv-x="1755" d="M25 870v154h194v117q0 92 22.5 170t69.5 133t123 87t180 32q70 0 121 -9.5t66 -13.5l-21 -139q-10 2 -50 6t-83 4q-117 0 -181.5 -62.5t-64.5 -222.5v-102h437v106q0 92 19.5 171t63.5 137.5t115.5 91.5t175.5 33q53 0 91 -6.5t49 -8.5l-13 -143q-8 2 -29.5 4t-64.5 2 q-117 0 -171 -67.5t-54 -227.5v-92h317v-154h-317v-870h-182v870h-437v-870h-182v870h-194zM1456 0v1536h182v-1536h-182z" />
</font>
</defs>
</svg>
