<?xml version="1.0" standalone="no"?>
<!DOCTYPE svg PUBLIC "-//W3C//DTD SVG 1.1//EN" "http://www.w3.org/Graphics/SVG/1.1/DTD/svg11.dtd" >
<svg xmlns="http://www.w3.org/2000/svg">
<metadata>
This is a custom SVG webfont generated by Font Squirrel.
Copyright   : Copyright c 2011 by LatinoType Limitada infolatinotypecom  with Reserved Font Names Sofia
Designer    : Paula Nazal and Daniel Hernndez
Foundry     : Paula Nazal Daniel Hernndez
Foundry URL : wwwlatinotypecom
</metadata>
<defs>
<font id="SofiaRegular" horiz-adv-x="1705" >
<font-face units-per-em="2048" ascent="1638" descent="-410" />
<missing-glyph horiz-adv-x="724" />
<glyph unicode=" "  horiz-adv-x="724" />
<glyph unicode="&#x09;" horiz-adv-x="724" />
<glyph unicode="&#xa0;" horiz-adv-x="724" />
<glyph unicode="!" horiz-adv-x="419" d="M88 114.5q0 51.5 35 87.5t86 36t87 -36t36 -87.5t-36 -86t-87 -34.5t-86 34.5t-35 86zM98 1366q-2 55 39 88t89 33t100 -39l-39 -965q0 -35 -27 -54t-47 -19q-41 0 -74 18z" />
<glyph unicode="&#x22;" horiz-adv-x="716" d="M98 1454q10 29 68 29q96 0 96 -125l2 -373q-10 -29 -67 -29q-96 0 -97 125zM428 1454q10 29 68 29q96 0 96 -125l2 -373q-10 -29 -68 -29q-96 0 -96 125z" />
<glyph unicode="#" d="M72 391q0 27 18 45h217l96 395h-258q-74 0 -73 60q0 27 18 45h338l70 281q14 55 67 55q27 0 49 -35l-73 -301l293 2l69 279q14 55 68 55q27 0 49 -35l-74 -299h166q35 0 54.5 -17.5t19.5 -44t-19 -45.5h-247l-97 -395l289 2q35 0 54.5 -17.5t19.5 -44t-19 -44.5h-368 l-70 -285q-16 -53 -65 -53q-33 0 -52 31l74 307h-293l-69 -285q-16 -53 -66 -53q-33 0 -51 31l74 307h-136q-73 0 -73 59zM418 436h295l96 395h-295z" />
<glyph unicode="$" horiz-adv-x="1214" d="M4 326q0 84 33 132t78 48q80 0 102 -27l6 -10q-18 -51 -18 -125q0 -139 113.5 -243.5t297.5 -104.5q133 0 229.5 93t96.5 224q0 98 -46 168t-118.5 109t-161 69.5t-176.5 62.5t-160.5 76t-118.5 121.5t-46 188.5q0 170 113.5 275.5t299.5 125.5v340q6 29 64 29 q92 0 92 -125v-242q188 -16 301 -111t113 -204q0 -82 -32 -122t-75 -40q-80 0 -102 31l-6 10q20 27 20 103q0 117 -98 183t-228.5 66t-206 -69.5t-75.5 -170t46 -167t120 -103t163 -65.5t178 -62.5t162.5 -82t119.5 -136.5t46 -213q0 -197 -128 -310.5t-318 -135.5v-311 q-6 -29 -63 -29q-92 0 -93 125v213q-227 16 -375.5 132t-148.5 284z" />
<glyph unicode="%" horiz-adv-x="1918" d="M68 1272q0 170 93 276.5t242.5 106.5t242.5 -106.5t93 -276.5t-92 -273.5t-243.5 -103.5t-243.5 103.5t-92 273.5zM229 1271.5q0 -114.5 45 -189t129 -74.5t129.5 73.5t45.5 189t-49.5 188.5t-126 73t-125 -73t-48.5 -187.5zM451 20l729 1536q47 100 133 101 q23 0 37 -13.5t22 -39.5l-721 -1516q-31 -66 -63.5 -91.5t-67.5 -25.5q-57 0 -65 37zM1044 354q0 170 93.5 276.5t243 106.5t242.5 -106.5t93 -276.5t-92 -273.5t-243.5 -103.5t-244 103.5t-92.5 273.5zM1206 354.5q0 -114.5 45 -189.5t129 -75t129 74t45 189.5t-49 188 t-125.5 72.5t-125 -72.5t-48.5 -187z" />
<glyph unicode="&#x26;" horiz-adv-x="1693" d="M2 299q0 180 102 283q88 84 226 151q-117 221 -117 404q0 133 74 231q86 117 280 117q289 0 293 -324q0 -184 -96 -289q-84 -92 -215 -172q139 -244 358 -411q10 59 10.5 140t-18.5 132q25 12 60.5 12t60 -14t45 -60t20.5 -130t-32 -172q115 -57 191.5 -57.5t129.5 14.5 q25 -6 45.5 -28t20.5 -57.5t-45 -70.5t-157 -35t-271 88q-150 -160 -403 -160t-407.5 113t-154.5 295zM174 276.5q0 -114.5 95.5 -204.5t269.5 -90q227 0 313 143q-266 190 -453 487q-109 -68 -167 -144.5t-58 -191zM408 1120q0 -131 81 -307q111 61 171.5 143t60.5 198 t-37 179.5t-117 63.5t-119.5 -73t-39.5 -204z" />
<glyph unicode="'" horiz-adv-x="337" d="M94 1454q10 29 68 29q96 0 96 -125l2 -373q-10 -29 -67 -29q-96 0 -97 125z" />
<glyph unicode="(" horiz-adv-x="784" d="M16 596q0 215 57.5 411.5t147.5 326.5t196.5 206t207.5 76q37 0 59.5 -21.5t22.5 -46t-13 -28.5q-145 0 -260 -146.5t-171 -354.5t-56 -423t56 -419t171 -346t260 -142q12 -2 12.5 -28t-22 -47.5t-59.5 -21.5q-100 0 -207 75t-197 202t-147.5 319.5t-57.5 407.5z" />
<glyph unicode=")" horiz-adv-x="729" d="M16 -340q0 25 13 29q145 0 259.5 142t171 346t56.5 419t-56.5 423t-171 354.5t-259.5 146.5q-12 2 -12.5 27.5t22 47t59.5 21.5q100 0 207 -76t197 -206t147.5 -326.5t57.5 -411.5t-57.5 -407.5t-147.5 -319.5t-196.5 -202t-207.5 -75q-37 0 -59.5 21.5t-22.5 46.5z" />
<glyph unicode="*" horiz-adv-x="1181" d="M8 1453q0 32 13.5 50.5t39.5 28.5l312 -88l-115 225q-12 27 -12 51.5t12 44.5q27 45 57 45q53 0 74 -24l88 -309l131 209q37 57 105 57q31 0 51 -23.5t31 -68.5l-234 -236l215 -10q125 -6 125 -96q0 -25 -10 -46.5t-33 -37.5l-313 80l108 -195q16 -29 16.5 -54.5 t-10.5 -47.5q-23 -49 -73 -50l-51 9l-93 303l-129 -213q-35 -51 -79 -51t-67.5 25.5t-27.5 49.5l-4 27l225 227l-251 17q-53 2 -77 35.5t-24 65.5z" />
<glyph unicode="+" horiz-adv-x="995" d="M53 539q0 92 125 92h195v295q6 29 63 28q92 0 92 -125v-198l293 2q29 -6 29 -64q0 -92 -125 -92l-197 -2l2 -289q-6 -29 -63 -28q-92 0 -92 125l-2 192h-291q-29 7 -29 64z" />
<glyph unicode="," horiz-adv-x="370" d="M72 93q0 40 27.5 68.5t68.5 28.5h2q74 0 119 -51t45 -148t-45 -159.5t-109 -62.5q-27 0 -46 11t-19 30.5t14 29.5q57 0 90 38t33 84t-6 71q-27 -37 -73 -37t-73.5 28.5t-27.5 68.5z" />
<glyph unicode="-" horiz-adv-x="901" d="M53 539q0 92 125 92l643 2q29 -6 29 -64q0 -92 -125 -92l-643 -2q-29 7 -29 64z" />
<glyph unicode="." horiz-adv-x="245" d="M27 93q0 40 27.5 68.5t68.5 28.5t69.5 -28.5t28.5 -69.5t-28.5 -68.5t-69.5 -27.5t-68.5 28.5t-27.5 68.5z" />
<glyph unicode="/" horiz-adv-x="772" d="M-8 20l729 1536q47 100 133 101q23 0 37 -13.5t22 -39.5l-720 -1516q-31 -66 -64 -91.5t-68 -25.5q-57 0 -65 37z" />
<glyph unicode="0" horiz-adv-x="1771" d="M209 715q0 334 181 544.5t471 210.5t470 -209.5t180 -525.5q0 -352 -179 -557t-473 -205t-472 204t-178 538zM397 716q0 -288 121 -474.5t342 -186.5t342 185.5t121 474.5t-130 471t-335 182t-333 -182t-128 -470z" />
<glyph unicode="1" horiz-adv-x="974" d="M-25 1155l2 19l443 284q61 41 110.5 41t63.5 -65v-1336h274q35 0 54.5 -17.5t19.5 -46t-18 -42.5h-826q-74 0 -73 59q0 31 18 45h358v1221l-305 -193q-45 -31 -71 -30q-50 0 -50 61z" />
<glyph unicode="2" d="M156 174q0 88 61.5 136t183.5 48q74 0 179 -63q33 -18 100 -64q178 172 303 384t125 397.5t-105.5 276.5t-248 91t-251 -91t-108.5 -242q0 -39 13 -76q-12 -25 -55.5 -25t-74 31t-30.5 82q0 180 136 301t371.5 121t388 -116t152.5 -372q0 -186 -169 -441t-345 -388 q156 -96 269.5 -96t181 33.5t94.5 82.5q57 98 53 176l-2 35q12 23 54 23q61 0 61 -148.5t-132 -243t-297 -94.5t-376 156q-139 -90 -313 -90q-96 0 -157.5 44t-61.5 132zM268 178q0 -86 109.5 -86t216.5 68q-139 106 -198.5 106t-93.5 -24.5t-34 -63.5z" />
<glyph unicode="3" horiz-adv-x="1218" d="M16 141q0 66 33 66l41 -12q0 -106 137.5 -176t310.5 -70t287.5 96t114.5 282.5t-131 279.5t-336 93q-47 0 -47 41q0 23 15.5 34t31.5 11q203 0 307.5 74t104.5 210t-86 211t-235.5 75t-250 -60.5t-100.5 -181.5q0 -39 12 -76q-12 -25 -55 -24.5t-73.5 31t-30.5 81.5 q0 137 131 233.5t368.5 96.5t372.5 -101.5t135 -293.5q0 -74 -30.5 -133.5t-69.5 -92t-88 -57.5q-74 -33 -123 -39q367 -100 366 -417q0 -223 -167.5 -349.5t-403 -126.5t-388.5 92t-153 203z" />
<glyph unicode="4" d="M170 387q0 104 172 154q90 106 128 337.5t38 426.5q0 72 64.5 71.5t64.5 -73.5q0 -487 -131 -738h26q145 0 345 -69q86 -29 139 -41v807q0 98 37 149t80 51q39 0 55 -10t18 -10v-1004q147 10 148 148q0 45 -15 63q12 31 64 31q74 0 74 -118t-72 -179t-197 -68v-209h146 q35 0 54 -17t19 -44t-18 -45h-551q-74 0 -74 59q0 27 19 45h219v230q-57 14 -229 81.5t-277 67.5q-27 0 -63 -4q-90 -113 -271 -135q-12 18 -12 43z" />
<glyph unicode="5" horiz-adv-x="1292" d="M37 176q0 66 33 66l41 -13q0 -109 109.5 -177t269 -68t274.5 96t115 277.5t-95.5 275.5t-218.5 94q-131 0 -266 -53q-47 -18 -55 -19q-27 0 -27 62l12 381q0 123 -41 221q-78 27 -116 92q-14 25 -14.5 53.5t12.5 40.5q2 0 18 -4q111 -16 160 -63q145 -43 305 -43 t251 17.5t128 36.5t66.5 36.5t45.5 17.5q12 -18 13 -43q0 -88 -131 -153.5t-355 -65.5q-123 0 -235 27q20 -102 20 -177t-5 -193t-5 -122q106 57 207.5 57.5t186.5 -26.5t160 -80t121 -149.5t46 -221.5q0 -223 -168 -349t-426 -126q-178 0 -307 92t-129 203z" />
<glyph unicode="6" horiz-adv-x="1310" d="M123 575q0 260 141.5 490.5t366.5 364t467 133.5q31 0 48 -14.5t17 -34t-20 -35.5l-56 2q-154 0 -324.5 -101.5t-298.5 -272.5t-155 -355q131 158 367 157q109 0 195.5 -30.5t140 -78.5t88.5 -114q61 -115 61 -266q0 -209 -139 -339t-372.5 -130t-380 155.5t-146.5 468.5 zM297 428q0 -166 102.5 -280.5t253 -114.5t245.5 108.5t95 281.5t-81 279.5t-230 106.5q-193 0 -289 -107.5t-96 -273.5z" />
<glyph unicode="7" d="M41 1208q0 115 92 190t242.5 75t289 -49.5t267.5 -111t207 -75.5q203 160 377 160q12 -18 12 -43q0 -92 -124 -166t-230 -74q-180 -215 -286 -530.5t-106 -624.5q0 -104 -53 -131q-29 -12 -72 -12q-137 0 -137 145q0 143 123 504q59 170 159.5 356.5t215.5 313.5 q-57 18 -174 72.5t-222.5 92t-198.5 37.5t-149.5 -53t-56.5 -135q0 -31 12 -59q-20 -33 -71.5 -33t-84 38.5t-32.5 112.5z" />
<glyph unicode="8" horiz-adv-x="1286" d="M8 428q0 94 31 172t66.5 119t87.5 74q61 37 112 53q-51 12 -115 53q-127 88 -127 274.5t145.5 288t395.5 101.5t393.5 -101.5t143.5 -294.5q0 -74 -24.5 -134t-56.5 -93t-71 -55q-49 -31 -90 -39q51 -16 107.5 -51t92.5 -76t66.5 -119t30.5 -172q0 -223 -168 -349 t-426 -126t-426 126t-168 349zM197 424q0 -184 116.5 -286.5t291.5 -102.5t289 101.5t114 286.5t-116 285.5t-290 100.5t-289.5 -100.5t-115.5 -284.5zM252 1167q0 -119 89 -197.5t260 -78.5t261 79t90 197q0 154 -96 234t-253 80t-254 -79t-97 -235z" />
<glyph unicode="9" horiz-adv-x="1296" d="M123 -91.5q0 19.5 20 36.5l56 -2q154 0 324.5 101t298.5 272t155 356q-131 -158 -367 -158q-109 0 -195.5 30.5t-140 79t-88.5 113.5q-61 115 -61 267q0 209 139 339t372.5 130t380 -156t146.5 -469q0 -260 -141 -490.5t-366.5 -363.5t-467.5 -133q-31 0 -48 14t-17 33.5 zM293 1000.5q0 -173.5 81 -280t230 -106.5q193 0 289 107.5t96 273.5t-102.5 281t-253 115t-245.5 -108.5t-95 -282z" />
<glyph unicode=":" horiz-adv-x="321" d="M27 93q0 40 27.5 68.5t68.5 28.5t69.5 -28.5t28.5 -69.5t-28.5 -68.5t-69.5 -27.5t-68.5 28.5t-27.5 68.5zM27 827q0 41 27.5 70t68.5 29t69.5 -29t28.5 -70t-28.5 -68.5t-69.5 -27.5t-68.5 27.5t-27.5 68.5z" />
<glyph unicode=";" horiz-adv-x="370" d="M27 93q0 40 29.5 68.5t74.5 28.5q70 -4 114 -55t44 -146t-45 -157.5t-109 -62.5q-27 0 -46 11t-19 30.5t14 29.5q57 0 90 38t33 84t-6 71q-27 -37 -73 -37t-73.5 28.5t-27.5 68.5zM27 827q0 41 27.5 70t68.5 29t69.5 -29t28.5 -70t-28.5 -68.5t-69.5 -27.5t-68.5 27.5 t-27.5 68.5z" />
<glyph unicode="&#x3c;" horiz-adv-x="841" d="M76 681q0 42 69 101l488 412q31 -14 53.5 -43t22.5 -57.5t-64 -81.5l-387 -330l387 -322q66 -53 66 -82.5t-19.5 -54t-58.5 -45.5l-488 404q-69 57 -69 99z" />
<glyph unicode="=" horiz-adv-x="1372" d="M227 526q0 92 125 92h783q29 -6 28 -63q0 -92 -125 -92h-782q-29 6 -29 63zM227 846q0 92 125 92h783q29 -6 28 -64q0 -92 -125 -92h-782q-29 7 -29 64z" />
<glyph unicode="&#x3e;" horiz-adv-x="798" d="M76 279q0 29 65 81l387 322l-387 330q-63 53 -63 81.5t18.5 54.5t57.5 46l487 -412q70 -59 70 -101t-70 -99l-487 -404q-78 40 -78 101z" />
<glyph unicode="?" d="M238 1151q0 180 136 301t353 121t357.5 -105.5t140.5 -320.5q0 -184 -101 -295q-61 -70 -161.5 -145.5t-145.5 -122.5q-100 -104 -100 -269q0 -35 -18.5 -54t-46 -19t-54.5 18v92q0 168 86 275q39 45 86 84l94 77q47 39 86 84q86 104 86 270.5t-92 248.5t-217 82 t-233.5 -91.5t-108.5 -242.5q0 -39 12 -76q-12 -25 -55 -25t-73.5 31t-30.5 82zM575 71.5q0 34.5 24 58.5t56.5 24t57 -24t24.5 -57.5t-23.5 -57t-57 -23.5t-57.5 22.5t-24 57z" />
<glyph unicode="@" horiz-adv-x="1505" d="M117 440q0 391 286 570q152 94 371 94q156 0 278 -53.5t193 -141.5q150 -182 150 -430q0 -154 -72 -267.5t-201 -113.5q-186 0 -260 150q-55 -115 -205 -115q-272 0 -272 326.5t307 326.5q100 0 154 -45q31 43 83 43t81 -28v-342q0 -231 137 -232q76 0 122 87t46 199 t-33 208t-95.5 176t-170 128t-242.5 48q-283 0 -430 -171t-147 -421t181 -400.5t546 -150.5q12 -4 12 -31.5t-109 -27.5q-317 0 -513.5 165.5t-196.5 448.5zM563 463q0 -135 24.5 -192.5t81 -57.5t99.5 42t53 148v166q-6 82 -37.5 110t-78.5 28q-142 0 -142 -244z" />
<glyph unicode="A" horiz-adv-x="1781" d="M-127 -14.5q0 120.5 58.5 218t154.5 152.5q193 111 430 111l299 844q20 59 43 88q-63 213 -63 234.5t29.5 49t60.5 27.5q59 0 92 -29l362 -1214l269 2q35 0 54 -17.5t19 -44t-18 -45.5h-291l117 -389q4 -14 4 -36.5t-28.5 -55.5t-59.5 -33q-57 0 -90 29l-146 485h-522 l-102 -278q-53 -141 -153.5 -243.5t-260.5 -102.5q-121 0 -189.5 63.5t-68.5 184zM-12 -27q0 -72 40 -110.5t103 -38.5q154 0 266 309l80 227q-225 0 -357 -106.5t-132 -280.5zM686 467h451l-201 774z" />
<glyph unicode="B" horiz-adv-x="1558" d="M-117 334q0 29 17.5 47t41 18t35.5 -12q0 -127 84 -221t224 -139v1339q-90 -41 -145.5 -97.5t-55.5 -107.5t12 -88q-12 -25 -55 -24.5t-73.5 31t-30.5 81.5q0 96 96 190.5t252 141.5v78q0 61 30.5 93t75.5 32t78 -29v-139l61 2q305 0 491.5 -104.5t186.5 -297.5 q0 -143 -71 -229q-61 -76 -111 -100l-20 -13q35 -6 95 -39.5t99 -73.5t72 -116t33 -168q0 -244 -205 -371t-592 -127q-279 0 -452 135.5t-173 307.5zM477 -6h31q305 0 456.5 96t151.5 299q0 348 -467 348q-20 0 -34.5 18.5t-14.5 49.5q0 39 49 39q229 0 307 94q63 76 64 190 q0 145 -134 222t-345 80q-39 0 -64 -7v-1429z" />
<glyph unicode="C" horiz-adv-x="1349" d="M139 713.5q0 396.5 189.5 596t496.5 199.5q199 0 311.5 -102t112.5 -227q0 -51 -30.5 -82t-61.5 -31q-57 0 -78 25q12 31 13 75q0 111 -71 176.5t-206 65.5q-203 0 -345 -193.5t-142 -513t157.5 -515t378.5 -195.5t354.5 134t133.5 341q10 12 35.5 12t42 -18.5 t16.5 -69.5t-34 -136t-99.5 -170t-181 -140.5t-259.5 -55.5q-332 0 -532.5 214t-200.5 610.5z" />
<glyph unicode="D" horiz-adv-x="1456" d="M-76 313q0 29 17.5 47.5t41 18.5t35.5 -12q0 -113 73 -195t194 -123v1319q-201 -51 -201 -168q0 -39 12 -76q-12 -25 -55 -24.5t-73.5 31t-30.5 81.5q0 92 93 162t255 103v94q0 61 30.5 93t75.5 32t78 -29v-170q20 2 61 2q340 0 555 -192q106 -98 167 -261t61 -378 q0 -373 -220.5 -564.5t-584.5 -191.5q-276 0 -430 120.5t-154 280.5zM477 14h31q281 0 448.5 156t167.5 503t-157.5 536.5t-425.5 189.5l-64 -2v-1383z" />
<glyph unicode="E" horiz-adv-x="1083" d="M-80 360q0 100 31 178t73 121t95 72q90 47 170 47q-111 16 -191 99q-37 35 -64.5 104.5t-27.5 159.5q0 193 135 294t359.5 101t338 -91t113.5 -218q0 -51 -30.5 -82t-61.5 -31q-51 0 -67 25q12 31 12 75q0 111 -84 166.5t-219 55.5t-221 -75t-86 -220q0 -305 411 -305 q23 0 42.5 -13.5t19.5 -40.5q0 -53 -62 -53q-219 0 -358 -90t-139 -277.5t119.5 -280.5t329.5 -93t368.5 151.5t158.5 395.5q4 14 35 14q39 0 39 -68q0 -227 -151 -403q-74 -86 -195 -139.5t-268 -53.5q-266 0 -445.5 125t-179.5 350z" />
<glyph unicode="F" horiz-adv-x="1263" d="M264 1386q0 27 19 46l1083 2q35 0 54.5 -17.5t19.5 -44t-19 -45.5h-733v-541h453q35 0 54 -17t19 -44t-18 -45h-508v-432q0 -264 -55 -387t-203 -123q-78 0 -121 65.5t-43 186.5q0 227 238 454v236h-96q-74 0 -74 59q0 27 18 45h152v543h-166q-74 0 -74 59zM354 -7 q0 -175 74 -175q43 0 58.5 85t17.5 328v119q-150 -182 -150 -357z" />
<glyph unicode="G" horiz-adv-x="1208" d="M-72 673q0 378 189.5 577.5t496.5 199.5q221 0 348.5 -102.5t127.5 -227.5q0 -51 -31 -81.5t-62 -30.5q-57 0 -77 24q12 31 12 76q0 111 -85 176.5t-243 65.5q-203 0 -345 -193.5t-142 -495t143 -474.5t350 -173q168 0 301 62v338q0 61 31 93t76 32t78 -29v-811 q0 -256 -78 -383t-248 -127q-102 0 -159.5 65.5t-57.5 186.5q0 195 105.5 315.5t252.5 149.5v57q-131 -51 -301 -51q-309 0 -495.5 191.5t-186.5 569.5zM647 -565q0 -78 34 -119t97.5 -41t98 91t34.5 333v100q-117 -27 -190.5 -122t-73.5 -242z" />
<glyph unicode="H" horiz-adv-x="1792" d="M119 -10q0 193 105.5 313.5t252.5 149.5v858q0 61 31 93t76 32t78 -29v-940h600v1024q0 61 30.5 93t75.5 32t78 -29v-1118h182q35 0 54.5 -17.5t19.5 -44t-19 -45.5h-237v-389q0 -61 -31 -93t-76 -32t-77 29v485h-600v-114q0 -256 -78 -383t-248 -127q-102 0 -159.5 65.5 t-57.5 186.5zM213 -16q0 -78 34 -119t96.5 -41t97 88t36.5 319v115q-117 -27 -190.5 -121t-73.5 -241z" />
<glyph unicode="I" horiz-adv-x="929" d="M109 59q0 27 18 45l221 2v1221h-166q-74 0 -73 59q0 25 18 48h551q35 0 54.5 -17.5t19.5 -44t-19 -45.5h-201v-1221h146q35 0 54.5 -17t19.5 -44t-19 -45h-551q-73 0 -73 59z" />
<glyph unicode="J" horiz-adv-x="1003" d="M-41 40q0 142 40 262t107 208q113 147 238 242v577h-166q-74 0 -74 60q0 27 19 45l551 2q35 0 54.5 -17.5t19.5 -44t-19 -45.5h-201v-1087q0 -244 -86 -374t-239 -130q-117 0 -180.5 80t-63.5 222zM47 43q0 -113 45 -169t109 -56q143 0 143 430v414q-297 -275 -297 -619z " />
<glyph unicode="K" horiz-adv-x="1548" d="M-182 154q0 158 102 157q25 0 43.5 -12t30.5 -35q-16 -43 -16.5 -127t44 -128t111.5 -44q147 0 148 262v1188q0 61 30.5 93t73.5 32t84 -29v-1161q0 -215 -81 -342t-243.5 -127t-244.5 75t-82 198zM569 621q0 18 16.5 33.5t32.5 15.5q129 0 233.5 103.5t158 255 t53.5 310.5l-12 84q20 31 71.5 31t90 -37t38.5 -119q0 -256 -141 -453.5t-297 -238.5q104 -10 185 -66.5t133.5 -139.5t98.5 -180t92 -192.5t101.5 -174t140.5 -127t195 -48.5q51 0 84 21q31 -2 31 -35q0 -70 -143.5 -70t-256 53.5t-182 139.5t-126 189.5t-105.5 206 t-103.5 188.5t-138.5 139t-192 53q-58 1 -58 58z" />
<glyph unicode="L" horiz-adv-x="1024" d="M-371 172q0 98 63.5 161.5t158 63.5t167.5 -37q4 86 5 144v616q-41 -2 -107 -2t-91.5 10.5t-32.5 20.5t-7 27.5t12 25.5q207 0 228 2q10 223 87.5 334t235.5 111q100 0 158.5 -59.5t58.5 -151.5q0 -131 -88 -203t-270 -98v-641q0 -139 -31 -250q8 -8 36 -32t38 -33 t36.5 -31.5t40 -31.5t40 -26.5t45 -26t46 -19.5t52.5 -17q63 -12 117 -13q203 0 306 95.5t103 275.5q2 12 21.5 12t29.5 -6q31 -23 31 -100q0 -170 -145.5 -281.5t-347.5 -111.5q-154 0 -268.5 61.5t-225.5 167.5q-92 -176 -266 -176q-115 0 -175.5 60.5t-60.5 158.5z M-279 174q0 -135 144 -135q115 0 143 207q-82 68 -147.5 67.5t-102.5 -37t-37 -102.5zM207 1223q264 49 264 221q0 49 -36 84t-94 35t-93 -75t-41 -265z" />
<glyph unicode="M" horiz-adv-x="2711" d="M72 1108q0 162 98 263.5t262 101.5q270 0 322 -295q45 137 147.5 219t239.5 82q303 -2 391 -332q41 150 146.5 241t250.5 91q213 -2 318.5 -161t105.5 -425v-580q0 -119 48 -190.5t126 -71.5q193 0 193 385q2 12 21.5 12.5t29.5 -6.5q31 -23 31 -100q0 -172 -82 -278.5 t-217 -106.5q-197 0 -271 137q-66 125 -65 342v457q0 483 -238 483q-176 0 -271 -155.5t-95 -413.5v-713q0 -61 -31 -93t-76 -32t-78 29v895q0 483 -237 483q-188 0 -278.5 -181t-90.5 -486v-263q0 -254 -81 -402t-243.5 -148t-244.5 74.5t-82 197.5q0 158 102 158 q25 0 43.5 -11.5t30.5 -35.5q-16 -43 -16 -128t44 -128t111 -43q145 0 146 344v792q0 119 -48.5 190.5t-131.5 71.5t-133 -66.5t-50 -236.5q0 -37 17 -74q-18 -25 -61.5 -24.5t-73 31t-29.5 100.5z" />
<glyph unicode="N" horiz-adv-x="1929" d="M72 1108q0 162 98 263.5t262 101.5q270 0 322 -295q45 137 147.5 219t239.5 82q213 -2 319.5 -161t106.5 -425v-580q0 -119 48 -190.5t126 -71.5q193 0 192 385q2 12 21.5 12.5t30.5 -6.5q31 -23 30 -100q0 -172 -82 -278.5t-217 -106.5q-188 0 -263 126t-75 353v457 q0 483 -237 483q-92 0 -161 -46t-107.5 -113.5t-61.5 -161.5q-39 -152 -39 -346v-263q0 -254 -81 -402t-243.5 -148t-244.5 74.5t-82 197.5q0 158 102 158q25 0 43.5 -11.5t30.5 -35.5q-16 -43 -16 -128t44 -128t111 -43q145 0 146 344v792q0 119 -48.5 190.5t-131.5 71.5 t-133 -66.5t-50 -236.5q0 -37 17 -74q-18 -25 -61.5 -24.5t-73 31t-29.5 100.5z" />
<glyph unicode="O" horiz-adv-x="1665" d="M59 1019.5q0 65.5 27 134.5t86 138.5t139 126t199 91t256 34.5q330 0 527.5 -236.5t197.5 -599t-181.5 -584.5t-485.5 -222t-479 211t-175 569q0 168 54.5 301t140.5 209q174 154 354 154q37 0 59.5 -21.5t22.5 -46.5t-13 -29q-205 0 -317.5 -153.5t-112.5 -437t123 -479 t342 -195.5t349.5 206.5t130.5 521t-153 522.5t-398.5 208t-418.5 -140.5t-181 -334.5q-8 -16 -39 -17q-54 4 -54 69.5z" />
<glyph unicode="P" horiz-adv-x="1337" d="M-18 1120q0 96 96 190.5t252 141.5v78q0 61 30.5 93t75.5 32t78 -29v-139l61 2q350 -2 545 -133t195 -373t-155.5 -378t-411.5 -136q-117 0 -226 43v-303q0 -240 -59.5 -355.5t-202.5 -115.5q-78 0 -121 65.5t-43 186.5q0 223 234 450v885q-90 -41 -145.5 -97.5 t-55.5 -107.5t12 -88q-12 -25 -55 -24.5t-73.5 31t-30.5 81.5zM184 -8q0 -174 74 -174q43 0 57.5 100t14.5 426q-146 -178 -146 -352zM520 621q104 -45 211 -46q195 0 291 103.5t96 297t-140 303.5t-400 110q-33 0 -58 -7v-761z" />
<glyph unicode="Q" horiz-adv-x="1587" d="M-12 713q0 180 57 336.5t147.5 256t197 157t206.5 57.5q37 0 59.5 -21.5t22.5 -46.5t-12 -29q-147 0 -261 -106.5t-170.5 -266t-56.5 -337.5q0 -297 110.5 -489.5t305.5 -207.5q-129 152 -200.5 357t-71.5 405q0 268 128 429t335.5 161t350 -180t142.5 -464t-121 -488.5 t-332 -274.5q158 -100 346.5 -100t302 147.5t113.5 388.5q10 12 36 12.5t42 -18t16 -72t-15 -131t-54 -156.5t-97.5 -138.5t-150.5 -97.5t-207 -38q-268 0 -481 176q-27 -2 -53 -2q-276 0 -455.5 204t-179.5 577zM442 794.5q0 -206.5 80 -415.5t219 -348q162 57 255.5 248.5 t93.5 448.5t-78 396.5t-226.5 139.5t-246 -131.5t-97.5 -338z" />
<glyph unicode="R" horiz-adv-x="1386" d="M-182 154q0 158 102 157q25 0 43.5 -12t30.5 -35q-16 -43 -16.5 -127t44 -128t111.5 -44q147 0 148 262v930q0 61 30.5 93t73.5 32t84 -29v-903q0 -215 -81 -342t-243.5 -127t-244.5 75t-82 198zM-104 1110q0 117 99 216t243.5 151.5t291.5 52.5q688 0 689 -494 q0 -129 -78 -230t-181.5 -148.5t-201.5 -47.5q115 0 204 -51t145 -133t104.5 -181.5t95.5 -199.5t102 -182t142 -133.5t200 -51.5q51 0 84 21q31 -2 31 -35q0 -70 -143.5 -70t-256 53.5t-182.5 139.5t-126 189.5t-105 206t-103.5 188.5t-138.5 139t-193 53q-53 0 -53 58 q0 25 16.5 37t36.5 12q190 0 301 111.5t111 254.5q0 201 -135 297.5t-337 96.5t-358.5 -95.5t-156.5 -236.5q0 -39 12 -76q-12 -25 -55 -25t-73.5 31t-30.5 82z" />
<glyph unicode="S" horiz-adv-x="1214" d="M4 326q0 84 33 132t78 48q80 0 102 -27l6 -10q-18 -51 -18 -125q0 -139 113.5 -243.5t297.5 -104.5q133 0 229.5 93t96.5 224q0 98 -46 168t-118.5 109t-161 69.5t-176.5 62.5t-160.5 76t-118.5 121.5t-46 188.5q0 190 140 299t360.5 109t351.5 -100.5t131 -219.5 q0 -82 -32 -122t-75 -40q-80 0 -102 31l-6 10q20 27 20 103q0 117 -98 183t-228.5 66t-206 -69.5t-75.5 -170t46 -167t120 -103t163 -65.5t178 -62.5t162.5 -82t119.5 -136.5t46 -213q0 -219 -155.5 -335.5t-390 -116.5t-407.5 120t-173 300z" />
<glyph unicode="T" horiz-adv-x="1280" d="M-201 1507q0 197 246 197q176 0 514 -131q125 -47 314.5 -88t386 -41t268 43t71.5 127q0 51 -27.5 89t-55.5 50l-27 12q-16 12 -16 37q0 31 60 31t123.5 -66.5t63.5 -152.5q0 -315 -469 -316q-188 0 -348 33v-981q0 -215 -81 -342t-243.5 -127t-244.5 75t-82 198 q0 158 102 157q25 0 43.5 -12t30.5 -35q-16 -43 -16 -127t44 -128t111 -44q141 0 148 262v1149q-135 39 -262 97q-133 -160 -404 -160q-111 0 -180.5 48t-69.5 146zM-88 1513q0 -106 135 -106q219 0 305 109q-219 96 -295.5 96t-110.5 -28t-34 -71z" />
<glyph unicode="U" horiz-adv-x="1542" d="M-303 1139q0 162 98.5 263t261.5 101q195 0 267 -137q66 -121 65 -342v-518q0 -483 238 -483q170 0 269 161.5t99 413.5v739q0 61 31 93t75 32t85 -28v-1112q0 -119 48 -191t126 -72q193 0 192 385q2 12 21.5 12.5t30.5 -5.5q31 -23 30 -101q0 -172 -82 -278.5 t-217 -106.5q-260 0 -317 271q-43 -143 -146.5 -229.5t-244.5 -86.5q-211 2 -315.5 157.5t-104.5 420.5v649q0 119 -48 190.5t-131 71.5t-133.5 -66.5t-50.5 -236.5q0 -37 17 -74q-18 -25 -61.5 -24.5t-73 31t-29.5 100.5z" />
<glyph unicode="V" horiz-adv-x="1660" d="M55 1073q0 188 80 286.5t219 98.5q197 0 266.5 -125t69.5 -436v-375q0 -293 63.5 -415.5t211 -122.5t262 257t114.5 736q-358 53 -358 305q0 92 58.5 151.5t158.5 59.5q156 0 232.5 -109.5t93.5 -334.5q94 -4 153 -5q12 -2 12.5 -21t-8.5 -30q-20 -31 -98 -30h-61 q-16 -547 -173 -804t-390 -257q-455 0 -455 630v365q-2 262 -47 364.5t-129 102.5q-193 0 -193 -385q-4 -12 -22.5 -12t-28.5 8q-31 20 -31 98zM1077 1288q0 -172 262 -221q-6 193 -39.5 266.5t-92 73.5t-94.5 -35t-36 -84z" />
<glyph unicode="W" horiz-adv-x="2334" d="M-147 1073q0 188 79.5 286.5t219.5 98.5q197 0 266 -125t69 -436v-365q0 -293 64.5 -415.5t202 -122.5t213.5 112q150 223 149 1231q0 59 36 92t80 33t93 -49l-16 -670q0 -330 63 -522q72 -227 285 -227q147 0 252.5 252t107.5 731q-358 53 -358 305q0 92 58.5 151.5 t158.5 59.5q158 0 236.5 -111.5t89.5 -332.5q94 -4 153 -5q12 -2 12 -21t-8 -30q-20 -31 -98 -30h-61q-18 -799 -338 -996q-92 -55 -205 -55q-324 0 -455 364q-45 -133 -123 -218t-155.5 -115.5t-163.5 -30.5q-457 0 -457 631v354q-2 262 -47 364.5t-129 102.5 q-193 0 -193 -385q-4 -12 -22 -12t-29 8q-30 20 -30 98zM1753 1288q0 -172 262 -221q-6 193 -39.5 266.5t-92 73.5t-94.5 -35t-36 -84z" />
<glyph unicode="X" horiz-adv-x="1523" d="M-145 1204q0 143 93 233.5t241.5 90.5t266 -102.5t175.5 -245.5l129 -322q178 354 321 479q137 119 295 119q59 0 60 -63q0 -33 -31 -50.5t-80 -17.5t-111.5 -37t-107.5 -84t-102 -143q-84 -137 -185 -346l123 -303q53 -133 153.5 -243t215 -110t178 88.5t63.5 296.5 q2 12 21.5 12.5t30.5 -5.5q31 -23 30 -101q0 -172 -95 -278.5t-249 -106.5q-184 0 -322.5 121t-217.5 320l-39 96q-131 -252 -264.5 -392.5t-307.5 -140.5q-55 0 -55 43q0 51 47 51q166 0 295 179q115 156 231 401l-190 492q-68 172 -139.5 235.5t-153.5 63.5t-127 -57.5 t-45 -205.5q0 -37 16 -73q-18 -25 -61 -25t-72.5 30.5t-29.5 100.5z" />
<glyph unicode="Y" horiz-adv-x="1372" d="M143 713v624q0 61 31 93t76 32t78 -28v-721q0 -657 319 -658q197 0 289 188.5t92 510.5v583q0 61 31 93t58.5 32t42 -3t24.5 -7q20 -10 26 -18v-1751q0 -510 -366 -510q-147 0 -236.5 89t-89.5 242q0 86 38 165t92 134.5t130 106.5q102 72 248 131v90 q-140 -157 -385 -157h-3q-247 1 -371 195t-124 544zM606 -517q0 -99 69.5 -165t166 -66t140.5 92.5t44 338.5v276q-141 -63 -264 -164q-70 -59 -113 -136t-43 -176z" />
<glyph unicode="Z" d="M45 186q0 88 61.5 136.5t178 48.5t280.5 -82q92 117 255 445.5t261 461.5q-70 10 -281.5 108.5t-315 98.5t-160 -53.5t-56.5 -135.5q0 -31 13 -59q-20 -33 -71.5 -33t-84.5 39t-33 113q0 115 92 189.5t240.5 74.5t284 -54t257 -114.5t203.5 -71.5q154 158 338 158 q12 -18 13 -43q0 -66 -83 -125t-200 -82q-109 -115 -290 -473t-288 -493q242 -127 356.5 -164t227.5 -37q172 0 244 60.5t72 170.5q0 57 -28 100.5t-56 57.5l-27 14q-16 12 -16 47q0 51 65.5 51.5t113.5 -70.5t48 -200q0 -190 -125 -283t-293 -93q-207 0 -383 86 q-141 70 -287 163q-143 -133 -307 -133q-96 0 -157.5 44t-61.5 132zM158 190q0 -86 110.5 -86t216.5 97q-131 78 -195.5 78t-98 -25t-33.5 -64z" />
<glyph unicode="[" horiz-adv-x="747" d="M111 -604v2111q0 63 30.5 103.5t69.5 40.5h346q35 0 54.5 -17.5t19.5 -46t-19 -43.5h-317v-2189h297q18 -12 18 -42t-19.5 -47.5t-53.5 -17.5h-326q-100 1 -100 148z" />
<glyph unicode="\" horiz-adv-x="784" d="M-8 1604q18 53 59 53q86 0 133 -101l729 -1536q-8 -49 -56 -49t-81 26t-63 91z" />
<glyph unicode="]" horiz-adv-x="700" d="M111 1586q0 30 19.5 47.5t53.5 17.5h346q39 0 70 -40t31 -104v-2111q0 -147 -101 -148h-325q-35 0 -54.5 17.5t-19.5 46.5t19 43h296v2189h-317q-18 12 -18 42z" />
<glyph unicode="^" horiz-adv-x="942" d="M-4 811l381 545q47 68 98 67.5t98 -67.5l381 -545q-8 -31 -32.5 -54.5t-53.5 -23.5q-51 0 -96 66l-297 422l-297 -422q-45 -66 -96 -66q-29 0 -50.5 19.5t-35.5 58.5z" />
<glyph unicode="_" horiz-adv-x="1251" d="M45 49q0 94 125 94h1012q29 -6 28 -63q0 -94 -125 -94h-1011q-29 6 -29 63z" />
<glyph unicode="`" horiz-adv-x="466" d="M-8 1540q6 29 32.5 53.5t55.5 24.5q59 0 98 -68l223 -397q-8 -31 -32.5 -54.5t-53.5 -23.5q-57 0 -96 66z" />
<glyph unicode="a" horiz-adv-x="1114" d="M0 463q0 238 111.5 350.5t296.5 112.5q141 0 200 -60q27 59 85.5 59.5t86.5 -28.5v-588q0 -117 37 -176t101 -59q193 0 192 399q2 12 31 12q37 0 37 -108q0 -174 -75 -278.5t-210 -104.5q-207 0 -275 182q-39 -84 -106.5 -133t-153.5 -49q-358 0 -358 469zM195 463 q0 -162 28.5 -252t65.5 -113.5t98.5 -23.5t134 76.5t72.5 199.5v281q0 96 -50 155.5t-112.5 59.5t-99.5 -12.5t-70 -51.5q-67 -73 -67 -319z" />
<glyph unicode="b" horiz-adv-x="927" d="M2 358v787q0 266 51 386t197 120q78 0 121 -65.5t43 -186.5q0 -219 -228 -447v-108q76 82 193 82q178 0 292.5 -121t114.5 -342t-110.5 -345t-285.5 -124t-281.5 100t-106.5 264zM186 422q0 -184 48.5 -266t159 -82t154.5 88t44 301t-45 298t-160 85t-158 -72t-43 -246 v-106zM186 1051q139 180 139.5 350t-73.5 170q-41 0 -53.5 -83t-12.5 -347v-90z" />
<glyph unicode="c" horiz-adv-x="829" d="M0 449.5q0 224.5 114.5 350.5t293.5 126q129 0 188 -69t59 -163q0 -51 -30.5 -81.5t-59.5 -30.5q-53 0 -69 24q12 31 12 88.5t-39 104.5t-94 47q-96 0 -138 -94.5t-42 -296t78.5 -291.5t220 -90t237.5 87t96 247q2 12 31 12q43 0 43 -59.5t-24.5 -119t-70.5 -116.5 t-129 -94t-188 -37q-229 0 -359 115.5t-130 340z" />
<glyph unicode="d" horiz-adv-x="1110" d="M0 475q0 236 111.5 343.5t296.5 107.5q119 0 188 -47v278q0 258 52 376t196 118q78 0 121 -65.5t43 -186.5q0 -219 -228 -447v-643q0 -117 40 -176t105.5 -59t126 81t60.5 257q0 39 -2 61q2 12 31 12q37 0 37 -108q0 -170 -77 -276.5t-198 -106.5q-219 0 -287 192 q-39 -86 -106.5 -138t-151.5 -52q-358 0 -358 479zM195 475q0 -250 57 -328q51 -72 127 -71.5t144.5 83.5t68.5 212v262q0 100 -48 156.5t-112.5 56.5t-100.5 -10.5t-71 -44.5q-65 -68 -65 -316zM780 1051q139 180 139.5 350t-73.5 170q-43 0 -54.5 -95t-11.5 -425z" />
<glyph unicode="e" horiz-adv-x="833" d="M2 449.5q0 224.5 114.5 350.5t293.5 126q129 0 188 -69t59 -163q0 -154 -128 -255t-326 -101q18 -131 95 -197.5t203 -66.5t227 95t101 280q2 12 31 12q43 0 43 -66q0 -152 -105.5 -276.5t-320.5 -124.5t-345 115.5t-130 340zM197 414q127 16 220 79.5t93 188.5 q0 80 -35 122t-98 42q-96 0 -138 -94.5t-42 -319.5v-18z" />
<glyph unicode="f" horiz-adv-x="573" d="M0 -653v1798q0 260 55.5 383t196.5 123q203 0 203 -275q0 -315 -213 -479h182q43 0 56.5 -16.5t13.5 -55.5h-310v-1575q-20 -29 -71.5 -28.5t-82 32.5t-30.5 93zM184 940q182 133 183 434q0 197 -99 197q-27 0 -41 -17.5t-22 -89.5q-17 -123 -21 -524z" />
<glyph unicode="g" horiz-adv-x="976" d="M2 463q0 238 111.5 350.5t296.5 112.5q141 0 200 -60q27 59 85.5 59.5t86.5 -28.5v-1040q25 2 78 2t53 -45l-12 -31q-78 0 -119 -2v-107q-2 -211 -97 -330.5t-253 -119.5q-94 0 -166.5 56t-72.5 177q0 156 110.5 248t294.5 129v301q-86 -141 -238 -141q-358 0 -358 469z M197 463q0 -162 28.5 -252t65.5 -113.5t103.5 -23.5t135 85t68.5 269v145q0 145 -49 209t-113.5 64t-101.5 -12.5t-72 -51.5q-65 -73 -65 -319zM297 -549q0 -72 39 -109.5t92 -37.5q86 0 128 79.5t42 294.5v78q-301 -67 -301 -305z" />
<glyph unicode="h" horiz-adv-x="1081" d="M2 119v1026q0 266 51 386t197 120q78 0 121 -65.5t43 -186.5q0 -219 -228 -447v-180q86 154 273 154q133 0 212 -84t79 -242v-291q0 -117 36.5 -176t108.5 -59t128 97t56 302q2 12 31 12q37 0 37 -108q0 -158 -81 -270.5t-210 -112.5t-214 91t-85 234v291q0 244 -123 244 q-109 0 -178.5 -110.5t-69.5 -370.5v-350q-20 -29 -71.5 -29t-82 32t-30.5 93zM186 1051q139 180 139.5 350t-73.5 170q-41 0 -53.5 -94t-12.5 -426z" />
<glyph unicode="i" horiz-adv-x="575" d="M-20 1212.5q0 51.5 34.5 87t86 35.5t87 -35.5t35.5 -87t-35.5 -86t-87 -34.5t-86 34.5t-34.5 86zM6 371v430q0 61 31 93t78 32t75 -29v-588q0 -117 45.5 -176t123 -59t145 94t67.5 305q4 12 31 12q37 0 37 -108q0 -158 -86 -270.5t-219 -112.5q-166 0 -247 98.5 t-81 278.5z" />
<glyph unicode="j" horiz-adv-x="405" d="M-336 -553q0 117 91 190.5t243 104.5v1059q0 61 30.5 93t78 32t75.5 -29v-1133q25 2 78 2.5t53 -45.5l-12 -30q-80 0 -119 -2v-43q0 -197 -84 -309.5t-225 -112.5q-82 0 -145.5 53t-63.5 170zM-231 -559q0 -137 100 -137q66 0 97.5 55t31.5 203v102q-229 -55 -229 -223z M-29 1325q0 51 35 87t86 36t87 -36t36 -87t-36 -86t-87 -35t-86 35t-35 86z" />
<glyph unicode="k" horiz-adv-x="1067" d="M2 119v1026q0 266 51 386t197 120q78 0 121 -65.5t43 -186.5q0 -219 -228 -447v-196q92 170 295 170q129 0 208 -67.5t79 -184.5q0 -158 -135 -277q10 -125 75.5 -224t165.5 -99q78 0 133.5 97t55.5 302q2 12 31 12q37 0 36 -108q0 -170 -77.5 -276.5t-215 -106.5 t-233.5 91t-121 220q-137 -57 -297 -65v-217q-20 -29 -71.5 -29t-82 32t-30.5 93zM186 319q176 18 289 122t113 231q0 86 -37 134t-94 48q-113 0 -192 -121t-79 -414zM186 1051q139 180 139.5 350t-73.5 170q-41 0 -53.5 -94t-12.5 -426z" />
<glyph unicode="l" horiz-adv-x="571" d="M4 371v770q0 264 55.5 387t194.5 123q203 0 203 -275q0 -207 -81 -331.5t-186 -186.5v-549q0 -117 45.5 -176t123 -59t145 94t67.5 305q4 12 31 12q37 0 37 -108q0 -158 -86 -270.5t-219 -112.5q-166 0 -248 98.5t-82 278.5zM190 944q178 129 179 430q0 197 -99 197 q-25 0 -38 -16.5t-23 -81.5q-19 -101 -19 -529z" />
<glyph unicode="m" horiz-adv-x="1566" d="M2 119v778q20 29 71.5 29t82 -32t30.5 -93q70 125 236 125q195 0 262 -166q70 166 260 166q133 0 212 -84t79 -242v-291q0 -117 37 -176t109.5 -59t128 91t55.5 308q2 12 30 12q37 0 37 -108q0 -174 -74.5 -278.5t-218 -104.5t-220.5 98t-77 279v239q0 244 -122 244 q-209 0 -209 -514v-317q-20 -29 -72.5 -29t-85.5 31.5t-33 93.5v491q0 244 -123 244q-102 0 -156.5 -112.5t-54.5 -397.5v-321q-20 -29 -71.5 -29t-82 32t-30.5 93z" />
<glyph unicode="n" horiz-adv-x="1081" d="M0 119v778q20 29 78 29q106 0 106 -154q86 154 273 154q133 0 212 -84t79 -242v-291q0 -117 36.5 -176t109.5 -59t128 91t55 308q2 12 31 12q37 0 37 -108q0 -174 -75 -278.5t-218 -104.5t-220 98t-77 279v239q0 244 -123 244q-109 0 -178.5 -110.5t-69.5 -370.5v-350 q-20 -29 -71.5 -29t-82 32t-30.5 93z" />
<glyph unicode="o" horiz-adv-x="966" d="M10 462q0 220 111.5 342t293 122t296 -121t114.5 -329t-107.5 -345t-287.5 -137t-300 124t-120 344zM205 463q0 -209 52 -299t171 -90q82 0 126 42t60 136q-133 29 -244.5 121t-162.5 205q-2 -35 -2 -115zM281 739q0 -131 102 -250.5t244 -158.5q4 78 4 133 q0 213 -45 298t-170 85q-55 0 -95 -28t-40 -79z" />
<glyph unicode="p" horiz-adv-x="1124" d="M0 -653v1550q20 29 71.5 29t82 -32t30.5 -93v-45q106 170 281.5 170t273.5 -99q215 70 482 70q55 0 55 -45l-12 -31q-248 0 -467 -69q68 -117 67.5 -314.5t-99.5 -319.5t-259 -122q-94 0 -167 65.5t-73 208.5q0 336 334 502q-53 74 -148.5 74t-181.5 -94.5t-86 -282.5 v-1219q-20 -29 -71.5 -28.5t-82 32.5t-30.5 93zM371 264q0 -90 39 -139t92 -49q168 0 168 334q0 176 -29 276q-270 -148 -270 -422z" />
<glyph unicode="q" horiz-adv-x="1034" d="M-4 463q0 238 111.5 350.5t295.5 112.5q141 0 201 -60q27 59 85.5 59.5t86.5 -28.5v-1550q0 -61 -30.5 -93t-77.5 -32t-76 28v885q-86 -141 -238 -141q-358 0 -358 469zM190 463q0 -162 29 -252t66 -113.5t104.5 -23.5t135 90t67.5 287v122q0 145 -49 209t-113.5 64 t-101.5 -12.5t-70 -51.5q-68 -73 -68 -319z" />
<glyph unicode="r" horiz-adv-x="796" d="M2 119v778q20 29 71.5 29t82 -32t30.5 -93v-156q102 254 283 254q129 0 188.5 -68.5t59.5 -162.5q0 -51 -31 -82t-59 -31q-53 0 -70 25q12 31 12 88t-38.5 104t-94.5 47q-96 0 -173 -175t-77 -296v-325q-20 -29 -71.5 -29t-82 32t-30.5 93z" />
<glyph unicode="s" horiz-adv-x="876" d="M-74 369q0 57 22.5 90t51.5 33q53 0 61 -19l5 -6q-12 -31 -13 -76q0 -137 80 -227t221 -90q217 0 219 153q0 117 -194 185q-82 29 -163 60.5t-136 91t-55 152.5t86 151.5t250.5 58.5t258 -57.5t93.5 -133.5q0 -37 -28 -59.5t-54 -22.5q-51 0 -68 25q12 14 12 56t-63 77 t-141 35t-129.5 -29t-51.5 -87t58.5 -101t141.5 -72t166 -61.5t141.5 -93t58.5 -148.5q0 -131 -114 -195.5t-299 -64.5t-301 107.5t-116 267.5z" />
<glyph unicode="t" horiz-adv-x="647" d="M0 352v752q0 61 30.5 93t78 32t75.5 -29v-303h281q43 0 56.5 -16.5t13.5 -55.5h-351v-516q0 -113 64.5 -174t148.5 -61q127 0 186.5 94t59.5 305q4 12 31 12q37 0 37 -108q0 -166 -83 -274.5t-255 -108.5t-272.5 90t-100.5 268z" />
<glyph unicode="u" horiz-adv-x="1079" d="M2 291v510q0 61 30.5 93t78 32t75.5 -29v-588q0 -244 123 -243q92 0 167 110.5t75 310.5v314q0 61 35 93t84 32t78 -29v-588q0 -117 36.5 -176t100.5 -59q63 0 123 73q70 88 69 326q2 12 31 12q37 0 37 -108q0 -174 -75 -278.5t-210 -104.5q-215 0 -282 194 q-80 -195 -293 -194q-127 0 -205 77t-78 220z" />
<glyph unicode="v" horiz-adv-x="1034" d="M-20 473v328q0 61 30.5 93t77.5 32t76 -29v-434q0 -397 235 -397q51 0 90 30q-86 82 -129 205t-43 238q0 203 58.5 306t197.5 103q96 0 154.5 -65.5t58.5 -173.5q0 -391 -170 -594q70 -41 156 -41q115 0 188.5 98t73.5 301q2 12 31 12q37 0 37 -96q0 -170 -86 -282.5 t-262 -112.5q-119 0 -205 57q-82 -57 -174 -57q-176 0 -285.5 127t-109.5 352zM422 573.5q0 -264.5 125 -403.5q78 145 78 485q0 182 -82 183q-121 0 -121 -264.5z" />
<glyph unicode="w" horiz-adv-x="1579" d="M-41 473v328q0 61 30.5 93t78 32t75.5 -29v-434q0 -397 174 -397q78 0 140 86q66 88 65 325l-4 295q0 49 3 75.5t23.5 53.5t59.5 27q115 0 115 -164q0 -92 -12 -180v-121q0 -397 235 -397q51 0 90 30q-86 82 -129 205t-43 238q0 203 58.5 306t197.5 103q96 0 154.5 -65.5 t58.5 -173.5q0 -391 -170 -594q70 -41 156 -41q115 0 188.5 98t73.5 301q2 12 31 12q37 0 37 -96q0 -170 -86 -282.5t-263 -112.5q-119 0 -204 57q-82 -57 -174 -57q-233 0 -340 194q-119 -195 -279 -194.5t-250 126.5t-90 353zM965 573.5q0 -264.5 125 -403.5 q78 145 77 485q0 182 -82 183q-120 0 -120 -264.5z" />
<glyph unicode="x" horiz-adv-x="1054" d="M-14 771q0 71 40 113t129 42t163.5 -62.5t152.5 -206.5l37 -71q133 254 278 313q66 27 144 27q41 0 41 -33q0 -43 -47 -43q-113 0 -199 -95.5t-168 -260.5l100 -185q70 -133 119 -194.5t105 -61.5q74 0 125 96.5t51 323.5q2 12 30 12q37 0 37 -108q0 -182 -71.5 -293 t-205.5 -111t-223 81t-184 257q-76 -152 -160.5 -236.5t-199.5 -84.5q-23 0 -35 12t-12 26.5t13 27t49 12.5t80 25.5t83 82.5q59 84 129 236l-145 276q-45 86 -73 121t-56 35q-63 0 -64 -82l8 -49q-8 -12 -30 -13q-41 0 -41 71z" />
<glyph unicode="y" horiz-adv-x="997" d="M0 319v482q0 61 30.5 93t78 32t75.5 -29v-588q0 -244 123 -243q111 0 181.5 116.5t70.5 392.5v226q0 61 31 93t78 32t75 -29v-1040q25 2 78 2t53 -45l-12 -31q-78 0 -119 -2v-103q0 -211 -95 -332.5t-255 -121.5q-94 0 -166.5 56t-72.5 177q0 156 110.5 248t294.5 129 v320q-86 -160 -276 -160q-131 0 -207 83.5t-76 241.5zM258 -549q0 -72 39 -109.5t94 -37.5t90 32q78 70 78 420q-301 -67 -301 -305z" />
<glyph unicode="z" horiz-adv-x="933" d="M-16 788.5q0 51.5 32.5 83t122.5 31.5h649q39 -4 39 -45q0 -197 -113.5 -374t-269.5 -275q102 -37 186.5 -116t127.5 -187q47 2 147 2q37 0 51.5 -17.5t14.5 -37.5l-13 -31q-59 0 -174 -4q14 -68 15 -125q0 -211 -114 -341t-308 -130q-121 0 -216 65.5t-95 208.5 q0 324 528 393q-51 223 -258 267q-53 -18 -100 -19q-29 10 -29 45q0 53 90 54q115 0 217 188t102 393h-477q-43 0 -58 -21.5t-15 -72.5l12 -285q0 -35 -37 -35q-27 0 -31 35q0 78 -13 188.5t-13 162zM170 -510q0 -90 58.5 -139t152.5 -49t163.5 92t69.5 303q0 53 -6 102 q-438 -69 -438 -309z" />
<glyph unicode="{" horiz-adv-x="731" d="M-33 564q0 52 9.5 75t49.5 23t60 12t22.5 26.5t2.5 57.5q0 330 46 533.5t124.5 284.5t195.5 83h80q35 0 54.5 -17.5t19.5 -38t-4 -31.5t-9.5 -15.5t-5.5 -2.5h-82q-94 0 -143 -67.5t-70.5 -238.5t-21.5 -500v-48q0 -39 -4 -50t-8 -26.5t-13 -21.5q-25 -27 -38 -31t-29 -4 q37 -4 49 -18t19.5 -24.5t11.5 -27t7 -26.5t4 -30.5t1 -26.5v-49q0 -414 21.5 -628t69.5 -299t140 -85q2 0 86 2q18 -12 18.5 -42t-19 -47.5t-54.5 -17.5h-80q-117 2 -194.5 99.5t-124.5 347.5t-47 659v32q0 26 -5 44q-6 41 -90 41q-31 0 -40 20.5t-9 72.5z" />
<glyph unicode="|" horiz-adv-x="286" d="M59 -653v2291q6 29 64 29q92 0 92 -125v-2292q-6 -29 -63 -28q-93 0 -93 125z" />
<glyph unicode="}" horiz-adv-x="761" d="M-33 -688q0 29 19 43q84 -2 86 -2q92 0 140 85t69.5 299t21.5 628v49q0 41 4 54t8 29.5t11.5 27t17.5 20.5q14 18 51 22q-35 0 -47 15l-20 20q-8 6 -12.5 21.5t-7.5 23.5t-4 26.5t-1 26.5v48q0 330 -21.5 500.5t-70.5 238t-143 67.5h-82q0 -2 -4 2q-14 14 -14.5 41 t19 44.5t54.5 17.5h80q117 -2 195.5 -83t124.5 -285t46 -533q0 -51 9.5 -69.5t29 -22.5t53 -4t43 -23t9.5 -75t-9.5 -72.5t-47 -20.5t-59 -12.5t-25 -28.5t-3.5 -43v-33q0 -410 -47 -659.5t-124.5 -347t-194.5 -99.5h-80q-35 0 -54.5 17.5t-19.5 46.5z" />
<glyph unicode="~" horiz-adv-x="1071" d="M20 414q0 84 78 142t185.5 58t191.5 -41t154.5 -80.5t141.5 -39.5t118 49t47 112q43 0 69.5 -25.5t26.5 -66.5q0 -98 -75.5 -151.5t-190.5 -53.5t-260.5 81t-225 81t-121.5 -48t-42 -118q-97 1 -97 101z" />
<glyph unicode="&#xa1;" horiz-adv-x="419" d="M88 811q0 51 35 86t86 35t87 -35t36 -86t-36 -87t-87 -36t-86 36t-35 87zM119 -440l41 938q12 18 41.5 18t47 -19.5t17.5 -54.5l39 -964q-23 -39 -73 -39t-82.5 33t-30.5 88z" />
<glyph unicode="&#xa2;" horiz-adv-x="829" d="M0 449.5q0 197.5 85 318.5t243 150v153q0 74 61 74q29 0 41 -21l2 -198q127 -2 195.5 -73t68.5 -159q0 -51 -30.5 -81.5t-59.5 -30.5q-53 0 -69 24q12 31 12 80t-33 93t-78 61v-766q78 4 131.5 62.5t53.5 168.5q2 12 30 12q43 0 43 -71.5t-62.5 -159.5t-193.5 -92v-121 q0 -115 -61 -115q-27 0 -43 29v213q-158 25 -247 138.5t-89 311zM195 432q0 -264 135 -338v744q-82 -20 -108.5 -110.5t-26.5 -295.5z" />
<glyph unicode="&#xa3;" horiz-adv-x="1507" d="M-23 172q0 98 63.5 161.5t158 63.5t168.5 -37q4 86 4 144v143h-129q-74 0 -74 60q0 31 18 45h185v368q0 276 80.5 402.5t244.5 126.5q100 0 158.5 -59.5t58.5 -151.5l-94 6q0 49 -35.5 84t-87.5 35q-141 0 -141 -340v-469h182q35 0 54.5 -17.5t19.5 -46t-18 -43.5h-238 v-151q0 -139 -31 -250q8 -8 36 -32t38 -33t37 -31.5t40 -31.5t39.5 -26.5t45 -26t46.5 -19.5t52 -17q63 -12 117 -13q203 0 306 95.5t103 275.5q2 12 21.5 12t30.5 -6q31 -23 30 -100q0 -170 -145 -281.5t-348 -111.5q-154 0 -268.5 61.5t-225.5 167.5q-92 -176 -266 -176 q-115 0 -175.5 60.5t-60.5 158.5zM70 174q0 -135 143 -135q115 0 143 207q-82 68 -147.5 67.5t-102 -37t-36.5 -102.5z" />
<glyph unicode="&#xa4;" d="M217 679.5q0 192.5 133 330.5l-117 145q0 25 17.5 43.5t45.5 18.5t52 -25l88 -113q115 74 250 74t248 -68l86 107q25 25 52.5 25t45 -18.5t17.5 -43.5l-113 -139q141 -141 141 -337t-139 -335l111 -137q0 -25 -17.5 -43.5t-43 -18.5t-52.5 27l-84 104 q-111 -70 -250 -69.5t-254 74.5l-88 -109q-27 -27 -52.5 -27t-43 18.5t-17.5 43.5l115 145q-131 135 -131 327.5zM367 690q0 -135 97 -228t223 -93t222.5 90t96.5 225t-97.5 229.5t-223.5 94.5t-222 -91.5t-96 -226.5z" />
<glyph unicode="&#xa5;" horiz-adv-x="1372" d="M141 496q0 59 74 59h338v94l-78 135l-315 2q-18 12 -19 45q0 59 74 60h199l-238 414q-16 29 -16 52t16 40q35 37 98 37l353 -623l362 623q59 0 92 -37q14 -16 14.5 -40t-16.5 -52l-239 -414h241q18 -12 18.5 -42t-19 -47.5t-54.5 -17.5l-248 2l-80 -141v-90h394 q18 -12 18 -42t-19.5 -47t-54.5 -17l-338 2l2 -390q0 -39 -21.5 -62.5t-62.5 -23.5t-63 19v455l-393 2q-19 12 -19 45z" />
<glyph unicode="&#xa6;" horiz-adv-x="288" d="M76 340q6 29 63 29q92 0 92 -125v-989q-6 -29 -63 -29q-92 0 -92 125v989zM76 711v927q6 29 63 29q92 0 92 -125v-928q-6 -29 -63 -28q-92 0 -92 125z" />
<glyph unicode="&#xa7;" horiz-adv-x="1314" d="M4 -215q0 84 33 132t78 48q80 0 102 -26l6 -11q-18 -51 -18 -125q0 -139 113.5 -243.5t297.5 -104.5q133 0 229.5 93.5t96.5 224.5q0 98 -46 167.5t-118.5 108.5t-161 70t-176.5 62.5t-160.5 75.5t-118.5 122t-46 188q0 164 108 273q-109 102 -108.5 280t140.5 287 t360.5 109t351.5 -100.5t131 -219.5q0 -82 -32 -122t-75 -40q-80 0 -102 31l-6 10q20 27 20 103q0 117 -98 183t-228.5 66t-206 -69.5t-75.5 -170t46 -167t120 -103t163 -65.5t178 -62.5t162.5 -82t119.5 -136.5t46 -229t-86 -250q86 -106 86 -274q0 -219 -155.5 -336 t-390 -117t-407.5 120t-173 300zM295 635q0 -82 39 -146.5t110.5 -103.5t145.5 -63q252 -84 328 -127q25 55 24.5 133t-38.5 143.5t-109.5 106t-142 67.5t-167 59.5t-155.5 63.5q-35 -51 -35 -133z" />
<glyph unicode="&#xa8;" horiz-adv-x="804" d="M186 1200q0 41 28 69.5t69 28.5t69.5 -28.5t28.5 -69.5t-28.5 -68.5t-69.5 -27.5t-69 27.5t-28 68.5zM492 1200q0 41 27.5 69.5t68.5 28.5t69.5 -28.5t28.5 -69.5t-28.5 -68.5t-68.5 -27.5t-68.5 27.5t-28.5 68.5z" />
<glyph unicode="&#xa9;" horiz-adv-x="1249" d="M39 739.5q0 239.5 175 409.5t414.5 170t415 -170t175.5 -409.5t-175.5 -409.5t-415 -170t-414.5 170t-175 409.5zM166 739.5q0 -192.5 135 -328t327.5 -135.5t328 135.5t135.5 328t-135.5 327.5t-328 135t-327.5 -135t-135 -327.5zM311 736q0 161 86 251t250 90 q106 0 171 -62.5t65 -128t-31 -96t-61 -30.5q-51 0 -68 24q12 31 12 86.5t-22.5 91t-83.5 35.5q-123 0 -123 -265t133 -265q145 0 145 129q2 12 31 12q43 0 43 -62.5t-55 -110.5t-164 -48q-152 0 -240 94t-88 255z" />
<glyph unicode="&#xaa;" horiz-adv-x="1114" d="M307 991q0 160 83 230.5t191.5 70.5t161.5 -49q29 47 83.5 47t82.5 -28v-566q-20 -29 -78 -28q-86 0 -102 84q-61 -72 -170.5 -72t-180.5 75.5t-71 235.5zM485 989q0 -229 101 -229q139 0 139 239q0 152 -47 189q-33 25 -80 24.5t-80 -59t-33 -164.5z" />
<glyph unicode="&#xab;" d="M195 441q0 42 69 102l488 411q31 -14 53 -42.5t22 -57.5t-63 -82l-387 -330l387 -321q66 -53 65.5 -83t-19.5 -54.5t-58 -44.5l-488 403q-69 57 -69 99zM702 441q0 42 70 102l488 411q31 -14 53 -42.5t22 -57.5t-63 -82l-387 -330l387 -321q66 -53 65.5 -83t-20 -54.5 t-57.5 -44.5l-488 403q-70 57 -70 99z" />
<glyph unicode="&#xac;" horiz-adv-x="1099" d="M66 831q0 92 124 93l680 2q92 0 93 -125l2 -293q-6 -29 -64 -29q-92 0 -92 125l-2 166l-713 -2q-28 6 -28 63z" />
<glyph unicode="&#xad;" horiz-adv-x="907" d="M94 530q0 92 125 93l479 2q29 -6 29 -64q0 -92 -125 -92l-479 -2q-29 6 -29 63z" />
<glyph unicode="&#xae;" horiz-adv-x="1261" d="M39 739.5q0 239.5 175 409.5t414.5 170t415 -170t175.5 -409.5t-175.5 -409.5t-415 -170t-414.5 170t-175 409.5zM166 739.5q0 -192.5 135 -328t321.5 -135.5t321.5 123q-68 4 -106.5 36t-53 73t-26.5 82q-29 96 -121 96h-43q-4 -154 -42 -215t-134 -61q-135 0 -135 139 q0 37 17 55.5t32 18.5q25 0 43 -23q-8 -14 -8 -47q0 -57 45 -57q41 0 41 168v262q0 35 24.5 54t60 19t56.5 -10v-201h43q66 0 90.5 31t24.5 93.5t-32 88t-119 25.5t-145.5 -32.5t-58.5 -96.5l6 -33q-18 -10 -36.5 -10t-36 16.5t-17.5 40.5q0 94 90.5 144.5t196.5 50.5 q289 0 289 -195q0 -66 -49 -112.5t-113 -50.5q63 -4 99 -45t45.5 -89.5t36 -88.5t75.5 -40l37 9q72 115 72 245q0 193 -135.5 328t-328 135t-327.5 -135t-135 -327.5z" />
<glyph unicode="&#xb0;" horiz-adv-x="860" d="M154 1323q0 117 81.5 200t198.5 83t200 -83t83 -200t-83 -199t-200 -82t-198.5 82t-81.5 199zM291 1323q0 -59 42 -101t101.5 -42t101.5 42t42 101t-42 101t-101.5 42t-101.5 -42t-42 -101z" />
<glyph unicode="&#xb1;" horiz-adv-x="925" d="M53 61q0 92 125 93l643 2q29 -6 29 -64q0 -92 -125 -92l-643 -2q-29 6 -29 63zM53 580q0 92 125 92h195v295q6 29 63 28q92 0 92 -125v-198l293 2q29 -6 29 -64q0 -92 -125 -92l-197 -2l2 -289q-6 -29 -63 -28q-92 0 -92 125l-2 192h-291q-29 7 -29 64z" />
<glyph unicode="&#xb2;" horiz-adv-x="770" d="M39 1034q0 123 151 123q51 0 123 -47q72 72 118 154t46 151.5t-38 101t-88 31.5t-88 -30.5t-38 -81.5l11 -39q-25 -47 -64 -47t-64.5 24.5t-25.5 65.5q0 98 72.5 164.5t197.5 66.5t206 -61.5t81 -198.5q0 -82 -64.5 -189.5t-144.5 -185.5q41 -12 79 -12t63.5 29.5 t25.5 60.5v29q25 41 66 41q66 0 65.5 -95.5t-73 -148.5t-157.5 -53t-180 63q-66 -33 -135 -32q-145 -1 -145 116zM133 1044q0 -45 49 -45q25 0 44.5 12.5t26.5 24t5 11.5q-37 37 -70 36q-55 0 -55 -39z" />
<glyph unicode="&#xb3;" horiz-adv-x="737" d="M86 1036.5q0 65.5 51 65.5q25 0 45 -17l13 -26q0 -33 51 -54.5t114.5 -21.5t105.5 35t42 101.5t-50 100t-126 33.5q-20 0 -40 13.5t-20 43t19.5 44t40.5 14.5q152 0 151 88q0 47 -28.5 72.5t-75.5 25.5q-129 0 -129 -73l10 -37q-25 -47 -62.5 -47t-63 24.5t-25.5 65.5 q0 78 68.5 133t195.5 55t199.5 -56t72.5 -153.5t-80 -156.5q104 -68 104.5 -190t-87.5 -189.5t-212 -67.5t-204 54.5t-80 120z" />
<glyph unicode="&#xb4;" horiz-adv-x="444" d="M-8 1153l223 397q39 68 98 68q29 0 50.5 -19.5t37.5 -58.5l-227 -399q-39 -66 -96 -66q-29 0 -50.5 19.5t-35.5 58.5z" />
<glyph unicode="&#xb5;" horiz-adv-x="1009" d="M152 -651v1452q0 61 30.5 93t77.5 32t76 -29v-588q0 -244 123 -243q94 0 167.5 113.5t73.5 320.5v301q0 61 35 93t72 32q59 0 88 -29l4 -887q-39 -29 -96 -28q-96 0 -96 124v39q-86 -152 -273 -151q-49 0 -98 14v-756q-39 -29 -96 -28q-88 0 -88 125z" />
<glyph unicode="&#x3bc;" horiz-adv-x="1009" d="M152 -651v1452q0 61 30.5 93t77.5 32t76 -29v-588q0 -244 123 -243q94 0 167.5 113.5t73.5 320.5v301q0 61 35 93t72 32q59 0 88 -29l4 -887q-39 -29 -96 -28q-96 0 -96 124v39q-86 -152 -273 -151q-49 0 -98 14v-756q-39 -29 -96 -28q-88 0 -88 125z" />
<glyph unicode="&#xb6;" d="M74 1001q0 487 770 488l102 -2v139q27 29 75 29t78.5 -32t30.5 -93v-78q156 -47 252.5 -141t96.5 -191q0 -51 -31 -81.5t-59 -30.5q-53 0 -70 24q12 31 12 85t-55 110.5t-146 97.5l-2 -1331q-37 -29 -94 -29q-92 0 -92 125l2 1292q-51 6 -94 7l-2 -1395q-37 -29 -94 -29 q-92 0 -92 125v453q-16 -2 -52 -2q-242 0 -389 124.5t-147 335.5zM270 999q0 -168 85 -257t272 -95h35l2 729q-394 -62 -394 -377z" />
<glyph unicode="&#xb7;" horiz-adv-x="348" d="M27 639q0 41 27.5 69.5t68.5 28.5t69.5 -28.5t28.5 -69.5t-28.5 -68.5t-69.5 -27.5t-68.5 27.5t-27.5 68.5z" />
<glyph unicode="&#xb8;" horiz-adv-x="456" d="M66 -386q0 34 30 56l54 -4q106 0 106 72q0 53 -72 106q-27 18 -49 61.5t-22 100.5h77q0 -68 97 -110q35 -16 64.5 -55.5t29.5 -96.5q0 -94 -67.5 -151.5t-151.5 -57.5q-47 0 -71.5 22.5t-24.5 56.5z" />
<glyph unicode="&#xb9;" horiz-adv-x="819" d="M121 1462v29l219 143q41 25 69.5 25t49 -18.5t20.5 -43.5v-581h88q35 0 53.5 -18.5t18.5 -48t-39 -56.5h-385q-35 0 -53.5 18.5t-18.5 47t31 55.5h141v456q-10 -6 -36 -26q-66 -47 -99 -47q-59 -1 -59 65z" />
<glyph unicode="&#xba;" horiz-adv-x="708" d="M94 997.5q0 157.5 83 232.5t208 75t208 -75t83 -232.5t-81 -235.5t-205 -78t-210 78t-86 235.5zM264 997q0 -238 127 -237q61 0 88 56t27 180t-27.5 178.5t-94.5 54.5t-93.5 -58.5t-26.5 -173.5z" />
<glyph unicode="&#xbb;" horiz-adv-x="1118" d="M184 39q0 29 66 82l387 321l-387 330q-63 53 -63.5 82t19 54.5t56.5 45.5l488 -411q68 -57 67.5 -101.5t-67.5 -99.5l-488 -403q-78 39 -78 100zM692 39q0 29 66 82l387 321l-387 330q-63 53 -63.5 82t19 54.5t56.5 45.5l487 -411q68 -57 68 -101.5t-68 -99.5l-487 -403 q-78 39 -78 100z" />
<glyph unicode="&#xbc;" horiz-adv-x="2056" d="M162 1462v29l219 143q39 25 68.5 25t50 -18.5t20.5 -43.5v-581h88q35 0 53.5 -18.5t18.5 -48t-39 -56.5h-385q-35 0 -53.5 18.5t-18.5 47t31 55.5h141v456q-10 -6 -37 -26q-66 -47 -98 -47q-59 -1 -59 65zM492 20l729 1536q47 100 133 101q23 0 37 -13.5t22 -39.5 l-721 -1516q-31 -66 -63.5 -91.5t-67.5 -25.5q-57 0 -65 37zM1137 246q0 68 94 102q61 78 61 289q0 70 66.5 70t66.5 -72q0 -166 -41 -273q14 0 142 -36v290q0 63 28.5 96t59.5 33t74 -26v-412q29 0 40 23.5t11 87.5q72 0 71 -96q0 -125 -122 -144v-53h28q33 0 52.5 -19.5 t19.5 -48t-33 -57.5h-266q-35 0 -53.5 18.5t-18.5 49t39 57.5h72v68q-25 6 -88.5 32.5t-106.5 26.5h-10q-43 -49 -162 -68q-24 42 -24 62z" />
<glyph unicode="&#xbd;" horiz-adv-x="2084" d="M162 1462v29l219 143q39 25 68.5 25t50 -18.5t20.5 -43.5v-581h88q35 0 53.5 -18.5t18.5 -48t-39 -56.5h-385q-35 0 -53.5 18.5t-18.5 47t31 55.5h141v456q-10 -6 -37 -26q-66 -47 -98 -47q-59 -1 -59 65zM492 20l729 1536q47 100 133 101q23 0 37 -13.5t22 -39.5 l-721 -1516q-31 -66 -63.5 -91.5t-67.5 -25.5q-57 0 -65 37zM1083 102q0 123 152 123q51 0 123 -47q72 72 118 154t46 151.5t-38 101t-88 31.5t-88 -30.5t-38 -81.5l10 -39q-25 -47 -63.5 -47t-64.5 24.5t-26 65.5q0 98 73 164.5t198 66.5t205.5 -61.5t80.5 -198.5 q0 -82 -64.5 -189.5t-143.5 -185.5q41 -12 78.5 -12t63 30t25.5 58v31q25 41 66 41q66 0 66 -95.5t-73 -148.5t-158 -53t-179 63q-66 -33 -135 -32q-146 -1 -146 116zM1178 113q0 -45 49 -45q25 0 44 11t26.5 23.5t5.5 12.5q-37 37 -70 37q-55 0 -55 -39z" />
<glyph unicode="&#xbe;" horiz-adv-x="2101" d="M139 1036.5q0 65.5 51 65.5q25 0 46 -17q8 -51 59 -76.5t116.5 -25.5t107.5 35t42 101.5t-50 100t-126 33.5q-20 0 -39.5 13.5t-19.5 43t19.5 44t39.5 14.5q152 0 152 88q0 47 -29 72.5t-76 25.5q-129 0 -129 -73l10 -37q-25 -47 -62.5 -47t-63 24.5t-25.5 65.5 q0 78 68.5 133t195.5 55t199.5 -56t72.5 -153.5t-80 -156.5q104 -63 104.5 -187.5t-87.5 -192t-212 -67.5t-204 54.5t-80 120zM492 20l729 1536q47 100 133 101q23 0 37 -13.5t22 -39.5l-721 -1516q-31 -66 -63.5 -91.5t-67.5 -25.5q-57 0 -65 37zM1137 246q0 68 94 102 q61 78 61 289q0 70 66.5 70t66.5 -72q0 -166 -41 -273q14 0 142 -36v290q0 63 28.5 96t59.5 33t74 -26v-412q29 0 40 23.5t11 87.5q72 0 71 -96q0 -125 -122 -144v-53h28q33 0 52.5 -19.5t19.5 -48t-33 -57.5h-266q-35 0 -53.5 18.5t-18.5 49t39 57.5h72v68 q-25 6 -88.5 32.5t-106.5 26.5h-10q-43 -49 -162 -68q-24 42 -24 62z" />
<glyph unicode="&#xbf;" d="M238 -213q0 184 100 295q61 70 161.5 145.5t145.5 122.5q100 104 100 268q0 35 18.5 54.5t46.5 19.5t54 -18v-92q0 -168 -86 -275q-39 -45 -86 -84l-94 -78q-47 -39 -86 -84q-86 -104 -86 -270t92 -248t217 -82t233.5 91.5t108.5 242.5q0 39 -12 76q12 25 55 25t74 -31 t31 -82q0 -180 -136.5 -301t-353.5 -121t-357 105.5t-140 320.5zM725 861q0 34 23.5 57.5t57.5 23.5t57.5 -22.5t23.5 -57.5t-23.5 -58.5t-56.5 -23.5t-57.5 23.5t-24.5 57.5z" />
<glyph unicode="&#xc0;" horiz-adv-x="1781" d="M-127 -14.5q0 120.5 58.5 218t154.5 152.5q193 111 430 111l299 844q20 59 43 88q-63 213 -63 234.5t29.5 49t60.5 27.5q59 0 92 -29l362 -1214l269 2q35 0 54 -17.5t19 -44t-18 -45.5h-291l117 -389q4 -14 4 -36.5t-28.5 -55.5t-59.5 -33q-57 0 -90 29l-146 485h-522 l-102 -278q-53 -141 -153.5 -243.5t-260.5 -102.5q-121 0 -189.5 63.5t-68.5 184zM-12 -27q0 -72 40 -110.5t103 -38.5q154 0 266 309l80 227q-225 0 -357 -106.5t-132 -280.5zM686 467h451l-201 774zM596 2253q6 29 32.5 53.5t55.5 24.5q59 0 98 -68l223 -397 q-8 -31 -32.5 -54.5t-53.5 -23.5q-57 0 -96 66z" />
<glyph unicode="&#xc1;" horiz-adv-x="1781" d="M-127 -14.5q0 120.5 58.5 218t154.5 152.5q193 111 430 111l299 844q20 59 43 88q-63 213 -63 234.5t29.5 49t60.5 27.5q59 0 92 -29l362 -1214l269 2q35 0 54 -17.5t19 -44t-18 -45.5h-291l117 -389q4 -14 4 -36.5t-28.5 -55.5t-59.5 -33q-57 0 -90 29l-146 485h-522 l-102 -278q-53 -141 -153.5 -243.5t-260.5 -102.5q-121 0 -189.5 63.5t-68.5 184zM-12 -27q0 -72 40 -110.5t103 -38.5q154 0 266 309l80 227q-225 0 -357 -106.5t-132 -280.5zM686 467h451l-201 774zM825 1858l224 397q39 68 98 67q29 0 50.5 -19t37.5 -58l-227 -400 q-39 -66 -97 -65q-29 0 -50.5 19.5t-35.5 58.5z" />
<glyph unicode="&#xc2;" horiz-adv-x="1781" d="M-127 -14.5q0 120.5 58.5 218t154.5 152.5q193 111 430 111l299 844q20 59 43 88q-63 213 -63 234.5t29.5 49t60.5 27.5q59 0 92 -29l362 -1214l269 2q35 0 54 -17.5t19 -44t-18 -45.5h-291l117 -389q4 -14 4 -36.5t-28.5 -55.5t-59.5 -33q-57 0 -90 29l-146 485h-522 l-102 -278q-53 -141 -153.5 -243.5t-260.5 -102.5q-121 0 -189.5 63.5t-68.5 184zM-12 -27q0 -72 40 -110.5t103 -38.5q154 0 266 309l80 227q-225 0 -357 -106.5t-132 -280.5zM686 467h451l-201 774zM557 1837l233 336q47 68 99.5 68t99.5 -68l234 -336q-6 -27 -32 -52 t-54 -25q-51 0 -97 65l-151 213l-150 -213q-45 -66 -96 -65q-29 0 -50.5 19t-35.5 58z" />
<glyph unicode="&#xc3;" horiz-adv-x="1781" d="M-127 -14.5q0 120.5 58.5 218t154.5 152.5q193 111 430 111l299 844q20 59 43 88q-63 213 -63 234.5t29.5 49t60.5 27.5q59 0 92 -29l362 -1214l269 2q35 0 54 -17.5t19 -44t-18 -45.5h-291l117 -389q4 -14 4 -36.5t-28.5 -55.5t-59.5 -33q-57 0 -90 29l-146 485h-522 l-102 -278q-53 -141 -153.5 -243.5t-260.5 -102.5q-121 0 -189.5 63.5t-68.5 184zM-12 -27q0 -72 40 -110.5t103 -38.5q154 0 266 309l80 227q-225 0 -357 -106.5t-132 -280.5zM530 1853q0 80 57.5 130.5t136.5 50.5t178 -60.5t148.5 -60.5t79 32.5t29.5 92.5 q31 0 53.5 -25.5t22.5 -62.5q0 -72 -57.5 -116t-130 -44t-176 60.5t-152.5 60.5q-113 0 -113 -146q-31 0 -53.5 23.5t-22.5 64.5zM686 467h451l-201 774z" />
<glyph unicode="&#xc4;" horiz-adv-x="1781" d="M-127 -14.5q0 120.5 58.5 218t154.5 152.5q193 111 430 111l299 844q20 59 43 88q-63 213 -63 234.5t29.5 49t60.5 27.5q59 0 92 -29l362 -1214l269 2q35 0 54 -17.5t19 -44t-18 -45.5h-291l117 -389q4 -14 4 -36.5t-28.5 -55.5t-59.5 -33q-57 0 -90 29l-146 485h-522 l-102 -278q-53 -141 -153.5 -243.5t-260.5 -102.5q-121 0 -189.5 63.5t-68.5 184zM-12 -27q0 -72 40 -110.5t103 -38.5q154 0 266 309l80 227q-225 0 -357 -106.5t-132 -280.5zM686 467h451l-201 774zM641 1876q0 41 28 69.5t69 28.5t69.5 -28.5t28.5 -69.5t-28.5 -68.5 t-69.5 -27.5t-69 27.5t-28 68.5zM947 1876q0 41 27.5 69.5t68.5 28.5t69.5 -28.5t28.5 -69.5t-28.5 -68.5t-68.5 -27.5t-68.5 27.5t-28.5 68.5z" />
<glyph unicode="&#xc5;" horiz-adv-x="1781" d="M-127 -14.5q0 120.5 58.5 218t154.5 152.5q193 111 430 111l299 844q20 59 43 88q-63 213 -63 234.5t29.5 49t60.5 27.5q59 0 92 -29l362 -1214l269 2q35 0 54 -17.5t19 -44t-18 -45.5h-291l117 -389q4 -14 4 -36.5t-28.5 -55.5t-59.5 -33q-57 0 -90 29l-146 485h-522 l-102 -278q-53 -141 -153.5 -243.5t-260.5 -102.5q-121 0 -189.5 63.5t-68.5 184zM-12 -27q0 -72 40 -110.5t103 -38.5q154 0 266 309l80 227q-225 0 -357 -106.5t-132 -280.5zM686 467h451l-201 774zM672 1994.5q0 90.5 63.5 154t152.5 63.5t153.5 -64.5t64.5 -154 t-63.5 -153t-153.5 -63.5t-153.5 63.5t-63.5 154zM770 1995.5q0 -50.5 35 -85t85 -34.5t84 34.5t34 85t-34 84t-84 33.5t-85 -33.5t-35 -84z" />
<glyph unicode="&#xc6;" horiz-adv-x="2353" d="M-127 -14.5q0 120.5 58.5 218t154.5 152.5q193 111 430 111l299 844q20 59 43 88q-63 213 -63 234.5t29.5 49t60.5 27.5q59 0 92 -29l309 -1040q104 125 279 137q-53 4 -152 66q-55 35 -92 112.5t-37 184.5q0 193 135 294t359.5 101t338 -91t113.5 -218q0 -51 -30.5 -82 t-61.5 -31q-51 0 -67 25q12 31 12 75q0 111 -84 166.5t-219 55.5t-221 -75t-86 -220q0 -305 411 -305q23 0 42.5 -13.5t19.5 -40.5q0 -53 -62 -53q-219 0 -358.5 -90t-139.5 -277.5t120 -280.5t330 -93t368.5 151.5t158.5 395.5q4 14 35 14q39 0 39 -68q0 -227 -151 -403 q-74 -86 -195 -139.5t-268 -53.5q-266 0 -445.5 125t-179.5 352h-551l-102 -278q-53 -141 -153.5 -243.5t-260.5 -102.5q-121 0 -189.5 63.5t-68.5 184zM-12 -27q0 -72 40 -110.5t103 -38.5q154 0 266 309l80 227q-225 0 -357 -106.5t-132 -280.5zM686 467h451l-201 774z " />
<glyph unicode="&#xc7;" horiz-adv-x="1349" d="M139 727q0 383 189.5 582.5t496.5 199.5q199 0 311.5 -102t112.5 -227q0 -51 -30.5 -82t-61.5 -31q-57 0 -78 25q12 31 13 75q0 111 -71 176.5t-206 65.5q-203 0 -345 -193.5t-142 -513t157.5 -515t378.5 -195.5t354.5 134t133.5 341q10 12 35.5 12t42 -18.5t16.5 -69.5 t-34 -136t-99.5 -169t-180 -140.5t-258.5 -56.5q14 -25 61.5 -51t83.5 -65t36 -118t-67.5 -136.5t-151.5 -57.5q-47 0 -72 22.5t-25 56.5t31 57l53 -5q106 0 107 72q0 35 -31 64.5t-66.5 69.5t-44.5 96q-299 27 -474 238.5t-175 594.5z" />
<glyph unicode="&#xc8;" horiz-adv-x="1083" d="M-80 360q0 100 31 178t73 121t95 72q90 47 170 47q-111 16 -191 99q-37 35 -64.5 104.5t-27.5 159.5q0 193 135 294t359.5 101t338 -91t113.5 -218q0 -51 -30.5 -82t-61.5 -31q-51 0 -67 25q12 31 12 75q0 111 -84 166.5t-219 55.5t-221 -75t-86 -220q0 -305 411 -305 q23 0 42.5 -13.5t19.5 -40.5q0 -53 -62 -53q-219 0 -358 -90t-139 -277.5t119.5 -280.5t329.5 -93t368.5 151.5t158.5 395.5q4 14 35 14q39 0 39 -68q0 -227 -151 -403q-74 -86 -195 -139.5t-268 -53.5q-266 0 -445.5 125t-179.5 350zM172 2101q6 29 32.5 53.5t55.5 24.5 q59 0 98 -68l223 -397q-8 -31 -32.5 -54.5t-53.5 -23.5q-57 0 -96 66z" />
<glyph unicode="&#xc9;" horiz-adv-x="1083" d="M-80 360q0 100 31 178t73 121t95 72q90 47 170 47q-111 16 -191 99q-37 35 -64.5 104.5t-27.5 159.5q0 193 135 294t359.5 101t338 -91t113.5 -218q0 -51 -30.5 -82t-61.5 -31q-51 0 -67 25q12 31 12 75q0 111 -84 166.5t-219 55.5t-221 -75t-86 -220q0 -305 411 -305 q23 0 42.5 -13.5t19.5 -40.5q0 -53 -62 -53q-219 0 -358 -90t-139 -277.5t119.5 -280.5t329.5 -93t368.5 151.5t158.5 395.5q4 14 35 14q39 0 39 -68q0 -227 -151 -403q-74 -86 -195 -139.5t-268 -53.5q-266 0 -445.5 125t-179.5 350zM459 1706l223 397q39 68 98 68 q29 0 50.5 -19.5t37.5 -58.5l-227 -399q-39 -66 -96 -66q-29 0 -50.5 19.5t-35.5 58.5z" />
<glyph unicode="&#xca;" horiz-adv-x="1083" d="M-80 360q0 100 31 178t73 121t95 72q90 47 170 47q-111 16 -191 99q-37 35 -64.5 104.5t-27.5 159.5q0 193 135 294t359.5 101t338 -91t113.5 -218q0 -51 -30.5 -82t-61.5 -31q-51 0 -67 25q12 31 12 75q0 111 -84 166.5t-219 55.5t-221 -75t-86 -220q0 -305 411 -305 q23 0 42.5 -13.5t19.5 -40.5q0 -53 -62 -53q-219 0 -358 -90t-139 -277.5t119.5 -280.5t329.5 -93t368.5 151.5t158.5 395.5q4 14 35 14q39 0 39 -68q0 -227 -151 -403q-74 -86 -195 -139.5t-268 -53.5q-266 0 -445.5 125t-179.5 350zM209 1697l233 336q47 68 99.5 68 t99.5 -68l234 -336q-6 -27 -32 -52t-54 -25q-51 0 -97 65l-151 213l-150 -213q-45 -66 -96 -65q-29 0 -50.5 19t-35.5 58z" />
<glyph unicode="&#xcb;" horiz-adv-x="1083" d="M-80 360q0 100 31 178t73 121t95 72q90 47 170 47q-111 16 -191 99q-37 35 -64.5 104.5t-27.5 159.5q0 193 135 294t359.5 101t338 -91t113.5 -218q0 -51 -30.5 -82t-61.5 -31q-51 0 -67 25q12 31 12 75q0 111 -84 166.5t-219 55.5t-221 -75t-86 -220q0 -305 411 -305 q23 0 42.5 -13.5t19.5 -40.5q0 -53 -62 -53q-219 0 -358 -90t-139 -277.5t119.5 -280.5t329.5 -93t368.5 151.5t158.5 395.5q4 14 35 14q39 0 39 -68q0 -227 -151 -403q-74 -86 -195 -139.5t-268 -53.5q-266 0 -445.5 125t-179.5 350zM291 1737q0 41 27.5 69.5t68.5 28.5 t69.5 -28.5t28.5 -69.5t-28.5 -69t-68.5 -28t-68.5 28t-28.5 69zM596 1737q0 41 27.5 69.5t68.5 28.5t70 -28.5t29 -69.5t-29 -69t-70 -28t-68.5 28t-27.5 69z" />
<glyph unicode="&#xcc;" horiz-adv-x="929" d="M109 59q0 27 18 45l221 2v1221h-166q-74 0 -73 59q0 25 18 48h551q35 0 54.5 -17.5t19.5 -44t-19 -45.5h-201v-1221h146q35 0 54.5 -17t19.5 -44t-19 -45h-551q-73 0 -73 59zM135 2077q6 29 32.5 53.5t55.5 24.5q59 0 98 -68l223 -397q-8 -31 -32.5 -54.5t-53.5 -23.5 q-57 0 -96 66z" />
<glyph unicode="&#xcd;" horiz-adv-x="929" d="M109 59q0 27 18 45l221 2v1221h-166q-74 0 -73 59q0 25 18 48h551q35 0 54.5 -17.5t19.5 -44t-19 -45.5h-201v-1221h146q35 0 54.5 -17t19.5 -44t-19 -45h-551q-73 0 -73 59zM352 1690l223 397q39 68 99 67q29 0 50 -19t38 -58l-227 -400q-39 -66 -97 -65 q-29 0 -50.5 19.5t-35.5 58.5z" />
<glyph unicode="&#xce;" horiz-adv-x="929" d="M109 59q0 27 18 45l221 2v1221h-166q-74 0 -73 59q0 25 18 48h551q35 0 54.5 -17.5t19.5 -44t-19 -45.5h-201v-1221h146q35 0 54.5 -17t19.5 -44t-19 -45h-551q-73 0 -73 59zM115 1738l233 336q47 68 99.5 68t99.5 -68l234 -336q-6 -27 -32 -52t-54 -25q-51 0 -97 65 l-151 213l-150 -213q-45 -66 -96 -65q-29 0 -50.5 19t-35.5 58z" />
<glyph unicode="&#xcf;" horiz-adv-x="929" d="M109 59q0 27 18 45l221 2v1221h-166q-74 0 -73 59q0 25 18 48h551q35 0 54.5 -17.5t19.5 -44t-19 -45.5h-201v-1221h146q35 0 54.5 -17t19.5 -44t-19 -45h-551q-73 0 -73 59zM215 1737q0 41 27.5 69.5t68.5 28.5t70 -28.5t29 -69.5t-29 -69t-70 -28t-68.5 28t-27.5 69z M520 1737q0 41 27.5 69.5t68.5 28.5t70 -28.5t29 -69.5t-29 -69t-68.5 -28t-68.5 28t-29 69z" />
<glyph unicode="&#xd0;" horiz-adv-x="1456" d="M-76 354q0 29 17.5 47.5t41 18.5t35.5 -12q0 -113 73 -195t194 -123v1227q-201 -51 -201 -168q0 -39 12 -76q-12 -25 -55 -24.5t-73.5 31t-30.5 81.5q0 92 93 162t255 102v146q0 61 30.5 93t75.5 32t78 -29v-221q20 2 61 2q338 0 555 -176q106 -88 167 -234.5t61 -339.5 q0 -369 -220.5 -557t-584.5 -188q-276 0 -430 120.5t-154 280.5zM471 1346l2 -570l350 2q35 0 54.5 -17.5t19.5 -46t-18 -42.5h-406l4 -617q647 0 647 643q0 315 -157.5 482.5t-425.5 167.5z" />
<glyph unicode="&#xd1;" horiz-adv-x="1929" d="M72 1108q0 162 98 263.5t262 101.5q270 0 322 -295q45 137 147.5 219t239.5 82q213 -2 319.5 -161t106.5 -425v-580q0 -119 48 -190.5t126 -71.5q193 0 192 385q2 12 21.5 12.5t30.5 -6.5q31 -23 30 -100q0 -172 -82 -278.5t-217 -106.5q-188 0 -263 126t-75 353v457 q0 483 -237 483q-92 0 -161 -46t-107.5 -113.5t-61.5 -161.5q-39 -152 -39 -346v-263q0 -254 -81 -402t-243.5 -148t-244.5 74.5t-82 197.5q0 158 102 158q25 0 43.5 -11.5t30.5 -35.5q-16 -43 -16 -128t44 -128t111 -43q145 0 146 344v792q0 119 -48.5 190.5t-131.5 71.5 t-133 -66.5t-50 -236.5q0 -37 17 -74q-18 -25 -61.5 -24.5t-73 31t-29.5 100.5zM612 1698q0 80 57.5 130t136.5 50t178 -60.5t148 -60.5t79 33t30 92q31 0 53.5 -25.5t22.5 -62.5q0 -72 -57.5 -115.5t-130 -43.5t-176 60t-152.5 60q-113 0 -113 -145q-31 0 -53.5 23.5 t-22.5 64.5z" />
<glyph unicode="&#xd2;" horiz-adv-x="1665" d="M59 1019.5q0 65.5 27 134.5t86 138.5t139 126t199 91t256 34.5q330 0 527.5 -236.5t197.5 -599t-181.5 -584.5t-485.5 -222t-479 211t-175 569q0 168 54.5 301t140.5 209q174 154 354 154q37 0 59.5 -21.5t22.5 -46.5t-13 -29q-205 0 -317.5 -153.5t-112.5 -437t123 -479 t342 -195.5t349.5 206.5t130.5 521t-153 522.5t-398.5 208t-418.5 -140.5t-181 -334.5q-8 -16 -39 -17q-54 4 -54 69.5zM486 2101q6 29 32.5 53.5t55.5 24.5q59 0 98 -68l223 -397q-8 -31 -32.5 -54.5t-53.5 -23.5q-57 0 -96 66z" />
<glyph unicode="&#xd3;" horiz-adv-x="1665" d="M59 1019.5q0 65.5 27 134.5t86 138.5t139 126t199 91t256 34.5q330 0 527.5 -236.5t197.5 -599t-181.5 -584.5t-485.5 -222t-479 211t-175 569q0 168 54.5 301t140.5 209q174 154 354 154q37 0 59.5 -21.5t22.5 -46.5t-13 -29q-205 0 -317.5 -153.5t-112.5 -437t123 -479 t342 -195.5t349.5 206.5t130.5 521t-153 522.5t-398.5 208t-418.5 -140.5t-181 -334.5q-8 -16 -39 -17q-54 4 -54 69.5zM621 1708l223 397q39 68 98 68q29 0 50.5 -19.5t37.5 -58.5l-227 -399q-39 -66 -96 -66q-29 0 -50.5 19.5t-35.5 58.5z" />
<glyph unicode="&#xd4;" horiz-adv-x="1665" d="M59 1019.5q0 65.5 27 134.5t86 138.5t139 126t199 91t256 34.5q330 0 527.5 -236.5t197.5 -599t-181.5 -584.5t-485.5 -222t-479 211t-175 569q0 168 54.5 301t140.5 209q174 154 354 154q37 0 59.5 -21.5t22.5 -46.5t-13 -29q-205 0 -317.5 -153.5t-112.5 -437t123 -479 t342 -195.5t349.5 206.5t130.5 521t-153 522.5t-398.5 208t-418.5 -140.5t-181 -334.5q-8 -16 -39 -17q-54 4 -54 69.5zM381 1841l233 336q47 68 99.5 68t99.5 -68l234 -336q-6 -27 -32 -52t-54 -25q-51 0 -97 65l-151 213l-150 -213q-45 -66 -96 -65q-29 0 -50.5 19 t-35.5 58z" />
<glyph unicode="&#xd5;" horiz-adv-x="1665" d="M59 1019.5q0 65.5 27 134.5t86 138.5t139 126t199 91t256 34.5q330 0 527.5 -236.5t197.5 -599t-181.5 -584.5t-485.5 -222t-479 211t-175 569q0 168 54.5 301t140.5 209q174 154 354 154q37 0 59.5 -21.5t22.5 -46.5t-13 -29q-205 0 -317.5 -153.5t-112.5 -437t123 -479 t342 -195.5t349.5 206.5t130.5 521t-153 522.5t-398.5 208t-418.5 -140.5t-181 -334.5q-8 -16 -39 -17q-54 4 -54 69.5zM422 1724q0 80 57.5 130.5t136 50.5t178 -60.5t148.5 -60.5t79 32.5t30 92.5q31 0 53 -25.5t22 -62.5q0 -72 -57 -116t-130 -44t-176.5 60.5 t-152.5 60.5q-113 0 -112 -146q-31 0 -53.5 23.5t-22.5 64.5z" />
<glyph unicode="&#xd6;" horiz-adv-x="1665" d="M59 1019.5q0 65.5 27 134.5t86 138.5t139 126t199 91t256 34.5q330 0 527.5 -236.5t197.5 -599t-181.5 -584.5t-485.5 -222t-479 211t-175 569q0 168 54.5 301t140.5 209q174 154 354 154q37 0 59.5 -21.5t22.5 -46.5t-13 -29q-205 0 -317.5 -153.5t-112.5 -437t123 -479 t342 -195.5t349.5 206.5t130.5 521t-153 522.5t-398.5 208t-418.5 -140.5t-181 -334.5q-8 -16 -39 -17q-54 4 -54 69.5zM553 1778q0 41 28 69.5t69 28.5t69.5 -28.5t28.5 -69.5t-28.5 -68.5t-69.5 -27.5t-69 27.5t-28 68.5zM859 1778q0 41 27.5 69.5t68.5 28.5t69.5 -28.5 t28.5 -69.5t-28.5 -68.5t-68.5 -27.5t-68.5 27.5t-28.5 68.5z" />
<glyph unicode="&#xd7;" horiz-adv-x="757" d="M66 803q0 66 57 86q12 4 27 4q45 0 94 -47l141 -141l205 208q68 0 86 -57q4 -12 4 -25q0 -45 -47 -96l-139 -141l206 -203q0 -66 -57 -84q-12 -6 -27 -6q-45 0 -94 49l-137 135l-207 -206q-68 0 -86 57q-4 12 -4 24q0 45 49 97l137 137z" />
<glyph unicode="&#xd8;" horiz-adv-x="1316" d="M-133 1019.5q0 65.5 26.5 134.5t86 138.5t139.5 126t198.5 91t255.5 34.5q330 0 527.5 -236.5t197.5 -599t-181 -584.5t-485 -222t-479.5 211t-175.5 569q0 168 54.5 301t140.5 209q174 154 354 154q37 0 59.5 -21.5t22.5 -46.5t-12 -29q-205 0 -317.5 -153.5 t-112.5 -413.5q0 -346 149 -543l564 1180q-135 123 -310 123q-256 0 -429 -140.5t-181 -334.5q-8 -16 -39 -17q-53 4 -53 69.5zM387 68q106 -84 240 -84q223 0 353 206.5t130 524t-160 526.5z" />
<glyph unicode="&#xd9;" horiz-adv-x="1542" d="M-303 1139q0 162 98.5 263t261.5 101q195 0 267 -137q66 -121 65 -342v-518q0 -483 238 -483q170 0 269 161.5t99 413.5v739q0 61 31 93t75 32t85 -28v-1112q0 -119 48 -191t126 -72q193 0 192 385q2 12 21.5 12.5t30.5 -5.5q31 -23 30 -101q0 -172 -82 -278.5 t-217 -106.5q-260 0 -317 271q-43 -143 -146.5 -229.5t-244.5 -86.5q-211 2 -315.5 157.5t-104.5 420.5v649q0 119 -48 190.5t-131 71.5t-133.5 -66.5t-50.5 -236.5q0 -37 17 -74q-18 -25 -61.5 -24.5t-73 31t-29.5 100.5zM342 2077q6 29 32.5 53.5t55.5 24.5q59 0 98 -68 l223 -397q-8 -31 -32.5 -54.5t-53.5 -23.5q-57 0 -96 66z" />
<glyph unicode="&#xda;" horiz-adv-x="1542" d="M-303 1139q0 162 98.5 263t261.5 101q195 0 267 -137q66 -121 65 -342v-518q0 -483 238 -483q170 0 269 161.5t99 413.5v739q0 61 31 93t75 32t85 -28v-1112q0 -119 48 -191t126 -72q193 0 192 385q2 12 21.5 12.5t30.5 -5.5q31 -23 30 -101q0 -172 -82 -278.5 t-217 -106.5q-260 0 -317 271q-43 -143 -146.5 -229.5t-244.5 -86.5q-211 2 -315.5 157.5t-104.5 420.5v649q0 119 -48 190.5t-131 71.5t-133.5 -66.5t-50.5 -236.5q0 -37 17 -74q-18 -25 -61.5 -24.5t-73 31t-29.5 100.5zM565 1690l223 397q39 68 99 67q29 0 50 -19t38 -58 l-227 -400q-39 -66 -97 -65q-29 0 -50.5 19.5t-35.5 58.5z" />
<glyph unicode="&#xdb;" horiz-adv-x="1542" d="M-303 1139q0 162 98.5 263t261.5 101q195 0 267 -137q66 -121 65 -342v-518q0 -483 238 -483q170 0 269 161.5t99 413.5v739q0 61 31 93t75 32t85 -28v-1112q0 -119 48 -191t126 -72q193 0 192 385q2 12 21.5 12.5t30.5 -5.5q31 -23 30 -101q0 -172 -82 -278.5 t-217 -106.5q-260 0 -317 271q-43 -143 -146.5 -229.5t-244.5 -86.5q-211 2 -315.5 157.5t-104.5 420.5v649q0 119 -48 190.5t-131 71.5t-133.5 -66.5t-50.5 -236.5q0 -37 17 -74q-18 -25 -61.5 -24.5t-73 31t-29.5 100.5zM438 1665l233 336q47 68 99.5 68t99.5 -68 l234 -336q-6 -27 -32 -52t-54 -25q-51 0 -97 65l-151 213l-150 -213q-45 -66 -96 -65q-29 0 -50.5 19t-35.5 58z" />
<glyph unicode="&#xdc;" horiz-adv-x="1542" d="M-303 1139q0 162 98.5 263t261.5 101q195 0 267 -137q66 -121 65 -342v-518q0 -483 238 -483q170 0 269 161.5t99 413.5v739q0 61 31 93t75 32t85 -28v-1112q0 -119 48 -191t126 -72q193 0 192 385q2 12 21.5 12.5t30.5 -5.5q31 -23 30 -101q0 -172 -82 -278.5 t-217 -106.5q-260 0 -317 271q-43 -143 -146.5 -229.5t-244.5 -86.5q-211 2 -315.5 157.5t-104.5 420.5v649q0 119 -48 190.5t-131 71.5t-133.5 -66.5t-50.5 -236.5q0 -37 17 -74q-18 -25 -61.5 -24.5t-73 31t-29.5 100.5zM362 1737q0 41 28 69.5t69 28.5t69.5 -28.5 t28.5 -69.5t-28.5 -69t-69.5 -28t-69 28t-28 69zM668 1737q0 41 27.5 69.5t68.5 28.5t69.5 -28.5t28.5 -69.5t-28.5 -69t-68.5 -28t-68.5 28t-28.5 69z" />
<glyph unicode="&#xdd;" horiz-adv-x="1372" d="M143 713v624q0 61 31 93t76 32t78 -28v-721q0 -657 319 -658q197 0 289 188.5t92 510.5v583q0 61 31 93t58.5 32t42 -3t24.5 -7q20 -10 26 -18v-1751q0 -510 -366 -510q-147 0 -236.5 89t-89.5 242q0 86 38 165t92 134.5t130 106.5q102 72 248 131v90 q-140 -157 -385 -157h-3q-247 1 -371 195t-124 544zM606 -517q0 -99 69.5 -165t166 -66t140.5 92.5t44 338.5v276q-141 -63 -264 -164q-70 -59 -113 -136t-43 -176zM481 1690l223 397q39 68 98 68q29 0 50.5 -19.5t37.5 -58.5l-227 -399q-39 -66 -96 -66q-29 0 -50.5 19.5 t-35.5 58.5z" />
<glyph unicode="&#xde;" horiz-adv-x="1148" d="M205 1552q0 61 38 93t87 32t61 -28v-371q4 2 29.5 22.5t46.5 34.5q61 37 147 37q168 0 286 -141t118 -374.5t-118 -377t-286 -143.5q-111 0 -200 74q-18 16 -23 18l2 -338q0 -125 -92 -125q-49 0 -94 29zM391 573q51 -51 72 -65q59 -45 135 -45q98 0 160.5 100.5 t62.5 288.5t-61.5 290.5t-161.5 102.5q-78 0 -137 -47q-20 -16 -43 -38.5t-27 -24.5v-562z" />
<glyph unicode="&#xdf;" horiz-adv-x="1425" d="M285 -123v1170q0 229 96 355t343 126t365.5 -107.5t118.5 -292.5q0 -143 -71 -229q-61 -76 -111 -100l-20 -13q119 -39 194 -127q39 -45 72 -126.5t33 -184.5q0 -182 -105.5 -303t-276.5 -121t-256 63.5t-85 172.5q0 45 20.5 67.5t40.5 22.5l21 2q0 -82 57 -154.5 t163.5 -72.5t169 94t62.5 229q0 197 -122 293t-345 96q-20 0 -34.5 18.5t-14.5 49.5q0 39 49 39q229 0 307 94q63 76 63.5 205t-82.5 208t-212 79t-192.5 -77t-63.5 -268v-1112q0 -61 -30.5 -93t-75.5 -32t-78 29z" />
<glyph unicode="&#xe0;" horiz-adv-x="1114" d="M0 463q0 238 111.5 350.5t296.5 112.5q141 0 200 -60q27 59 85.5 59.5t86.5 -28.5v-588q0 -117 37 -176t101 -59q193 0 192 399q2 12 31 12q37 0 37 -108q0 -174 -75 -278.5t-210 -104.5q-207 0 -275 182q-39 -84 -106.5 -133t-153.5 -49q-358 0 -358 469zM195 463 q0 -162 28.5 -252t65.5 -113.5t98.5 -23.5t134 76.5t72.5 199.5v281q0 96 -50 155.5t-112.5 59.5t-99.5 -12.5t-70 -51.5q-67 -73 -67 -319zM105 1540q6 29 32.5 53.5t55.5 24.5q59 0 98 -68l223 -397q-8 -31 -32.5 -54.5t-53.5 -23.5q-57 0 -96 66z" />
<glyph unicode="&#xe1;" horiz-adv-x="1114" d="M0 463q0 238 111.5 350.5t296.5 112.5q141 0 200 -60q27 59 85.5 59.5t86.5 -28.5v-588q0 -117 37 -176t101 -59q193 0 192 399q2 12 31 12q37 0 37 -108q0 -174 -75 -278.5t-210 -104.5q-207 0 -275 182q-39 -84 -106.5 -133t-153.5 -49q-358 0 -358 469zM195 463 q0 -162 28.5 -252t65.5 -113.5t98.5 -23.5t134 76.5t72.5 199.5v281q0 96 -50 155.5t-112.5 59.5t-99.5 -12.5t-70 -51.5q-67 -73 -67 -319zM334 1153l223 397q39 68 98 68q29 0 50.5 -19.5t37.5 -58.5l-227 -399q-39 -66 -96 -66q-29 0 -50.5 19.5t-35.5 58.5z" />
<glyph unicode="&#xe2;" horiz-adv-x="1114" d="M0 463q0 238 111.5 350.5t296.5 112.5q141 0 200 -60q27 59 85.5 59.5t86.5 -28.5v-588q0 -117 37 -176t101 -59q193 0 192 399q2 12 31 12q37 0 37 -108q0 -174 -75 -278.5t-210 -104.5q-207 0 -275 182q-39 -84 -106.5 -133t-153.5 -49q-358 0 -358 469zM195 463 q0 -162 28.5 -252t65.5 -113.5t98.5 -23.5t134 76.5t72.5 199.5v281q0 96 -50 155.5t-112.5 59.5t-99.5 -12.5t-70 -51.5q-67 -73 -67 -319zM100 1185l233 336q47 68 99.5 68t99.5 -68l234 -336q-6 -27 -32 -52t-54 -25q-51 0 -97 65l-151 213l-150 -213q-45 -66 -96 -65 q-29 0 -50.5 19t-35.5 58z" />
<glyph unicode="&#xe3;" horiz-adv-x="1114" d="M0 463q0 238 111.5 350.5t296.5 112.5q141 0 200 -60q27 59 85.5 59.5t86.5 -28.5v-588q0 -117 37 -176t101 -59q193 0 192 399q2 12 31 12q37 0 37 -108q0 -174 -75 -278.5t-210 -104.5q-207 0 -275 182q-39 -84 -106.5 -133t-153.5 -49q-358 0 -358 469zM195 463 q0 -162 28.5 -252t65.5 -113.5t98.5 -23.5t134 76.5t72.5 199.5v281q0 96 -50 155.5t-112.5 59.5t-99.5 -12.5t-70 -51.5q-67 -73 -67 -319zM205 1110q0 80 57 130t136 50t178.5 -60.5t148.5 -60.5t79 33t30 92q31 0 53 -25.5t22 -62.5q0 -72 -57 -115.5t-130 -43.5 t-176.5 60t-152.5 60q-113 0 -112 -145q-31 0 -53.5 23.5t-22.5 64.5z" />
<glyph unicode="&#xe4;" horiz-adv-x="1114" d="M0 463q0 238 111.5 350.5t296.5 112.5q141 0 200 -60q27 59 85.5 59.5t86.5 -28.5v-588q0 -117 37 -176t101 -59q193 0 192 399q2 12 31 12q37 0 37 -108q0 -174 -75 -278.5t-210 -104.5q-207 0 -275 182q-39 -84 -106.5 -133t-153.5 -49q-358 0 -358 469zM195 463 q0 -162 28.5 -252t65.5 -113.5t98.5 -23.5t134 76.5t72.5 199.5v281q0 96 -50 155.5t-112.5 59.5t-99.5 -12.5t-70 -51.5q-67 -73 -67 -319zM241 1200q0 41 28 69.5t69 28.5t69.5 -28.5t28.5 -69.5t-28.5 -68.5t-69.5 -27.5t-69 27.5t-28 68.5zM547 1200q0 41 27.5 69.5 t68.5 28.5t69.5 -28.5t28.5 -69.5t-28.5 -68.5t-68.5 -27.5t-68.5 27.5t-28.5 68.5z" />
<glyph unicode="&#xe5;" horiz-adv-x="1114" d="M0 463q0 238 111.5 350.5t296.5 112.5q141 0 200 -60q27 59 85.5 59.5t86.5 -28.5v-588q0 -117 37 -176t101 -59q193 0 192 399q2 12 31 12q37 0 37 -108q0 -174 -75 -278.5t-210 -104.5q-207 0 -275 182q-39 -84 -106.5 -133t-153.5 -49q-358 0 -358 469zM195 463 q0 -162 28.5 -252t65.5 -113.5t98.5 -23.5t134 76.5t72.5 199.5v281q0 96 -50 155.5t-112.5 59.5t-99.5 -12.5t-70 -51.5q-67 -73 -67 -319zM266 1341.5q0 90.5 63.5 154t153.5 63.5t153.5 -64.5t63.5 -154t-63.5 -153t-153.5 -63.5t-153.5 63.5t-63.5 154zM365 1342.5 q0 -50.5 34.5 -85t85 -34.5t84 34.5t33.5 85t-33.5 84t-84 33.5t-85 -33.5t-34.5 -84z" />
<glyph unicode="&#xe6;" horiz-adv-x="1947" d="M524 463q0 238 112 350.5t296 112.5q141 0 201 -60q27 59 85 59.5t87 -28.5v-33q92 61 220 61.5t187.5 -68.5t59.5 -163q0 -154 -128 -255t-327 -101q18 -131 95 -197.5t203 -66.5t227.5 95t101.5 280q2 12 30 12q43 0 43 -66q0 -152 -105.5 -276.5t-305.5 -124.5 q-324 0 -439 215q-43 -86 -86 -127q-96 -88 -198 -88q-359 0 -359 469zM719 463q0 -162 28.5 -252t65.5 -113.5t98.5 -23.5t134 76.5t72.5 199.5v281q0 80 -44 147.5t-112.5 67.5t-105.5 -12.5t-70 -51.5q-67 -73 -67 -319zM1311 414q127 16 220 79.5t93 188.5q0 80 -35 122 t-98 42q-96 0 -138 -94.5t-42 -319.5v-18z" />
<glyph unicode="&#xe7;" horiz-adv-x="829" d="M0 463q0 211 114.5 337t293.5 126q129 0 188 -69t59 -163q0 -51 -30.5 -81.5t-59.5 -30.5q-53 0 -69 24q12 31 12 88.5t-39 104.5t-94 47q-96 0 -138 -94.5t-42 -296t78.5 -291.5t220 -90t237.5 87t96 247q2 12 31 12q43 0 43 -59.5t-24.5 -119t-70.5 -116.5t-129 -94 t-188 -37h-20q16 -41 104 -88q31 -16 56.5 -53t25.5 -91q0 -94 -67.5 -151t-151.5 -57q-47 0 -71.5 22.5t-24.5 54t31 58.5l53 -4q106 0 106 71q0 37 -32.5 68t-68.5 73t-42 103q-184 23 -285.5 137.5t-101.5 325.5z" />
<glyph unicode="&#xe8;" horiz-adv-x="833" d="M2 449.5q0 224.5 114.5 350.5t293.5 126q129 0 188 -69t59 -163q0 -154 -128 -255t-326 -101q18 -131 95 -197.5t203 -66.5t227 95t101 280q2 12 31 12q43 0 43 -66q0 -152 -105.5 -276.5t-320.5 -124.5t-345 115.5t-130 340zM197 414q127 16 220 79.5t93 188.5 q0 80 -35 122t-98 42q-96 0 -138 -94.5t-42 -319.5v-18zM78 1540q6 29 32.5 53.5t55.5 24.5q59 0 98 -68l223 -397q-8 -31 -32.5 -54.5t-53.5 -23.5q-57 0 -96 66z" />
<glyph unicode="&#xe9;" horiz-adv-x="833" d="M2 449.5q0 224.5 114.5 350.5t293.5 126q129 0 188 -69t59 -163q0 -154 -128 -255t-326 -101q18 -131 95 -197.5t203 -66.5t227 95t101 280q2 12 31 12q43 0 43 -66q0 -152 -105.5 -276.5t-320.5 -124.5t-345 115.5t-130 340zM197 414q127 16 220 79.5t93 188.5 q0 80 -35 122t-98 42q-96 0 -138 -94.5t-42 -319.5v-18zM311 1153l224 397q39 68 98 68q29 0 50.5 -19.5t37.5 -58.5l-227 -399q-39 -66 -97 -66q-29 0 -50.5 19.5t-35.5 58.5z" />
<glyph unicode="&#xea;" horiz-adv-x="833" d="M2 449.5q0 224.5 114.5 350.5t293.5 126q129 0 188 -69t59 -163q0 -154 -128 -255t-326 -101q18 -131 95 -197.5t203 -66.5t227 95t101 280q2 12 31 12q43 0 43 -66q0 -152 -105.5 -276.5t-320.5 -124.5t-345 115.5t-130 340zM197 414q127 16 220 79.5t93 188.5 q0 80 -35 122t-98 42q-96 0 -138 -94.5t-42 -319.5v-18zM84 1128l233 336q47 68 99.5 68t99.5 -68l234 -336q-6 -27 -32 -52t-54 -25q-51 0 -97 65l-151 213l-150 -213q-45 -66 -96 -65q-29 0 -50.5 19t-35.5 58z" />
<glyph unicode="&#xeb;" horiz-adv-x="833" d="M2 449.5q0 224.5 114.5 350.5t293.5 126q129 0 188 -69t59 -163q0 -154 -128 -255t-326 -101q18 -131 95 -197.5t203 -66.5t227 95t101 280q2 12 31 12q43 0 43 -66q0 -152 -105.5 -276.5t-320.5 -124.5t-345 115.5t-130 340zM168 1200q0 41 27.5 69.5t68.5 28.5 t69.5 -28.5t28.5 -69.5t-28.5 -68.5t-68.5 -27.5t-68.5 27.5t-28.5 68.5zM197 414q127 16 220 79.5t93 188.5q0 80 -35 122t-98 42q-96 0 -138 -94.5t-42 -319.5v-18zM473 1200q0 41 27.5 69.5t68.5 28.5t70 -28.5t29 -69.5t-29 -68.5t-70 -27.5t-68.5 27.5t-27.5 68.5z" />
<glyph unicode="&#xec;" horiz-adv-x="575" d="M-205 1540q6 29 33 53.5t55 24.5q59 0 99 -68l223 -397q-8 -31 -33 -54.5t-53 -23.5q-57 0 -96 66zM6 371v430q0 61 31 93t78 32t75 -29v-588q0 -117 45.5 -176t123 -59t145 94t67.5 305q4 12 31 12q37 0 37 -108q0 -158 -86 -270.5t-219 -112.5q-166 0 -247 98.5 t-81 278.5z" />
<glyph unicode="&#xed;" horiz-adv-x="575" d="M6 371v430q0 61 31 93t78 32t75 -29v-588q0 -117 45.5 -176t123 -59t145 94t67.5 305q4 12 31 12q37 0 37 -108q0 -158 -86 -270.5t-219 -112.5q-166 0 -247 98.5t-81 278.5zM18 1153l224 397q39 68 98 68q29 0 50.5 -19.5t37.5 -58.5l-227 -399q-39 -66 -97 -66 q-29 0 -50.5 19.5t-35.5 58.5z" />
<glyph unicode="&#xee;" horiz-adv-x="575" d="M-227 1128l233 336q47 68 99.5 68t99.5 -68l233 -336q-6 -27 -31.5 -52t-54.5 -25q-51 0 -96 65l-152 213l-149 -213q-45 -66 -96 -65q-29 0 -50.5 19t-35.5 58zM6 371v430q0 61 31 93t78 32t75 -29v-588q0 -117 45.5 -176t123 -59t145 94t67.5 305q4 12 31 12 q37 0 37 -108q0 -158 -86 -270.5t-219 -112.5q-166 0 -247 98.5t-81 278.5z" />
<glyph unicode="&#xef;" horiz-adv-x="575" d="M-143 1200q0 41 27.5 69.5t68.5 28.5t69.5 -28.5t28.5 -69.5t-28.5 -68.5t-68.5 -27.5t-68.5 27.5t-28.5 68.5zM6 371v430q0 61 31 93t78 32t75 -29v-588q0 -117 45.5 -176t123 -59t145 94t67.5 305q4 12 31 12q37 0 37 -108q0 -158 -86 -270.5t-219 -112.5 q-166 0 -247 98.5t-81 278.5zM162 1200q0 41 27.5 69.5t68.5 28.5t69.5 -28.5t28.5 -69.5t-28.5 -68.5t-69.5 -27.5t-68.5 27.5t-27.5 68.5z" />
<glyph unicode="&#xf0;" horiz-adv-x="1296" d="M94 1505.5q0 20.5 17.5 34.5t48.5 14q268 0 518 -172l168 168q25 25 52.5 25t45 -18.5t17.5 -43.5l-197 -196q182 -154 291.5 -375t109.5 -467q0 -313 -154.5 -469t-396 -156t-380 130.5t-138.5 332.5q0 252 150 387q53 47 140 78t196 31q231 0 366 -156 q-72 330 -284 564l-281 -281q-27 -27 -52.5 -27t-43 18.5t-17.5 43.5l318 319q-207 182 -418 183l-55 -3q-21 15 -21 35.5zM264 324q0 -174 95.5 -283t246 -109t253 111t102.5 281t-96.5 277.5t-289.5 107.5q-150 0 -230.5 -105.5t-80.5 -279.5z" />
<glyph unicode="&#xf1;" horiz-adv-x="1081" d="M0 119v778q20 29 78 29q106 0 106 -154q86 154 273 154q133 0 212 -84t79 -242v-291q0 -117 36.5 -176t109.5 -59t128 91t55 308q2 12 31 12q37 0 37 -108q0 -174 -75 -278.5t-218 -104.5t-220 98t-77 279v239q0 244 -123 244q-109 0 -178.5 -110.5t-69.5 -370.5v-350 q-20 -29 -71.5 -29t-82 32t-30.5 93zM55 1110q0 80 57.5 130t136.5 50t178 -60.5t148 -60.5t79 33t30 92q31 0 53.5 -25.5t22.5 -62.5q0 -72 -57.5 -115.5t-130 -43.5t-176 60t-152.5 60q-113 0 -113 -145q-31 0 -53.5 23.5t-22.5 64.5z" />
<glyph unicode="&#xf2;" horiz-adv-x="966" d="M10 462q0 220 111.5 342t293 122t296 -121t114.5 -329t-107.5 -345t-287.5 -137t-300 124t-120 344zM205 463q0 -209 52 -299t171 -90q82 0 126 42t60 136q-133 29 -244.5 121t-162.5 205q-2 -35 -2 -115zM281 739q0 -131 102 -250.5t244 -158.5q4 78 4 133 q0 213 -45 298t-170 85q-55 0 -95 -28t-40 -79zM121 1548q6 29 32.5 53.5t55.5 24.5q59 0 98 -68l223 -397q-8 -31 -32.5 -54.5t-53.5 -23.5q-57 0 -96 66z" />
<glyph unicode="&#xf3;" horiz-adv-x="966" d="M10 462q0 220 111.5 342t293 122t296 -121t114.5 -329t-107.5 -345t-287.5 -137t-300 124t-120 344zM205 463q0 -209 52 -299t171 -90q82 0 126 42t60 136q-133 29 -244.5 121t-162.5 205q-2 -35 -2 -115zM281 739q0 -131 102 -250.5t244 -158.5q4 78 4 133 q0 213 -45 298t-170 85q-55 0 -95 -28t-40 -79zM311 1161l224 398q39 68 98 67q29 0 50.5 -19.5t37.5 -58.5l-227 -399q-39 -66 -97 -66q-29 0 -50.5 19.5t-35.5 58.5z" />
<glyph unicode="&#xf4;" horiz-adv-x="966" d="M10 462q0 220 111.5 342t293 122t296 -121t114.5 -329t-107.5 -345t-287.5 -137t-300 124t-120 344zM205 463q0 -209 52 -299t171 -90q82 0 126 42t60 136q-133 29 -244.5 121t-162.5 205q-2 -35 -2 -115zM281 739q0 -131 102 -250.5t244 -158.5q4 78 4 133 q0 213 -45 298t-170 85q-55 0 -95 -28t-40 -79zM100 1128l233 336q47 68 99.5 68t99.5 -68l234 -336q-6 -27 -32 -52t-54 -25q-51 0 -97 65l-151 213l-150 -213q-45 -66 -96 -65q-29 0 -50.5 19t-35.5 58z" />
<glyph unicode="&#xf5;" horiz-adv-x="966" d="M10 462q0 220 111.5 342t293 122t296 -121t114.5 -329t-107.5 -345t-287.5 -137t-300 124t-120 344zM57 1110q0 80 57.5 130t136.5 50t178 -60.5t148.5 -60.5t79 33t29.5 92q31 0 53.5 -25.5t22.5 -62.5q0 -72 -57.5 -115.5t-130 -43.5t-176 60t-152.5 60 q-113 0 -113 -145q-31 0 -53.5 23.5t-22.5 64.5zM205 463q0 -209 52 -299t171 -90q82 0 126 42t60 136q-133 29 -244.5 121t-162.5 205q-2 -35 -2 -115zM281 739q0 -131 102 -250.5t244 -158.5q4 78 4 133q0 213 -45 298t-170 85q-55 0 -95 -28t-40 -79z" />
<glyph unicode="&#xf6;" horiz-adv-x="966" d="M10 462q0 220 111.5 342t293 122t296 -121t114.5 -329t-107.5 -345t-287.5 -137t-300 124t-120 344zM205 463q0 -209 52 -299t171 -90q82 0 126 42t60 136q-133 29 -244.5 121t-162.5 205q-2 -35 -2 -115zM281 739q0 -131 102 -250.5t244 -158.5q4 78 4 133 q0 213 -45 298t-170 85q-55 0 -95 -28t-40 -79zM176 1200q0 41 28 69.5t69 28.5t69.5 -28.5t28.5 -69.5t-28.5 -68.5t-69.5 -27.5t-69 27.5t-28 68.5zM482 1200q0 41 27.5 69.5t68.5 28.5t69.5 -28.5t28.5 -69.5t-28.5 -68.5t-68.5 -27.5t-68.5 27.5t-28.5 68.5z" />
<glyph unicode="&#xf7;" horiz-adv-x="321" d="M-268 453q0 92 125 92l643 2q29 -6 28 -64q0 -92 -125 -92l-643 -2q-28 7 -28 64zM27 93q0 40 27.5 68.5t68.5 28.5t69.5 -28.5t28.5 -69.5t-28.5 -68.5t-69.5 -27.5t-68.5 28.5t-27.5 68.5zM27 827q0 41 27.5 70t68.5 29t69.5 -29t28.5 -70t-28.5 -68.5t-69.5 -27.5 t-68.5 27.5t-27.5 68.5z" />
<glyph unicode="&#xf8;" horiz-adv-x="1007" d="M0 463q0 221 114.5 342t293.5 121q94 0 174 -37l80 168q16 33 29.5 44t33.5 11q31 0 53 -35l-114 -239q152 -125 151.5 -360.5t-111 -359.5t-286.5 -124q-78 0 -148 24l-63 -135q-14 -33 -27.5 -43t-32.5 -10q-39 0 -57 31l96 200q-186 123 -186 402zM195 472 q0 -206 45 -298l301 631q-51 41 -135 41q-125 0 -168 -84t-43 -290zM309 98q47 -25 109 -24q115 0 159 88t44 266t-23 272z" />
<glyph unicode="&#xf9;" horiz-adv-x="1079" d="M2 291v510q0 61 30.5 93t78 32t75.5 -29v-588q0 -244 123 -243q92 0 167 110.5t75 310.5v314q0 61 35 93t84 32t78 -29v-588q0 -117 36.5 -176t100.5 -59q63 0 123 73q70 88 69 326q2 12 31 12q37 0 37 -108q0 -174 -75 -278.5t-210 -104.5q-215 0 -282 194 q-80 -195 -293 -194q-127 0 -205 77t-78 220zM70 1540q6 29 32.5 53.5t55.5 24.5q59 0 98 -68l223 -397q-8 -31 -32.5 -54.5t-53.5 -23.5q-57 0 -96 66z" />
<glyph unicode="&#xfa;" horiz-adv-x="1079" d="M2 291v510q0 61 30.5 93t78 32t75.5 -29v-588q0 -244 123 -243q92 0 167 110.5t75 310.5v314q0 61 35 93t84 32t78 -29v-588q0 -117 36.5 -176t100.5 -59q63 0 123 73q70 88 69 326q2 12 31 12q37 0 37 -108q0 -174 -75 -278.5t-210 -104.5q-215 0 -282 194 q-80 -195 -293 -194q-127 0 -205 77t-78 220zM268 1153l224 397q39 68 98 68q29 0 50.5 -19.5t37.5 -58.5l-227 -399q-39 -66 -97 -66q-29 0 -50.5 19.5t-35.5 58.5z" />
<glyph unicode="&#xfb;" horiz-adv-x="1079" d="M2 291v510q0 61 30.5 93t78 32t75.5 -29v-588q0 -244 123 -243q92 0 167 110.5t75 310.5v314q0 61 35 93t84 32t78 -29v-588q0 -117 36.5 -176t100.5 -59q63 0 123 73q70 88 69 326q2 12 31 12q37 0 37 -108q0 -174 -75 -278.5t-210 -104.5q-215 0 -282 194 q-80 -195 -293 -194q-127 0 -205 77t-78 220zM49 1128l233 336q47 68 99.5 68t99.5 -68l234 -336q-6 -27 -32 -52t-54 -25q-51 0 -97 65l-151 213l-150 -213q-45 -66 -96 -65q-29 0 -50.5 19t-35.5 58z" />
<glyph unicode="&#xfc;" horiz-adv-x="1079" d="M2 291v510q0 61 30.5 93t78 32t75.5 -29v-588q0 -244 123 -243q92 0 167 110.5t75 310.5v314q0 61 35 93t84 32t78 -29v-588q0 -117 36.5 -176t100.5 -59q63 0 123 73q70 88 69 326q2 12 31 12q37 0 37 -108q0 -174 -75 -278.5t-210 -104.5q-215 0 -282 194 q-80 -195 -293 -194q-127 0 -205 77t-78 220zM139 1200q0 41 28 69.5t68.5 28.5t69.5 -28.5t29 -69.5t-29 -68.5t-68.5 -27.5t-68.5 27.5t-29 68.5zM444 1200q0 41 28 69.5t69 28.5t69.5 -28.5t28.5 -69.5t-28.5 -68.5t-69.5 -27.5t-69 27.5t-28 68.5z" />
<glyph unicode="&#xfd;" horiz-adv-x="997" d="M0 319v482q0 61 30.5 93t78 32t75.5 -29v-588q0 -244 123 -243q111 0 181.5 116.5t70.5 392.5v226q0 61 31 93t78 32t75 -29v-1040q25 2 78 2t53 -45l-12 -31q-78 0 -119 -2v-103q0 -211 -95 -332.5t-255 -121.5q-94 0 -166.5 56t-72.5 177q0 156 110.5 248t294.5 129 v320q-86 -160 -276 -160q-131 0 -207 83.5t-76 241.5zM258 -549q0 -72 39 -109.5t94 -37.5t90 32q78 70 78 420q-301 -67 -301 -305zM293 1153l223 397q39 68 98 68q29 0 50.5 -19.5t37.5 -58.5l-227 -399q-39 -66 -96 -66q-29 0 -50.5 19.5t-35.5 58.5z" />
<glyph unicode="&#xfe;" horiz-adv-x="960" d="M84 1522q0 82 31.5 115.5t60.5 33.5q47 0 72 -20l2 -811q86 86 194 86q178 0 293 -121t115 -342t-110.5 -345t-286.5 -124q-133 0 -201 67l2 -684q0 -154 -102 -153q-41 0 -62 28zM252 369q6 -156 55 -225.5t155.5 -69.5t150.5 88t44 301t-45 298t-157.5 85t-157.5 -64.5 t-45 -214.5v-198z" />
<glyph unicode="&#xff;" horiz-adv-x="997" d="M0 319v482q0 61 30.5 93t78 32t75.5 -29v-588q0 -244 123 -243q111 0 181.5 116.5t70.5 392.5v226q0 61 31 93t78 32t75 -29v-1040q25 2 78 2t53 -45l-12 -31q-78 0 -119 -2v-103q0 -211 -95 -332.5t-255 -121.5q-94 0 -166.5 56t-72.5 177q0 156 110.5 248t294.5 129 v320q-86 -160 -276 -160q-131 0 -207 83.5t-76 241.5zM141 1200q0 41 28 69.5t69 28.5t69.5 -28.5t28.5 -69.5t-28.5 -68.5t-69.5 -27.5t-69 27.5t-28 68.5zM258 -549q0 -72 39 -109.5t94 -37.5t90 32q78 70 78 420q-301 -67 -301 -305zM446 1200q0 41 28 69.5t69 28.5 t69.5 -28.5t28.5 -69.5t-28.5 -68.5t-68.5 -27.5t-69 27.5t-29 68.5z" />
<glyph unicode="&#x152;" horiz-adv-x="2834" d="M307 1019.5q0 65.5 26.5 134.5t84 138.5t137.5 126t196.5 91t252.5 34.5q293 0 485 -209q117 201 455 201q217 0 330.5 -91t113.5 -218q0 -51 -30.5 -82t-59.5 -31q-53 0 -70 25q12 31 13 75q0 111 -84 166.5t-219.5 55.5t-221.5 -75t-86 -220q0 -305 412 -305 q23 0 42 -13.5t19 -40.5q0 -53 -61 -53q-219 0 -358.5 -90t-139.5 -277.5t120 -280.5t330 -93t368.5 151.5t158.5 395.5q4 14 35 14q39 0 39 -68q0 -227 -152 -403q-74 -86 -194.5 -139.5t-268.5 -53.5q-334 0 -505 176q-170 -160 -418 -159q-295 2 -467 213t-172 567 q0 168 53 301t137 209q170 154 348 154q37 0 59.5 -21.5t22.5 -46.5t-12 -29q-201 0 -310.5 -153.5t-109.5 -437t120 -478t329 -195.5t336 199q-35 80 -35 178.5t30.5 176t72.5 120.5t97 72q88 47 168 47q-174 25 -247 185q-29 63 -35 145q-68 154 -183.5 244t-259.5 90 q-254 0 -427 -140.5t-173 -334.5q-8 -16 -39 -17q-53 4 -53 69.5z" />
<glyph unicode="&#x153;" horiz-adv-x="1841" d="M389 461q0 219 108.5 342t280.5 123q219 0 330 -146q115 145 309 146q129 0 188.5 -69t59.5 -163q0 -154 -128 -255t-327 -101q20 -131 95 -197.5t202 -66.5t228.5 95t101.5 280q2 12 31 12q43 0 43 -66q0 -152 -105.5 -276.5t-306.5 -124.5q-260 0 -389 145 q-109 -145 -295 -145t-306 124t-120 343zM580 408q0 -139 53 -236.5t162.5 -97.5t154.5 64.5t56 211.5q-326 49 -420 230q-6 -149 -6 -172zM659 739q0 -123 95.5 -195.5t255.5 -99.5q0 225 -47.5 313.5t-180.5 88.5q-45 0 -84 -29t-39 -78zM1204 434q313 14 314 248 q0 80 -35 122t-99 42q-96 0 -138 -94.5t-42 -317.5z" />
<glyph unicode="&#x178;" horiz-adv-x="1372" d="M143 713v624q0 61 31 93t76 32t78 -28v-721q0 -657 319 -658q197 0 289 188.5t92 510.5v583q0 61 31 93t58.5 32t42 -3t24.5 -7q20 -10 26 -18v-1751q0 -510 -366 -510q-147 0 -236.5 89t-89.5 242q0 86 38 165t92 134.5t130 106.5q102 72 248 131v90 q-140 -157 -385 -157h-3q-247 1 -371 195t-124 544zM606 -517q0 -99 69.5 -165t166 -66t140.5 92.5t44 338.5v276q-141 -63 -264 -164q-70 -59 -113 -136t-43 -176zM389 1745q0 41 28 69.5t69 28.5t69.5 -28.5t28.5 -69.5t-28.5 -68.5t-69.5 -27.5t-69 27.5t-28 68.5z M695 1745q0 41 27.5 69.5t68.5 28.5t69.5 -28.5t28.5 -69.5t-28.5 -68.5t-68.5 -27.5t-68.5 27.5t-28.5 68.5z" />
<glyph unicode="&#x2c6;" horiz-adv-x="573" d="M-43 1128l233 336q47 68 99.5 68t99.5 -68l234 -336q-6 -27 -32 -52t-54 -25q-51 0 -97 65l-151 213l-150 -213q-45 -66 -96 -65q-29 0 -50.5 19t-35.5 58z" />
<glyph unicode="&#x2da;" horiz-adv-x="737" d="M158 1341.5q0 90.5 63.5 154t152.5 63.5t153.5 -64.5t64.5 -154t-63.5 -153t-153.5 -63.5t-153.5 63.5t-63.5 154zM256 1342.5q0 -50.5 35 -85t85 -34.5t84 34.5t34 85t-34 84t-84 33.5t-85 -33.5t-35 -84z" />
<glyph unicode="&#x2dc;" horiz-adv-x="804" d="M49 1110q0 80 57.5 130t136.5 50t178 -60.5t148 -60.5t79 33t30 92q31 0 53.5 -25.5t22.5 -62.5q0 -72 -57.5 -115.5t-130 -43.5t-176 60t-152.5 60q-113 0 -113 -145q-31 0 -53.5 23.5t-22.5 64.5z" />
<glyph unicode="&#x2000;" horiz-adv-x="1165" />
<glyph unicode="&#x2001;" horiz-adv-x="2330" />
<glyph unicode="&#x2002;" horiz-adv-x="1165" />
<glyph unicode="&#x2003;" horiz-adv-x="2330" />
<glyph unicode="&#x2004;" horiz-adv-x="776" />
<glyph unicode="&#x2005;" horiz-adv-x="581" />
<glyph unicode="&#x2006;" horiz-adv-x="387" />
<glyph unicode="&#x2007;" horiz-adv-x="387" />
<glyph unicode="&#x2008;" horiz-adv-x="290" />
<glyph unicode="&#x2009;" horiz-adv-x="464" />
<glyph unicode="&#x200a;" horiz-adv-x="129" />
<glyph unicode="&#x2010;" horiz-adv-x="901" d="M53 539q0 92 125 92l643 2q29 -6 29 -64q0 -92 -125 -92l-643 -2q-29 7 -29 64z" />
<glyph unicode="&#x2011;" horiz-adv-x="901" d="M53 539q0 92 125 92l643 2q29 -6 29 -64q0 -92 -125 -92l-643 -2q-29 7 -29 64z" />
<glyph unicode="&#x2012;" horiz-adv-x="901" d="M53 539q0 92 125 92l643 2q29 -6 29 -64q0 -92 -125 -92l-643 -2q-29 7 -29 64z" />
<glyph unicode="&#x2013;" horiz-adv-x="1112" d="M94 530q0 94 125 95h787q29 -6 28 -64q0 -94 -125 -94h-786q-29 6 -29 63z" />
<glyph unicode="&#x2014;" horiz-adv-x="1296" d="M45 530q0 94 125 95h1012q29 -6 28 -64q0 -92 -125 -94h-1011q-29 6 -29 63z" />
<glyph unicode="&#x2018;" horiz-adv-x="364" d="M72 1575q0 96 45 158.5t108 62.5q27 0 46.5 -11t19.5 -30.5t-15 -30.5q-57 0 -89.5 -37.5t-32.5 -89t4 -65.5q31 37 76 37t72.5 -29t27.5 -68.5t-30 -68.5t-88 -28t-101 52.5t-43 147.5z" />
<glyph unicode="&#x2019;" horiz-adv-x="405" d="M72 1699q0 40 28.5 68.5t69.5 28.5q74 0 119 -51t45 -148.5t-45 -160t-109 -62.5q-27 0 -46 11.5t-19 31t14 29.5q57 0 90 38t33 84t-6 70q-27 -37 -73 -36.5t-73.5 29t-27.5 68.5z" />
<glyph unicode="&#x201a;" horiz-adv-x="370" d="M72 93q0 40 28.5 68.5t69.5 28.5q74 0 119 -51t45 -148t-45 -159.5t-109 -62.5q-27 0 -46 11t-19 30.5t14 29.5q57 0 90 38t33 84t-6 71q-27 -37 -73 -37t-73.5 28.5t-27.5 68.5z" />
<glyph unicode="&#x201c;" horiz-adv-x="909" d="M72 1574q0 97 45 159.5t108 62.5q27 0 46.5 -11t19.5 -30.5t-15 -30.5q-57 0 -89.5 -37.5t-32.5 -89t4 -65.5q31 37 76 37t72.5 -29t27.5 -68.5t-29 -68.5t-69 -29q-74 0 -119 51.5t-45 148.5zM399 1574q0 97 45 159.5t109 62.5q27 0 46 -11t19 -30.5t-14 -30.5 q-57 0 -90 -37.5t-33 -89t4 -65.5q31 37 76 37t73 -29t28 -68.5t-29 -68.5t-70 -29q-74 0 -119 51.5t-45 148.5z" />
<glyph unicode="&#x201d;" horiz-adv-x="690" d="M72 1699q0 40 28.5 68.5t69.5 28.5q74 0 119 -51t45 -148.5t-45 -160t-109 -62.5q-27 0 -46 11.5t-19 31t14 29.5q57 0 90 38t33 84t-6 70q-27 -37 -73 -36.5t-73.5 29t-27.5 68.5zM399 1699q0 40 30 68.5t75 28.5q70 -4 114 -55t44 -146.5t-45.5 -158t-108.5 -62.5 q-27 0 -46.5 11.5t-19.5 31t15 29.5q57 0 90 38t33 84t-7 70q-27 -37 -72.5 -36.5t-73.5 29t-28 68.5z" />
<glyph unicode="&#x201e;" horiz-adv-x="743" d="M72 93q0 40 29.5 68.5t74.5 28.5q70 -4 114 -55t44 -146t-45 -157.5t-109 -62.5q-27 0 -46 11t-19 30.5t14 29.5q57 0 90 38t33 84t-6 71q-27 -37 -73 -37t-73.5 28.5t-27.5 68.5zM426 93q0 40 29.5 68.5t74.5 28.5q70 -4 114 -55t44 -146t-45 -157.5t-108 -62.5 q-27 0 -46.5 11t-19.5 31.5t14 28.5q57 0 90 38t33 84t-6 71q-27 -37 -72 -37t-73.5 28.5t-28.5 68.5z" />
<glyph unicode="&#x2022;" horiz-adv-x="679" d="M98 626.5q0 102.5 73 176.5t175.5 74t176 -74t73.5 -176.5t-73.5 -175t-176 -72.5t-175.5 72.5t-73 175z" />
<glyph unicode="&#x2026;" horiz-adv-x="837" d="M27 93q0 40 27.5 68.5t68.5 28.5t69.5 -28.5t28.5 -69.5t-28.5 -68.5t-69.5 -27.5t-68.5 28.5t-27.5 68.5zM315 93q0 40 28 68.5t69 28.5t69.5 -28.5t28.5 -69.5t-28.5 -68.5t-68.5 -27.5t-69 28.5t-29 68.5zM598 93q0 40 27.5 68.5t68.5 28.5t70 -28.5t29 -69.5 t-29 -68.5t-69 -27.5t-68.5 28.5t-28.5 68.5z" />
<glyph unicode="&#x202f;" horiz-adv-x="464" />
<glyph unicode="&#x2039;" d="M195 441q0 42 69 102l488 411q31 -14 53 -42.5t22 -57.5t-63 -82l-387 -330l387 -321q66 -53 65.5 -83t-19.5 -54.5t-58 -44.5l-488 403q-69 57 -69 99z" />
<glyph unicode="&#x203a;" horiz-adv-x="886" d="M184 39q0 29 66 82l387 321l-387 330q-63 53 -63.5 82t19 54.5t56.5 45.5l488 -411q68 -57 67.5 -101.5t-67.5 -99.5l-488 -403q-78 39 -78 100z" />
<glyph unicode="&#x205f;" horiz-adv-x="581" />
<glyph unicode="&#x20ac;" d="M-168 879q0 57 74 57h114q55 227 217 365.5t390 138.5q176 0 303 -76q109 -68 147 -119l19 -22q14 -14 14 -34t-20.5 -37t-41 -17t-31.5 13t-23.5 25.5t-52.5 44t-81 56.5q-109 63 -249 63t-250.5 -109.5t-153.5 -293.5h381q18 -12 18 -45q0 -59 -74 -60h-342 q-6 -51 -6 -139t17 -178h387q18 -12 18 -45q0 -59 -74 -59h-307q47 -166 149.5 -259.5t252.5 -93.5q100 0 191 41t132 82l39 41q35 35 74 4q18 -18 18 -34.5t-12 -30t-22.5 -24.5t-49.5 -43t-84 -54q-123 -63 -286 -64q-211 0 -364.5 116t-221.5 321h-174q-18 14 -19 47 q0 57 74 57h92q-18 98 -18 181t6 139h-152q-18 12 -18 45z" />
<glyph unicode="&#x2122;" horiz-adv-x="2080" d="M-78 1282q0 125 139 125q66 0 249.5 -62.5t305 -62.5t147 19.5t25.5 58.5t-24.5 65.5t-24.5 34.5q0 29 32 29t63.5 -41t31.5 -81t-12 -71q98 -6 137 -92q57 94 182 94t189 -118q61 119 188 118.5t177.5 -73t50.5 -207.5v-256q0 -109 84 -109q45 0 69.5 31t24.5 115 q0 6 14 6q45 0 45 -51q0 -86 -42 -135.5t-131 -49.5t-141 53.5t-52 149.5v246q0 98 -23.5 144t-77.5 46q-80 0 -114.5 -65.5t-34.5 -200.5v-285q0 -43 -22.5 -63.5t-45 -20.5t-61.5 15v430q0 190 -103 190q-90 0 -118.5 -68.5t-28.5 -226.5v-163q0 -211 -191 -211 q-76 0 -119.5 44t-43.5 124q0 41 22.5 58t40.5 17q29 0 43 -22q-8 -23 -8 -55q0 -86 65 -87q31 0 44.5 27t13.5 98v381q0 84 -58 84q-76 0 -75 -104l8 -35q-8 -10 -26.5 -10t-32 4t-26.5 19.5t-13 38t4 50.5h-27q-86 0 -168 15v-428q0 -111 -55.5 -168.5t-139 -57.5 t-131 45.5t-47.5 124.5q0 43 22.5 60.5t41.5 17.5q29 0 39 -22q-6 -23 -6 -58q0 -88 72.5 -88t72.5 127v484q-33 10 -90 34q-59 -100 -189 -100q-63 0 -102 36t-39 89zM-2 1282q0 -57 65 -57q88 0 127 59q-84 39 -138 39t-54 -41z" />
<glyph unicode="&#xe000;" horiz-adv-x="925" d="M0 925h925v-925h-925v925z" />
<glyph unicode="&#xfb01;" horiz-adv-x="1148" d="M0 -653v1798q0 260 55.5 383t196.5 123q203 0 203 -275q0 -315 -213 -479h370q33 29 78 29t74 -29v-588q0 -117 45 -176t123 -59t145.5 94t67.5 305q4 12 31 12q37 0 36 -108q0 -158 -86 -270.5t-219 -112.5q-166 0 -246.5 98t-80.5 279q0 446 2 454h-398v-1575 q-20 -29 -71.5 -28.5t-82 32.5t-30.5 93zM184 940q182 133 183 434q0 197 -99 197q-27 0 -41 -17.5t-22 -89.5q-17 -123 -21 -524zM553 1212.5q0 51.5 35 87t86 35.5t87 -35.5t36 -87t-36 -86t-87 -34.5t-86 34.5t-35 86z" />
<glyph unicode="&#xfb02;" horiz-adv-x="1144" d="M0 -653v1798q0 260 55.5 383t196.5 123q203 0 203 -275q0 -315 -213 -479h336v244q2 264 56 387t193 123q203 0 203 -275q0 -207 -81 -331.5t-185 -186.5v-549q0 -117 45 -176t123 -59t145.5 94t67.5 305q4 12 31 12q37 0 36 -108q0 -158 -86 -270.5t-219 -112.5 q-166 0 -249 98t-83 279v454h-391v-1575q-20 -29 -71.5 -28.5t-82 32.5t-30.5 93zM184 940q182 133 183 434q0 197 -99 197q-49 0 -63 -80q-17 -86 -21 -551zM764 944q178 129 178 430q0 197 -98 197q-47 0 -63.5 -65.5t-16.5 -266.5v-295z" />
<glyph unicode="&#xfb03;" horiz-adv-x="1722" d="M1127 1212.5q0 51.5 34.5 87t86 35.5t87 -35.5t35.5 -87t-35.5 -86t-87 -34.5t-86 34.5t-34.5 86zM1153 371v430q0 61 31 93t78 32t75 -29v-588q0 -117 45.5 -176t123 -59t145 94t67.5 305q4 12 31 12q37 0 37 -108q0 -158 -86 -270.5t-219 -112.5q-166 0 -247 98.5 t-81 278.5zM573 -653v1798q0 260 55.5 383t196.5 123q203 0 203 -275q0 -315 -213 -479h182q43 0 56.5 -16.5t13.5 -55.5h-310v-1575q-20 -29 -71.5 -28.5t-82 32.5t-30.5 93zM757 940q182 133 183 434q0 197 -99 197q-27 0 -41 -17.5t-22 -89.5q-17 -123 -21 -524zM0 -653 v1798q0 260 55.5 383t196.5 123q203 0 203 -275q0 -315 -213 -479h182q43 0 56.5 -16.5t13.5 -55.5h-310v-1575q-20 -29 -71.5 -28.5t-82 32.5t-30.5 93zM184 940q182 133 183 434q0 197 -99 197q-27 0 -41 -17.5t-22 -89.5q-17 -123 -21 -524z" />
<glyph unicode="&#xfb04;" horiz-adv-x="1718" d="M1151 371v770q0 264 55.5 387t194.5 123q203 0 203 -275q0 -207 -81 -331.5t-186 -186.5v-549q0 -117 45.5 -176t123 -59t145 94t67.5 305q4 12 31 12q37 0 37 -108q0 -158 -86 -270.5t-219 -112.5q-166 0 -248 98.5t-82 278.5zM1337 944q178 129 179 430q0 197 -99 197 q-25 0 -38 -16.5t-23 -81.5q-19 -101 -19 -529zM573 -653v1798q0 260 55.5 383t196.5 123q203 0 203 -275q0 -315 -213 -479h182q43 0 56.5 -16.5t13.5 -55.5h-310v-1575q-20 -29 -71.5 -28.5t-82 32.5t-30.5 93zM757 940q182 133 183 434q0 197 -99 197q-27 0 -41 -17.5 t-22 -89.5q-17 -123 -21 -524zM0 -653v1798q0 260 55.5 383t196.5 123q203 0 203 -275q0 -315 -213 -479h182q43 0 56.5 -16.5t13.5 -55.5h-310v-1575q-20 -29 -71.5 -28.5t-82 32.5t-30.5 93zM184 940q182 133 183 434q0 197 -99 197q-27 0 -41 -17.5t-22 -89.5 q-17 -123 -21 -524z" />
</font>
</defs>
</svg>
