<?xml version="1.0" standalone="no"?>
<!DOCTYPE svg PUBLIC "-//W3C//DTD SVG 1.1//EN" "http://www.w3.org/Graphics/SVG/1.1/DTD/svg11.dtd" >
<svg xmlns="http://www.w3.org/2000/svg" width="100%" height="100%">
<metadata>
Created by FontXChange 20100429 at Tue Dec 10 12:05:56 2013
 By Payas
Digitized data copyright (c) 2006, Google Corporation.
</metadata>
<defs>
<font id="DroidSerif-Bold" horiz-adv-x="1145" >
  <font-face 
    font-family="Droid Serif"
    font-weight="700"
    font-stretch="normal"
    units-per-em="2048"
    panose-1="2 2 8 0 6 5 0 2 2 0"
    ascent="1638"
    descent="-410"
    x-height="1098"
    cap-height="1462"
    bbox="-427 -571 2613 2005"
    underline-thickness="102"
    underline-position="-103"
    unicode-range="U+0020-FFFD"
  />
<missing-glyph horiz-adv-x="1229" 
d="M193 1462h841v-1462h-841v1462zM297 104h633v1254h-633v-1254z" />
    <glyph glyph-name=".notdef" horiz-adv-x="1229" 
d="M193 1462h841v-1462h-841v1462zM297 104h633v1254h-633v-1254z" />
    <glyph glyph-name=".null" horiz-adv-x="0" 
 />
    <glyph glyph-name="nonmarkingreturn" horiz-adv-x="1044" 
 />
    <glyph glyph-name="space" unicode=" " horiz-adv-x="532" 
 />
    <glyph glyph-name="exclam" unicode="!" horiz-adv-x="782" 
d="M213 1462h356l-120 -995h-115zM225 147q0 47 13 78.5t35.5 50.5t53.5 27t66 8q34 0 64.5 -8t53.5 -27t36.5 -50.5t13.5 -78.5q0 -46 -13.5 -77t-36.5 -50t-53.5 -27.5t-64.5 -8.5q-35 0 -66 8.5t-53.5 27.5t-35.5 50t-13 77z" />
    <glyph glyph-name="quotedbl" unicode="&#x22;" horiz-adv-x="1040" 
d="M584 1462h319l-72 -563h-135zM137 1462h320l-92 -563h-136z" />
    <glyph glyph-name="numbersign" unicode="#" 
d="M1022 551v-141h-256l-76 -410h-145l76 410h-213l-78 -410h-146l78 410h-205v141h232l71 371h-237v143h264l72 397h147l-74 -397h213l76 397h146l-76 -397h196v-143h-223l-69 -371h227zM434 551h215l72 371h-215z" />
    <glyph glyph-name="dollar" unicode="$" 
d="M639 1556v-155q91 -3 157 -20t109 -44.5t63.5 -63.5t20.5 -77q0 -65 -56 -107t-169 -42q0 30 -7 65t-22 67.5t-38.5 59t-57.5 41.5v-399q6 -3 23 -9.5t28 -11.5q94 -37 161 -76t109.5 -85t62 -99.5t19.5 -118.5q0 -78 -27.5 -144.5t-79 -117.5t-126.5 -83.5t-170 -43.5
v-254h-115v250q-117 3 -198 30t-131.5 68t-72.5 91t-22 98q0 45 16.5 76t43.5 50.5t61.5 28.5t71.5 9q0 -77 16.5 -137t47 -102.5t73 -68.5t94.5 -34v442l-35 14q-98 40 -163.5 81t-106 87.5t-57.5 100.5t-17 120q0 74 28 135.5t78 107.5t119.5 75.5t153.5 38.5v157h115z
M799 389q0 65 -40 111t-120 88v-387q77 17 118.5 68t41.5 120zM385 1128q0 -27 6 -52t22 -48.5t43 -46t68 -45.5v354q-60 -11 -99.5 -51.5t-39.5 -110.5z" />
    <glyph glyph-name="percent" unicode="%" horiz-adv-x="1855" 
d="M807 1030q0 -103 -23 -187t-68.5 -144t-115 -93t-162.5 -33q-97 0 -167 33t-114.5 93t-65.5 144t-21 187t21 186.5t66 143t115 91.5t168 32q92 0 161 -32t115 -91.5t68.5 -143t22.5 -186.5zM301 1030q0 -84 7.5 -149.5t23.5 -111t42.5 -69.5t63.5 -24q39 0 64.5 24
t41.5 69.5t22.5 111t6.5 149.5q0 82 -6.5 146.5t-22 109.5t-41 68.5t-63.5 23.5t-64.5 -23.5t-43 -68.5t-24 -109.5t-7.5 -146.5zM651 0h-159l706 1462h158zM1786 436q0 -103 -23 -187t-68.5 -144t-115 -92.5t-162.5 -32.5q-97 0 -167 32.5t-114.5 92.5t-65.5 144t-21 187
t21 186.5t66 143t115 91.5t168 32q92 0 161 -32t115 -91.5t68.5 -143t22.5 -186.5zM1280 436q0 -84 7.5 -149.5t23.5 -111t42.5 -69.5t63.5 -24q39 0 64.5 24t41.5 69.5t22.5 111t6.5 149.5q0 82 -6.5 146.5t-22 109.5t-41 68.5t-63.5 23.5t-64.5 -23.5t-43 -68.5
t-24 -109.5t-7.5 -146.5z" />
    <glyph glyph-name="ampersand" unicode="&#x26;" horiz-adv-x="1640" 
d="M1208 0l-141 150q-38 -38 -84.5 -69t-102.5 -53.5t-121.5 -35t-142.5 -12.5q-126 0 -223 29.5t-163 85.5t-100 137t-34 184q0 90 28.5 153.5t76.5 110t111.5 79t133.5 60.5q-40 48 -69.5 91.5t-48.5 86.5t-28 88t-9 97q0 68 26 123t77.5 95t128.5 61.5t179 21.5
q99 0 172.5 -23t122 -63t73 -93t24.5 -112q0 -62 -19 -112t-57.5 -92.5t-97 -79.5t-138.5 -74q5 -8 15 -15l290 -305q13 71 17 140.5t4 127.5v90h448v-108h-32q-34 0 -66.5 -4t-60.5 -18.5t-49.5 -42t-34.5 -74.5q-16 -57 -37.5 -121.5t-52.5 -130.5l204 -213q29 -31 71 -41
t97 -10h19v-109h-406zM397 406q0 -61 19.5 -113.5t54.5 -91.5t85.5 -61.5t111.5 -22.5q109 0 184 35.5t125 95.5l-438 467q-43 -31 -70.5 -65.5t-43.5 -73t-22 -81t-6 -89.5zM846 1190q0 36 -6.5 67t-22.5 54t-44 36t-71 13q-34 0 -59.5 -13t-41.5 -36t-24 -54.5t-8 -68.5
q0 -35 8 -67t23.5 -63.5t39.5 -63.5t56 -68q43 24 72 51t46 58.5t24.5 69.5t7.5 85z" />
    <glyph glyph-name="quotesingle" unicode="'" horiz-adv-x="594" 
d="M137 1462h320l-92 -563h-136z" />
    <glyph glyph-name="parenleft" unicode="(" horiz-adv-x="819" 
d="M446 651q0 -122 12.5 -239.5t46.5 -222t94 -192.5t155 -151v-131q-171 69 -292 161.5t-197.5 209.5t-112 258t-35.5 307q0 165 35.5 305.5t112 256.5t197.5 208t292 160v-129q-95 -63 -155 -150.5t-94 -191.5t-46.5 -220.5t-12.5 -238.5z" />
    <glyph glyph-name="parenright" unicode=")" horiz-adv-x="819" 
d="M373 651q0 122 -12.5 238.5t-46 220.5t-93.5 191.5t-155 150.5v129q171 -68 292 -160t197.5 -208t111.5 -256.5t35 -305.5q0 -166 -35 -307t-111.5 -258t-197.5 -209.5t-292 -161.5v131q95 63 155 151t93.5 192.5t46 222t12.5 239.5z" />
    <glyph glyph-name="asterisk" unicode="*" horiz-adv-x="1028" 
d="M72 1237l92 207l305 -221l-68 333h230l-74 -329l307 213l92 -205l-319 -80l319 -82l-92 -203l-307 213l72 -331h-228l66 333l-303 -217l-92 203l319 84z" />
    <glyph glyph-name="plus" unicode="+" 
d="M645 659v-366h-147v366h-365v146h365v366h147v-366h367v-146h-367z" />
    <glyph glyph-name="comma" unicode="," horiz-adv-x="602" 
d="M459 86q0 -65 -20 -126t-64 -113t-113.5 -93.5t-169.5 -68.5v106q45 16 78.5 32t56 34.5t34 41t11.5 52.5q0 19 -11 31.5t-27.5 23.5t-36 22.5t-36 29.5t-27.5 44.5t-11 67.5q0 69 42 105t105 36q87 0 138 -60t51 -165z" />
    <glyph glyph-name="hyphen" unicode="-" horiz-adv-x="635" 
d="M51 451v215h533v-215h-533z" />
    <glyph glyph-name="period" unicode="." horiz-adv-x="623" 
d="M143 147q0 47 13 78.5t35.5 50.5t53.5 27t66 8q34 0 64.5 -8t53.5 -27t36.5 -50.5t13.5 -78.5q0 -46 -13.5 -77t-36.5 -50t-53.5 -27.5t-64.5 -8.5q-35 0 -66 8.5t-53.5 27.5t-35.5 50t-13 77z" />
    <glyph glyph-name="slash" unicode="/" horiz-adv-x="590" 
d="M147 -250l-147 2l446 1804h144z" />
    <glyph glyph-name="zero" unicode="0" 
d="M1075 733q0 -169 -28 -308t-89 -238t-156 -153t-229 -54q-140 0 -236 54t-155.5 153t-85.5 238.5t-26 309.5t26 308t85.5 236t156 151t237.5 53q133 0 228 -53t155.5 -151t88.5 -236.5t28 -309.5zM387 733q0 -147 8 -262t28.5 -194.5t56.5 -121.5t93 -42t93 42
t56.5 121.5t28 194.5t7.5 262t-7.5 261.5t-27.5 193.5t-56 120.5t-92 41.5q-57 0 -93.5 -41.5t-57.5 -120.5t-29 -193.5t-8 -261.5z" />
    <glyph glyph-name="one" unicode="1" 
d="M199 0v109h168q26 0 45 6.5t32 21.5t19 40.5t6 64.5v1026l-73.5 -87t-66.5 -67t-62.5 -43.5t-61.5 -15.5q-25 0 -46.5 10.5t-37.5 30.5t-25.5 48t-9.5 62q31 8 65 19.5t72.5 30t82.5 45t95 63.5l144 106h229v-1228q0 -32 4.5 -57t16 -42t32 -25.5t52.5 -8.5h165v-109
h-845z" />
    <glyph glyph-name="two" unicode="2" 
d="M999 1143q0 -48 -10.5 -93t-35 -93t-64.5 -101.5t-99 -118t-137.5 -142.5l-181.5 -175l-205 -195h477q63 0 107.5 36.5t62.5 105.5l17 63h121l-11 -430h-968v211l303 309q95 97 156 175t96 149t49 140.5t14 148.5q0 117 -42.5 171t-117.5 54q-104 0 -146 -89.5
t-42 -264.5q-58 0 -106.5 11t-83 35t-53.5 62.5t-19 93.5q0 56 28.5 106t84.5 88t140.5 60.5t196.5 22.5q115 0 202.5 -23.5t147 -67.5t89.5 -107t30 -142z" />
    <glyph glyph-name="three" unicode="3" 
d="M498 -20q-116 0 -199.5 20t-137 54t-79 78.5t-25.5 92.5q0 39 14 69t38 50.5t55.5 30.5t66.5 10q0 -65 18.5 -114t51.5 -82t79.5 -49.5t102.5 -16.5q50 0 95.5 14t80.5 48t55.5 92.5t20.5 146.5q0 59 -20.5 108t-61 84.5t-99.5 55.5t-136 20h-127v127h135q66 0 115 21.5
t81 61.5t48 95.5t16 122.5q0 112 -43 175t-127 63q-55 0 -89.5 -27t-53.5 -72t-26 -102t-7 -117q-128 0 -197 44.5t-69 138.5q0 54 28.5 101.5t85.5 83t141.5 55.5t196.5 20q109 0 196.5 -22t149 -65t94.5 -105t33 -142q0 -69 -24 -127t-66 -104t-99 -80.5t-124 -57.5
q62 -11 126.5 -35.5t117.5 -66.5t87 -105t34 -151q0 -125 -46.5 -210t-124 -136.5t-177 -73.5t-205.5 -22z" />
    <glyph glyph-name="four" unicode="4" 
d="M893 381v-125q0 -48 13.5 -77t36 -44.5t53.5 -20.5t65 -5h26v-109h-718v109h57q35 0 65.5 5t53 20.5t36 44.5t13.5 77v125h-567v125l581 956h285v-946h213v-135h-213zM594 874q0 90 3 194t11 200q-10 -24 -32 -66l-47 -86.5l-48 -84t-35 -58.5l-276 -457h424v358z" />
    <glyph glyph-name="five" unicode="5" 
d="M471 123q51 0 96.5 16t80 53.5t55 101t20.5 157.5q0 153 -73 228t-206 75q-39 0 -70.5 -3t-58.5 -8.5t-51 -12t-47 -13.5l-94 37l65 708h775l10 -372h-117l-16 69q-5 18 -11 32.5t-16.5 24.5t-26.5 15.5t-41 5.5h-426q0 -1 -1.5 -17.5t-3.5 -43.5t-5 -61l-6 -69l-16 -188
q16 6 41.5 11.5t55.5 10t63.5 7t64.5 2.5q119 0 215.5 -27.5t165 -82t106 -136.5t37.5 -192q0 -133 -48.5 -223.5t-125.5 -145.5t-172 -78.5t-188 -23.5q-115 0 -195 20.5t-130 55t-72.5 79t-22.5 92.5q0 72 44.5 107t119.5 35q0 -44 11.5 -88t38 -79t69.5 -57t106 -22z" />
    <glyph glyph-name="six" unicode="6" 
d="M657 1362q-60 0 -108.5 -36t-84 -105t-56.5 -169.5t-27 -230.5q21 14 48 27.5t61.5 24.5t78 17.5t95.5 6.5q93 0 168.5 -29t129 -83.5t82.5 -133t29 -178.5q0 -110 -30 -200.5t-89.5 -155.5t-148 -101t-205.5 -36q-114 0 -207.5 41.5t-160 127.5t-103.5 217t-37 310
q0 169 35.5 316t108 256t182.5 172t258 63q99 0 168 -19t112 -50.5t62.5 -72t19.5 -84.5q0 -31 -13 -60t-42 -51t-75.5 -35t-114.5 -13q0 46 -6 93t-21 85t-41.5 62t-67.5 24zM588 772q-28 0 -59 -8.5t-59.5 -22.5t-52 -31.5t-36.5 -35.5q1 -147 18.5 -253t48 -174t71 -100
t87.5 -32q79 0 124.5 80.5t45.5 257.5q0 166 -50 242.5t-138 76.5z" />
    <glyph glyph-name="seven" unicode="7" 
d="M338 0l545 1239h-539q-56 0 -84.5 -26.5t-34.5 -77.5l-12 -103h-123l10 430h977v-100l-565 -1362h-174z" />
    <glyph glyph-name="eight" unicode="8" 
d="M61 373q0 66 21.5 119t61.5 96.5t95.5 80t122.5 70.5q-122 71 -187.5 161t-65.5 210q0 71 24.5 138.5t80.5 119.5t147 83.5t223 31.5q108 0 189.5 -27t136.5 -75t82.5 -113.5t27.5 -143.5q0 -61 -19.5 -108t-55.5 -85.5t-87 -71.5t-115 -66q92 -45 157 -90.5t105.5 -95
t59 -104t18.5 -116.5q0 -97 -35.5 -172.5t-103 -127.5t-164.5 -79.5t-221 -27.5q-128 0 -222 31t-155.5 84t-91 125t-29.5 153zM569 96q53 0 95.5 19t72.5 53t46 81t16 103q0 50 -17 90.5t-53.5 76t-93 69t-135.5 69.5q-34 -22 -64 -50.5t-51.5 -64t-34 -79.5t-12.5 -98
q0 -60 16.5 -109.5t47 -85t73 -55t94.5 -19.5zM762 1128q0 44 -12.5 86.5t-36.5 75.5t-59.5 53.5t-82.5 20.5q-42 0 -74.5 -17.5t-54.5 -48t-33.5 -72.5t-11.5 -91q0 -53 14.5 -93t42.5 -72t69 -57.5t95 -50.5q38 22 65 47t44.5 57t26 71.5t8.5 90.5z" />
    <glyph glyph-name="nine" unicode="9" 
d="M465 -20q-93 0 -157 19.5t-104 52t-57.5 74t-17.5 85.5q0 45 24 75.5t76 41.5q15 -46 36 -86t50.5 -69.5t69 -46.5t90.5 -17q138 0 212.5 149t84.5 444q-24 -30 -53.5 -55t-66.5 -44t-81.5 -29.5t-97.5 -10.5q-88 0 -161.5 27.5t-127 81t-83 133t-29.5 182.5
q0 111 32 202t92.5 156.5t147.5 101.5t197 36q111 0 205 -40t162.5 -124t106.5 -214t38 -310q0 -169 -33 -317.5t-103.5 -259t-182 -174.5t-269.5 -64zM561 711q74 0 127 37.5t84 99.5q-1 131 -17.5 225t-45 154.5t-68.5 89.5t-88 29q-88 0 -136 -86.5t-48 -260.5
q0 -142 48 -215t144 -73z" />
    <glyph glyph-name="colon" unicode=":" horiz-adv-x="623" 
d="M143 147q0 47 13 78.5t35.5 50.5t53.5 27t66 8q34 0 64.5 -8t53.5 -27t36.5 -50.5t13.5 -78.5q0 -46 -13.5 -77t-36.5 -50t-53.5 -27.5t-64.5 -8.5q-35 0 -66 8.5t-53.5 27.5t-35.5 50t-13 77zM143 952q0 47 13 78.5t35.5 50.5t53.5 27t66 8q34 0 64.5 -8t53.5 -27
t36.5 -50.5t13.5 -78.5q0 -46 -13.5 -77.5t-36.5 -50.5t-53.5 -27.5t-64.5 -8.5q-35 0 -66 8.5t-53.5 27.5t-35.5 50.5t-13 77.5z" />
    <glyph glyph-name="semicolon" unicode=";" horiz-adv-x="602" 
d="M459 86q0 -65 -20 -126t-64 -113t-113.5 -93.5t-169.5 -68.5v106q45 16 78.5 32t56 34.5t34 41t11.5 52.5q0 19 -11 31.5t-27.5 23.5t-36 22.5t-36 29.5t-27.5 44.5t-11 67.5q0 69 42 105t105 36q87 0 138 -60t51 -165zM143 952q0 47 13 78.5t35.5 50.5t53.5 27t66 8
q34 0 64.5 -8t53.5 -27t36.5 -50.5t13.5 -78.5q0 -46 -13.5 -77.5t-36.5 -50.5t-53.5 -27.5t-64.5 -8.5q-35 0 -66 8.5t-53.5 27.5t-35.5 50.5t-13 77.5z" />
    <glyph glyph-name="less" unicode="&#x3c;" 
d="M133 690v84l879 479v-161l-660 -361l660 -356v-162z" />
    <glyph glyph-name="equal" unicode="=" 
d="M1016 604v-143h-887v143h887zM1016 1001v-143h-887v143h887z" />
    <glyph glyph-name="greater" unicode="&#x3e;" 
d="M133 213v162l660 356l-660 361v161l879 -479v-84z" />
    <glyph glyph-name="question" unicode="?" horiz-adv-x="1126" 
d="M1014 1106q0 -82 -25.5 -147t-76.5 -119t-127.5 -99.5t-178.5 -87.5l-41 -186h-125l-41 252q88 35 144 82.5t88.5 102t44.5 114.5t12 121q0 49 -9 89.5t-28.5 70t-50 45.5t-72.5 16q-46 0 -77 -21t-50 -56t-27.5 -82t-8.5 -99q-63 0 -116 9t-91.5 26.5t-60 44.5t-21.5 63
q0 50 26 93.5t79.5 75.5t135.5 50.5t195 18.5q108 0 200 -25.5t159 -74t105 -118.5t38 -159zM332 147q0 47 13 78.5t35.5 50.5t53.5 27t66 8q34 0 64.5 -8t53.5 -27t36.5 -50.5t13.5 -78.5q0 -46 -13.5 -77t-36.5 -50t-53.5 -27.5t-64.5 -8.5q-35 0 -66 8.5t-53.5 27.5
t-35.5 50t-13 77z" />
    <glyph glyph-name="at" unicode="@" horiz-adv-x="1886" 
d="M1806 803q0 -153 -37 -273t-97 -202.5t-135.5 -126t-152.5 -43.5q-91 0 -154 44.5t-97 147.5h-13q-21 -40 -48 -75t-61 -61t-76.5 -41t-96.5 -15q-64 0 -122.5 21t-103 64t-70.5 109t-26 156q0 55 13 119t41.5 127.5t72 123t105 105t141 73t178.5 27.5q71 0 122 -18
t83 -43l86 43h49l-86 -512q-2 -12 -4.5 -31t-4.5 -39t-3.5 -38.5t-1.5 -30.5q0 -42 9 -69t23 -42.5t31.5 -21t34.5 -5.5q41 0 82.5 34t75.5 99.5t55.5 162.5t21.5 223q0 140 -42.5 245.5t-118 176t-180 106t-228.5 35.5q-97 0 -191.5 -27t-180 -79t-157.5 -127.5t-125 -172
t-82.5 -213.5t-29.5 -252q0 -181 54 -309t146.5 -209t216 -118t261.5 -37q83 0 162 15t150 39t132 55t109 63l49 -78q-54 -41 -122.5 -77t-149 -63t-171 -43t-188.5 -16q-117 0 -225 21.5t-202.5 65.5t-172.5 109.5t-133.5 153.5t-86 198t-30.5 243q0 137 33.5 262t95 231.5
t149.5 193t197 148t236.5 94.5t269.5 33q178 0 313 -51t225.5 -139.5t136.5 -209t46 -259.5zM768 487q0 -102 36 -156.5t95 -54.5q44 0 75.5 21t53 55.5t35.5 77.5t22 88l82 418q-6 14 -17.5 24.5t-26.5 18t-31.5 11t-32.5 3.5q-52 0 -93.5 -26t-74 -68.5t-55.5 -97
t-38.5 -110.5t-22.5 -109.5t-7 -94.5z" />
    <glyph glyph-name="A" unicode="A" horiz-adv-x="1542" 
d="M446 481l-59 -176q-8 -25 -16.5 -58.5t-8.5 -58.5q0 -20 8 -35t21 -24.5t29.5 -14.5t34.5 -5h86v-109h-533v109h25q27 0 49.5 6t42 22.5t37 45.5t35.5 75l444 1204h281l428 -1206q15 -43 31.5 -71.5t36 -45t41.5 -23.5t46 -7h37v-109h-676v109h80q15 0 31 4.5t28.5 14
t20.5 24.5t8 36q0 25 -6 48t-12 40l-72 205h-498zM795 942l-22.5 73.5l-23 78.5l-22 79.5t-18.5 75.5q-9 -31 -21 -68l-25.5 -76l-27 -78l-25.5 -75l-121 -346h414z" />
    <glyph glyph-name="B" unicode="B" horiz-adv-x="1376" 
d="M1241 1090q0 -68 -18.5 -118.5t-52.5 -87t-81.5 -62.5t-105.5 -44v-10q71 -18 129.5 -49.5t101 -77t66 -105.5t23.5 -135q0 -202 -147 -301.5t-439 -99.5h-660v109h84q23 0 42.5 4.5t33.5 18.5t22.5 40t8.5 70v981q0 41 -8.5 66.5t-23 39.5t-34 19.5t-41.5 5.5h-84v108
h598q292 0 439 -90t147 -282zM571 125h136q68 0 116 15t78 48.5t43.5 87.5t13.5 132q0 75 -12 130.5t-41 91.5t-76 54t-118 18h-140v-577zM571 827h78q72 0 119.5 15t76 46.5t40.5 81.5t12 120t-13.5 117t-43.5 76t-78 41.5t-117 12.5h-74v-510z" />
    <glyph glyph-name="C" unicode="C" horiz-adv-x="1368" 
d="M870 143q75 0 133.5 17.5t104.5 45.5t80.5 63t60.5 69q16 -12 25.5 -37t9.5 -51q0 -43 -23 -90.5t-77 -87.5t-143 -66t-220 -26q-178 0 -311 54t-221 153t-132 238t-44 308q0 166 45 304t133.5 237t221 154t306.5 55q118 0 205.5 -18.5t145.5 -50.5t87 -75.5t29 -93.5
q0 -38 -16.5 -70.5t-49 -56.5t-80.5 -37.5t-110 -13.5q0 51 -11 101.5t-37.5 91.5t-69.5 66.5t-107 25.5q-97 0 -164 -41t-107.5 -120t-58.5 -194.5t-18 -263.5t22 -259t71 -184.5t127.5 -110t192.5 -36.5z" />
    <glyph glyph-name="D" unicode="D" horiz-adv-x="1571" 
d="M1458 758q0 -168 -46 -307.5t-137.5 -239.5t-227 -155.5t-314.5 -55.5h-676v109h86q23 0 42 4.5t33 18.5t22 40t8 70v987q0 41 -8 65.5t-22.5 37.5t-33.5 17.5t-41 4.5h-86v108h676q170 0 304.5 -44.5t228 -133t143 -220.5t49.5 -306zM1112 758q0 293 -107.5 436
t-316.5 143h-117v-1210h115q105 0 185 43.5t133.5 125.5t80.5 198.5t27 263.5z" />
    <glyph glyph-name="E" unicode="E" horiz-adv-x="1337" 
d="M573 125h410q31 0 53 11.5t38 32.5t25.5 49.5t14.5 62.5l16 96h142l-15 -377h-1200v109h86q22 0 41 4t33.5 16.5t22.5 37t8 64.5v990q0 44 -8 70t-22 40t-33 18.5t-42 4.5h-86v108h1137l8 -377h-143l-10 97q-8 75 -38 115t-93 40h-345v-512h486v-123h-486v-577z" />
    <glyph glyph-name="F" unicode="F" horiz-adv-x="1272" 
d="M1059 1085l-10 99q-10 81 -49.5 117t-102.5 36h-326v-559h486v-121h-486v-415q0 -44 8.5 -70t22.5 -40t34 -18.5t42 -4.5h127v-109h-748v109h86q22 0 41 4t33.5 16.5t22.5 37t8 64.5v998q0 41 -8 65.5t-22.5 37.5t-33.5 17.5t-41 4.5h-86v108h1135l10 -377h-143z" />
    <glyph glyph-name="G" unicode="G" horiz-adv-x="1575" 
d="M866 -20q-190 0 -331.5 54t-235.5 153t-140 238t-46 308q0 166 49 304t145 237t239 154t331 55q128 0 223.5 -18.5t160 -50.5t96.5 -75.5t32 -93.5q0 -36 -17 -67.5t-51 -55.5t-83 -37.5t-114 -13.5q0 62 -15 114t-46.5 89t-79.5 57.5t-113 20.5q-112 0 -190.5 -41
t-128 -120t-72 -194.5t-22.5 -263.5t23.5 -262.5t76 -192.5t136 -118.5t204.5 -40.5q38 0 76 3t74 11v301q0 82 -37 114t-109 32h-27v108h644v-108h-27q-31 0 -54 -7.5t-38 -25.5t-22 -47.5t-7 -73.5v-336q-120 -55 -242 -82.5t-262 -27.5z" />
    <glyph glyph-name="H" unicode="H" horiz-adv-x="1677" 
d="M913 0v109h88q22 0 41 4.5t33.5 18.5t22.5 40t8 70v458h-535v-458q0 -44 8.5 -70t22.5 -40t33 -18.5t41 -4.5h88v-109h-707v109h86q22 0 41 4.5t33.5 18.5t22.5 40t8 70v986q0 41 -8.5 65.5t-23 37.5t-33.5 17.5t-40 4.5h-86v109h707v-109h-88q-22 0 -41 -4.5t-33 -18.5
t-22.5 -40t-8.5 -70v-395h535v395q0 44 -8 70t-22.5 40t-33.5 18.5t-41 4.5h-88v109h707v-109h-86q-21 0 -40 -4.5t-33.5 -18.5t-22.5 -40t-8 -70v-989q0 -40 8.5 -64.5t23 -37t33 -16.5t39.5 -4h86v-109h-707z" />
    <glyph glyph-name="I" unicode="I" horiz-adv-x="821" 
d="M57 0v109h86q23 0 42 4.5t33 18.5t22 40t8 70v978q0 44 -8 70t-22 40t-33 18.5t-42 4.5h-86v109h707v-109h-86q-22 0 -41.5 -4.5t-33.5 -18.5t-22 -40t-8 -70v-978q0 -44 8 -70t22 -40t33.5 -18.5t41.5 -4.5h86v-109h-707z" />
    <glyph glyph-name="J" unicode="J" horiz-adv-x="754" 
d="M731 1354h-86q-22 0 -41.5 -4.5t-33.5 -18.5t-22.5 -40t-8.5 -70v-1225q0 -93 -21 -165t-58 -126.5t-88.5 -92t-112 -60.5t-128 -33.5t-137.5 -10.5h-74v119h37q49 0 95.5 18.5t82.5 61.5t58 113.5t22 173.5v1235q0 41 -8 65.5t-22.5 37.5t-33.5 17.5t-40 4.5h-86v108
h706v-108z" />
    <glyph glyph-name="K" unicode="K" horiz-adv-x="1503" 
d="M889 1090q33 35 55.5 63.5t36 53t19.5 46.5t6 43q0 34 -26 47t-89 13v106h555v-106q-42 0 -79.5 -13t-73.5 -37t-71 -57t-71 -73l-270 -297l381 -605q30 -48 57.5 -79.5t55.5 -50.5t57 -27t63 -8h8v-109h-110q-78 0 -137 5t-103.5 15t-76.5 25.5t-56 36.5t-43.5 47.5
t-38.5 58.5l-276 471l-91 -71v-346q0 -44 8.5 -70t22.5 -40t34 -18.5t42 -4.5h86v-109h-707v109h86q22 0 41 4t33.5 16.5t22.5 37t8 64.5v998q0 41 -8 65.5t-22.5 37.5t-33.5 17.5t-41 4.5h-86v108h707v-108h-86q-22 0 -42 -4.5t-34 -18.5t-22.5 -40t-8.5 -70v-478z" />
    <glyph glyph-name="L" unicode="L" horiz-adv-x="1339" 
d="M57 0v109h86q23 0 42 4.5t33 18.5t22 40t8 70v979q0 44 -8 70t-22 40t-33 18.5t-42 4.5h-86v108h707v-108h-86q-21 0 -40.5 -4.5t-33.5 -17.5t-22.5 -37.5t-8.5 -65.5v-1104h381q72 0 112 45.5t58 132.5l33 154h115l-15 -457h-1200z" />
    <glyph glyph-name="M" unicode="M" horiz-adv-x="1950" 
d="M1237 0v109h20q32 0 56.5 4t40.5 16t24 34.5t8 59.5v1037l-413 -1260h-139l-433 1260v-1018q0 -44 10.5 -70t30 -40t47.5 -18.5t64 -4.5h12v-109h-508v109h86q22 0 41 4t33.5 16.5t22.5 37t8 64.5v998q0 41 -8 65.5t-22.5 37.5t-33.5 17.5t-41 4.5h-86v108h590l340 -989
l326 989h579v-108h-86q-22 0 -41 -4.5t-33 -18.5t-22 -40t-8 -70v-979q0 -44 8 -70t22 -40t33 -18.5t41 -4.5h86v-109h-655z" />
    <glyph glyph-name="N" unicode="N" horiz-adv-x="1614" 
d="M1200 0l-799 1128v-886q0 -44 8.5 -70t22.5 -40t33.5 -18.5t40.5 -4.5h86v-109h-535v109h86q22 0 41 4.5t33.5 18.5t22.5 40t8 70v987q0 41 -8.5 65.5t-23 37.5t-33.5 17.5t-40 4.5h-86v108h455l723 -1022v789q0 41 -8.5 65.5t-23 37.5t-33.5 17.5t-40 4.5h-86v108h535
v-108h-86q-21 0 -40 -4.5t-33.5 -18.5t-22.5 -40t-8 -70v-1221h-189z" />
    <glyph glyph-name="O" unicode="O" horiz-adv-x="1612" 
d="M1499 733q0 -169 -45.5 -308t-134 -238t-217 -153t-295.5 -54q-175 0 -305.5 54t-216.5 153t-129 238.5t-43 309.5t43 308.5t129.5 236.5t217 151.5t306.5 53.5q166 0 294.5 -53.5t216.5 -152t133.5 -237t45.5 -309.5zM457 733q0 -147 19 -262t61 -194.5t108.5 -121.5
t161.5 -42q96 0 162.5 42t107.5 121.5t59.5 194.5t18.5 262t-18.5 262t-59.5 194.5t-107 121t-161 41.5q-96 0 -163 -41.5t-109 -121t-61 -194.5t-19 -262z" />
    <glyph glyph-name="P" unicode="P" horiz-adv-x="1307" 
d="M1245 1028q0 -92 -32 -177t-104 -150t-187 -103.5t-281 -38.5h-70v-328q0 -40 9 -64.5t24 -37t35 -16.5t41 -4h125v-109h-748v109h86q23 0 42 4.5t33 18.5t22 40t8 70v987q0 41 -8 65.5t-22.5 37.5t-33.5 17.5t-41 4.5h-86v108h629q142 0 247 -30t174.5 -86.5
t103.5 -136.5t34 -181zM571 678h50q76 0 129 19t86.5 60t49 106t15.5 157q0 82 -13.5 142.5t-43 100t-77 59t-116.5 19.5h-80v-663z" />
    <glyph glyph-name="Q" unicode="Q" horiz-adv-x="1612" 
d="M1499 733q0 -144 -32.5 -265.5t-95.5 -215.5t-156 -158.5t-214 -93.5q9 -113 37 -185.5t68.5 -114t89.5 -57.5t100 -16h33v-119h-147q-92 0 -181.5 27t-162 85.5t-121 150t-58.5 221.5q-138 21 -240.5 83.5t-170.5 158.5t-101.5 223t-33.5 278q0 170 43 308.5
t129.5 236.5t217 151.5t306.5 53.5q166 0 294.5 -53.5t216.5 -152t133.5 -237t45.5 -309.5zM457 733q0 -147 19 -262t61 -194.5t108.5 -121.5t161.5 -42q96 0 162.5 42t107.5 121.5t59.5 194.5t18.5 262t-18.5 262t-59.5 194.5t-107 121t-161 41.5q-96 0 -163 -41.5
t-109 -121t-61 -194.5t-19 -262z" />
    <glyph glyph-name="R" unicode="R" horiz-adv-x="1448" 
d="M57 109h86q21 0 40 4t33.5 16.5t23 37t8.5 64.5v998q0 41 -8.5 65.5t-23 37.5t-33.5 17.5t-40 4.5h-86v108h660q290 0 425.5 -97t135.5 -282q0 -81 -24 -144t-63.5 -110t-89.5 -79.5t-102 -53.5l244 -420q26 -44 50.5 -75.5t49 -52t50.5 -30t55 -9.5h8v-109h-67
q-92 0 -160.5 7t-120 27.5t-89 56.5t-69.5 93l-243 451h-136v-404q0 -40 8.5 -64.5t23 -37t33.5 -16.5t40 -4h88v-109h-707v109zM571 754h115q71 0 118.5 19t76 56.5t41 94t12.5 131.5q0 78 -14 132t-44 88.5t-78 50t-116 15.5h-111v-587z" />
    <glyph glyph-name="S" unicode="S" horiz-adv-x="1200" 
d="M541 -20q-138 0 -230 26t-147.5 67t-79 92t-23.5 101q0 53 19.5 89t52 59t74 33t86.5 10q0 -88 21 -154.5t58 -111t88.5 -67t112.5 -22.5q60 0 107 17t80 47t50 70.5t17 87.5q0 52 -21 92.5t-63.5 75t-107 66t-150.5 67.5q-107 44 -180.5 90.5t-118.5 100.5t-64.5 117
t-19.5 138q0 94 38 170t105 130t159 83t200 29q113 0 195 -18.5t135.5 -50.5t79.5 -75.5t26 -93.5q0 -36 -15.5 -67t-47 -54t-79 -36t-110.5 -13q0 43 -11.5 92.5t-37.5 92t-67.5 70.5t-100.5 28q-41 0 -78 -12t-64.5 -36t-43.5 -59.5t-16 -81.5q0 -43 14 -81t51.5 -74.5
t103 -73t169.5 -78.5q105 -43 179 -88t121.5 -96.5t69 -113t21.5 -136.5q0 -99 -39 -181.5t-112 -141.5t-175.5 -92t-230.5 -33z" />
    <glyph glyph-name="T" unicode="T" horiz-adv-x="1337" 
d="M831 242q0 -44 8 -70t22.5 -40t33.5 -18.5t41 -4.5h86v-109h-707v109h86q23 0 42 4.5t33 18.5t22 40t8 70v1095h-164q-46 0 -77 -10t-50.5 -28.5t-29 -45.5t-13.5 -61l-14 -127h-138l11 397h1276l10 -397h-137l-15 127q-4 34 -13.5 61t-29 45.5t-50.5 28.5t-77 10h-164
v-1095z" />
    <glyph glyph-name="U" unicode="U" horiz-adv-x="1530" 
d="M1497 1354h-88q-21 0 -40 -4.5t-33.5 -18.5t-22.5 -40t-8 -70v-799q0 -103 -29.5 -185t-92 -139t-159.5 -87.5t-231 -30.5t-239.5 25.5t-178.5 81.5t-111.5 144.5t-38.5 214.5v783q0 41 -8.5 65.5t-23 37.5t-33 17.5t-39.5 4.5h-88v108h706v-108h-86q-21 0 -40 -4.5
t-33.5 -18.5t-22.5 -40t-8 -70v-791q0 -86 21.5 -144.5t61.5 -94t96 -51t126 -15.5q68 0 123 17.5t93.5 54.5t59.5 94t21 135v803q0 41 -8 65.5t-22.5 37.5t-33.5 17.5t-40 4.5h-86v108h536v-108z" />
    <glyph glyph-name="V" unicode="V" horiz-adv-x="1430" 
d="M1430 1354h-99q-14 0 -25 -6t-22 -22.5t-23 -45.5t-28 -76l-418 -1204h-205l-436 1255q-10 29 -25.5 48.5t-33 30.5t-35.5 15.5t-33 4.5h-47v108h676v-108h-94q-15 0 -29 -3.5t-25.5 -11.5t-18.5 -21t-7 -32q0 -20 6 -45.5t12 -42.5l209 -631q8 -23 16.5 -54t16.5 -65
t14.5 -67.5t9.5 -61.5q3 17 10.5 46.5t17.5 64l20.5 69l19.5 62.5l211 623l8.5 24.5t8 27.5t6 27t2.5 21q0 34 -22.5 52t-59.5 18h-107v108h529v-108z" />
    <glyph glyph-name="W" unicode="W" horiz-adv-x="2185" 
d="M1237 1448l283 -782q18 -48 33.5 -97.5l28.5 -94.5t23 -83t15 -65l17 82l19.5 94.5l22 101.5t23.5 101l108 442q3 12 6.5 28t6.5 31.5t4.5 29t1.5 21.5q0 53 -31.5 75t-99.5 22h-47v108h534v-108h-39q-30 0 -53 -6t-41 -23.5t-32.5 -48.5t-28.5 -82l-318 -1194h-233
l-344 961l-295 -961h-254l-375 1245q-9 32 -22 53t-30.5 33.5t-40 17.5t-52.5 5h-27v108h684v-108h-47q-62 0 -92.5 -24t-30.5 -75q0 -17 6.5 -49.5t14.5 -60.5l137 -473l23.5 -84.5t23.5 -92t20 -89.5t13 -76q14 66 30.5 123.5l34.5 117.5l270 877h150z" />
    <glyph glyph-name="X" unicode="X" horiz-adv-x="1499" 
d="M1071 1294q0 18 -9 30t-24.5 18.5t-36.5 9t-45 2.5h-6v108h480v-108h-19q-30 0 -54 -7.5t-47.5 -25t-47.5 -45.5t-54 -70l-297 -405l377 -584q40 -63 83 -85.5t81 -22.5h27v-109h-676v109h10q123 0 123 67q0 12 -2 23t-9.5 26t-20.5 37t-36 55l-188 285l-221 -299
q-19 -26 -36 -59.5t-17 -65.5q0 -34 28 -51.5t96 -17.5h7v-109h-517v109h13q37 0 65 10t52.5 28.5t47.5 45t48 59.5l358 467l-338 526q-17 27 -33.5 47.5t-37 34t-45.5 20.5t-60 7h-27v108h678v-108h-6q-35 0 -58.5 -4.5t-37.5 -13t-19.5 -19.5t-5.5 -23q0 -21 15.5 -53
t38.5 -67l170 -254l178 249q18 28 36.5 62.5t18.5 62.5z" />
    <glyph glyph-name="Y" unicode="Y" horiz-adv-x="1419" 
d="M336 0v109h96q25 0 46.5 3t37.5 15.5t25.5 37.5t9.5 68v285l-379 727q-15 30 -28.5 51t-29.5 33.5t-36.5 18.5t-50.5 6h-27v108h686v-108h-35q-62 0 -92.5 -25t-30.5 -67q0 -26 9.5 -56.5t21.5 -56.5l152 -301q32 -65 52.5 -115t37.5 -98q21 54 48.5 117.5t61.5 132.5
l119 245q22 45 28.5 75.5t6.5 47.5q0 53 -33.5 77t-101.5 24h-47v108h536v-108h-39q-26 0 -44.5 -7t-35 -25t-34 -49t-41.5 -79l-348 -678v-280q0 -45 9 -70t24.5 -38t36 -16t44.5 -3h101v-109h-756z" />
    <glyph glyph-name="Z" unicode="Z" horiz-adv-x="1364" 
d="M1229 1358l-770 -1233h442q63 0 103 17.5t63.5 46.5t34 65.5t14.5 75.5l10 92h148l-10 -422h-1178v102l768 1235h-403q-48 0 -79 -13t-49.5 -37.5t-27 -59t-12.5 -76.5l-11 -111h-147l10 422h1094v-104z" />
    <glyph glyph-name="bracketleft" unicode="[" horiz-adv-x="848" 
d="M205 -262v1818h567v-108h-88q-34 0 -65 -5t-53.5 -20.5t-36 -44.5t-13.5 -78v-1306q0 -48 13.5 -77.5t36 -45t53.5 -20.5t65 -5h88v-108h-567z" />
    <glyph glyph-name="backslash" unicode="\" horiz-adv-x="590" 
d="M0 1556h145l445 -1804h-148z" />
    <glyph glyph-name="bracketright" unicode="]" horiz-adv-x="848" 
d="M643 1556v-1818h-567v108h88q35 0 65.5 5t53 20.5t36 45t13.5 77.5v1306q0 49 -13.5 78t-36 44.5t-53 20.5t-65.5 5h-88v108h567z" />
    <glyph glyph-name="asciicircum" unicode="^" 
d="M526 1462h88l435 -925h-160l-320 702l-315 -702h-160z" />
    <glyph glyph-name="underscore" unicode="_" horiz-adv-x="940" 
d="M950 -291h-960v121h960v-121z" />
    <glyph glyph-name="grave" unicode="`" horiz-adv-x="1182" 
d="M713 1241q-48 28 -106.5 69.5t-113 85.5t-98.5 84.5t-63 67.5v21h321q16 -34 41 -74.5l52.5 -81l55.5 -78.5l50 -67v-27h-139z" />
    <glyph glyph-name="a" unicode="a" horiz-adv-x="1227" 
d="M410 305q0 -88 28 -132t88 -44q44 0 79.5 18.5t61 52.5t39 82.5t13.5 108.5v154l-92 -6q-61 -3 -103 -19.5t-67 -45.5t-36 -71t-11 -98zM592 999q-39 0 -65.5 -16.5t-42.5 -46t-22.5 -70t-6.5 -88.5q-138 0 -207.5 31t-69.5 106q0 56 33.5 96t91 65t134 36.5t163.5 11.5
q108 0 188.5 -18.5t134 -59.5t80.5 -107.5t27 -162.5v-522q0 -42 6.5 -70t20.5 -44.5t38 -23.5t58 -7h8v-109h-381l-43 141h-18q-34 -41 -64 -71.5t-64 -50.5t-76.5 -29.5t-100.5 -9.5q-68 0 -126.5 20t-102 61.5t-68.5 104t-25 147.5q0 167 114.5 247t344.5 87l168 6v113
q0 51 -4 94t-17 74t-38.5 48t-67.5 17z" />
    <glyph glyph-name="b" unicode="b" horiz-adv-x="1329" 
d="M1233 553q0 -149 -27.5 -257t-80.5 -178.5t-131.5 -104t-180.5 -33.5q-59 0 -107 13t-86.5 37t-68 57t-51.5 73h-19l-57 -160h-389v109h14q29 0 57 5t50 20t35.5 43t13.5 75v1059q0 44 -13 70.5t-35 41.5t-51.5 20t-62.5 5h-8v108h481v-350q0 -32 -2.5 -75t-5.5 -81
l-8 -92h14q44 76 117.5 120t189.5 44q100 0 176.5 -33.5t129 -103t79.5 -177t27 -255.5zM725 971q-61 0 -101 -25.5t-64 -77.5t-34 -130.5t-10 -184.5q0 -101 10 -179.5t34 -132t65 -81t102 -27.5q101 0 146 109t45 313q0 209 -45 312.5t-148 103.5z" />
    <glyph glyph-name="c" unicode="c" horiz-adv-x="1079" 
d="M604 -20q-113 0 -206.5 29t-160.5 96t-104 175t-37 265q0 166 38.5 277t106 178t159.5 95.5t198 28.5q99 0 175 -16.5t127 -45.5t77.5 -68.5t26.5 -84.5q0 -33 -11.5 -64.5t-41 -55.5t-81 -39t-131.5 -15q0 53 -6.5 101t-21.5 84t-40.5 57.5t-64.5 21.5
q-45 0 -80.5 -21.5t-61 -73.5t-39 -139t-13.5 -218q0 -208 57 -311t186 -103q53 0 99.5 12.5t84.5 35t66.5 53t46.5 65.5q25 -15 37 -40.5t12 -53.5q0 -39 -23 -79t-71.5 -72.5t-123.5 -53t-179 -20.5z" />
    <glyph glyph-name="d" unicode="d" horiz-adv-x="1329" 
d="M1122 252q0 -47 14 -75t37.5 -43t54 -20t64.5 -5h8v-109h-397l-57 160h-19q-23 -42 -52.5 -75t-68 -56.5t-86.5 -36t-108 -12.5q-100 0 -178 33.5t-131.5 103t-81 176.5t-27.5 254q0 148 27.5 256.5t80.5 179t130 105t176 34.5q58 0 104.5 -12.5t84 -34t66.5 -51.5
t50 -66h14q-4 57 -8 107q-1 21 -2.5 43t-3 41.5t-2 34.5t-0.5 24v113q0 42 -13.5 67.5t-36 38.5t-52.5 17t-64 4h-16v108h493v-1304zM600 133q61 0 101.5 25.5t65 77.5t34.5 130.5t10 184.5q0 101 -10 179.5t-34.5 132t-65 81t-101.5 27.5q-51 0 -87.5 -27.5t-59 -81.5
t-33 -132.5t-10.5 -180.5q0 -209 43.5 -312.5t146.5 -103.5z" />
    <glyph glyph-name="e" unicode="e" horiz-adv-x="1169" 
d="M608 991q-86 0 -136.5 -85t-55.5 -249h354q0 78 -9 140t-28.5 105t-50 66t-74.5 23zM627 -20q-130 0 -229.5 38t-166.5 110t-101 176.5t-34 238.5q0 144 34 253t99 182t159.5 109.5t215.5 36.5q111 0 200 -31.5t151 -93.5t95 -154t33 -214v-105h-671q3 -103 22.5 -177
t54 -122t84 -71t113.5 -23q53 0 98 12.5t81.5 35t64 53t45.5 65.5q55 -30 55 -100q0 -44 -24 -83.5t-74 -69.5t-125.5 -48t-179.5 -18z" />
    <glyph glyph-name="f" unicode="f" horiz-adv-x="834" 
d="M39 0v109h45q22 0 47.5 4.5t47 18.5t36 40t14.5 70v716h-182v140h182v76q0 95 24.5 169.5t76 126t130.5 78.5t187 27q99 0 165 -11.5t105 -32t55.5 -47.5t16.5 -59q0 -69 -62.5 -101t-189.5 -32q0 25 -5 54t-17 54t-31.5 41.5t-48.5 16.5q-25 0 -43 -13.5t-29.5 -43
t-16.5 -76.5t-5 -115v-112h282v-140h-282v-716q0 -44 14.5 -70t36 -40t47 -18.5t47.5 -4.5h96v-109h-743z" />
    <glyph glyph-name="g" unicode="g" horiz-adv-x="1147" 
d="M1137 1059q0 -23 -7 -44.5t-23.5 -37.5t-45 -25.5t-70.5 -9.5q0 21 -6.5 37t-17.5 27t-25 16.5t-29 5.5q-17 0 -36.5 -7t-30.5 -15q21 -23 39 -52.5t31.5 -63.5t21.5 -70.5t8 -74.5q0 -77 -24.5 -142.5t-75.5 -113.5t-129 -75t-185 -27q-11 0 -28 0.5l-34 1t-32.5 2
t-23.5 2.5q-13 -7 -26.5 -17.5t-24 -23.5t-17 -29t-6.5 -34q0 -34 26.5 -50t69.5 -16h248q102 0 176 -21.5t122.5 -61.5t71.5 -98.5t23 -131.5q0 -95 -36 -169.5t-109.5 -126t-185 -79t-263.5 -27.5q-242 0 -360.5 72.5t-118.5 212.5q0 110 71 168.5t206 69.5q-28 11 -55 27
t-48 38.5t-34 51.5t-13 65q0 34 13.5 63t37.5 55.5t57.5 50t73.5 46.5q-45 16 -83.5 44.5t-66 68.5t-43.5 91t-16 113q0 180 104.5 279.5t323.5 99.5q73 0 135.5 -18.5t108.5 -44.5l37.5 38.5t46.5 37.5t58 28t71 11q37 0 64.5 -9.5t46 -25.5t28 -37t9.5 -45zM246 -203
q0 -85 61.5 -125.5t179.5 -40.5q180 0 262 52t82 153q0 65 -41 91t-124 26h-238q-31 0 -63 -5.5t-58.5 -22.5t-43.5 -47.5t-17 -80.5zM383 745q0 -54 7.5 -97.5t24.5 -74.5t44 -48t67 -17q41 0 68 16.5t43 48t22.5 76t6.5 99.5q0 57 -7 103.5t-23.5 79.5t-43.5 51.5
t-68 18.5q-40 0 -67 -19t-43.5 -53t-23.5 -81t-7 -103z" />
    <glyph glyph-name="h" unicode="h" horiz-adv-x="1366" 
d="M858 0v674q0 66 -8.5 117.5t-28 86.5t-51 53.5t-76.5 18.5q-51 0 -85 -26t-54.5 -69.5t-29.5 -101t-9 -120.5v-391q0 -43 10.5 -69t29.5 -40.5t46.5 -19t61.5 -4.5h6v-109h-629v109h4q35 0 64 4.5t50.5 19.5t33.5 43t12 74v1073q0 41 -14.5 65.5t-36.5 38t-47.5 17.5
t-47.5 4h-24v108h481v-337q0 -40 -2.5 -86t-5.5 -85l-8 -90h18q31 58 65.5 91t73.5 49.5t82.5 21t91.5 4.5q79 0 142 -23t106.5 -71t66.5 -122.5t23 -178.5v-475q0 -48 8.5 -76.5t25.5 -43.5t43 -20t61 -5h6v-109h-455z" />
    <glyph glyph-name="i" unicode="i" horiz-adv-x="721" 
d="M176 1430q0 39 13.5 67t37 45.5t55 26t68.5 8.5q35 0 67 -8.5t56 -26t38.5 -45.5t14.5 -67q0 -38 -14.5 -66t-38.5 -46t-56 -27t-67 -9q-37 0 -68.5 9t-55 27t-37 46t-13.5 66zM59 109q23 0 48.5 4.5t47 18.5t36 40t14.5 70v622q0 41 -14.5 65.5t-36.5 38t-47.5 17.5
t-47.5 4h-24v109h481v-856q0 -44 14.5 -70t36 -40t47.5 -18.5t48 -4.5h24v-109h-651v109h24z" />
    <glyph glyph-name="j" unicode="j" horiz-adv-x="707" 
d="M516 1098v-1114q0 -138 -38.5 -229.5t-107 -146t-163 -77.5t-207.5 -23h-41v127h14q56 0 99.5 18t73 60t44.5 112t15 175v854q0 44 -13 70.5t-35.5 41t-52.5 19t-63 4.5h-6v109h481zM178 1430q0 39 13.5 67t37 45.5t55 26t68.5 8.5q35 0 67 -8.5t56 -26t38.5 -45.5
t14.5 -67q0 -38 -14.5 -66t-38.5 -46t-56 -27t-67 -9q-37 0 -68.5 9t-55 27t-37 46t-13.5 66z" />
    <glyph glyph-name="k" unicode="k" horiz-adv-x="1303" 
d="M1303 0h-29q-112 0 -188 5t-131 23t-95 54.5t-80 99.5l-182 287l-82 -61v-166q0 -44 14.5 -70t36 -40t47.5 -18.5t48 -4.5h24v-109h-651v109h24q23 0 48.5 4.5t47 18.5t36 40t14.5 70v1081q0 41 -14.5 65.5t-36.5 38t-47.5 17.5t-47.5 4h-24v108h481v-790
q0 -28 -1.5 -64.5t-3.5 -69.5q-3 -39 -5 -79l258 289q34 38 44.5 60.5t10.5 37.5q0 26 -27.5 40.5t-78.5 14.5v103h516v-103q-71 0 -139.5 -41.5t-149.5 -132.5l-129 -147l272 -406q54 -81 109 -120t104 -39h7v-109z" />
    <glyph glyph-name="l" unicode="l" horiz-adv-x="721" 
d="M59 109q23 0 48.5 4.5t47 18.5t36 40t14.5 70v1081q0 41 -14.5 65.5t-36.5 38t-47.5 17.5t-47.5 4h-24v108h481v-1314q0 -44 14.5 -70t36 -40t47.5 -18.5t48 -4.5h24v-109h-651v109h24z" />
    <glyph glyph-name="m" unicode="m" horiz-adv-x="2019" 
d="M858 0v674q0 66 -8.5 117.5t-28 86.5t-51 53.5t-76.5 18.5q-51 0 -85 -26t-54.5 -69.5t-29.5 -101t-9 -120.5v-391q0 -43 10.5 -69t29.5 -40.5t46.5 -19t61.5 -4.5h6v-109h-629v109h4q35 0 64 4.5t50.5 19.5t33.5 43t12 74v612q0 43 -10.5 69t-30 40.5t-46.5 19t-61 4.5
h-6v103h430l27 -146h10q31 58 65.5 92t73.5 52t82.5 23t91.5 5q113 0 193 -40.5t117 -131.5h18q31 58 67.5 92t78 52t87 23t93.5 5q79 0 142 -23t106.5 -71t66.5 -122.5t23 -178.5v-475q0 -48 8.5 -76.5t25.5 -43.5t43 -20t60 -5h6v-109h-455v674q0 132 -36.5 204t-126.5 72
q-48 0 -82 -23.5t-55.5 -63.5t-31.5 -93.5t-10 -112.5v-403q0 -48 8.5 -76.5t25.5 -43.5t43 -20t61 -5h6v-109h-455z" />
    <glyph glyph-name="n" unicode="n" horiz-adv-x="1366" 
d="M858 0v674q0 66 -8.5 117.5t-28 86.5t-51 53.5t-76.5 18.5q-51 0 -85 -26t-54.5 -69.5t-29.5 -101t-9 -120.5v-391q0 -43 10.5 -69t29.5 -40.5t46.5 -19t61.5 -4.5h6v-109h-629v109h4q35 0 64 4.5t50.5 19.5t33.5 43t12 74v606q0 43 -10.5 69t-30 40.5t-46.5 19t-61 4.5
h-6v109h430l27 -146h10q31 58 65.5 92t73.5 52t82.5 23t91.5 5q79 0 142 -23t106.5 -71t66.5 -122.5t23 -178.5v-475q0 -48 8.5 -76.5t25.5 -43.5t43 -20t61 -5h6v-109h-455z" />
    <glyph glyph-name="o" unicode="o" horiz-adv-x="1255" 
d="M1159 553q0 -289 -135.5 -431t-398.5 -142q-123 0 -221 35.5t-166.5 106.5t-105 179t-36.5 252q0 289 135.5 430t399.5 141q123 0 220.5 -35t166 -106t105 -178.5t36.5 -251.5zM414 553q0 -109 11.5 -192t37 -139t66.5 -84.5t100 -28.5t99.5 28.5t66 84.5t36.5 139
t11 192q0 110 -11.5 192.5t-37 137.5t-66.5 82.5t-100 27.5t-100 -27.5t-66 -82.5t-36 -137.5t-11 -192.5z" />
    <glyph glyph-name="p" unicode="p" horiz-adv-x="1321" 
d="M51 -383q23 0 48.5 4.5t47 18.5t36 40t14.5 70v1096q0 47 -10.5 75t-29 43t-44 20t-54.5 5h-14v109h401l37 -160h9q22 40 51.5 73t68 57t86.5 37t107 13q102 0 180.5 -33.5t131.5 -104t80.5 -178.5t27.5 -257q0 -148 -27 -255.5t-79.5 -177.5t-129 -103.5t-176.5 -33.5
q-117 0 -190 44.5t-117 119.5h-14l8 -92q3 -38 5.5 -81t2.5 -75v-141q0 -44 14.5 -70t36 -40t47 -18.5t47.5 -4.5h45v-109h-671v109h24zM717 127q103 0 147.5 103.5t44.5 312.5q0 204 -44.5 313t-145.5 109q-61 0 -102 -27.5t-65 -81t-34 -132t-10 -179.5q0 -106 10 -184.5
t34 -130.5t64 -77.5t101 -25.5z" />
    <glyph glyph-name="q" unicode="q" horiz-adv-x="1327" 
d="M608 -492v109h37q34 0 64 4t52.5 17t36 38.5t13.5 67.5v150q0 9 0.5 24t2 34.5l3 41t2.5 42.5q4 49 8 107h-14q-21 -35 -50 -65t-66.5 -51.5t-84 -34t-104.5 -12.5q-99 0 -176 33.5t-130 103.5t-80.5 178t-27.5 256q0 147 27.5 254t81 176.5t131.5 103t178 33.5
q60 0 108 -12.5t86.5 -36t68 -56.5t52.5 -75h19l41 160h413v-109h-8q-34 0 -64.5 -5t-54 -20t-37.5 -43t-14 -75v-1102q0 -42 13.5 -67.5t36 -38.5t52.5 -17t64 -4h37v-109h-717zM600 965q-103 0 -146.5 -103.5t-43.5 -312.5q0 -205 43.5 -311.5t146.5 -106.5q61 0 101.5 27
t65 79.5t34.5 130t10 179.5q0 106 -10 184.5t-34.5 130.5t-65 77.5t-101.5 25.5z" />
    <glyph glyph-name="r" unicode="r" horiz-adv-x="1071" 
d="M725 0h-684v109h6q35 0 64 5t50 20.5t32.5 44.5t11.5 77v594q0 45 -10.5 72.5t-30 42.5t-46.5 19.5t-61 4.5h-6v109h414l41 -160h10q20 46 44 80.5t57.5 57.5t79 34.5t108.5 11.5q121 0 178 -42.5t57 -123.5q0 -94 -68 -146t-192 -52q0 42 -4.5 74t-16 53t-31 32
t-48.5 11q-36 0 -62 -18t-44 -46.5t-29.5 -64.5t-18 -72.5t-8.5 -69.5t-2 -57v-354q0 -45 11 -72.5t30 -41.5t45.5 -18.5t56.5 -4.5h66v-109z" />
    <glyph glyph-name="s" unicode="s" horiz-adv-x="999" 
d="M473 -20q-111 0 -189.5 18t-128 50t-72 76t-22.5 95q0 50 19.5 80.5t49 47.5t62.5 22.5t60 5.5q0 -64 16 -115t45 -86.5t69.5 -54.5t90.5 -19q53 0 91.5 11t63 30.5t36.5 45t12 53.5q0 34 -12.5 60.5t-41.5 50t-77.5 46t-120.5 47.5q-83 29 -146.5 61.5t-107 74t-66 95
t-22.5 122.5q0 82 31.5 143t89.5 101.5t139 60.5t180 20q97 0 165 -16.5t111 -43.5t63 -61t20 -69q0 -69 -48.5 -105t-160.5 -36q0 102 -45.5 158.5t-134.5 56.5q-33 0 -63.5 -8t-53 -24t-36 -39.5t-13.5 -55.5q0 -33 12.5 -59t44 -49.5t85.5 -47.5t138 -53
q68 -24 125.5 -54.5t99 -70t64.5 -90t23 -115.5q0 -85 -29.5 -152t-86.5 -113t-140 -70.5t-189 -24.5z" />
    <glyph glyph-name="t" unicode="t" horiz-adv-x="829" 
d="M643 145q40 0 76.5 5.5t68.5 13.5v-133q-16 -8 -43.5 -17t-64 -16.5t-82.5 -12.5t-100 -5q-69 0 -125 16.5t-95 55t-60 100t-21 151.5v655h-154v105q66 0 118 26t83 60q63 66 94 203h170v-254h262v-140h-262v-634q0 -93 31.5 -136t103.5 -43z" />
    <glyph glyph-name="u" unicode="u" horiz-adv-x="1366" 
d="M907 0l-45 145h-10q-31 -53 -67 -85.5t-77 -50t-86.5 -23.5t-93.5 -6q-160 0 -245.5 99t-85.5 306v459q0 45 -8 73t-25 44t-43.5 22t-63.5 6h-4v109h455v-656q0 -66 7.5 -119t25.5 -90.5t48 -58t75 -20.5q49 0 84.5 21.5t58 62t33 98t10.5 129.5v393q0 45 -12 71
t-32 39.5t-47 17t-57 3.5h-6v109h465v-860q0 -45 10.5 -70.5t28.5 -38.5t43 -16.5t55 -3.5h17v-109h-408z" />
    <glyph glyph-name="v" unicode="v" horiz-adv-x="1241" 
d="M1241 989h-41q-21 0 -37.5 -5t-32 -20.5t-30.5 -45t-33 -78.5l-297 -840h-270l-336 891q-11 29 -25.5 48t-34 30t-45 15.5t-59.5 4.5v109h635v-109h-86q-31 0 -49.5 -16.5t-18.5 -48.5q0 -25 6.5 -49t12.5 -41l137 -388q25 -65 43.5 -131t28.5 -118q5 24 14 56l18 62.5
l16.5 55.5l10.5 35l139 411q10 28 16.5 56.5t6.5 56.5q0 34 -22.5 46.5t-57.5 12.5h-59v109h450v-109z" />
    <glyph glyph-name="w" unicode="w" horiz-adv-x="1753" 
d="M1012 1087l200 -604q25 -74 36 -125.5t18 -89.5h6l9.5 49t11 48l14.5 54.5t20 67.5l90 299q8 26 13.5 56t5.5 47q0 52 -33.5 76t-102.5 24h-14v109h469v-109h-26q-30 0 -52 -6t-39 -23.5t-32 -49t-31 -81.5l-264 -829h-221l-224 680l-235 -680h-223l-263 881
q-11 32 -24 53t-30 33t-39 17t-52 5h-6v109h600v-109h-27q-62 0 -92.5 -17.5t-30.5 -68.5q0 -17 5.5 -41t11.5 -47l76 -266q10 -37 19 -76l17 -76t14.5 -70t10.5 -59h6q9 51 24.5 105.5t41.5 130.5l209 583h133z" />
    <glyph glyph-name="x" unicode="x" horiz-adv-x="1323" 
d="M891 928q0 37 -28.5 49t-76.5 12h-6v109h473v-109h-18q-30 0 -53.5 -5.5t-47 -20t-48.5 -40t-58 -65.5l-211 -258l301 -383q47 -59 86.5 -83.5t77.5 -24.5h27v-109h-652v109h11q123 0 123 67q0 12 -3 24t-11 28t-23.5 37.5t-40.5 51.5l-117 142l-143 -178
q-19 -25 -31 -51t-12 -52q0 -34 29 -51.5t98 -17.5h6v-109h-520v109h18q37 0 65 6.5t52.5 21.5t49.5 40t56 63l258 311l-258 330q-43 54 -86 81t-90 27h-27v109h644v-109h-7q-35 0 -57.5 -4.5t-35.5 -12.5t-18 -19t-5 -23q0 -22 11 -42.5t36 -51.5l114 -140l97 117
q24 31 37.5 59t13.5 56z" />
    <glyph glyph-name="y" unicode="y" horiz-adv-x="1186" 
d="M1186 1098v-109q-31 0 -54.5 -7t-42.5 -24.5t-35 -46t-32 -71.5l-75 -208l-78.5 -212.5l-79 -212l-76.5 -207.5q-36 -99 -68 -174t-67.5 -130t-78.5 -91t-100 -57.5t-132.5 -30.5t-176.5 -9h-35v119q107 0 182 26t127 74t85.5 115t58.5 148l-369 901q-12 29 -27 46
t-32 26t-37 11.5t-43 2.5v121h584v-109q-60 0 -94.5 -15.5t-34.5 -60.5q0 -17 7 -40.5t13 -38.5l37.5 -93.5l38 -101l35.5 -97.5l30 -83q15 -39 25 -70.5t16.5 -57t10.5 -47t6 -42.5q2 21 8 46.5t13 49t14 42l10 26.5l135 401q4 10 7.5 23.5t6.5 27.5t4.5 27t1.5 22
q0 47 -39 64.5t-110 17.5v109h461z" />
    <glyph glyph-name="z" unicode="z" horiz-adv-x="1083" 
d="M754 139q31 0 52.5 9t37 29t26 51.5t19.5 76.5l12 66h121l-10 -371h-975v84l604 874h-299q-23 0 -40 -6.5t-30.5 -23t-24.5 -44t-22 -69.5l-12 -49h-123l25 332h884v-88l-606 -871h361z" />
    <glyph glyph-name="braceleft" unicode="{" horiz-adv-x="905" 
d="M649 -256q-86 0 -151.5 21t-109.5 60.5t-66.5 95.5t-22.5 126v350q0 59 -18.5 95.5t-50.5 57.5t-75.5 29.5t-93.5 10.5v125q50 2 93.5 10t75.5 29t50.5 57.5t18.5 93.5v352q0 144 88.5 221.5t261.5 77.5h195v-108h-80q-44 0 -72 -13t-44.5 -38t-23 -62.5t-6.5 -85.5v-348
q0 -93 -53 -152.5t-172 -86.5v-17q118 -29 171.5 -89t53.5 -153v-350q0 -48 6.5 -85.5t23 -63t44.5 -38.5t72 -13h80v-109h-195z" />
    <glyph glyph-name="bar" unicode="|" 
d="M645 -492h-147v2048h147v-2048z" />
    <glyph glyph-name="braceright" unicode="}" horiz-adv-x="905" 
d="M61 -256v109h80q44 0 72 13t44.5 38.5t23 63t6.5 85.5v350q0 93 53.5 153t171.5 89v17q-119 27 -172 86.5t-53 152.5v348q0 48 -6.5 85.5t-23 62.5t-44.5 38t-72 13h-80v108h195q173 0 261.5 -77.5t88.5 -221.5v-352q0 -57 18.5 -93.5t50.5 -57.5t75.5 -29t93.5 -10v-125
q-50 -2 -93.5 -10.5t-75.5 -29.5t-50.5 -57.5t-18.5 -95.5v-350q0 -70 -22.5 -126t-66.5 -95.5t-109.5 -60.5t-151.5 -21h-195z" />
    <glyph glyph-name="asciitilde" unicode="~" horiz-adv-x="1149" 
d="M541 664q-37 16 -65 26.5t-50.5 17t-43 9t-42.5 2.5q-28 0 -58 -9.5t-59.5 -25.5t-57.5 -38t-52 -48v158q99 108 247 108q29 0 54 -2.5t52.5 -9t61 -19t80.5 -32.5q37 -16 65 -27t51 -17.5t43.5 -9t41.5 -2.5q29 0 58.5 9.5t59 26t57.5 38.5t52 47v-157
q-98 -109 -248 -109q-29 0 -53.5 2.5t-52 9.5t-61 19.5t-80.5 32.5z" />
    <glyph glyph-name="nonbreakingspace" unicode="&#xa0;" horiz-adv-x="532" 
 />
    <glyph glyph-name="exclamdown" unicode="&#xa1;" horiz-adv-x="782" 
d="M569 -369h-356l121 996h115zM557 946q0 -47 -13 -78.5t-35.5 -50.5t-53.5 -27t-66 -8q-34 0 -64.5 8t-53.5 27t-36.5 50.5t-13.5 78.5q0 46 13.5 77.5t36.5 50.5t53.5 27.5t64.5 8.5q35 0 66 -8.5t53.5 -27.5t35.5 -50.5t13 -77.5z" />
    <glyph glyph-name="cent" unicode="&#xa2;" 
d="M571 170q-103 7 -186.5 41.5t-143 101.5t-92 170.5t-32.5 249.5q0 153 34 259.5t94.5 174.5t144 102t181.5 42v151h127v-151q88 -5 156 -23.5t114 -47t69.5 -65t23.5 -77.5q0 -33 -11.5 -64.5t-41 -55.5t-80.5 -39t-131 -15q0 43 -5 84t-16.5 75t-30.5 58.5t-47 36.5
v-856q52 1 97.5 14.5t83 35t66 51t46.5 64.5q26 -15 38.5 -40.5t12.5 -53.5q0 -35 -20.5 -72t-62.5 -68.5t-107 -54t-154 -28.5v-170h-127v170zM430 735q0 -158 33.5 -255t107.5 -134v828q-33 -15 -59 -46.5t-44.5 -84t-28 -128.5t-9.5 -180z" />
    <glyph glyph-name="sterling" unicode="&#xa3;" 
d="M553 711l12.5 -42.5t9.5 -39t6.5 -40t2.5 -46.5q0 -161 -185 -281l7 -10q6 2 18.5 5t29 6t35.5 5t37 2q21 0 40 -2.5t39.5 -8t45 -13l56.5 -17.5q45 -14 81.5 -22t81.5 -8q70 0 122.5 41.5t92.5 109.5v-229q-40 -71 -98 -106t-139 -35q-31 0 -64.5 4t-65.5 10t-61.5 14
t-52.5 17q-50 17 -105.5 31t-97.5 14q-35 0 -65.5 -4.5t-58.5 -12.5t-54.5 -19.5t-54.5 -25.5l-90 -47v184l65 41q32 20 65 48t60 66.5t44.5 88t17.5 111.5q0 59 -12.5 107.5t-32.5 101.5h-236v125h191q-11 25 -22.5 57t-21.5 68t-16 75t-6 78q0 180 117 275.5t338 95.5
q110 0 187 -18.5t125.5 -50.5t70.5 -75.5t22 -93.5q0 -72 -65 -119t-191 -47q0 47 -7 96.5t-25 90t-50 66.5t-82 26q-77 0 -122.5 -58.5t-45.5 -179.5q0 -42 6.5 -82.5t16 -77.5t21.5 -69t24 -57h363v-125z" />
    <glyph glyph-name="currency" unicode="&#xa4;" 
d="M195 729q0 59 16.5 113.5t48.5 99.5l-123 123l103 102l122 -123q45 29 97 45.5t110 16.5q57 0 109.5 -16.5t97.5 -47.5l127 127l103 -104l-125 -127q31 -45 48 -97.5t17 -111.5t-16 -110.5t-45 -96.5l121 -121l-103 -102l-121 121q-46 -31 -100 -48.5t-113 -17.5
q-58 0 -112 16.5t-99 47.5l-118 -119l-105 104l119 119q-59 91 -59 207zM334 729q0 -49 18.5 -92t50 -75.5t74.5 -51t92 -18.5q51 0 94.5 18.5t75 51t49 75.5t17.5 92q0 51 -17.5 94.5t-49 76t-75 51t-94.5 18.5q-49 0 -92 -18.5t-74.5 -51t-50 -76t-18.5 -94.5z" />
    <glyph glyph-name="yen" unicode="&#xa5;" horiz-adv-x="1104" 
d="M195 0v109h47q34 0 64 1t52.5 11.5t36.5 34.5t15 69v113h-287v121h287v119h-287v120h252l-242 547q-14 31 -26.5 52t-27.5 33.5t-34 18t-45 5.5h-6v108h586v-108h-15q-62 0 -89 -19t-27 -61q0 -25 8.5 -54.5t23.5 -66.5l78 -195q26 -65 45 -125t27 -102q6 28 21 67l32 83
l86 225q13 35 21 60t12.5 44.5t6 34t1.5 27.5q0 42 -28.5 62t-96.5 20h-6v108h426v-108h-6q-26 0 -46 -7t-37.5 -25t-34.5 -49t-38 -79l-211 -496h268v-120h-286v-119h286v-121h-286v-102q0 -49 13.5 -75t36 -37.5t53.5 -13t65 -1.5h47v-109h-735z" />
    <glyph glyph-name="brokenbar" unicode="&#xa6;" 
d="M645 737h-147v819h147v-819zM645 -492h-147v820h147v-820z" />
    <glyph glyph-name="section" unicode="&#xa7;" horiz-adv-x="1114" 
d="M565 -231q-115 0 -191.5 23.5t-122 61t-64.5 84t-19 93.5q0 40 13.5 70t37.5 50.5t57.5 31t73.5 10.5q0 -68 15.5 -125.5t45.5 -99.5t75.5 -65.5t105.5 -23.5q99 0 154 54t55 145q0 42 -12.5 74.5t-50 66t-106.5 73t-183 95.5q-85 42 -145.5 85t-98 89.5t-55 98
t-17.5 112.5q0 69 37 124.5t96 86.5q-35 37 -61.5 98.5t-26.5 145.5q0 78 30 139.5t84 103.5t128 64t162 22q90 0 158.5 -17.5t114.5 -48.5t69.5 -73.5t23.5 -93.5q0 -63 -50 -105t-144 -42q0 45 -8 92.5t-28.5 86.5t-55.5 64t-89 25q-86 0 -138 -50t-52 -143
q0 -49 16.5 -82.5t48 -59.5t76.5 -49t103 -50q108 -52 185.5 -98t127 -94t73 -101t23.5 -119q0 -37 -10.5 -73t-28 -68t-41.5 -58t-51 -43q34 -43 53 -101t19 -118q0 -81 -26 -149t-77.5 -116.5t-129 -75.5t-179.5 -27zM836 526q0 35 -11 66t-39 62.5t-76.5 64t-123.5 69.5
l-128 62.5t-110 64.5q-15 -17 -24 -40.5t-9 -49.5q0 -42 14.5 -75t48 -63.5t89 -62t137.5 -71.5l115.5 -60.5t89.5 -54.5q11 16 19 38t8 50z" />
    <glyph glyph-name="dieresis" unicode="&#xa8;" horiz-adv-x="1182" 
d="M258 1409q0 35 10 59.5t26.5 39.5t38.5 21.5t46 6.5t46 -6.5t39 -21.5t27.5 -39.5t10.5 -59.5q0 -34 -10.5 -58.5t-27.5 -39.5t-39 -22t-46 -7t-46 7t-38.5 22t-26.5 39.5t-10 58.5zM678 1409q0 35 10 59.5t27 39.5t39 21.5t47 6.5q23 0 44.5 -6.5t38.5 -21.5t27.5 -39.5
t10.5 -59.5q0 -34 -10.5 -58.5t-27.5 -39.5t-38.5 -22t-44.5 -7q-25 0 -47 7t-39 22t-27 39.5t-10 58.5z" />
    <glyph glyph-name="copyright" unicode="&#xa9;" horiz-adv-x="1731" 
d="M113 731q0 104 27 200.5t75.5 180t117 152.5t152 118t179.5 76t200 27t200.5 -27t180 -76t152.5 -118t118 -152.5t76 -180t27 -200.5t-27 -200t-76 -179.5t-118 -152t-152.5 -117.5t-180 -75.5t-200.5 -26.5t-200 26.5t-179.5 75.5t-152 117.5t-117 152t-75.5 179.5
t-27 200zM225 731q0 -88 23 -169.5t64.5 -152.5t100 -129.5t129.5 -100t152.5 -64.5t169.5 -23q89 0 171 23t153 64.5t129.5 100t100 129.5t64.5 152.5t23 169.5t-23 170t-64.5 153.5t-100 130t-129.5 100t-153 64.5t-171 23q-88 0 -169.5 -23t-152.5 -64.5t-129.5 -100
t-100 -130t-64.5 -153t-23 -170.5zM901 365q47 0 87 12t72 32t55.5 45t37.5 50q12 -9 20.5 -25.5t8.5 -38.5q0 -28 -19.5 -57t-58 -53t-96 -39t-134.5 -15q-102 0 -178.5 33t-128 93t-77 144t-25.5 187q0 100 28 183t83.5 143t137 93.5t189.5 33.5q71 0 123.5 -11.5
t87.5 -31t52.5 -46t17.5 -57.5q0 -22 -11 -40t-30 -30.5t-44.5 -19t-54.5 -6.5q0 29 -7.5 56.5t-24.5 50t-44.5 36t-68.5 13.5q-72 0 -122.5 -24t-82.5 -71t-46.5 -115t-14.5 -157q0 -177 69 -272.5t199 -95.5z" />
    <glyph glyph-name="ordfeminine" unicode="&#xaa;" horiz-adv-x="860" 
d="M295 991q0 -54 23 -76t55 -22q63 0 94 39.5t31 101.5v84l-47 -2q-85 -3 -120.5 -34.5t-35.5 -90.5zM416 1384q-25 0 -40 -9.5t-23.5 -27t-11.5 -40.5t-3 -50q-106 0 -164.5 20.5t-58.5 68.5q0 35 24 59t65.5 39t97 22t118.5 7q155 0 232 -48.5t77 -164.5v-302
q0 -45 19.5 -61t68.5 -16v-90h-239l-50 100h-14q-18 -22 -41 -42.5t-51.5 -36.5t-63 -25t-75.5 -9q-104 0 -164 53t-60 156q0 102 86 150.5t261 56.5l92 4v55q0 29 -3 53.5t-11.5 41.5t-24.5 26.5t-43 9.5z" />
    <glyph glyph-name="guillemotleft" unicode="&#xab;" horiz-adv-x="1135" 
d="M133 606l313 357h144l-207 -410l207 -410h-144l-313 357v106zM545 606l313 357h143l-206 -410l206 -410h-143l-313 357v106z" />
    <glyph glyph-name="logicalnot" unicode="&#xac;" 
d="M1012 805v-512h-148v366h-731v146h879z" />
    <glyph glyph-name="uni00AD" unicode="&#xad;" horiz-adv-x="635" 
d="M51 451v215h533v-215h-533z" />
    <glyph glyph-name="registered" unicode="&#xae;" horiz-adv-x="1731" 
d="M477 358h27q20 0 38 2.5t32 10t22 21.5t8 38v600q0 24 -8 38.5t-22 22t-32 9.5t-38 2h-27v72h369q352 0 352 -244q0 -49 -16 -86t-42 -64t-59.5 -45.5t-68.5 -29.5l182 -293q10 -17 19.5 -27.5t22.5 -16.5t30.5 -8t42.5 -2v-69h-217l-226 381h-108v-240q2 -24 10 -38
t21.5 -21.5t31 -10t37.5 -2.5h29v-69h-410v69zM758 748h86q55 0 92 11t59 33t31.5 56t9.5 80q0 45 -11 77t-34.5 51.5t-61 28.5t-91.5 9h-80v-346zM113 731q0 104 27 200.5t75.5 180t117 152.5t152 118t179.5 76t200 27t200.5 -27t180 -76t152.5 -118t118 -152.5t76 -180
t27 -200.5t-27 -200t-76 -179.5t-118 -152t-152.5 -117.5t-180 -75.5t-200.5 -26.5t-200 26.5t-179.5 75.5t-152 117.5t-117 152t-75.5 179.5t-27 200zM225 731q0 -88 23 -169.5t64.5 -152.5t100 -129.5t129.5 -100t152.5 -64.5t169.5 -23q89 0 171 23t153 64.5t129.5 100
t100 129.5t64.5 152.5t23 169.5t-23 170t-64.5 153.5t-100 130t-129.5 100t-153 64.5t-171 23q-88 0 -169.5 -23t-152.5 -64.5t-129.5 -100t-100 -130t-64.5 -153t-23 -170.5z" />
    <glyph glyph-name="overscore" unicode="&#xaf;" horiz-adv-x="940" 
d="M950 1556h-960v121h960v-121z" />
    <glyph glyph-name="degree" unicode="&#xb0;" horiz-adv-x="819" 
d="M98 1151q0 65 24.5 121.5t66.5 98.5t98.5 66.5t120.5 24.5q65 0 121.5 -24.5t98.5 -66.5t66.5 -98.5t24.5 -121.5q0 -64 -24.5 -120.5t-66.5 -98.5t-98.5 -66t-121.5 -24q-64 0 -120.5 24t-98.5 66t-66.5 98.5t-24.5 120.5zM240 1151q0 -34 13 -65t36 -54.5t53.5 -37
t65.5 -13.5q36 0 67 13.5t54 37t36 54.5t13 65q0 36 -13 67.5t-36 54.5t-54 36.5t-67 13.5q-35 0 -65.5 -13.5t-53.5 -36.5t-36 -54.5t-13 -67.5z" />
    <glyph glyph-name="plusminus" unicode="&#xb1;" 
d="M1012 0h-879v145h879v-145zM645 659v-366h-147v366h-365v146h365v366h147v-366h367v-146h-367z" />
    <glyph glyph-name="twosuperior" unicode="&#xb2;" horiz-adv-x="819" 
d="M698 1264q0 -45 -12.5 -85t-45.5 -84t-90.5 -96t-146.5 -122l-167 -132h327q44 0 62 19.5t24 48.5l10 55h76l-8 -282h-651v147l225 189q53 44 87.5 85.5t54.5 81.5t28 80t8 82q0 66 -21.5 103t-74.5 37q-35 0 -56 -18.5t-32.5 -47.5t-15 -65.5t-3.5 -71.5q-34 0 -67 7
t-59 21.5t-42 38t-16 56.5q0 37 19 68.5t56 54.5t91.5 36t124.5 13q83 0 142.5 -15.5t98 -44t56.5 -69t18 -90.5z" />
    <glyph glyph-name="threesuperior" unicode="&#xb3;" horiz-adv-x="819" 
d="M479 1260q0 63 -21.5 97t-74.5 34q-32 0 -53.5 -14.5t-34 -39.5t-18 -57t-5.5 -68q-41 0 -74 4t-56 13.5t-35.5 26.5t-12.5 44q0 38 19 71.5t56 58t92 39t126 14.5t128 -14t98 -40t63 -63.5t22 -85.5q0 -90 -56 -146.5t-153 -80.5v-11q46 -7 90 -18t78 -33t55 -57.5
t21 -91.5q0 -75 -38 -126.5t-96.5 -83t-128 -45.5t-132.5 -14q-84 0 -151 15t-107 35v106q22 -9 50 -18t58.5 -16.5t62.5 -12t62 -4.5q98 0 152.5 39.5t54.5 128.5q0 69 -55.5 106t-167.5 37h-68v96h68q38 0 71.5 12.5t58 35.5t38.5 55.5t14 71.5z" />
    <glyph glyph-name="acute" unicode="&#xb4;" horiz-adv-x="1182" 
d="M330 1268l49.5 67l55.5 78.5t52.5 81t40.5 74.5h322v-21q-19 -27 -63 -67.5t-98.5 -84.5t-113 -85.5t-106.5 -69.5h-139v27z" />
    <glyph glyph-name="mu" unicode="&#xb5;" horiz-adv-x="1362" 
d="M573 -20q-85 0 -145 31.5t-100 88.5q0 -85 7 -157t30 -126t66.5 -87.5t115.5 -42.5q0 -39 -13 -71.5t-37.5 -56.5t-59.5 -37.5t-79 -13.5q-38 0 -73 14t-61.5 45.5t-42 83t-15.5 126.5q0 61 3 127.5t7.5 147.5t8.5 181t5 228v637h312v-676q0 -55 7.5 -104t25 -85.5
t47.5 -57.5t75 -21q43 0 77.5 23t59 64.5t37.5 100t13 129.5v627h311v-815q0 -94 34 -134t105 -40h15v-109h-179q-105 0 -172.5 49t-93.5 129h-10q-24 -45 -50.5 -82t-59.5 -62.5t-75 -39.5t-96 -14z" />
    <glyph glyph-name="paragraph" unicode="&#xb6;" horiz-adv-x="1284" 
d="M860 1430h-172v-1657h-342v108h27q35 0 65.5 4.5t53 20t36 44.5t13.5 77v764h-146q-90 0 -150 32.5t-96 88t-51.5 128t-15.5 152.5q0 82 17 149t55 115t98 74t147 26h803v-108h-26q-35 0 -65.5 -5t-53.5 -20.5t-36 -44.5t-13 -78v-1273q0 -48 13 -77t36 -44.5t53.5 -20
t65.5 -4.5h26v-108h-342v1657z" />
    <glyph glyph-name="periodcentered" unicode="&#xb7;" horiz-adv-x="623" 
d="M143 727q0 47 13 78.5t35.5 50.5t53.5 27t66 8q34 0 64.5 -8t53.5 -27t36.5 -50.5t13.5 -78.5q0 -46 -13.5 -77.5t-36.5 -50.5t-53.5 -27.5t-64.5 -8.5q-35 0 -66 8.5t-53.5 27.5t-35.5 50.5t-13 77.5z" />
    <glyph glyph-name="cedilla" unicode="&#xb8;" horiz-adv-x="682" 
d="M571 -258q0 -54 -21 -97.5t-59 -74t-91.5 -46.5t-118.5 -16q-16 0 -39 1.5t-48 4.5t-49 7.5t-43 9.5v125q38 -8 75 -12t65 -4q58 0 91.5 20.5t33.5 73.5q0 30 -11.5 49t-32.5 30.5t-49 17t-61 7.5l43 180h117l-21 -88q50 -4 90.5 -18.5t69 -38.5t44 -57.5t15.5 -73.5z
" />
    <glyph glyph-name="onesuperior" unicode="&#xb9;" horiz-adv-x="819" 
d="M528 1473v-717q0 -26 7.5 -41.5t20.5 -23.5t30.5 -10.5t36.5 -2.5h84v-90h-578v90h104q20 0 36.5 2.5t29.5 10.5t20 23.5t7 41.5v581q-48 -57 -85.5 -92t-74.5 -35q-29 0 -49.5 29.5t-20.5 71.5q37 9 82.5 29.5t106.5 64.5l92 68h151z" />
    <glyph glyph-name="ordmasculine" unicode="&#xba;" horiz-adv-x="895" 
d="M311 1126q0 -121 30.5 -183t107.5 -62q75 0 106 62t31 183t-32 180.5t-108 59.5q-75 0 -105 -59.5t-30 -180.5zM823 1126q0 -176 -95.5 -262t-281.5 -86q-178 0 -276 86.5t-98 261.5q0 176 96 261.5t283 85.5q86 0 155 -21.5t117 -64.5t74 -108t26 -153z" />
    <glyph glyph-name="guillemotright" unicode="&#xbb;" horiz-adv-x="1135" 
d="M1001 500l-313 -357h-143l207 410l-207 410h143l313 -357v-106zM590 500l-314 -357h-143l207 410l-207 410h143l314 -357v-106z" />
    <glyph glyph-name="onequarter" unicode="&#xbc;" horiz-adv-x="1720" 
d="M443 1473v-717q0 -26 7.5 -41.5t20.5 -23.5t30.5 -10.5t36.5 -2.5h84v-90h-578v90h104q20 0 36.5 2.5t29.5 10.5t20 23.5t7 41.5v581q-48 -57 -85.5 -92t-74.5 -35q-29 0 -49.5 29.5t-20.5 71.5q37 9 82.5 29.5t106.5 64.5l92 68h151zM578 0h-160l731 1462h158zM1522 240
v-71q0 -26 7 -41.5t19 -23.5t27.5 -10.5t32.5 -2.5h41v-90h-471v90h57q17 0 32 2.5t26.5 10.5t18.5 23.5t7 41.5v71h-389v82l407 564h185v-537h159v-109h-159zM1319 595q0 32 2.5 63.5t7.5 69.5q-8 -17 -17 -33.5t-14 -24.5l-233 -321h254v246z" />
    <glyph glyph-name="onehalf" unicode="&#xbd;" horiz-adv-x="1720" 
d="M443 1473v-717q0 -26 7.5 -41.5t20.5 -23.5t30.5 -10.5t36.5 -2.5h84v-90h-578v90h104q20 0 36.5 2.5t29.5 10.5t20 23.5t7 41.5v581q-48 -57 -85.5 -92t-74.5 -35q-29 0 -49.5 29.5t-20.5 71.5q37 9 82.5 29.5t106.5 64.5l92 68h151zM537 0h-160l731 1462h158zM1628 679
q0 -45 -12.5 -85t-45.5 -84t-90.5 -96t-146.5 -122l-167 -132h327q44 0 62 19.5t24 48.5l10 55h76l-8 -282h-651v147l225 189q53 44 87.5 85.5t54.5 81.5t28 80t8 82q0 66 -21.5 103t-74.5 37q-35 0 -56 -18.5t-32.5 -47.5t-15 -65.5t-3.5 -71.5q-34 0 -67 7t-59 21.5
t-42 38t-16 56.5q0 37 19 68.5t56 54.5t91.5 36t124.5 13q83 0 142.5 -15.5t98 -44t56.5 -69t18 -90.5z" />
    <glyph glyph-name="threequarters" unicode="&#xbe;" horiz-adv-x="1720" 
d="M479 1260q0 63 -21.5 97t-74.5 34q-32 0 -53.5 -14.5t-34 -39.5t-18 -57t-5.5 -68q-41 0 -74 4t-56 13.5t-35.5 26.5t-12.5 44q0 38 19 71.5t56 58t92 39t126 14.5t128 -14t98 -40t63 -63.5t22 -85.5q0 -90 -56 -146.5t-153 -80.5v-11q46 -7 90 -18t78 -33t55 -57.5
t21 -91.5q0 -75 -38 -126.5t-96.5 -83t-128 -45.5t-132.5 -14q-84 0 -151 15t-107 35v106q22 -9 50 -18t58.5 -16.5t62.5 -12t62 -4.5q98 0 152.5 39.5t54.5 128.5q0 69 -55.5 106t-167.5 37h-68v96h68q38 0 71.5 12.5t58 35.5t38.5 55.5t14 71.5zM619 0h-160l731 1462h158z
M1522 240v-71q0 -26 7 -41.5t19 -23.5t27.5 -10.5t32.5 -2.5h41v-90h-471v90h57q17 0 32 2.5t26.5 10.5t18.5 23.5t7 41.5v71h-389v82l407 564h185v-537h159v-109h-159zM1319 595q0 32 2.5 63.5t7.5 69.5q-8 -17 -17 -33.5t-14 -24.5l-233 -321h254v246z" />
    <glyph glyph-name="questiondown" unicode="&#xbf;" horiz-adv-x="1126" 
d="M113 -14q0 82 25.5 147t76 119t127 99t178.5 87l41 187h125l41 -252q-87 -35 -143.5 -82.5t-88.5 -102t-44.5 -114.5t-12.5 -121q0 -49 9 -89.5t28.5 -70t50 -45.5t72.5 -16q46 0 77.5 20.5t50.5 56t27.5 82t8.5 99.5q63 0 116 -9t91.5 -27t60 -45t21.5 -63
q0 -50 -26 -93t-79.5 -75t-136 -50.5t-195.5 -18.5q-108 0 -200 25.5t-158.5 74t-104.5 118.5t-38 159zM795 944q0 -47 -13 -78.5t-35.5 -50.5t-53.5 -27t-66 -8q-34 0 -64.5 8t-53.5 27t-36.5 50.5t-13.5 78.5q0 46 13.5 77.5t36.5 50.5t53.5 27.5t64.5 8.5q35 0 66 -8.5
t53.5 -27.5t35.5 -50.5t13 -77.5z" />
    <glyph glyph-name="Agrave" unicode="&#xc0;" horiz-adv-x="1542" 
d="M446 481l-59 -176q-8 -25 -16.5 -58.5t-8.5 -58.5q0 -20 8 -35t21 -24.5t29.5 -14.5t34.5 -5h86v-109h-533v109h25q27 0 49.5 6t42 22.5t37 45.5t35.5 75l444 1204h281l428 -1206q15 -43 31.5 -71.5t36 -45t41.5 -23.5t46 -7h37v-109h-676v109h80q15 0 31 4.5t28.5 14
t20.5 24.5t8 36q0 25 -6 48t-12 40l-72 205h-498zM795 942l-22.5 73.5l-23 78.5l-22 79.5t-18.5 75.5q-9 -31 -21 -68l-25.5 -76l-27 -78l-25.5 -75l-121 -346h414zM758 1579q-48 28 -106.5 69.5t-113 85.5t-98.5 84.5t-63 67.5v21h321q16 -34 41 -74.5l52.5 -81l55.5 -78.5
l50 -67v-27h-139z" />
    <glyph glyph-name="Aacute" unicode="&#xc1;" horiz-adv-x="1542" 
d="M446 481l-59 -176q-8 -25 -16.5 -58.5t-8.5 -58.5q0 -20 8 -35t21 -24.5t29.5 -14.5t34.5 -5h86v-109h-533v109h25q27 0 49.5 6t42 22.5t37 45.5t35.5 75l444 1204h281l428 -1206q15 -43 31.5 -71.5t36 -45t41.5 -23.5t46 -7h37v-109h-676v109h80q15 0 31 4.5t28.5 14
t20.5 24.5t8 36q0 25 -6 48t-12 40l-72 205h-498zM795 942l-22.5 73.5l-23 78.5l-22 79.5t-18.5 75.5q-9 -31 -21 -68l-25.5 -76l-27 -78l-25.5 -75l-121 -346h414zM641 1606l49.5 67l55.5 78.5t52.5 81t40.5 74.5h322v-21q-19 -27 -63 -67.5t-98.5 -84.5t-113 -85.5
t-106.5 -69.5h-139v27z" />
    <glyph glyph-name="Acircumflex" unicode="&#xc2;" horiz-adv-x="1542" 
d="M446 481l-59 -176q-8 -25 -16.5 -58.5t-8.5 -58.5q0 -20 8 -35t21 -24.5t29.5 -14.5t34.5 -5h86v-109h-533v109h25q27 0 49.5 6t42 22.5t37 45.5t35.5 75l444 1204h281l428 -1206q15 -43 31.5 -71.5t36 -45t41.5 -23.5t46 -7h37v-109h-676v109h80q15 0 31 4.5t28.5 14
t20.5 24.5t8 36q0 25 -6 48t-12 40l-72 205h-498zM795 942l-22.5 73.5l-23 78.5l-22 79.5t-18.5 75.5q-9 -31 -21 -68l-25.5 -76l-27 -78l-25.5 -75l-121 -346h414zM415 1606l56.5 67l64.5 78.5t60.5 81t44.5 74.5h276q16 -34 44.5 -74.5t60.5 -81l64 -78.5l56 -67v-27h-141
l-50 40l-60 48l-60.5 50l-52.5 46l-52.5 -46l-60 -50l-59 -48l-49.5 -40h-142v27z" />
    <glyph glyph-name="Atilde" unicode="&#xc3;" horiz-adv-x="1542" 
d="M446 481l-59 -176q-8 -25 -16.5 -58.5t-8.5 -58.5q0 -20 8 -35t21 -24.5t29.5 -14.5t34.5 -5h86v-109h-533v109h25q27 0 49.5 6t42 22.5t37 45.5t35.5 75l444 1204h281l428 -1206q15 -43 31.5 -71.5t36 -45t41.5 -23.5t46 -7h37v-109h-676v109h80q15 0 31 4.5t28.5 14
t20.5 24.5t8 36q0 25 -6 48t-12 40l-72 205h-498zM795 942l-22.5 73.5l-23 78.5l-22 79.5t-18.5 75.5q-9 -31 -21 -68l-25.5 -76l-27 -78l-25.5 -75l-121 -346h414zM942 1774q22 0 39.5 9t30 24t20 34.5t10.5 40.5h133q-3 -62 -23 -117t-53.5 -96.5t-79 -65.5t-100.5 -24
t-99.5 20t-83 44.5l-72 44.5t-66.5 20q-23 0 -40.5 -9t-30 -24t-20 -34.5t-10.5 -40.5h-133q3 62 23.5 117t54 96.5t79.5 65.5t101 24t99.5 -20t83 -44.5l72 -44.5t65.5 -20z" />
    <glyph glyph-name="Adieresis" unicode="&#xc4;" horiz-adv-x="1542" 
d="M446 481l-59 -176q-8 -25 -16.5 -58.5t-8.5 -58.5q0 -20 8 -35t21 -24.5t29.5 -14.5t34.5 -5h86v-109h-533v109h25q27 0 49.5 6t42 22.5t37 45.5t35.5 75l444 1204h281l428 -1206q15 -43 31.5 -71.5t36 -45t41.5 -23.5t46 -7h37v-109h-676v109h80q15 0 31 4.5t28.5 14
t20.5 24.5t8 36q0 25 -6 48t-12 40l-72 205h-498zM795 942l-22.5 73.5l-23 78.5l-22 79.5t-18.5 75.5q-9 -31 -21 -68l-25.5 -76l-27 -78l-25.5 -75l-121 -346h414zM436 1747q0 35 10 59.5t26.5 39.5t38.5 21.5t46 6.5t46 -6.5t39 -21.5t27.5 -39.5t10.5 -59.5
q0 -34 -10.5 -58.5t-27.5 -39.5t-39 -22t-46 -7t-46 7t-38.5 22t-26.5 39.5t-10 58.5zM856 1747q0 35 10 59.5t27 39.5t39 21.5t47 6.5q23 0 44.5 -6.5t38.5 -21.5t27.5 -39.5t10.5 -59.5q0 -34 -10.5 -58.5t-27.5 -39.5t-38.5 -22t-44.5 -7q-25 0 -47 7t-39 22t-27 39.5
t-10 58.5z" />
    <glyph glyph-name="Aring" unicode="&#xc5;" horiz-adv-x="1542" 
d="M446 481l-59 -176q-8 -25 -16.5 -58.5t-8.5 -58.5q0 -20 8 -35t21 -24.5t29.5 -14.5t34.5 -5h86v-109h-533v109h25q27 0 49.5 6t42 22.5t37 45.5t35.5 75l444 1204h281l428 -1206q15 -43 31.5 -71.5t36 -45t41.5 -23.5t46 -7h37v-109h-676v109h80q15 0 31 4.5t28.5 14
t20.5 24.5t8 36q0 25 -6 48t-12 40l-72 205h-498zM795 942l-22.5 73.5l-23 78.5l-22 79.5t-18.5 75.5q-9 -31 -21 -68l-25.5 -76l-27 -78l-25.5 -75l-121 -346h414zM1024 1573q0 -55 -19 -96.5t-52.5 -69.5t-78.5 -42.5t-96 -14.5t-96 14.5t-78.5 42.5t-52.5 69.5t-19 96.5
q0 54 19 96t52.5 70t78.5 42.5t96 14.5t96 -14.5t78.5 -42.5t52.5 -70t19 -96zM899 1573q0 30 -9.5 51t-26 34t-38.5 19t-47 6t-47 -6t-38.5 -19t-26 -34t-9.5 -51t9.5 -51t26 -34.5t38.5 -19.5t47 -6t47 6t38.5 19.5t26 34.5t9.5 51z" />
    <glyph glyph-name="AE" unicode="&#xc6;" horiz-adv-x="2034" 
d="M1270 125h409q31 0 53 11.5t38 32.5t25.5 49.5t14.5 62.5l17 96h141l-14 -377h-1200v109h86q56 0 80 34.5t24 87.5v238h-471l-86 -172q-17 -32 -25 -61t-8 -48q0 -42 31.5 -60.5t91.5 -18.5h35v-109h-512v109h25q53 0 95 38.5t87 120.5l575 1075l-135 11v108h1243l8 -377
h-143l-10 97q-8 75 -38 115t-93 40h-344v-512h485v-123h-485v-577zM924 1337l-385 -745h405v745h-20z" />
    <glyph glyph-name="Ccedilla" unicode="&#xc7;" horiz-adv-x="1368" 
d="M870 143q75 0 133.5 17.5t104.5 45.5t80.5 63t60.5 69q16 -12 25.5 -37t9.5 -51q0 -43 -23 -90.5t-77 -87.5t-143 -66t-220 -26q-178 0 -311 54t-221 153t-132 238t-44 308q0 166 45 304t133.5 237t221 154t306.5 55q118 0 205.5 -18.5t145.5 -50.5t87 -75.5t29 -93.5
q0 -38 -16.5 -70.5t-49 -56.5t-80.5 -37.5t-110 -13.5q0 51 -11 101.5t-37.5 91.5t-69.5 66.5t-107 25.5q-97 0 -164 -41t-107.5 -120t-58.5 -194.5t-18 -263.5t22 -259t71 -184.5t127.5 -110t192.5 -36.5zM962 -258q0 -54 -21 -97.5t-59 -74t-91.5 -46.5t-118.5 -16
q-16 0 -39 1.5t-48 4.5t-49 7.5t-43 9.5v125q38 -8 75 -12t65 -4q58 0 91.5 20.5t33.5 73.5q0 30 -11.5 49t-32.5 30.5t-49 17t-61 7.5l43 180h117l-21 -88q50 -4 90.5 -18.5t69 -38.5t44 -57.5t15.5 -73.5z" />
    <glyph glyph-name="Egrave" unicode="&#xc8;" horiz-adv-x="1337" 
d="M573 125h410q31 0 53 11.5t38 32.5t25.5 49.5t14.5 62.5l16 96h142l-15 -377h-1200v109h86q22 0 41 4t33.5 16.5t22.5 37t8 64.5v990q0 44 -8 70t-22 40t-33 18.5t-42 4.5h-86v108h1137l8 -377h-143l-10 97q-8 75 -38 115t-93 40h-345v-512h486v-123h-486v-577zM689 1579
q-48 28 -106.5 69.5t-113 85.5t-98.5 84.5t-63 67.5v21h321q16 -34 41 -74.5l52.5 -81l55.5 -78.5l50 -67v-27h-139z" />
    <glyph glyph-name="Eacute" unicode="&#xc9;" horiz-adv-x="1337" 
d="M573 125h410q31 0 53 11.5t38 32.5t25.5 49.5t14.5 62.5l16 96h142l-15 -377h-1200v109h86q22 0 41 4t33.5 16.5t22.5 37t8 64.5v990q0 44 -8 70t-22 40t-33 18.5t-42 4.5h-86v108h1137l8 -377h-143l-10 97q-8 75 -38 115t-93 40h-345v-512h486v-123h-486v-577zM523 1606
l49.5 67l55.5 78.5t52.5 81t40.5 74.5h322v-21q-19 -27 -63 -67.5t-98.5 -84.5t-113 -85.5t-106.5 -69.5h-139v27z" />
    <glyph glyph-name="Ecircumflex" unicode="&#xca;" horiz-adv-x="1337" 
d="M573 125h410q31 0 53 11.5t38 32.5t25.5 49.5t14.5 62.5l16 96h142l-15 -377h-1200v109h86q22 0 41 4t33.5 16.5t22.5 37t8 64.5v990q0 44 -8 70t-22 40t-33 18.5t-42 4.5h-86v108h1137l8 -377h-143l-10 97q-8 75 -38 115t-93 40h-345v-512h486v-123h-486v-577zM288 1606
l56.5 67l64.5 78.5t60.5 81t44.5 74.5h276q16 -34 44.5 -74.5t60.5 -81l64 -78.5l56 -67v-27h-141l-50 40l-60 48l-60.5 50l-52.5 46l-52.5 -46l-60 -50l-59 -48l-49.5 -40h-142v27z" />
    <glyph glyph-name="Edieresis" unicode="&#xcb;" horiz-adv-x="1337" 
d="M573 125h410q31 0 53 11.5t38 32.5t25.5 49.5t14.5 62.5l16 96h142l-15 -377h-1200v109h86q22 0 41 4t33.5 16.5t22.5 37t8 64.5v990q0 44 -8 70t-22 40t-33 18.5t-42 4.5h-86v108h1137l8 -377h-143l-10 97q-8 75 -38 115t-93 40h-345v-512h486v-123h-486v-577zM356 1747
q0 35 10 59.5t26.5 39.5t38.5 21.5t46 6.5t46 -6.5t39 -21.5t27.5 -39.5t10.5 -59.5q0 -34 -10.5 -58.5t-27.5 -39.5t-39 -22t-46 -7t-46 7t-38.5 22t-26.5 39.5t-10 58.5zM776 1747q0 35 10 59.5t27 39.5t39 21.5t47 6.5q23 0 44.5 -6.5t38.5 -21.5t27.5 -39.5t10.5 -59.5
q0 -34 -10.5 -58.5t-27.5 -39.5t-38.5 -22t-44.5 -7q-25 0 -47 7t-39 22t-27 39.5t-10 58.5z" />
    <glyph glyph-name="Igrave" unicode="&#xcc;" horiz-adv-x="821" 
d="M57 0v109h86q23 0 42 4.5t33 18.5t22 40t8 70v978q0 44 -8 70t-22 40t-33 18.5t-42 4.5h-86v109h707v-109h-86q-22 0 -41.5 -4.5t-33.5 -18.5t-22 -40t-8 -70v-978q0 -44 8 -70t22 -40t33.5 -18.5t41.5 -4.5h86v-109h-707zM429 1579q-48 28 -106.5 69.5t-113 85.5
t-98.5 84.5t-63 67.5v21h321q16 -34 41 -74.5l52.5 -81l55.5 -78.5l50 -67v-27h-139z" />
    <glyph glyph-name="Iacute" unicode="&#xcd;" horiz-adv-x="821" 
d="M57 0v109h86q23 0 42 4.5t33 18.5t22 40t8 70v978q0 44 -8 70t-22 40t-33 18.5t-42 4.5h-86v109h707v-109h-86q-22 0 -41.5 -4.5t-33.5 -18.5t-22 -40t-8 -70v-978q0 -44 8 -70t22 -40t33.5 -18.5t41.5 -4.5h86v-109h-707zM253 1606l49.5 67l55.5 78.5t52.5 81t40.5 74.5
h322v-21q-19 -27 -63 -67.5t-98.5 -84.5t-113 -85.5t-106.5 -69.5h-139v27z" />
    <glyph glyph-name="Icircumflex" unicode="&#xce;" horiz-adv-x="821" 
d="M57 0v109h86q23 0 42 4.5t33 18.5t22 40t8 70v978q0 44 -8 70t-22 40t-33 18.5t-42 4.5h-86v109h707v-109h-86q-22 0 -41.5 -4.5t-33.5 -18.5t-22 -40t-8 -70v-978q0 -44 8 -70t22 -40t33.5 -18.5t41.5 -4.5h86v-109h-707zM48 1606l56.5 67l64.5 78.5t60.5 81t44.5 74.5
h276q16 -34 44.5 -74.5t60.5 -81l64 -78.5l56 -67v-27h-141l-50 40l-60 48l-60.5 50l-52.5 46l-52.5 -46l-60 -50l-59 -48l-49.5 -40h-142v27z" />
    <glyph glyph-name="Idieresis" unicode="&#xcf;" horiz-adv-x="821" 
d="M57 0v109h86q23 0 42 4.5t33 18.5t22 40t8 70v978q0 44 -8 70t-22 40t-33 18.5t-42 4.5h-86v109h707v-109h-86q-22 0 -41.5 -4.5t-33.5 -18.5t-22 -40t-8 -70v-978q0 -44 8 -70t22 -40t33.5 -18.5t41.5 -4.5h86v-109h-707zM79 1747q0 35 10 59.5t26.5 39.5t38.5 21.5
t46 6.5t46 -6.5t39 -21.5t27.5 -39.5t10.5 -59.5q0 -34 -10.5 -58.5t-27.5 -39.5t-39 -22t-46 -7t-46 7t-38.5 22t-26.5 39.5t-10 58.5zM499 1747q0 35 10 59.5t27 39.5t39 21.5t47 6.5q23 0 44.5 -6.5t38.5 -21.5t27.5 -39.5t10.5 -59.5q0 -34 -10.5 -58.5t-27.5 -39.5
t-38.5 -22t-44.5 -7q-25 0 -47 7t-39 22t-27 39.5t-10 58.5z" />
    <glyph glyph-name="Eth" unicode="&#xd0;" horiz-adv-x="1571" 
d="M1458 758q0 -168 -46 -307.5t-137.5 -239.5t-227 -155.5t-314.5 -55.5h-676v109h86q23 0 42 4.5t33 18.5t22 40t8 70v460h-170v125h170v402q0 41 -8 65.5t-22.5 37.5t-33.5 17.5t-41 4.5h-86v108h676q170 0 304.5 -44.5t228 -133t143 -220.5t49.5 -306zM1112 758
q0 293 -107.5 436t-316.5 143h-117v-510h256v-125h-256v-575h115q105 0 185 43.5t133.5 125.5t80.5 198.5t27 263.5z" />
    <glyph glyph-name="Ntilde" unicode="&#xd1;" horiz-adv-x="1614" 
d="M1200 0l-799 1128v-886q0 -44 8.5 -70t22.5 -40t33.5 -18.5t40.5 -4.5h86v-109h-535v109h86q22 0 41 4.5t33.5 18.5t22.5 40t8 70v987q0 41 -8.5 65.5t-23 37.5t-33.5 17.5t-40 4.5h-86v108h455l723 -1022v789q0 41 -8.5 65.5t-23 37.5t-33.5 17.5t-40 4.5h-86v108h535
v-108h-86q-21 0 -40 -4.5t-33.5 -18.5t-22.5 -40t-8 -70v-1221h-189zM998 1774q22 0 39.5 9t30 24t20 34.5t10.5 40.5h133q-3 -62 -23 -117t-53.5 -96.5t-79 -65.5t-100.5 -24t-99.5 20t-83 44.5l-72 44.5t-66.5 20q-23 0 -40.5 -9t-30 -24t-20 -34.5t-10.5 -40.5h-133
q3 62 23.5 117t54 96.5t79.5 65.5t101 24t99.5 -20t83 -44.5l72 -44.5t65.5 -20z" />
    <glyph glyph-name="Ograve" unicode="&#xd2;" horiz-adv-x="1612" 
d="M1499 733q0 -169 -45.5 -308t-134 -238t-217 -153t-295.5 -54q-175 0 -305.5 54t-216.5 153t-129 238.5t-43 309.5t43 308.5t129.5 236.5t217 151.5t306.5 53.5q166 0 294.5 -53.5t216.5 -152t133.5 -237t45.5 -309.5zM457 733q0 -147 19 -262t61 -194.5t108.5 -121.5
t161.5 -42q96 0 162.5 42t107.5 121.5t59.5 194.5t18.5 262t-18.5 262t-59.5 194.5t-107 121t-161 41.5q-96 0 -163 -41.5t-109 -121t-61 -194.5t-19 -262zM813 1579q-48 28 -106.5 69.5t-113 85.5t-98.5 84.5t-63 67.5v21h321q16 -34 41 -74.5l52.5 -81l55.5 -78.5l50 -67
v-27h-139z" />
    <glyph glyph-name="Oacute" unicode="&#xd3;" horiz-adv-x="1612" 
d="M1499 733q0 -169 -45.5 -308t-134 -238t-217 -153t-295.5 -54q-175 0 -305.5 54t-216.5 153t-129 238.5t-43 309.5t43 308.5t129.5 236.5t217 151.5t306.5 53.5q166 0 294.5 -53.5t216.5 -152t133.5 -237t45.5 -309.5zM457 733q0 -147 19 -262t61 -194.5t108.5 -121.5
t161.5 -42q96 0 162.5 42t107.5 121.5t59.5 194.5t18.5 262t-18.5 262t-59.5 194.5t-107 121t-161 41.5q-96 0 -163 -41.5t-109 -121t-61 -194.5t-19 -262zM666 1606l49.5 67l55.5 78.5t52.5 81t40.5 74.5h322v-21q-19 -27 -63 -67.5t-98.5 -84.5t-113 -85.5t-106.5 -69.5
h-139v27z" />
    <glyph glyph-name="Ocircumflex" unicode="&#xd4;" horiz-adv-x="1612" 
d="M1499 733q0 -169 -45.5 -308t-134 -238t-217 -153t-295.5 -54q-175 0 -305.5 54t-216.5 153t-129 238.5t-43 309.5t43 308.5t129.5 236.5t217 151.5t306.5 53.5q166 0 294.5 -53.5t216.5 -152t133.5 -237t45.5 -309.5zM457 733q0 -147 19 -262t61 -194.5t108.5 -121.5
t161.5 -42q96 0 162.5 42t107.5 121.5t59.5 194.5t18.5 262t-18.5 262t-59.5 194.5t-107 121t-161 41.5q-96 0 -163 -41.5t-109 -121t-61 -194.5t-19 -262zM440 1606l56.5 67l64.5 78.5t60.5 81t44.5 74.5h276q16 -34 44.5 -74.5t60.5 -81l64 -78.5l56 -67v-27h-141l-50 40
l-60 48l-60.5 50l-52.5 46l-52.5 -46l-60 -50l-59 -48l-49.5 -40h-142v27z" />
    <glyph glyph-name="Otilde" unicode="&#xd5;" horiz-adv-x="1612" 
d="M1499 733q0 -169 -45.5 -308t-134 -238t-217 -153t-295.5 -54q-175 0 -305.5 54t-216.5 153t-129 238.5t-43 309.5t43 308.5t129.5 236.5t217 151.5t306.5 53.5q166 0 294.5 -53.5t216.5 -152t133.5 -237t45.5 -309.5zM457 733q0 -147 19 -262t61 -194.5t108.5 -121.5
t161.5 -42q96 0 162.5 42t107.5 121.5t59.5 194.5t18.5 262t-18.5 262t-59.5 194.5t-107 121t-161 41.5q-96 0 -163 -41.5t-109 -121t-61 -194.5t-19 -262zM975 1774q22 0 39.5 9t30 24t20 34.5t10.5 40.5h133q-3 -62 -23 -117t-53.5 -96.5t-79 -65.5t-100.5 -24t-99.5 20
t-83 44.5l-72 44.5t-66.5 20q-23 0 -40.5 -9t-30 -24t-20 -34.5t-10.5 -40.5h-133q3 62 23.5 117t54 96.5t79.5 65.5t101 24t99.5 -20t83 -44.5l72 -44.5t65.5 -20z" />
    <glyph glyph-name="Odieresis" unicode="&#xd6;" horiz-adv-x="1612" 
d="M1499 733q0 -169 -45.5 -308t-134 -238t-217 -153t-295.5 -54q-175 0 -305.5 54t-216.5 153t-129 238.5t-43 309.5t43 308.5t129.5 236.5t217 151.5t306.5 53.5q166 0 294.5 -53.5t216.5 -152t133.5 -237t45.5 -309.5zM457 733q0 -147 19 -262t61 -194.5t108.5 -121.5
t161.5 -42q96 0 162.5 42t107.5 121.5t59.5 194.5t18.5 262t-18.5 262t-59.5 194.5t-107 121t-161 41.5q-96 0 -163 -41.5t-109 -121t-61 -194.5t-19 -262zM463 1747q0 35 10 59.5t26.5 39.5t38.5 21.5t46 6.5t46 -6.5t39 -21.5t27.5 -39.5t10.5 -59.5q0 -34 -10.5 -58.5
t-27.5 -39.5t-39 -22t-46 -7t-46 7t-38.5 22t-26.5 39.5t-10 58.5zM883 1747q0 35 10 59.5t27 39.5t39 21.5t47 6.5q23 0 44.5 -6.5t38.5 -21.5t27.5 -39.5t10.5 -59.5q0 -34 -10.5 -58.5t-27.5 -39.5t-38.5 -22t-44.5 -7q-25 0 -47 7t-39 22t-27 39.5t-10 58.5z" />
    <glyph glyph-name="multiply" unicode="&#xd7;" 
d="M571 631l-301 -303l-104 104l301 303l-301 301l104 103l301 -301l301 303l105 -105l-303 -303l303 -303l-103 -102z" />
    <glyph glyph-name="Oslash" unicode="&#xd8;" horiz-adv-x="1612" 
d="M1499 733q0 -169 -45.5 -308t-134 -238t-217 -153t-295.5 -54q-173 0 -303 53l-62 -115h-145l94 174q-140 96 -209 260.5t-69 382.5q0 170 43 308.5t129.5 236.5t217 151.5t306.5 53.5q85 0 160 -15t141 -43l64 119h143l-96 -178q136 -96 207 -258t71 -377zM457 733
q0 -128 14 -230t45 -179l506 942q-38 42 -91.5 64t-121.5 22q-96 0 -163 -41.5t-109 -121t-61 -194.5t-19 -262zM1155 733q0 127 -14 228.5t-43 179.5l-506 -944q40 -42 93 -63t122 -21q96 0 162.5 42t107.5 121.5t59.5 194.5t18.5 262z" />
    <glyph glyph-name="Ugrave" unicode="&#xd9;" horiz-adv-x="1530" 
d="M1497 1354h-88q-21 0 -40 -4.5t-33.5 -18.5t-22.5 -40t-8 -70v-799q0 -103 -29.5 -185t-92 -139t-159.5 -87.5t-231 -30.5t-239.5 25.5t-178.5 81.5t-111.5 144.5t-38.5 214.5v783q0 41 -8.5 65.5t-23 37.5t-33 17.5t-39.5 4.5h-88v108h706v-108h-86q-21 0 -40 -4.5
t-33.5 -18.5t-22.5 -40t-8 -70v-791q0 -86 21.5 -144.5t61.5 -94t96 -51t126 -15.5q68 0 123 17.5t93.5 54.5t59.5 94t21 135v803q0 41 -8 65.5t-22.5 37.5t-33.5 17.5t-40 4.5h-86v108h536v-108zM813 1579q-48 28 -106.5 69.5t-113 85.5t-98.5 84.5t-63 67.5v21h321
q16 -34 41 -74.5l52.5 -81l55.5 -78.5l50 -67v-27h-139z" />
    <glyph glyph-name="Uacute" unicode="&#xda;" horiz-adv-x="1530" 
d="M1497 1354h-88q-21 0 -40 -4.5t-33.5 -18.5t-22.5 -40t-8 -70v-799q0 -103 -29.5 -185t-92 -139t-159.5 -87.5t-231 -30.5t-239.5 25.5t-178.5 81.5t-111.5 144.5t-38.5 214.5v783q0 41 -8.5 65.5t-23 37.5t-33 17.5t-39.5 4.5h-88v108h706v-108h-86q-21 0 -40 -4.5
t-33.5 -18.5t-22.5 -40t-8 -70v-791q0 -86 21.5 -144.5t61.5 -94t96 -51t126 -15.5q68 0 123 17.5t93.5 54.5t59.5 94t21 135v803q0 41 -8 65.5t-22.5 37.5t-33.5 17.5t-40 4.5h-86v108h536v-108zM643 1606l49.5 67l55.5 78.5t52.5 81t40.5 74.5h322v-21q-19 -27 -63 -67.5
t-98.5 -84.5t-113 -85.5t-106.5 -69.5h-139v27z" />
    <glyph glyph-name="Ucircumflex" unicode="&#xdb;" horiz-adv-x="1530" 
d="M1497 1354h-88q-21 0 -40 -4.5t-33.5 -18.5t-22.5 -40t-8 -70v-799q0 -103 -29.5 -185t-92 -139t-159.5 -87.5t-231 -30.5t-239.5 25.5t-178.5 81.5t-111.5 144.5t-38.5 214.5v783q0 41 -8.5 65.5t-23 37.5t-33 17.5t-39.5 4.5h-88v108h706v-108h-86q-21 0 -40 -4.5
t-33.5 -18.5t-22.5 -40t-8 -70v-791q0 -86 21.5 -144.5t61.5 -94t96 -51t126 -15.5q68 0 123 17.5t93.5 54.5t59.5 94t21 135v803q0 41 -8 65.5t-22.5 37.5t-33.5 17.5t-40 4.5h-86v108h536v-108zM454 1606l56.5 67l64.5 78.5t60.5 81t44.5 74.5h276q16 -34 44.5 -74.5
t60.5 -81l64 -78.5l56 -67v-27h-141l-50 40l-60 48l-60.5 50l-52.5 46l-52.5 -46l-60 -50l-59 -48l-49.5 -40h-142v27z" />
    <glyph glyph-name="Udieresis" unicode="&#xdc;" horiz-adv-x="1530" 
d="M1497 1354h-88q-21 0 -40 -4.5t-33.5 -18.5t-22.5 -40t-8 -70v-799q0 -103 -29.5 -185t-92 -139t-159.5 -87.5t-231 -30.5t-239.5 25.5t-178.5 81.5t-111.5 144.5t-38.5 214.5v783q0 41 -8.5 65.5t-23 37.5t-33 17.5t-39.5 4.5h-88v108h706v-108h-86q-21 0 -40 -4.5
t-33.5 -18.5t-22.5 -40t-8 -70v-791q0 -86 21.5 -144.5t61.5 -94t96 -51t126 -15.5q68 0 123 17.5t93.5 54.5t59.5 94t21 135v803q0 41 -8 65.5t-22.5 37.5t-33.5 17.5t-40 4.5h-86v108h536v-108zM494 1747q0 35 10 59.5t26.5 39.5t38.5 21.5t46 6.5t46 -6.5t39 -21.5
t27.5 -39.5t10.5 -59.5q0 -34 -10.5 -58.5t-27.5 -39.5t-39 -22t-46 -7t-46 7t-38.5 22t-26.5 39.5t-10 58.5zM914 1747q0 35 10 59.5t27 39.5t39 21.5t47 6.5q23 0 44.5 -6.5t38.5 -21.5t27.5 -39.5t10.5 -59.5q0 -34 -10.5 -58.5t-27.5 -39.5t-38.5 -22t-44.5 -7
q-25 0 -47 7t-39 22t-27 39.5t-10 58.5z" />
    <glyph glyph-name="Yacute" unicode="&#xdd;" horiz-adv-x="1419" 
d="M336 0v109h96q25 0 46.5 3t37.5 15.5t25.5 37.5t9.5 68v285l-379 727q-15 30 -28.5 51t-29.5 33.5t-36.5 18.5t-50.5 6h-27v108h686v-108h-35q-62 0 -92.5 -25t-30.5 -67q0 -26 9.5 -56.5t21.5 -56.5l152 -301q32 -65 52.5 -115t37.5 -98q21 54 48.5 117.5t61.5 132.5
l119 245q22 45 28.5 75.5t6.5 47.5q0 53 -33.5 77t-101.5 24h-47v108h536v-108h-39q-26 0 -44.5 -7t-35 -25t-34 -49t-41.5 -79l-348 -678v-280q0 -45 9 -70t24.5 -38t36 -16t44.5 -3h101v-109h-756zM602 1606l49.5 67l55.5 78.5t52.5 81t40.5 74.5h322v-21
q-19 -27 -63 -67.5t-98.5 -84.5t-113 -85.5t-106.5 -69.5h-139v27z" />
    <glyph glyph-name="Thorn" unicode="&#xde;" horiz-adv-x="1307" 
d="M571 410h50q76 0 129 19t86.5 60t49 106t15.5 157q0 82 -13.5 142.5t-43 100t-77 59t-116.5 19.5h-80v-663zM1245 760q0 -92 -32 -177t-104 -150t-187 -103.5t-281 -38.5h-70v-60q2 -40 11 -64.5t23.5 -37t34 -16.5t40.5 -4h84v-109h-707v109h86q23 0 42 4.5t33 18.5
t22 40t8 70v979q0 44 -8 70t-22 40t-33 18.5t-42 4.5h-86v108h707v-108h-84q-21 0 -41 -4t-35 -17t-24 -37t-9 -65v-37h115q142 -2 247 -32.5t174.5 -86t103.5 -135t34 -180.5z" />
    <glyph glyph-name="germandbls" unicode="&#xdf;" horiz-adv-x="1446" 
d="M205 1118q0 128 41 216t112.5 142t168.5 77.5t210 23.5q142 0 241 -37t161.5 -109.5t91 -179t29.5 -245.5h-115q-50 0 -93.5 -6t-76 -22t-51.5 -42.5t-19 -67.5q0 -36 12.5 -63t39.5 -50.5t70.5 -47t105.5 -52.5q64 -30 108 -67.5t71.5 -80.5t39.5 -89t12 -94
q0 -87 -27.5 -151.5t-79 -107.5t-126.5 -64t-170 -21q-93 0 -176.5 18.5t-149.5 56.5v248h110q7 -41 24.5 -78t44 -64.5t61.5 -44t77 -16.5q69 0 109.5 36t40.5 102q0 36 -9.5 66.5t-33 58.5t-63.5 55t-101 55q-75 35 -124.5 75.5t-79 86.5t-42 96t-12.5 103
q0 71 24.5 122.5t69 86t105.5 53t133 22.5q-1 94 -16.5 159.5t-44.5 106.5t-70.5 59.5t-94.5 18.5q-52 0 -94.5 -17t-72.5 -52.5t-46 -90t-16 -128.5v-1174h-502v109h88q22 0 41 4.5t33.5 18.5t22.5 40t8 70v714h-164v142h164v20z" />
    <glyph glyph-name="agrave" unicode="&#xe0;" horiz-adv-x="1227" 
d="M410 305q0 -88 28 -132t88 -44q44 0 79.5 18.5t61 52.5t39 82.5t13.5 108.5v154l-92 -6q-61 -3 -103 -19.5t-67 -45.5t-36 -71t-11 -98zM592 999q-39 0 -65.5 -16.5t-42.5 -46t-22.5 -70t-6.5 -88.5q-138 0 -207.5 31t-69.5 106q0 56 33.5 96t91 65t134 36.5t163.5 11.5
q108 0 188.5 -18.5t134 -59.5t80.5 -107.5t27 -162.5v-522q0 -42 6.5 -70t20.5 -44.5t38 -23.5t58 -7h8v-109h-381l-43 141h-18q-34 -41 -64 -71.5t-64 -50.5t-76.5 -29.5t-100.5 -9.5q-68 0 -126.5 20t-102 61.5t-68.5 104t-25 147.5q0 167 114.5 247t344.5 87l168 6v113
q0 51 -4 94t-17 74t-38.5 48t-67.5 17zM618 1241q-48 28 -106.5 69.5t-113 85.5t-98.5 84.5t-63 67.5v21h321q16 -34 41 -74.5l52.5 -81l55.5 -78.5l50 -67v-27h-139z" />
    <glyph glyph-name="aacute" unicode="&#xe1;" horiz-adv-x="1227" 
d="M410 305q0 -88 28 -132t88 -44q44 0 79.5 18.5t61 52.5t39 82.5t13.5 108.5v154l-92 -6q-61 -3 -103 -19.5t-67 -45.5t-36 -71t-11 -98zM592 999q-39 0 -65.5 -16.5t-42.5 -46t-22.5 -70t-6.5 -88.5q-138 0 -207.5 31t-69.5 106q0 56 33.5 96t91 65t134 36.5t163.5 11.5
q108 0 188.5 -18.5t134 -59.5t80.5 -107.5t27 -162.5v-522q0 -42 6.5 -70t20.5 -44.5t38 -23.5t58 -7h8v-109h-381l-43 141h-18q-34 -41 -64 -71.5t-64 -50.5t-76.5 -29.5t-100.5 -9.5q-68 0 -126.5 20t-102 61.5t-68.5 104t-25 147.5q0 167 114.5 247t344.5 87l168 6v113
q0 51 -4 94t-17 74t-38.5 48t-67.5 17zM467 1268l49.5 67l55.5 78.5t52.5 81t40.5 74.5h322v-21q-19 -27 -63 -67.5t-98.5 -84.5t-113 -85.5t-106.5 -69.5h-139v27z" />
    <glyph glyph-name="acircumflex" unicode="&#xe2;" horiz-adv-x="1227" 
d="M410 305q0 -88 28 -132t88 -44q44 0 79.5 18.5t61 52.5t39 82.5t13.5 108.5v154l-92 -6q-61 -3 -103 -19.5t-67 -45.5t-36 -71t-11 -98zM592 999q-39 0 -65.5 -16.5t-42.5 -46t-22.5 -70t-6.5 -88.5q-138 0 -207.5 31t-69.5 106q0 56 33.5 96t91 65t134 36.5t163.5 11.5
q108 0 188.5 -18.5t134 -59.5t80.5 -107.5t27 -162.5v-522q0 -42 6.5 -70t20.5 -44.5t38 -23.5t58 -7h8v-109h-381l-43 141h-18q-34 -41 -64 -71.5t-64 -50.5t-76.5 -29.5t-100.5 -9.5q-68 0 -126.5 20t-102 61.5t-68.5 104t-25 147.5q0 167 114.5 247t344.5 87l168 6v113
q0 51 -4 94t-17 74t-38.5 48t-67.5 17zM256 1268l56.5 67l64.5 78.5t60.5 81t44.5 74.5h276q16 -34 44.5 -74.5t60.5 -81l64 -78.5l56 -67v-27h-141l-50 40l-60 48l-60.5 50l-52.5 46l-52.5 -46l-60 -50l-59 -48l-49.5 -40h-142v27z" />
    <glyph glyph-name="atilde" unicode="&#xe3;" horiz-adv-x="1227" 
d="M410 305q0 -88 28 -132t88 -44q44 0 79.5 18.5t61 52.5t39 82.5t13.5 108.5v154l-92 -6q-61 -3 -103 -19.5t-67 -45.5t-36 -71t-11 -98zM592 999q-39 0 -65.5 -16.5t-42.5 -46t-22.5 -70t-6.5 -88.5q-138 0 -207.5 31t-69.5 106q0 56 33.5 96t91 65t134 36.5t163.5 11.5
q108 0 188.5 -18.5t134 -59.5t80.5 -107.5t27 -162.5v-522q0 -42 6.5 -70t20.5 -44.5t38 -23.5t58 -7h8v-109h-381l-43 141h-18q-34 -41 -64 -71.5t-64 -50.5t-76.5 -29.5t-100.5 -9.5q-68 0 -126.5 20t-102 61.5t-68.5 104t-25 147.5q0 167 114.5 247t344.5 87l168 6v113
q0 51 -4 94t-17 74t-38.5 48t-67.5 17zM789 1436q22 0 39.5 9t30 24t20 34.5t10.5 40.5h133q-3 -62 -23 -117t-53.5 -96.5t-79 -65.5t-100.5 -24t-99.5 20t-83 44.5l-72 44.5t-66.5 20q-23 0 -40.5 -9t-30 -24t-20 -34.5t-10.5 -40.5h-133q3 62 23.5 117t54 96.5t79.5 65.5
t101 24t99.5 -20t83 -44.5l72 -44.5t65.5 -20z" />
    <glyph glyph-name="adieresis" unicode="&#xe4;" horiz-adv-x="1227" 
d="M410 305q0 -88 28 -132t88 -44q44 0 79.5 18.5t61 52.5t39 82.5t13.5 108.5v154l-92 -6q-61 -3 -103 -19.5t-67 -45.5t-36 -71t-11 -98zM592 999q-39 0 -65.5 -16.5t-42.5 -46t-22.5 -70t-6.5 -88.5q-138 0 -207.5 31t-69.5 106q0 56 33.5 96t91 65t134 36.5t163.5 11.5
q108 0 188.5 -18.5t134 -59.5t80.5 -107.5t27 -162.5v-522q0 -42 6.5 -70t20.5 -44.5t38 -23.5t58 -7h8v-109h-381l-43 141h-18q-34 -41 -64 -71.5t-64 -50.5t-76.5 -29.5t-100.5 -9.5q-68 0 -126.5 20t-102 61.5t-68.5 104t-25 147.5q0 167 114.5 247t344.5 87l168 6v113
q0 51 -4 94t-17 74t-38.5 48t-67.5 17zM278 1409q0 35 10 59.5t26.5 39.5t38.5 21.5t46 6.5t46 -6.5t39 -21.5t27.5 -39.5t10.5 -59.5q0 -34 -10.5 -58.5t-27.5 -39.5t-39 -22t-46 -7t-46 7t-38.5 22t-26.5 39.5t-10 58.5zM698 1409q0 35 10 59.5t27 39.5t39 21.5t47 6.5
q23 0 44.5 -6.5t38.5 -21.5t27.5 -39.5t10.5 -59.5q0 -34 -10.5 -58.5t-27.5 -39.5t-38.5 -22t-44.5 -7q-25 0 -47 7t-39 22t-27 39.5t-10 58.5z" />
    <glyph glyph-name="aring" unicode="&#xe5;" horiz-adv-x="1227" 
d="M410 305q0 -88 28 -132t88 -44q44 0 79.5 18.5t61 52.5t39 82.5t13.5 108.5v154l-92 -6q-61 -3 -103 -19.5t-67 -45.5t-36 -71t-11 -98zM592 999q-39 0 -65.5 -16.5t-42.5 -46t-22.5 -70t-6.5 -88.5q-138 0 -207.5 31t-69.5 106q0 56 33.5 96t91 65t134 36.5t163.5 11.5
q108 0 188.5 -18.5t134 -59.5t80.5 -107.5t27 -162.5v-522q0 -42 6.5 -70t20.5 -44.5t38 -23.5t58 -7h8v-109h-381l-43 141h-18q-34 -41 -64 -71.5t-64 -50.5t-76.5 -29.5t-100.5 -9.5q-68 0 -126.5 20t-102 61.5t-68.5 104t-25 147.5q0 167 114.5 247t344.5 87l168 6v113
q0 51 -4 94t-17 74t-38.5 48t-67.5 17zM865 1444q0 -55 -19 -96.5t-52.5 -69.5t-78.5 -42.5t-96 -14.5t-96 14.5t-78.5 42.5t-52.5 69.5t-19 96.5q0 54 19 96t52.5 70t78.5 42.5t96 14.5t96 -14.5t78.5 -42.5t52.5 -70t19 -96zM740 1444q0 30 -9.5 51t-26 34t-38.5 19t-47 6
t-47 -6t-38.5 -19t-26 -34t-9.5 -51t9.5 -51t26 -34.5t38.5 -19.5t47 -6t47 6t38.5 19.5t26 34.5t9.5 51z" />
    <glyph glyph-name="ae" unicode="&#xe6;" horiz-adv-x="1792" 
d="M410 305q0 -88 28 -132t88 -44q44 0 79.5 18.5t61 52.5t39 82.5t13.5 108.5v154l-92 -6q-61 -3 -103 -19.5t-67 -45.5t-36 -71t-11 -98zM1231 991q-85 0 -136.5 -85t-56.5 -249h355q0 160 -39 247t-123 87zM1253 -20q-151 0 -260.5 50t-175.5 146q-69 -103 -171 -149.5
t-232 -46.5q-68 0 -126.5 20t-102 61.5t-68.5 104t-25 147.5q0 167 114.5 247t344.5 87l168 6v113q0 51 -4 94t-17 74t-38.5 48t-67.5 17q-39 0 -65.5 -16.5t-42.5 -46t-22.5 -70t-6.5 -88.5q-138 0 -207.5 31t-69.5 106q0 56 33.5 96t91 65t134 36.5t163.5 11.5
q109 0 190.5 -27t135.5 -89q60 57 135 86.5t166 29.5q111 0 200 -31.5t151 -93.5t95 -154t33 -214v-105h-672q3 -103 22.5 -177t54.5 -122t84.5 -71t113.5 -23q53 0 98 12.5t81.5 35t63.5 53t45 65.5q56 -30 56 -100q0 -44 -23.5 -83.5t-72.5 -69.5t-124.5 -48t-179.5 -18z
" />
    <glyph glyph-name="ccedilla" unicode="&#xe7;" horiz-adv-x="1079" 
d="M604 -20q-113 0 -206.5 29t-160.5 96t-104 175t-37 265q0 166 38.5 277t106 178t159.5 95.5t198 28.5q99 0 175 -16.5t127 -45.5t77.5 -68.5t26.5 -84.5q0 -33 -11.5 -64.5t-41 -55.5t-81 -39t-131.5 -15q0 53 -6.5 101t-21.5 84t-40.5 57.5t-64.5 21.5
q-45 0 -80.5 -21.5t-61 -73.5t-39 -139t-13.5 -218q0 -208 57 -311t186 -103q53 0 99.5 12.5t84.5 35t66.5 53t46.5 65.5q25 -15 37 -40.5t12 -53.5q0 -39 -23 -79t-71.5 -72.5t-123.5 -53t-179 -20.5zM839 -258q0 -54 -21 -97.5t-59 -74t-91.5 -46.5t-118.5 -16
q-16 0 -39 1.5t-48 4.5t-49 7.5t-43 9.5v125q38 -8 75 -12t65 -4q58 0 91.5 20.5t33.5 73.5q0 30 -11.5 49t-32.5 30.5t-49 17t-61 7.5l43 180h117l-21 -88q50 -4 90.5 -18.5t69 -38.5t44 -57.5t15.5 -73.5z" />
    <glyph glyph-name="egrave" unicode="&#xe8;" horiz-adv-x="1169" 
d="M608 991q-86 0 -136.5 -85t-55.5 -249h354q0 78 -9 140t-28.5 105t-50 66t-74.5 23zM627 -20q-130 0 -229.5 38t-166.5 110t-101 176.5t-34 238.5q0 144 34 253t99 182t159.5 109.5t215.5 36.5q111 0 200 -31.5t151 -93.5t95 -154t33 -214v-105h-671q3 -103 22.5 -177
t54 -122t84 -71t113.5 -23q53 0 98 12.5t81.5 35t64 53t45.5 65.5q55 -30 55 -100q0 -44 -24 -83.5t-74 -69.5t-125.5 -48t-179.5 -18zM642 1241q-48 28 -106.5 69.5t-113 85.5t-98.5 84.5t-63 67.5v21h321q16 -34 41 -74.5l52.5 -81l55.5 -78.5l50 -67v-27h-139z" />
    <glyph glyph-name="eacute" unicode="&#xe9;" horiz-adv-x="1169" 
d="M608 991q-86 0 -136.5 -85t-55.5 -249h354q0 78 -9 140t-28.5 105t-50 66t-74.5 23zM627 -20q-130 0 -229.5 38t-166.5 110t-101 176.5t-34 238.5q0 144 34 253t99 182t159.5 109.5t215.5 36.5q111 0 200 -31.5t151 -93.5t95 -154t33 -214v-105h-671q3 -103 22.5 -177
t54 -122t84 -71t113.5 -23q53 0 98 12.5t81.5 35t64 53t45.5 65.5q55 -30 55 -100q0 -44 -24 -83.5t-74 -69.5t-125.5 -48t-179.5 -18zM473 1268l49.5 67l55.5 78.5t52.5 81t40.5 74.5h322v-21q-19 -27 -63 -67.5t-98.5 -84.5t-113 -85.5t-106.5 -69.5h-139v27z" />
    <glyph glyph-name="ecircumflex" unicode="&#xea;" horiz-adv-x="1169" 
d="M608 991q-86 0 -136.5 -85t-55.5 -249h354q0 78 -9 140t-28.5 105t-50 66t-74.5 23zM627 -20q-130 0 -229.5 38t-166.5 110t-101 176.5t-34 238.5q0 144 34 253t99 182t159.5 109.5t215.5 36.5q111 0 200 -31.5t151 -93.5t95 -154t33 -214v-105h-671q3 -103 22.5 -177
t54 -122t84 -71t113.5 -23q53 0 98 12.5t81.5 35t64 53t45.5 65.5q55 -30 55 -100q0 -44 -24 -83.5t-74 -69.5t-125.5 -48t-179.5 -18zM254 1268l56.5 67l64.5 78.5t60.5 81t44.5 74.5h276q16 -34 44.5 -74.5t60.5 -81l64 -78.5l56 -67v-27h-141l-50 40l-60 48l-60.5 50
l-52.5 46l-52.5 -46l-60 -50l-59 -48l-49.5 -40h-142v27z" />
    <glyph glyph-name="edieresis" unicode="&#xeb;" horiz-adv-x="1169" 
d="M608 991q-86 0 -136.5 -85t-55.5 -249h354q0 78 -9 140t-28.5 105t-50 66t-74.5 23zM627 -20q-130 0 -229.5 38t-166.5 110t-101 176.5t-34 238.5q0 144 34 253t99 182t159.5 109.5t215.5 36.5q111 0 200 -31.5t151 -93.5t95 -154t33 -214v-105h-671q3 -103 22.5 -177
t54 -122t84 -71t113.5 -23q53 0 98 12.5t81.5 35t64 53t45.5 65.5q55 -30 55 -100q0 -44 -24 -83.5t-74 -69.5t-125.5 -48t-179.5 -18zM281 1409q0 35 10 59.5t26.5 39.5t38.5 21.5t46 6.5t46 -6.5t39 -21.5t27.5 -39.5t10.5 -59.5q0 -34 -10.5 -58.5t-27.5 -39.5t-39 -22
t-46 -7t-46 7t-38.5 22t-26.5 39.5t-10 58.5zM701 1409q0 35 10 59.5t27 39.5t39 21.5t47 6.5q23 0 44.5 -6.5t38.5 -21.5t27.5 -39.5t10.5 -59.5q0 -34 -10.5 -58.5t-27.5 -39.5t-38.5 -22t-44.5 -7q-25 0 -47 7t-39 22t-27 39.5t-10 58.5z" />
    <glyph glyph-name="igrave" unicode="&#xec;" horiz-adv-x="721" 
d="M59 109q23 0 48.5 4.5t47 18.5t36 40t14.5 70v622q0 41 -14.5 65.5t-36.5 38t-47.5 17.5t-47.5 4h-24v109h481v-856q0 -44 14.5 -70t36 -40t47.5 -18.5t48 -4.5h24v-109h-651v109h24zM370 1241q-48 28 -106.5 69.5t-113 85.5t-98.5 84.5t-63 67.5v21h321q16 -34 41 -74.5
l52.5 -81l55.5 -78.5l50 -67v-27h-139z" />
    <glyph glyph-name="iacute" unicode="&#xed;" horiz-adv-x="721" 
d="M59 109q23 0 48.5 4.5t47 18.5t36 40t14.5 70v622q0 41 -14.5 65.5t-36.5 38t-47.5 17.5t-47.5 4h-24v109h481v-856q0 -44 14.5 -70t36 -40t47.5 -18.5t48 -4.5h24v-109h-651v109h24zM267 1268l49.5 67l55.5 78.5t52.5 81t40.5 74.5h322v-21q-19 -27 -63 -67.5
t-98.5 -84.5t-113 -85.5t-106.5 -69.5h-139v27z" />
    <glyph glyph-name="icircumflex" unicode="&#xee;" horiz-adv-x="721" 
d="M59 109q23 0 48.5 4.5t47 18.5t36 40t14.5 70v622q0 41 -14.5 65.5t-36.5 38t-47.5 17.5t-47.5 4h-24v109h481v-856q0 -44 14.5 -70t36 -40t47.5 -18.5t48 -4.5h24v-109h-651v109h24zM-30 1268l56.5 67l64.5 78.5t60.5 81t44.5 74.5h276q16 -34 44.5 -74.5t60.5 -81
l64 -78.5l56 -67v-27h-141l-50 40l-60 48l-60.5 50l-52.5 46l-52.5 -46l-60 -50l-59 -48l-49.5 -40h-142v27z" />
    <glyph glyph-name="idieresis" unicode="&#xef;" horiz-adv-x="721" 
d="M59 109q23 0 48.5 4.5t47 18.5t36 40t14.5 70v622q0 41 -14.5 65.5t-36.5 38t-47.5 17.5t-47.5 4h-24v109h481v-856q0 -44 14.5 -70t36 -40t47.5 -18.5t48 -4.5h24v-109h-651v109h24zM-1 1409q0 35 10 59.5t26.5 39.5t38.5 21.5t46 6.5t46 -6.5t39 -21.5t27.5 -39.5
t10.5 -59.5q0 -34 -10.5 -58.5t-27.5 -39.5t-39 -22t-46 -7t-46 7t-38.5 22t-26.5 39.5t-10 58.5zM419 1409q0 35 10 59.5t27 39.5t39 21.5t47 6.5q23 0 44.5 -6.5t38.5 -21.5t27.5 -39.5t10.5 -59.5q0 -34 -10.5 -58.5t-27.5 -39.5t-38.5 -22t-44.5 -7q-25 0 -47 7t-39 22
t-27 39.5t-10 58.5z" />
    <glyph glyph-name="eth" unicode="&#xf0;" horiz-adv-x="1253" 
d="M1157 596q0 -312 -135.5 -464t-398.5 -152q-122 0 -219.5 33t-166 100.5t-105 169.5t-36.5 239q0 136 32.5 237.5t95.5 169t155 101t211 33.5q68 0 126.5 -16t96.5 -39q-11 33 -25 65.5t-34 65t-48 65t-67 64.5l-289 -148v133l182 95q-51 32 -108.5 50.5t-132.5 31.5v129
q38 -3 90.5 -14.5t108.5 -29t109.5 -39.5t92.5 -46l258 131v-136l-143 -73q78 -61 142.5 -140.5t110.5 -175.5t71.5 -206.5t25.5 -233.5zM414 520q0 -101 11.5 -178t37 -128.5t66.5 -78t100 -26.5q58 0 98.5 26.5t66 78t37 128.5t11.5 178q0 105 -11.5 182.5t-37 128.5
t-66.5 76t-100 25q-58 0 -99 -24.5t-66 -75t-36.5 -128t-11.5 -184.5z" />
    <glyph glyph-name="ntilde" unicode="&#xf1;" horiz-adv-x="1366" 
d="M858 0v674q0 66 -8.5 117.5t-28 86.5t-51 53.5t-76.5 18.5q-51 0 -85 -26t-54.5 -69.5t-29.5 -101t-9 -120.5v-391q0 -43 10.5 -69t29.5 -40.5t46.5 -19t61.5 -4.5h6v-109h-629v109h4q35 0 64 4.5t50.5 19.5t33.5 43t12 74v606q0 43 -10.5 69t-30 40.5t-46.5 19t-61 4.5
h-6v109h430l27 -146h10q31 58 65.5 92t73.5 52t82.5 23t91.5 5q79 0 142 -23t106.5 -71t66.5 -122.5t23 -178.5v-475q0 -48 8.5 -76.5t25.5 -43.5t43 -20t61 -5h6v-109h-455zM842 1436q22 0 39.5 9t30 24t20 34.5t10.5 40.5h133q-3 -62 -23 -117t-53.5 -96.5t-79 -65.5
t-100.5 -24t-99.5 20t-83 44.5l-72 44.5t-66.5 20q-23 0 -40.5 -9t-30 -24t-20 -34.5t-10.5 -40.5h-133q3 62 23.5 117t54 96.5t79.5 65.5t101 24t99.5 -20t83 -44.5l72 -44.5t65.5 -20z" />
    <glyph glyph-name="ograve" unicode="&#xf2;" horiz-adv-x="1255" 
d="M1159 553q0 -289 -135.5 -431t-398.5 -142q-123 0 -221 35.5t-166.5 106.5t-105 179t-36.5 252q0 289 135.5 430t399.5 141q123 0 220.5 -35t166 -106t105 -178.5t36.5 -251.5zM414 553q0 -109 11.5 -192t37 -139t66.5 -84.5t100 -28.5t99.5 28.5t66 84.5t36.5 139
t11 192q0 110 -11.5 192.5t-37 137.5t-66.5 82.5t-100 27.5t-100 -27.5t-66 -82.5t-36 -137.5t-11 -192.5zM618 1241q-48 28 -106.5 69.5t-113 85.5t-98.5 84.5t-63 67.5v21h321q16 -34 41 -74.5l52.5 -81l55.5 -78.5l50 -67v-27h-139z" />
    <glyph glyph-name="oacute" unicode="&#xf3;" horiz-adv-x="1255" 
d="M1159 553q0 -289 -135.5 -431t-398.5 -142q-123 0 -221 35.5t-166.5 106.5t-105 179t-36.5 252q0 289 135.5 430t399.5 141q123 0 220.5 -35t166 -106t105 -178.5t36.5 -251.5zM414 553q0 -109 11.5 -192t37 -139t66.5 -84.5t100 -28.5t99.5 28.5t66 84.5t36.5 139
t11 192q0 110 -11.5 192.5t-37 137.5t-66.5 82.5t-100 27.5t-100 -27.5t-66 -82.5t-36 -137.5t-11 -192.5zM504 1268l49.5 67l55.5 78.5t52.5 81t40.5 74.5h322v-21q-19 -27 -63 -67.5t-98.5 -84.5t-113 -85.5t-106.5 -69.5h-139v27z" />
    <glyph glyph-name="ocircumflex" unicode="&#xf4;" horiz-adv-x="1255" 
d="M1159 553q0 -289 -135.5 -431t-398.5 -142q-123 0 -221 35.5t-166.5 106.5t-105 179t-36.5 252q0 289 135.5 430t399.5 141q123 0 220.5 -35t166 -106t105 -178.5t36.5 -251.5zM414 553q0 -109 11.5 -192t37 -139t66.5 -84.5t100 -28.5t99.5 28.5t66 84.5t36.5 139
t11 192q0 110 -11.5 192.5t-37 137.5t-66.5 82.5t-100 27.5t-100 -27.5t-66 -82.5t-36 -137.5t-11 -192.5zM262 1268l56.5 67l64.5 78.5t60.5 81t44.5 74.5h276q16 -34 44.5 -74.5t60.5 -81l64 -78.5l56 -67v-27h-141l-50 40l-60 48l-60.5 50l-52.5 46l-52.5 -46l-60 -50
l-59 -48l-49.5 -40h-142v27z" />
    <glyph glyph-name="otilde" unicode="&#xf5;" horiz-adv-x="1255" 
d="M1159 553q0 -289 -135.5 -431t-398.5 -142q-123 0 -221 35.5t-166.5 106.5t-105 179t-36.5 252q0 289 135.5 430t399.5 141q123 0 220.5 -35t166 -106t105 -178.5t36.5 -251.5zM414 553q0 -109 11.5 -192t37 -139t66.5 -84.5t100 -28.5t99.5 28.5t66 84.5t36.5 139
t11 192q0 110 -11.5 192.5t-37 137.5t-66.5 82.5t-100 27.5t-100 -27.5t-66 -82.5t-36 -137.5t-11 -192.5zM795 1436q22 0 39.5 9t30 24t20 34.5t10.5 40.5h133q-3 -62 -23 -117t-53.5 -96.5t-79 -65.5t-100.5 -24t-99.5 20t-83 44.5l-72 44.5t-66.5 20q-23 0 -40.5 -9
t-30 -24t-20 -34.5t-10.5 -40.5h-133q3 62 23.5 117t54 96.5t79.5 65.5t101 24t99.5 -20t83 -44.5l72 -44.5t65.5 -20z" />
    <glyph glyph-name="odieresis" unicode="&#xf6;" horiz-adv-x="1255" 
d="M1159 553q0 -289 -135.5 -431t-398.5 -142q-123 0 -221 35.5t-166.5 106.5t-105 179t-36.5 252q0 289 135.5 430t399.5 141q123 0 220.5 -35t166 -106t105 -178.5t36.5 -251.5zM414 553q0 -109 11.5 -192t37 -139t66.5 -84.5t100 -28.5t99.5 28.5t66 84.5t36.5 139
t11 192q0 110 -11.5 192.5t-37 137.5t-66.5 82.5t-100 27.5t-100 -27.5t-66 -82.5t-36 -137.5t-11 -192.5zM293 1409q0 35 10 59.5t26.5 39.5t38.5 21.5t46 6.5t46 -6.5t39 -21.5t27.5 -39.5t10.5 -59.5q0 -34 -10.5 -58.5t-27.5 -39.5t-39 -22t-46 -7t-46 7t-38.5 22
t-26.5 39.5t-10 58.5zM713 1409q0 35 10 59.5t27 39.5t39 21.5t47 6.5q23 0 44.5 -6.5t38.5 -21.5t27.5 -39.5t10.5 -59.5q0 -34 -10.5 -58.5t-27.5 -39.5t-38.5 -22t-44.5 -7q-25 0 -47 7t-39 22t-27 39.5t-10 58.5z" />
    <glyph glyph-name="divide" unicode="&#xf7;" 
d="M459 1120q0 35 8.5 59t24 38.5t36.5 21t45 6.5t45 -6.5t36.5 -21t24.5 -38.5t9 -59q0 -34 -9 -58t-24.5 -39t-36.5 -21.5t-45 -6.5q-49 0 -81.5 28t-32.5 97zM459 344q0 35 8.5 59t24 38.5t36.5 21t45 6.5t45 -6.5t36.5 -21t24.5 -38.5t9 -59q0 -34 -9 -58t-24.5 -39
t-36.5 -21.5t-45 -6.5q-49 0 -81.5 28t-32.5 97zM1012 659h-879v146h879v-146z" />
    <glyph glyph-name="oslash" unicode="&#xf8;" horiz-adv-x="1255" 
d="M1159 553q0 -289 -135.5 -431t-398.5 -142q-138 0 -242 43l-66 -105h-145l102 168q-86 71 -132 187t-46 280q0 289 135.5 430t399.5 141q72 0 136 -12t118 -37l65 105h144l-105 -172q82 -72 126 -184t44 -271zM414 553q0 -63 3 -117.5t11 -99.5l352 571q-52 86 -153 86
q-59 0 -100 -27.5t-66 -82.5t-36 -137.5t-11 -192.5zM842 553q0 56 -3 104.5t-10 92.5l-348 -566q51 -75 148 -75q59 0 99.5 28.5t66 84.5t36.5 139t11 192z" />
    <glyph glyph-name="ugrave" unicode="&#xf9;" horiz-adv-x="1366" 
d="M907 0l-45 145h-10q-31 -53 -67 -85.5t-77 -50t-86.5 -23.5t-93.5 -6q-160 0 -245.5 99t-85.5 306v459q0 45 -8 73t-25 44t-43.5 22t-63.5 6h-4v109h455v-656q0 -66 7.5 -119t25.5 -90.5t48 -58t75 -20.5q49 0 84.5 21.5t58 62t33 98t10.5 129.5v393q0 45 -12 71
t-32 39.5t-47 17t-57 3.5h-6v109h465v-860q0 -45 10.5 -70.5t28.5 -38.5t43 -16.5t55 -3.5h17v-109h-408zM634 1241q-48 28 -106.5 69.5t-113 85.5t-98.5 84.5t-63 67.5v21h321q16 -34 41 -74.5l52.5 -81l55.5 -78.5l50 -67v-27h-139z" />
    <glyph glyph-name="uacute" unicode="&#xfa;" horiz-adv-x="1366" 
d="M907 0l-45 145h-10q-31 -53 -67 -85.5t-77 -50t-86.5 -23.5t-93.5 -6q-160 0 -245.5 99t-85.5 306v459q0 45 -8 73t-25 44t-43.5 22t-63.5 6h-4v109h455v-656q0 -66 7.5 -119t25.5 -90.5t48 -58t75 -20.5q49 0 84.5 21.5t58 62t33 98t10.5 129.5v393q0 45 -12 71
t-32 39.5t-47 17t-57 3.5h-6v109h465v-860q0 -45 10.5 -70.5t28.5 -38.5t43 -16.5t55 -3.5h17v-109h-408zM527 1268l49.5 67l55.5 78.5t52.5 81t40.5 74.5h322v-21q-19 -27 -63 -67.5t-98.5 -84.5t-113 -85.5t-106.5 -69.5h-139v27z" />
    <glyph glyph-name="ucircumflex" unicode="&#xfb;" horiz-adv-x="1366" 
d="M907 0l-45 145h-10q-31 -53 -67 -85.5t-77 -50t-86.5 -23.5t-93.5 -6q-160 0 -245.5 99t-85.5 306v459q0 45 -8 73t-25 44t-43.5 22t-63.5 6h-4v109h455v-656q0 -66 7.5 -119t25.5 -90.5t48 -58t75 -20.5q49 0 84.5 21.5t58 62t33 98t10.5 129.5v393q0 45 -12 71
t-32 39.5t-47 17t-57 3.5h-6v109h465v-860q0 -45 10.5 -70.5t28.5 -38.5t43 -16.5t55 -3.5h17v-109h-408zM295 1268l56.5 67l64.5 78.5t60.5 81t44.5 74.5h276q16 -34 44.5 -74.5t60.5 -81l64 -78.5l56 -67v-27h-141l-50 40l-60 48l-60.5 50l-52.5 46l-52.5 -46l-60 -50
l-59 -48l-49.5 -40h-142v27z" />
    <glyph glyph-name="udieresis" unicode="&#xfc;" horiz-adv-x="1366" 
d="M907 0l-45 145h-10q-31 -53 -67 -85.5t-77 -50t-86.5 -23.5t-93.5 -6q-160 0 -245.5 99t-85.5 306v459q0 45 -8 73t-25 44t-43.5 22t-63.5 6h-4v109h455v-656q0 -66 7.5 -119t25.5 -90.5t48 -58t75 -20.5q49 0 84.5 21.5t58 62t33 98t10.5 129.5v393q0 45 -12 71
t-32 39.5t-47 17t-57 3.5h-6v109h465v-860q0 -45 10.5 -70.5t28.5 -38.5t43 -16.5t55 -3.5h17v-109h-408zM332 1409q0 35 10 59.5t26.5 39.5t38.5 21.5t46 6.5t46 -6.5t39 -21.5t27.5 -39.5t10.5 -59.5q0 -34 -10.5 -58.5t-27.5 -39.5t-39 -22t-46 -7t-46 7t-38.5 22
t-26.5 39.5t-10 58.5zM752 1409q0 35 10 59.5t27 39.5t39 21.5t47 6.5q23 0 44.5 -6.5t38.5 -21.5t27.5 -39.5t10.5 -59.5q0 -34 -10.5 -58.5t-27.5 -39.5t-38.5 -22t-44.5 -7q-25 0 -47 7t-39 22t-27 39.5t-10 58.5z" />
    <glyph glyph-name="yacute" unicode="&#xfd;" horiz-adv-x="1186" 
d="M1186 1098v-109q-31 0 -54.5 -7t-42.5 -24.5t-35 -46t-32 -71.5l-75 -208l-78.5 -212.5l-79 -212l-76.5 -207.5q-36 -99 -68 -174t-67.5 -130t-78.5 -91t-100 -57.5t-132.5 -30.5t-176.5 -9h-35v119q107 0 182 26t127 74t85.5 115t58.5 148l-369 901q-12 29 -27 46
t-32 26t-37 11.5t-43 2.5v121h584v-109q-60 0 -94.5 -15.5t-34.5 -60.5q0 -17 7 -40.5t13 -38.5l37.5 -93.5l38 -101l35.5 -97.5l30 -83q15 -39 25 -70.5t16.5 -57t10.5 -47t6 -42.5q2 21 8 46.5t13 49t14 42l10 26.5l135 401q4 10 7.5 23.5t6.5 27.5t4.5 27t1.5 22
q0 47 -39 64.5t-110 17.5v109h461zM463 1268l49.5 67l55.5 78.5t52.5 81t40.5 74.5h322v-21q-19 -27 -63 -67.5t-98.5 -84.5t-113 -85.5t-106.5 -69.5h-139v27z" />
    <glyph glyph-name="thorn" unicode="&#xfe;" horiz-adv-x="1321" 
d="M51 -383q22 0 48 4.5t47.5 18.5t36 40t14.5 70v1555q0 47 -10.5 75t-29 43t-44 20t-54.5 5h-14v108h463v-376q0 -29 -4 -70.5t-9 -79.5q-5 -45 -12 -92h9q22 40 51.5 73t68 57t86.5 37t107 13q102 0 180.5 -33.5t131.5 -104t80.5 -178.5t27.5 -257q0 -148 -27 -255.5
t-79.5 -177.5t-129 -103.5t-176.5 -33.5q-117 0 -190 44.5t-117 119.5h-14l8 -92q3 -38 5.5 -81t2.5 -75v-141q0 -44 14.5 -70t36 -40t47 -18.5t47.5 -4.5h45v-109h-671v109h24zM717 127q103 0 147.5 103.5t44.5 312.5q0 204 -44.5 313t-145.5 109q-62 0 -102.5 -27.5
t-64.5 -81t-34 -132t-10 -179.5q0 -106 10 -184.5t34 -130.5t64 -77.5t101 -25.5z" />
    <glyph glyph-name="ydieresis" unicode="&#xff;" horiz-adv-x="1186" 
d="M1186 1098v-109q-31 0 -54.5 -7t-42.5 -24.5t-35 -46t-32 -71.5l-75 -208l-78.5 -212.5l-79 -212l-76.5 -207.5q-36 -99 -68 -174t-67.5 -130t-78.5 -91t-100 -57.5t-132.5 -30.5t-176.5 -9h-35v119q107 0 182 26t127 74t85.5 115t58.5 148l-369 901q-12 29 -27 46
t-32 26t-37 11.5t-43 2.5v121h584v-109q-60 0 -94.5 -15.5t-34.5 -60.5q0 -17 7 -40.5t13 -38.5l37.5 -93.5l38 -101l35.5 -97.5l30 -83q15 -39 25 -70.5t16.5 -57t10.5 -47t6 -42.5q2 21 8 46.5t13 49t14 42l10 26.5l135 401q4 10 7.5 23.5t6.5 27.5t4.5 27t1.5 22
q0 47 -39 64.5t-110 17.5v109h461zM266 1409q0 35 10 59.5t26.5 39.5t38.5 21.5t46 6.5t46 -6.5t39 -21.5t27.5 -39.5t10.5 -59.5q0 -34 -10.5 -58.5t-27.5 -39.5t-39 -22t-46 -7t-46 7t-38.5 22t-26.5 39.5t-10 58.5zM686 1409q0 35 10 59.5t27 39.5t39 21.5t47 6.5
q23 0 44.5 -6.5t38.5 -21.5t27.5 -39.5t10.5 -59.5q0 -34 -10.5 -58.5t-27.5 -39.5t-38.5 -22t-44.5 -7q-25 0 -47 7t-39 22t-27 39.5t-10 58.5z" />
    <glyph glyph-name="Amacron" unicode="&#x100;" horiz-adv-x="1542" 
d="M446 481l-59 -176q-8 -25 -16.5 -58.5t-8.5 -58.5q0 -20 8 -35t21 -24.5t29.5 -14.5t34.5 -5h86v-109h-533v109h25q27 0 49.5 6t42 22.5t37 45.5t35.5 75l444 1204h281l428 -1206q15 -43 31.5 -71.5t36 -45t41.5 -23.5t46 -7h37v-109h-676v109h80q15 0 31 4.5t28.5 14
t20.5 24.5t8 36q0 25 -6 48t-12 40l-72 205h-498zM795 942l-22.5 73.5l-23 78.5l-22 79.5t-18.5 75.5q-9 -31 -21 -68l-25.5 -76l-27 -78l-25.5 -75l-121 -346h414zM1065 1579h-594v162h594v-162z" />
    <glyph glyph-name="amacron" unicode="&#x101;" horiz-adv-x="1227" 
d="M410 305q0 -88 28 -132t88 -44q44 0 79.5 18.5t61 52.5t39 82.5t13.5 108.5v154l-92 -6q-61 -3 -103 -19.5t-67 -45.5t-36 -71t-11 -98zM592 999q-39 0 -65.5 -16.5t-42.5 -46t-22.5 -70t-6.5 -88.5q-138 0 -207.5 31t-69.5 106q0 56 33.5 96t91 65t134 36.5t163.5 11.5
q108 0 188.5 -18.5t134 -59.5t80.5 -107.5t27 -162.5v-522q0 -42 6.5 -70t20.5 -44.5t38 -23.5t58 -7h8v-109h-381l-43 141h-18q-34 -41 -64 -71.5t-64 -50.5t-76.5 -29.5t-100.5 -9.5q-68 0 -126.5 20t-102 61.5t-68.5 104t-25 147.5q0 167 114.5 247t344.5 87l168 6v113
q0 51 -4 94t-17 74t-38.5 48t-67.5 17zM885 1241h-594v162h594v-162z" />
    <glyph glyph-name="Abreve" unicode="&#x102;" horiz-adv-x="1542" 
d="M446 481l-59 -176q-8 -25 -16.5 -58.5t-8.5 -58.5q0 -20 8 -35t21 -24.5t29.5 -14.5t34.5 -5h86v-109h-533v109h25q27 0 49.5 6t42 22.5t37 45.5t35.5 75l444 1204h281l428 -1206q15 -43 31.5 -71.5t36 -45t41.5 -23.5t46 -7h37v-109h-676v109h80q15 0 31 4.5t28.5 14
t20.5 24.5t8 36q0 25 -6 48t-12 40l-72 205h-498zM795 942l-22.5 73.5l-23 78.5l-22 79.5t-18.5 75.5q-9 -31 -21 -68l-25.5 -76l-27 -78l-25.5 -75l-121 -346h414zM778 1579q-81 0 -141.5 28.5t-101.5 74.5t-62 103.5t-23 115.5h135q17 -75 67 -107.5t126 -32.5
q75 0 125 32.5t67 107.5h136q-2 -58 -23 -115.5t-62 -103.5t-101.5 -74.5t-141.5 -28.5z" />
    <glyph glyph-name="abreve" unicode="&#x103;" horiz-adv-x="1227" 
d="M410 305q0 -88 28 -132t88 -44q44 0 79.5 18.5t61 52.5t39 82.5t13.5 108.5v154l-92 -6q-61 -3 -103 -19.5t-67 -45.5t-36 -71t-11 -98zM592 999q-39 0 -65.5 -16.5t-42.5 -46t-22.5 -70t-6.5 -88.5q-138 0 -207.5 31t-69.5 106q0 56 33.5 96t91 65t134 36.5t163.5 11.5
q108 0 188.5 -18.5t134 -59.5t80.5 -107.5t27 -162.5v-522q0 -42 6.5 -70t20.5 -44.5t38 -23.5t58 -7h8v-109h-381l-43 141h-18q-34 -41 -64 -71.5t-64 -50.5t-76.5 -29.5t-100.5 -9.5q-68 0 -126.5 20t-102 61.5t-68.5 104t-25 147.5q0 167 114.5 247t344.5 87l168 6v113
q0 51 -4 94t-17 74t-38.5 48t-67.5 17zM585 1241q-81 0 -141.5 28.5t-101.5 74.5t-62 103.5t-23 115.5h135q17 -75 67 -107.5t126 -32.5q75 0 125 32.5t67 107.5h136q-2 -58 -23 -115.5t-62 -103.5t-101.5 -74.5t-141.5 -28.5z" />
    <glyph glyph-name="Aogonek" unicode="&#x104;" horiz-adv-x="1542" 
d="M446 481l-59 -176q-8 -25 -16.5 -58.5t-8.5 -58.5q0 -20 8 -35t21 -24.5t29.5 -14.5t34.5 -5h86v-109h-533v109h25q27 0 49.5 6t42 22.5t37 45.5t35.5 75l444 1204h281l428 -1206q15 -43 31.5 -71.5t36 -45t41.5 -23.5t46 -7h37v-109h-676v109h80q15 0 31 4.5t28.5 14
t20.5 24.5t8 36q0 25 -6 48t-12 40l-72 205h-498zM795 942l-22.5 73.5l-23 78.5l-22 79.5t-18.5 75.5q-9 -31 -21 -68l-25.5 -76l-27 -78l-25.5 -75l-121 -346h414zM893 -266q0 48 20 91t54 78.5t77.5 60.5t90.5 36h158q-32 -10 -66 -30t-61.5 -49.5t-45.5 -68.5t-18 -88
q0 -28 10.5 -48.5t29.5 -33.5t45 -19.5t57 -6.5q27 0 59 4t70 12v-131q-16 -8 -39.5 -14t-48 -10t-48 -6.5t-39.5 -2.5q-149 0 -227 54t-78 172z" />
    <glyph glyph-name="aogonek" unicode="&#x105;" horiz-adv-x="1227" 
d="M410 305q0 -88 28 -132t88 -44q44 0 79.5 18.5t61 52.5t39 82.5t13.5 108.5v154l-92 -6q-61 -3 -103 -19.5t-67 -45.5t-36 -71t-11 -98zM592 999q-39 0 -65.5 -16.5t-42.5 -46t-22.5 -70t-6.5 -88.5q-138 0 -207.5 31t-69.5 106q0 56 33.5 96t91 65t134 36.5t163.5 11.5
q108 0 188.5 -18.5t134 -59.5t80.5 -107.5t27 -162.5v-522q0 -42 6.5 -70t20.5 -44.5t38 -23.5t58 -7h8v-109h-381l-43 141h-18q-34 -41 -64 -71.5t-64 -50.5t-76.5 -29.5t-100.5 -9.5q-68 0 -126.5 20t-102 61.5t-68.5 104t-25 147.5q0 167 114.5 247t344.5 87l168 6v113
q0 51 -4 94t-17 74t-38.5 48t-67.5 17zM542 -266q0 48 20 91t54 78.5t77.5 60.5t90.5 36h158q-32 -10 -66 -30t-61.5 -49.5t-45.5 -68.5t-18 -88q0 -28 10.5 -48.5t29.5 -33.5t45 -19.5t57 -6.5q27 0 59 4t70 12v-131q-16 -8 -39.5 -14t-48 -10t-48 -6.5t-39.5 -2.5
q-149 0 -227 54t-78 172z" />
    <glyph glyph-name="Cacute" unicode="&#x106;" horiz-adv-x="1368" 
d="M870 143q75 0 133.5 17.5t104.5 45.5t80.5 63t60.5 69q16 -12 25.5 -37t9.5 -51q0 -43 -23 -90.5t-77 -87.5t-143 -66t-220 -26q-178 0 -311 54t-221 153t-132 238t-44 308q0 166 45 304t133.5 237t221 154t306.5 55q118 0 205.5 -18.5t145.5 -50.5t87 -75.5t29 -93.5
q0 -38 -16.5 -70.5t-49 -56.5t-80.5 -37.5t-110 -13.5q0 51 -11 101.5t-37.5 91.5t-69.5 66.5t-107 25.5q-97 0 -164 -41t-107.5 -120t-58.5 -194.5t-18 -263.5t22 -259t71 -184.5t127.5 -110t192.5 -36.5zM670 1606l49.5 67l55.5 78.5t52.5 81t40.5 74.5h322v-21
q-19 -27 -63 -67.5t-98.5 -84.5t-113 -85.5t-106.5 -69.5h-139v27z" />
    <glyph glyph-name="cacute" unicode="&#x107;" horiz-adv-x="1079" 
d="M604 -20q-113 0 -206.5 29t-160.5 96t-104 175t-37 265q0 166 38.5 277t106 178t159.5 95.5t198 28.5q99 0 175 -16.5t127 -45.5t77.5 -68.5t26.5 -84.5q0 -33 -11.5 -64.5t-41 -55.5t-81 -39t-131.5 -15q0 53 -6.5 101t-21.5 84t-40.5 57.5t-64.5 21.5
q-45 0 -80.5 -21.5t-61 -73.5t-39 -139t-13.5 -218q0 -208 57 -311t186 -103q53 0 99.5 12.5t84.5 35t66.5 53t46.5 65.5q25 -15 37 -40.5t12 -53.5q0 -39 -23 -79t-71.5 -72.5t-123.5 -53t-179 -20.5zM447 1268l49.5 67l55.5 78.5t52.5 81t40.5 74.5h322v-21
q-19 -27 -63 -67.5t-98.5 -84.5t-113 -85.5t-106.5 -69.5h-139v27z" />
    <glyph glyph-name="Ccircumflex" unicode="&#x108;" horiz-adv-x="1368" 
d="M870 143q75 0 133.5 17.5t104.5 45.5t80.5 63t60.5 69q16 -12 25.5 -37t9.5 -51q0 -43 -23 -90.5t-77 -87.5t-143 -66t-220 -26q-178 0 -311 54t-221 153t-132 238t-44 308q0 166 45 304t133.5 237t221 154t306.5 55q118 0 205.5 -18.5t145.5 -50.5t87 -75.5t29 -93.5
q0 -38 -16.5 -70.5t-49 -56.5t-80.5 -37.5t-110 -13.5q0 51 -11 101.5t-37.5 91.5t-69.5 66.5t-107 25.5q-97 0 -164 -41t-107.5 -120t-58.5 -194.5t-18 -263.5t22 -259t71 -184.5t127.5 -110t192.5 -36.5zM413 1606l56.5 67l64.5 78.5t60.5 81t44.5 74.5h276
q16 -34 44.5 -74.5t60.5 -81l64 -78.5l56 -67v-27h-141l-50 40l-60 48l-60.5 50l-52.5 46l-52.5 -46l-60 -50l-59 -48l-49.5 -40h-142v27z" />
    <glyph glyph-name="ccircumflex" unicode="&#x109;" horiz-adv-x="1079" 
d="M604 -20q-113 0 -206.5 29t-160.5 96t-104 175t-37 265q0 166 38.5 277t106 178t159.5 95.5t198 28.5q99 0 175 -16.5t127 -45.5t77.5 -68.5t26.5 -84.5q0 -33 -11.5 -64.5t-41 -55.5t-81 -39t-131.5 -15q0 53 -6.5 101t-21.5 84t-40.5 57.5t-64.5 21.5
q-45 0 -80.5 -21.5t-61 -73.5t-39 -139t-13.5 -218q0 -208 57 -311t186 -103q53 0 99.5 12.5t84.5 35t66.5 53t46.5 65.5q25 -15 37 -40.5t12 -53.5q0 -39 -23 -79t-71.5 -72.5t-123.5 -53t-179 -20.5zM227 1268l56.5 67l64.5 78.5t60.5 81t44.5 74.5h276q16 -34 44.5 -74.5
t60.5 -81l64 -78.5l56 -67v-27h-141l-50 40l-60 48l-60.5 50l-52.5 46l-52.5 -46l-60 -50l-59 -48l-49.5 -40h-142v27z" />
    <glyph glyph-name="Cdot" unicode="&#x10a;" horiz-adv-x="1368" 
d="M870 143q75 0 133.5 17.5t104.5 45.5t80.5 63t60.5 69q16 -12 25.5 -37t9.5 -51q0 -43 -23 -90.5t-77 -87.5t-143 -66t-220 -26q-178 0 -311 54t-221 153t-132 238t-44 308q0 166 45 304t133.5 237t221 154t306.5 55q118 0 205.5 -18.5t145.5 -50.5t87 -75.5t29 -93.5
q0 -38 -16.5 -70.5t-49 -56.5t-80.5 -37.5t-110 -13.5q0 51 -11 101.5t-37.5 91.5t-69.5 66.5t-107 25.5q-97 0 -164 -41t-107.5 -120t-58.5 -194.5t-18 -263.5t22 -259t71 -184.5t127.5 -110t192.5 -36.5zM621 1768q0 39 13.5 67t37 45.5t55 26t68.5 8.5q35 0 67 -8.5
t56 -26t38.5 -45.5t14.5 -67q0 -38 -14.5 -66t-38.5 -46t-56 -27t-67 -9q-37 0 -68.5 9t-55 27t-37 46t-13.5 66z" />
    <glyph glyph-name="cdot" unicode="&#x10b;" horiz-adv-x="1079" 
d="M604 -20q-113 0 -206.5 29t-160.5 96t-104 175t-37 265q0 166 38.5 277t106 178t159.5 95.5t198 28.5q99 0 175 -16.5t127 -45.5t77.5 -68.5t26.5 -84.5q0 -33 -11.5 -64.5t-41 -55.5t-81 -39t-131.5 -15q0 53 -6.5 101t-21.5 84t-40.5 57.5t-64.5 21.5
q-45 0 -80.5 -21.5t-61 -73.5t-39 -139t-13.5 -218q0 -208 57 -311t186 -103q53 0 99.5 12.5t84.5 35t66.5 53t46.5 65.5q25 -15 37 -40.5t12 -53.5q0 -39 -23 -79t-71.5 -72.5t-123.5 -53t-179 -20.5zM418 1430q0 39 13.5 67t37 45.5t55 26t68.5 8.5q35 0 67 -8.5t56 -26
t38.5 -45.5t14.5 -67q0 -38 -14.5 -66t-38.5 -46t-56 -27t-67 -9q-37 0 -68.5 9t-55 27t-37 46t-13.5 66z" />
    <glyph glyph-name="Ccaron" unicode="&#x10c;" horiz-adv-x="1368" 
d="M870 143q75 0 133.5 17.5t104.5 45.5t80.5 63t60.5 69q16 -12 25.5 -37t9.5 -51q0 -43 -23 -90.5t-77 -87.5t-143 -66t-220 -26q-178 0 -311 54t-221 153t-132 238t-44 308q0 166 45 304t133.5 237t221 154t306.5 55q118 0 205.5 -18.5t145.5 -50.5t87 -75.5t29 -93.5
q0 -38 -16.5 -70.5t-49 -56.5t-80.5 -37.5t-110 -13.5q0 51 -11 101.5t-37.5 91.5t-69.5 66.5t-107 25.5q-97 0 -164 -41t-107.5 -120t-58.5 -194.5t-18 -263.5t22 -259t71 -184.5t127.5 -110t192.5 -36.5zM413 1907h142l49.5 -40l59 -48.5l60 -50.5l52.5 -46l52.5 46
l60.5 50.5l60 48.5l50 40h141v-27l-56 -67l-64 -78.5t-60.5 -80.5t-44.5 -75h-276q-16 35 -44.5 75t-60.5 80.5l-64.5 78.5l-56.5 67v27z" />
    <glyph glyph-name="ccaron" unicode="&#x10d;" horiz-adv-x="1079" 
d="M604 -20q-113 0 -206.5 29t-160.5 96t-104 175t-37 265q0 166 38.5 277t106 178t159.5 95.5t198 28.5q99 0 175 -16.5t127 -45.5t77.5 -68.5t26.5 -84.5q0 -33 -11.5 -64.5t-41 -55.5t-81 -39t-131.5 -15q0 53 -6.5 101t-21.5 84t-40.5 57.5t-64.5 21.5
q-45 0 -80.5 -21.5t-61 -73.5t-39 -139t-13.5 -218q0 -208 57 -311t186 -103q53 0 99.5 12.5t84.5 35t66.5 53t46.5 65.5q25 -15 37 -40.5t12 -53.5q0 -39 -23 -79t-71.5 -72.5t-123.5 -53t-179 -20.5zM229 1569h142l49.5 -40l59 -48.5l60 -50.5l52.5 -46l52.5 46l60.5 50.5
l60 48.5l50 40h141v-27l-56 -67l-64 -78.5t-60.5 -80.5t-44.5 -75h-276q-16 35 -44.5 75t-60.5 80.5l-64.5 78.5l-56.5 67v27z" />
    <glyph glyph-name="Dcaron" unicode="&#x10e;" horiz-adv-x="1571" 
d="M1458 758q0 -168 -46 -307.5t-137.5 -239.5t-227 -155.5t-314.5 -55.5h-676v109h86q23 0 42 4.5t33 18.5t22 40t8 70v987q0 41 -8 65.5t-22.5 37.5t-33.5 17.5t-41 4.5h-86v108h676q170 0 304.5 -44.5t228 -133t143 -220.5t49.5 -306zM1112 758q0 293 -107.5 436
t-316.5 143h-117v-1210h115q105 0 185 43.5t133.5 125.5t80.5 198.5t27 263.5zM387 1907h142l49.5 -40l59 -48.5l60 -50.5l52.5 -46l52.5 46l60.5 50.5l60 48.5l50 40h141v-27l-56 -67l-64 -78.5t-60.5 -80.5t-44.5 -75h-276q-16 35 -44.5 75t-60.5 80.5l-64.5 78.5
l-56.5 67v27z" />
    <glyph glyph-name="dcaron" unicode="&#x10f;" horiz-adv-x="1329" 
d="M1122 252q0 -47 14 -75t37.5 -43t54 -20t64.5 -5h8v-109h-397l-57 160h-19q-23 -42 -52.5 -75t-68 -56.5t-86.5 -36t-108 -12.5q-100 0 -178 33.5t-131.5 103t-81 176.5t-27.5 254q0 148 27.5 256.5t80.5 179t130 105t176 34.5q58 0 104.5 -12.5t84 -34t66.5 -51.5
t50 -66h14q-4 57 -8 107q-1 21 -2.5 43t-3 41.5t-2 34.5t-0.5 24v113q0 42 -13.5 67.5t-36 38.5t-52.5 17t-64 4h-16v108h493v-1304zM600 133q61 0 101.5 25.5t65 77.5t34.5 130.5t10 184.5q0 101 -10 179.5t-34.5 132t-65 81t-101.5 27.5q-51 0 -87.5 -27.5t-59 -81.5
t-33 -132.5t-10.5 -180.5q0 -209 43.5 -312.5t146.5 -103.5zM1235 1255q10 31 21 69l22 78.5t20.5 80t15.5 73.5h238v-20q-14 -32 -36.5 -71.5t-49.5 -81l-55 -81.5t-54 -73h-122v26z" />
    <glyph glyph-name="Dcroat" unicode="&#x110;" horiz-adv-x="1571" 
d="M1458 758q0 -168 -46 -307.5t-137.5 -239.5t-227 -155.5t-314.5 -55.5h-676v109h86q23 0 42 4.5t33 18.5t22 40t8 70v460h-170v125h170v402q0 41 -8 65.5t-22.5 37.5t-33.5 17.5t-41 4.5h-86v108h676q170 0 304.5 -44.5t228 -133t143 -220.5t49.5 -306zM1112 758
q0 293 -107.5 436t-316.5 143h-117v-510h256v-125h-256v-575h115q105 0 185 43.5t133.5 125.5t80.5 198.5t27 263.5z" />
    <glyph glyph-name="dcroat" unicode="&#x111;" horiz-adv-x="1329" 
d="M1122 1292h178v-108h-178v-932q0 -47 14 -75t37.5 -43t54 -20t64.5 -5h8v-109h-397l-57 160h-19q-23 -42 -52.5 -75t-68 -56.5t-86.5 -36t-108 -12.5q-100 0 -178 31.5t-131.5 97t-81 166.5t-27.5 241q0 141 27.5 243.5t80.5 169.5t130 99.5t176 32.5q58 0 104.5 -12.5
t84 -34.5t66.5 -52t50 -65h14q-4 59 -8 112q-1 23 -2.5 46t-3 43.5t-2 37.5t-0.5 27v21h-317v108h317v29q0 43 -13.5 68.5t-36 38.5t-52.5 16.5t-64 3.5h-16v108h493v-264zM600 133q61 0 101.5 23.5t65 71.5t34.5 121t10 171q0 94 -10 166.5t-34.5 122t-65 75t-101.5 25.5
q-103 0 -146.5 -101t-43.5 -290q0 -193 43.5 -289t146.5 -96z" />
    <glyph glyph-name="Emacron" unicode="&#x112;" horiz-adv-x="1337" 
d="M573 125h410q31 0 53 11.5t38 32.5t25.5 49.5t14.5 62.5l16 96h142l-15 -377h-1200v109h86q22 0 41 4t33.5 16.5t22.5 37t8 64.5v990q0 44 -8 70t-22 40t-33 18.5t-42 4.5h-86v108h1137l8 -377h-143l-10 97q-8 75 -38 115t-93 40h-345v-512h486v-123h-486v-577zM971 1579
h-594v162h594v-162z" />
    <glyph glyph-name="emacron" unicode="&#x113;" horiz-adv-x="1169" 
d="M608 991q-86 0 -136.5 -85t-55.5 -249h354q0 78 -9 140t-28.5 105t-50 66t-74.5 23zM627 -20q-130 0 -229.5 38t-166.5 110t-101 176.5t-34 238.5q0 144 34 253t99 182t159.5 109.5t215.5 36.5q111 0 200 -31.5t151 -93.5t95 -154t33 -214v-105h-671q3 -103 22.5 -177
t54 -122t84 -71t113.5 -23q53 0 98 12.5t81.5 35t64 53t45.5 65.5q55 -30 55 -100q0 -44 -24 -83.5t-74 -69.5t-125.5 -48t-179.5 -18zM918 1241h-594v162h594v-162z" />
    <glyph glyph-name="Ebreve" unicode="&#x114;" horiz-adv-x="1337" 
d="M573 125h410q31 0 53 11.5t38 32.5t25.5 49.5t14.5 62.5l16 96h142l-15 -377h-1200v109h86q22 0 41 4t33.5 16.5t22.5 37t8 64.5v990q0 44 -8 70t-22 40t-33 18.5t-42 4.5h-86v108h1137l8 -377h-143l-10 97q-8 75 -38 115t-93 40h-345v-512h486v-123h-486v-577zM684 1579
q-81 0 -141.5 28.5t-101.5 74.5t-62 103.5t-23 115.5h135q17 -75 67 -107.5t126 -32.5q75 0 125 32.5t67 107.5h136q-2 -58 -23 -115.5t-62 -103.5t-101.5 -74.5t-141.5 -28.5z" />
    <glyph glyph-name="ebreve" unicode="&#x115;" horiz-adv-x="1169" 
d="M608 991q-86 0 -136.5 -85t-55.5 -249h354q0 78 -9 140t-28.5 105t-50 66t-74.5 23zM627 -20q-130 0 -229.5 38t-166.5 110t-101 176.5t-34 238.5q0 144 34 253t99 182t159.5 109.5t215.5 36.5q111 0 200 -31.5t151 -93.5t95 -154t33 -214v-105h-671q3 -103 22.5 -177
t54 -122t84 -71t113.5 -23q53 0 98 12.5t81.5 35t64 53t45.5 65.5q55 -30 55 -100q0 -44 -24 -83.5t-74 -69.5t-125.5 -48t-179.5 -18zM604 1241q-81 0 -141.5 28.5t-101.5 74.5t-62 103.5t-23 115.5h135q17 -75 67 -107.5t126 -32.5q75 0 125 32.5t67 107.5h136
q-2 -58 -23 -115.5t-62 -103.5t-101.5 -74.5t-141.5 -28.5z" />
    <glyph glyph-name="Edotaccent" unicode="&#x116;" horiz-adv-x="1337" 
d="M573 125h410q31 0 53 11.5t38 32.5t25.5 49.5t14.5 62.5l16 96h142l-15 -377h-1200v109h86q22 0 41 4t33.5 16.5t22.5 37t8 64.5v990q0 44 -8 70t-22 40t-33 18.5t-42 4.5h-86v108h1137l8 -377h-143l-10 97q-8 75 -38 115t-93 40h-345v-512h486v-123h-486v-577zM504 1739
q0 39 13.5 67t37 45.5t55 26t68.5 8.5q35 0 67 -8.5t56 -26t38.5 -45.5t14.5 -67q0 -38 -14.5 -66t-38.5 -46t-56 -27t-67 -9q-37 0 -68.5 9t-55 27t-37 46t-13.5 66z" />
    <glyph glyph-name="edotaccent" unicode="&#x117;" horiz-adv-x="1169" 
d="M608 991q-86 0 -136.5 -85t-55.5 -249h354q0 78 -9 140t-28.5 105t-50 66t-74.5 23zM627 -20q-130 0 -229.5 38t-166.5 110t-101 176.5t-34 238.5q0 144 34 253t99 182t159.5 109.5t215.5 36.5q111 0 200 -31.5t151 -93.5t95 -154t33 -214v-105h-671q3 -103 22.5 -177
t54 -122t84 -71t113.5 -23q53 0 98 12.5t81.5 35t64 53t45.5 65.5q55 -30 55 -100q0 -44 -24 -83.5t-74 -69.5t-125.5 -48t-179.5 -18zM434 1430q0 39 13.5 67t37 45.5t55 26t68.5 8.5q35 0 67 -8.5t56 -26t38.5 -45.5t14.5 -67q0 -38 -14.5 -66t-38.5 -46t-56 -27t-67 -9
q-37 0 -68.5 9t-55 27t-37 46t-13.5 66z" />
    <glyph glyph-name="Eogonek" unicode="&#x118;" horiz-adv-x="1337" 
d="M573 125h410q31 0 53 11.5t38 32.5t25.5 49.5t14.5 62.5l16 96h142l-15 -377h-1200v109h86q22 0 41 4t33.5 16.5t22.5 37t8 64.5v990q0 44 -8 70t-22 40t-33 18.5t-42 4.5h-86v108h1137l8 -377h-143l-10 97q-8 75 -38 115t-93 40h-345v-512h486v-123h-486v-577zM712 -266
q0 48 20 91t54 78.5t77.5 60.5t90.5 36h158q-32 -10 -66 -30t-61.5 -49.5t-45.5 -68.5t-18 -88q0 -28 10.5 -48.5t29.5 -33.5t45 -19.5t57 -6.5q27 0 59 4t70 12v-131q-16 -8 -39.5 -14t-48 -10t-48 -6.5t-39.5 -2.5q-149 0 -227 54t-78 172z" />
    <glyph glyph-name="eogonek" unicode="&#x119;" horiz-adv-x="1169" 
d="M608 991q-86 0 -136.5 -85t-55.5 -249h354q0 78 -9 140t-28.5 105t-50 66t-74.5 23zM627 -20q-130 0 -229.5 38t-166.5 110t-101 176.5t-34 238.5q0 144 34 253t99 182t159.5 109.5t215.5 36.5q111 0 200 -31.5t151 -93.5t95 -154t33 -214v-105h-671q3 -103 22.5 -177
t54 -122t84 -71t113.5 -23q53 0 98 12.5t81.5 35t64 53t45.5 65.5q55 -30 55 -100q0 -44 -24 -83.5t-74 -69.5t-125.5 -48t-179.5 -18zM506 -235q0 48 20 91t54 78.5t77.5 60.5t90.5 36h158q-32 -10 -66 -30t-61.5 -49.5t-45.5 -68.5t-18 -88q0 -28 10.5 -48.5t29.5 -33.5
t45 -19.5t57 -6.5q27 0 59 4t70 12v-131q-16 -8 -39.5 -14t-48 -10t-48 -6.5t-39.5 -2.5q-149 0 -227 54t-78 172z" />
    <glyph glyph-name="Ecaron" unicode="&#x11a;" horiz-adv-x="1337" 
d="M573 125h410q31 0 53 11.5t38 32.5t25.5 49.5t14.5 62.5l16 96h142l-15 -377h-1200v109h86q22 0 41 4t33.5 16.5t22.5 37t8 64.5v990q0 44 -8 70t-22 40t-33 18.5t-42 4.5h-86v108h1137l8 -377h-143l-10 97q-8 75 -38 115t-93 40h-345v-512h486v-123h-486v-577zM311 1907
h142l49.5 -40l59 -48.5l60 -50.5l52.5 -46l52.5 46l60.5 50.5l60 48.5l50 40h141v-27l-56 -67l-64 -78.5t-60.5 -80.5t-44.5 -75h-276q-16 35 -44.5 75t-60.5 80.5l-64.5 78.5l-56.5 67v27z" />
    <glyph glyph-name="ecaron" unicode="&#x11b;" horiz-adv-x="1169" 
d="M608 991q-86 0 -136.5 -85t-55.5 -249h354q0 78 -9 140t-28.5 105t-50 66t-74.5 23zM627 -20q-130 0 -229.5 38t-166.5 110t-101 176.5t-34 238.5q0 144 34 253t99 182t159.5 109.5t215.5 36.5q111 0 200 -31.5t151 -93.5t95 -154t33 -214v-105h-671q3 -103 22.5 -177
t54 -122t84 -71t113.5 -23q53 0 98 12.5t81.5 35t64 53t45.5 65.5q55 -30 55 -100q0 -44 -24 -83.5t-74 -69.5t-125.5 -48t-179.5 -18zM233 1569h142l49.5 -40l59 -48.5l60 -50.5l52.5 -46l52.5 46l60.5 50.5l60 48.5l50 40h141v-27l-56 -67l-64 -78.5t-60.5 -80.5
t-44.5 -75h-276q-16 35 -44.5 75t-60.5 80.5l-64.5 78.5l-56.5 67v27z" />
    <glyph glyph-name="Gcircumflex" unicode="&#x11c;" horiz-adv-x="1575" 
d="M866 -20q-190 0 -331.5 54t-235.5 153t-140 238t-46 308q0 166 49 304t145 237t239 154t331 55q128 0 223.5 -18.5t160 -50.5t96.5 -75.5t32 -93.5q0 -36 -17 -67.5t-51 -55.5t-83 -37.5t-114 -13.5q0 62 -15 114t-46.5 89t-79.5 57.5t-113 20.5q-112 0 -190.5 -41
t-128 -120t-72 -194.5t-22.5 -263.5t23.5 -262.5t76 -192.5t136 -118.5t204.5 -40.5q38 0 76 3t74 11v301q0 82 -37 114t-109 32h-27v108h644v-108h-27q-31 0 -54 -7.5t-38 -25.5t-22 -47.5t-7 -73.5v-336q-120 -55 -242 -82.5t-262 -27.5zM475 1606l56.5 67l64.5 78.5
t60.5 81t44.5 74.5h276q16 -34 44.5 -74.5t60.5 -81l64 -78.5l56 -67v-27h-141l-50 40l-60 48l-60.5 50l-52.5 46l-52.5 -46l-60 -50l-59 -48l-49.5 -40h-142v27z" />
    <glyph glyph-name="gcircumflex" unicode="&#x11d;" horiz-adv-x="1147" 
d="M1137 1059q0 -23 -7 -44.5t-23.5 -37.5t-45 -25.5t-70.5 -9.5q0 21 -6.5 37t-17.5 27t-25 16.5t-29 5.5q-17 0 -36.5 -7t-30.5 -15q21 -23 39 -52.5t31.5 -63.5t21.5 -70.5t8 -74.5q0 -77 -24.5 -142.5t-75.5 -113.5t-129 -75t-185 -27q-11 0 -28 0.5l-34 1t-32.5 2
t-23.5 2.5q-13 -7 -26.5 -17.5t-24 -23.5t-17 -29t-6.5 -34q0 -34 26.5 -50t69.5 -16h248q102 0 176 -21.5t122.5 -61.5t71.5 -98.5t23 -131.5q0 -95 -36 -169.5t-109.5 -126t-185 -79t-263.5 -27.5q-242 0 -360.5 72.5t-118.5 212.5q0 110 71 168.5t206 69.5q-28 11 -55 27
t-48 38.5t-34 51.5t-13 65q0 34 13.5 63t37.5 55.5t57.5 50t73.5 46.5q-45 16 -83.5 44.5t-66 68.5t-43.5 91t-16 113q0 180 104.5 279.5t323.5 99.5q73 0 135.5 -18.5t108.5 -44.5l37.5 38.5t46.5 37.5t58 28t71 11q37 0 64.5 -9.5t46 -25.5t28 -37t9.5 -45zM246 -203
q0 -85 61.5 -125.5t179.5 -40.5q180 0 262 52t82 153q0 65 -41 91t-124 26h-238q-31 0 -63 -5.5t-58.5 -22.5t-43.5 -47.5t-17 -80.5zM383 745q0 -54 7.5 -97.5t24.5 -74.5t44 -48t67 -17q41 0 68 16.5t43 48t22.5 76t6.5 99.5q0 57 -7 103.5t-23.5 79.5t-43.5 51.5
t-68 18.5q-40 0 -67 -19t-43.5 -53t-23.5 -81t-7 -103zM169 1268l56.5 67l64.5 78.5t60.5 81t44.5 74.5h276q16 -34 44.5 -74.5t60.5 -81l64 -78.5l56 -67v-27h-141l-50 40l-60 48l-60.5 50l-52.5 46l-52.5 -46l-60 -50l-59 -48l-49.5 -40h-142v27z" />
    <glyph glyph-name="Gbreve" unicode="&#x11e;" horiz-adv-x="1575" 
d="M866 -20q-190 0 -331.5 54t-235.5 153t-140 238t-46 308q0 166 49 304t145 237t239 154t331 55q128 0 223.5 -18.5t160 -50.5t96.5 -75.5t32 -93.5q0 -36 -17 -67.5t-51 -55.5t-83 -37.5t-114 -13.5q0 62 -15 114t-46.5 89t-79.5 57.5t-113 20.5q-112 0 -190.5 -41
t-128 -120t-72 -194.5t-22.5 -263.5t23.5 -262.5t76 -192.5t136 -118.5t204.5 -40.5q38 0 76 3t74 11v301q0 82 -37 114t-109 32h-27v108h644v-108h-27q-31 0 -54 -7.5t-38 -25.5t-22 -47.5t-7 -73.5v-336q-120 -55 -242 -82.5t-262 -27.5zM838 1579q-81 0 -141.5 28.5
t-101.5 74.5t-62 103.5t-23 115.5h135q17 -75 67 -107.5t126 -32.5q75 0 125 32.5t67 107.5h136q-2 -58 -23 -115.5t-62 -103.5t-101.5 -74.5t-141.5 -28.5z" />
    <glyph glyph-name="gbreve" unicode="&#x11f;" horiz-adv-x="1147" 
d="M1137 1059q0 -23 -7 -44.5t-23.5 -37.5t-45 -25.5t-70.5 -9.5q0 21 -6.5 37t-17.5 27t-25 16.5t-29 5.5q-17 0 -36.5 -7t-30.5 -15q21 -23 39 -52.5t31.5 -63.5t21.5 -70.5t8 -74.5q0 -77 -24.5 -142.5t-75.5 -113.5t-129 -75t-185 -27q-11 0 -28 0.5l-34 1t-32.5 2
t-23.5 2.5q-13 -7 -26.5 -17.5t-24 -23.5t-17 -29t-6.5 -34q0 -34 26.5 -50t69.5 -16h248q102 0 176 -21.5t122.5 -61.5t71.5 -98.5t23 -131.5q0 -95 -36 -169.5t-109.5 -126t-185 -79t-263.5 -27.5q-242 0 -360.5 72.5t-118.5 212.5q0 110 71 168.5t206 69.5q-28 11 -55 27
t-48 38.5t-34 51.5t-13 65q0 34 13.5 63t37.5 55.5t57.5 50t73.5 46.5q-45 16 -83.5 44.5t-66 68.5t-43.5 91t-16 113q0 180 104.5 279.5t323.5 99.5q73 0 135.5 -18.5t108.5 -44.5l37.5 38.5t46.5 37.5t58 28t71 11q37 0 64.5 -9.5t46 -25.5t28 -37t9.5 -45zM246 -203
q0 -85 61.5 -125.5t179.5 -40.5q180 0 262 52t82 153q0 65 -41 91t-124 26h-238q-31 0 -63 -5.5t-58.5 -22.5t-43.5 -47.5t-17 -80.5zM383 745q0 -54 7.5 -97.5t24.5 -74.5t44 -48t67 -17q41 0 68 16.5t43 48t22.5 76t6.5 99.5q0 57 -7 103.5t-23.5 79.5t-43.5 51.5
t-68 18.5q-40 0 -67 -19t-43.5 -53t-23.5 -81t-7 -103zM525 1241q-81 0 -141.5 28.5t-101.5 74.5t-62 103.5t-23 115.5h135q17 -75 67 -107.5t126 -32.5q75 0 125 32.5t67 107.5h136q-2 -58 -23 -115.5t-62 -103.5t-101.5 -74.5t-141.5 -28.5z" />
    <glyph glyph-name="Gdot" unicode="&#x120;" horiz-adv-x="1575" 
d="M866 -20q-190 0 -331.5 54t-235.5 153t-140 238t-46 308q0 166 49 304t145 237t239 154t331 55q128 0 223.5 -18.5t160 -50.5t96.5 -75.5t32 -93.5q0 -36 -17 -67.5t-51 -55.5t-83 -37.5t-114 -13.5q0 62 -15 114t-46.5 89t-79.5 57.5t-113 20.5q-112 0 -190.5 -41
t-128 -120t-72 -194.5t-22.5 -263.5t23.5 -262.5t76 -192.5t136 -118.5t204.5 -40.5q38 0 76 3t74 11v301q0 82 -37 114t-109 32h-27v108h644v-108h-27q-31 0 -54 -7.5t-38 -25.5t-22 -47.5t-7 -73.5v-336q-120 -55 -242 -82.5t-262 -27.5zM662 1768q0 39 13.5 67t37 45.5
t55 26t68.5 8.5q35 0 67 -8.5t56 -26t38.5 -45.5t14.5 -67q0 -38 -14.5 -66t-38.5 -46t-56 -27t-67 -9q-37 0 -68.5 9t-55 27t-37 46t-13.5 66z" />
    <glyph glyph-name="gdot" unicode="&#x121;" horiz-adv-x="1147" 
d="M1137 1059q0 -23 -7 -44.5t-23.5 -37.5t-45 -25.5t-70.5 -9.5q0 21 -6.5 37t-17.5 27t-25 16.5t-29 5.5q-17 0 -36.5 -7t-30.5 -15q21 -23 39 -52.5t31.5 -63.5t21.5 -70.5t8 -74.5q0 -77 -24.5 -142.5t-75.5 -113.5t-129 -75t-185 -27q-11 0 -28 0.5l-34 1t-32.5 2
t-23.5 2.5q-13 -7 -26.5 -17.5t-24 -23.5t-17 -29t-6.5 -34q0 -34 26.5 -50t69.5 -16h248q102 0 176 -21.5t122.5 -61.5t71.5 -98.5t23 -131.5q0 -95 -36 -169.5t-109.5 -126t-185 -79t-263.5 -27.5q-242 0 -360.5 72.5t-118.5 212.5q0 110 71 168.5t206 69.5q-28 11 -55 27
t-48 38.5t-34 51.5t-13 65q0 34 13.5 63t37.5 55.5t57.5 50t73.5 46.5q-45 16 -83.5 44.5t-66 68.5t-43.5 91t-16 113q0 180 104.5 279.5t323.5 99.5q73 0 135.5 -18.5t108.5 -44.5l37.5 38.5t46.5 37.5t58 28t71 11q37 0 64.5 -9.5t46 -25.5t28 -37t9.5 -45zM246 -203
q0 -85 61.5 -125.5t179.5 -40.5q180 0 262 52t82 153q0 65 -41 91t-124 26h-238q-31 0 -63 -5.5t-58.5 -22.5t-43.5 -47.5t-17 -80.5zM383 745q0 -54 7.5 -97.5t24.5 -74.5t44 -48t67 -17q41 0 68 16.5t43 48t22.5 76t6.5 99.5q0 57 -7 103.5t-23.5 79.5t-43.5 51.5
t-68 18.5q-40 0 -67 -19t-43.5 -53t-23.5 -81t-7 -103zM350 1430q0 39 13.5 67t37 45.5t55 26t68.5 8.5q35 0 67 -8.5t56 -26t38.5 -45.5t14.5 -67q0 -38 -14.5 -66t-38.5 -46t-56 -27t-67 -9q-37 0 -68.5 9t-55 27t-37 46t-13.5 66z" />
    <glyph glyph-name="Gcommaaccent" unicode="&#x122;" horiz-adv-x="1575" 
d="M866 -20q-190 0 -331.5 54t-235.5 153t-140 238t-46 308q0 166 49 304t145 237t239 154t331 55q128 0 223.5 -18.5t160 -50.5t96.5 -75.5t32 -93.5q0 -36 -17 -67.5t-51 -55.5t-83 -37.5t-114 -13.5q0 62 -15 114t-46.5 89t-79.5 57.5t-113 20.5q-112 0 -190.5 -41
t-128 -120t-72 -194.5t-22.5 -263.5t23.5 -262.5t76 -192.5t136 -118.5t204.5 -40.5q38 0 76 3t74 11v301q0 82 -37 114t-109 32h-27v108h644v-108h-27q-31 0 -54 -7.5t-38 -25.5t-22 -47.5t-7 -73.5v-336q-120 -55 -242 -82.5t-262 -27.5zM633 -426l21.5 69t22.5 78.5
t20.5 80t15.5 73.5h238v-20q-14 -32 -36.5 -72t-49.5 -81.5l-55 -81.5t-54 -73h-123v27z" />
    <glyph glyph-name="gcommaaccent" unicode="&#x123;" horiz-adv-x="1147" 
d="M1137 1059q0 -23 -7 -44.5t-23.5 -37.5t-45 -25.5t-70.5 -9.5q0 21 -6.5 37t-17.5 27t-25 16.5t-29 5.5q-17 0 -36.5 -7t-30.5 -15q21 -23 39 -52.5t31.5 -63.5t21.5 -70.5t8 -74.5q0 -77 -24.5 -142.5t-75.5 -113.5t-129 -75t-185 -27q-11 0 -28 0.5l-34 1t-32.5 2
t-23.5 2.5q-13 -7 -26.5 -17.5t-24 -23.5t-17 -29t-6.5 -34q0 -34 26.5 -50t69.5 -16h248q102 0 176 -21.5t122.5 -61.5t71.5 -98.5t23 -131.5q0 -95 -36 -169.5t-109.5 -126t-185 -79t-263.5 -27.5q-242 0 -360.5 72.5t-118.5 212.5q0 110 71 168.5t206 69.5q-28 11 -55 27
t-48 38.5t-34 51.5t-13 65q0 34 13.5 63t37.5 55.5t57.5 50t73.5 46.5q-45 16 -83.5 44.5t-66 68.5t-43.5 91t-16 113q0 180 104.5 279.5t323.5 99.5q73 0 135.5 -18.5t108.5 -44.5l37.5 38.5t46.5 37.5t58 28t71 11q37 0 64.5 -9.5t46 -25.5t28 -37t9.5 -45zM246 -203
q0 -85 61.5 -125.5t179.5 -40.5q180 0 262 52t82 153q0 65 -41 91t-124 26h-238q-31 0 -63 -5.5t-58.5 -22.5t-43.5 -47.5t-17 -80.5zM383 745q0 -54 7.5 -97.5t24.5 -74.5t44 -48t67 -17q41 0 68 16.5t43 48t22.5 76t6.5 99.5q0 57 -7 103.5t-23.5 79.5t-43.5 51.5
t-68 18.5q-40 0 -67 -19t-43.5 -53t-23.5 -81t-7 -103zM739 1542l-21.5 -69t-22.5 -78.5t-20.5 -80t-15.5 -73.5h-237v21q14 32 36.5 72t49 81t55 81l53.5 73h123v-27z" />
    <glyph glyph-name="Hcircumflex" unicode="&#x124;" horiz-adv-x="1677" 
d="M913 0v109h88q22 0 41 4.5t33.5 18.5t22.5 40t8 70v458h-535v-458q0 -44 8.5 -70t22.5 -40t33 -18.5t41 -4.5h88v-109h-707v109h86q22 0 41 4.5t33.5 18.5t22.5 40t8 70v986q0 41 -8.5 65.5t-23 37.5t-33.5 17.5t-40 4.5h-86v109h707v-109h-88q-22 0 -41 -4.5t-33 -18.5
t-22.5 -40t-8.5 -70v-395h535v395q0 44 -8 70t-22.5 40t-33.5 18.5t-41 4.5h-88v109h707v-109h-86q-21 0 -40 -4.5t-33.5 -18.5t-22.5 -40t-8 -70v-989q0 -40 8.5 -64.5t23 -37t33 -16.5t39.5 -4h86v-109h-707zM477 1606l56.5 67l64.5 78.5t60.5 81t44.5 74.5h276
q16 -34 44.5 -74.5t60.5 -81l64 -78.5l56 -67v-27h-141l-50 40l-60 48l-60.5 50l-52.5 46l-52.5 -46l-60 -50l-59 -48l-49.5 -40h-142v27z" />
    <glyph glyph-name="hcircumflex" unicode="&#x125;" horiz-adv-x="1366" 
d="M858 0v674q0 66 -8.5 117.5t-28 86.5t-51 53.5t-76.5 18.5q-51 0 -85 -26t-54.5 -69.5t-29.5 -101t-9 -120.5v-391q0 -43 10.5 -69t29.5 -40.5t46.5 -19t61.5 -4.5h6v-109h-629v109h4q35 0 64 4.5t50.5 19.5t33.5 43t12 74v1073q0 41 -14.5 65.5t-36.5 38t-47.5 17.5
t-47.5 4h-24v108h481v-337q0 -40 -2.5 -86t-5.5 -85l-8 -90h18q31 58 65.5 91t73.5 49.5t82.5 21t91.5 4.5q79 0 142 -23t106.5 -71t66.5 -122.5t23 -178.5v-475q0 -48 8.5 -76.5t25.5 -43.5t43 -20t61 -5h6v-109h-455zM305 1661l56.5 67l64.5 78.5t60.5 81t44.5 74.5h276
q16 -34 44.5 -74.5t60.5 -81l64 -78.5l56 -67v-27h-141l-50 40l-60 48l-60.5 50l-52.5 46l-52.5 -46l-60 -50l-59 -48l-49.5 -40h-142v27z" />
    <glyph glyph-name="Hbar" unicode="&#x126;" horiz-adv-x="1677" 
d="M913 0v109h88q22 0 41 4.5t33.5 18.5t22.5 40t8 70v458h-535v-458q0 -44 8.5 -70t22.5 -40t33 -18.5t41 -4.5h88v-109h-707v109h86q22 0 41 4.5t33.5 18.5t22.5 40t8 70v780h-211v108h211v99q0 41 -8.5 65.5t-23 37.5t-33.5 17.5t-40 4.5h-86v108h707v-108h-88
q-22 0 -41 -4.5t-33 -18.5t-22.5 -40t-8.5 -70v-91h535v91q0 44 -8 70t-22.5 40t-33.5 18.5t-41 4.5h-88v108h707v-108h-86q-21 0 -40 -4.5t-33.5 -18.5t-22.5 -40t-8 -70v-91h210v-108h-210v-791q0 -40 8.5 -64.5t23 -37t33 -16.5t39.5 -4h86v-109h-707zM1106 825v197h-535
v-197h535z" />
    <glyph glyph-name="hbar" unicode="&#x127;" horiz-adv-x="1366" 
d="M205 1292v31q0 41 -14.5 65.5t-36.5 38t-47.5 17.5t-47.5 4h-24v108h481v-264h318v-108h-318v-27q0 -40 -2.5 -85.5t-5.5 -84.5l-8 -90h18q31 58 65.5 91t73.5 49.5t82.5 21t91.5 4.5q79 0 142 -23t106.5 -71t66.5 -122.5t23 -178.5v-414q0 -48 8.5 -76.5t25.5 -43.5
t43 -20t61 -5h6v-109h-455v612q0 66 -8.5 117.5t-28 87t-51 54t-76.5 18.5q-51 0 -85 -26t-54.5 -70t-29.5 -101.5t-9 -120.5v-329q0 -43 10.5 -69t29.5 -40.5t46.5 -19t61.5 -4.5h6v-109h-629v109h4q35 0 64 4.5t50.5 19.5t33.5 43t12 74v934h-178v108h178z" />
    <glyph glyph-name="Itilde" unicode="&#x128;" horiz-adv-x="821" 
d="M57 0v109h86q23 0 42 4.5t33 18.5t22 40t8 70v978q0 44 -8 70t-22 40t-33 18.5t-42 4.5h-86v109h707v-109h-86q-22 0 -41.5 -4.5t-33.5 -18.5t-22 -40t-8 -70v-978q0 -44 8 -70t22 -40t33.5 -18.5t41.5 -4.5h86v-109h-707zM579 1774q22 0 39.5 9t30 24t20 34.5t10.5 40.5
h133q-3 -62 -23 -117t-53.5 -96.5t-79 -65.5t-100.5 -24t-99.5 20t-83 44.5l-72 44.5t-66.5 20q-23 0 -40.5 -9t-30 -24t-20 -34.5t-10.5 -40.5h-133q3 62 23.5 117t54 96.5t79.5 65.5t101 24t99.5 -20t83 -44.5l72 -44.5t65.5 -20z" />
    <glyph glyph-name="itilde" unicode="&#x129;" horiz-adv-x="721" 
d="M59 109q23 0 48.5 4.5t47 18.5t36 40t14.5 70v622q0 41 -14.5 65.5t-36.5 38t-47.5 17.5t-47.5 4h-24v109h481v-856q0 -44 14.5 -70t36 -40t47.5 -18.5t48 -4.5h24v-109h-651v109h24zM525 1436q22 0 39.5 9t30 24t20 34.5t10.5 40.5h133q-3 -62 -23 -117t-53.5 -96.5
t-79 -65.5t-100.5 -24t-99.5 20t-83 44.5l-72 44.5t-66.5 20q-23 0 -40.5 -9t-30 -24t-20 -34.5t-10.5 -40.5h-133q3 62 23.5 117t54 96.5t79.5 65.5t101 24t99.5 -20t83 -44.5l72 -44.5t65.5 -20z" />
    <glyph glyph-name="Imacron" unicode="&#x12a;" horiz-adv-x="821" 
d="M57 0v109h86q23 0 42 4.5t33 18.5t22 40t8 70v978q0 44 -8 70t-22 40t-33 18.5t-42 4.5h-86v109h707v-109h-86q-22 0 -41.5 -4.5t-33.5 -18.5t-22 -40t-8 -70v-978q0 -44 8 -70t22 -40t33.5 -18.5t41.5 -4.5h86v-109h-707zM706 1579h-594v162h594v-162z" />
    <glyph glyph-name="imacron" unicode="&#x12b;" horiz-adv-x="721" 
d="M59 109q23 0 48.5 4.5t47 18.5t36 40t14.5 70v622q0 41 -14.5 65.5t-36.5 38t-47.5 17.5t-47.5 4h-24v109h481v-856q0 -44 14.5 -70t36 -40t47.5 -18.5t48 -4.5h24v-109h-651v109h24zM624 1241h-594v162h594v-162z" />
    <glyph glyph-name="Ibreve" unicode="&#x12c;" horiz-adv-x="821" 
d="M57 0v109h86q23 0 42 4.5t33 18.5t22 40t8 70v978q0 44 -8 70t-22 40t-33 18.5t-42 4.5h-86v109h707v-109h-86q-22 0 -41.5 -4.5t-33.5 -18.5t-22 -40t-8 -70v-978q0 -44 8 -70t22 -40t33.5 -18.5t41.5 -4.5h86v-109h-707zM409 1579q-81 0 -141.5 28.5t-101.5 74.5
t-62 103.5t-23 115.5h135q17 -75 67 -107.5t126 -32.5q75 0 125 32.5t67 107.5h136q-2 -58 -23 -115.5t-62 -103.5t-101.5 -74.5t-141.5 -28.5z" />
    <glyph glyph-name="ibreve" unicode="&#x12d;" horiz-adv-x="721" 
d="M59 109q23 0 48.5 4.5t47 18.5t36 40t14.5 70v622q0 41 -14.5 65.5t-36.5 38t-47.5 17.5t-47.5 4h-24v109h481v-856q0 -44 14.5 -70t36 -40t47.5 -18.5t48 -4.5h24v-109h-651v109h24zM345 1241q-81 0 -141.5 28.5t-101.5 74.5t-62 103.5t-23 115.5h135q17 -75 67 -107.5
t126 -32.5q75 0 125 32.5t67 107.5h136q-2 -58 -23 -115.5t-62 -103.5t-101.5 -74.5t-141.5 -28.5z" />
    <glyph glyph-name="Iogonek" unicode="&#x12e;" horiz-adv-x="821" 
d="M57 0v109h86q23 0 42 4.5t33 18.5t22 40t8 70v978q0 44 -8 70t-22 40t-33 18.5t-42 4.5h-86v109h707v-109h-86q-22 0 -41.5 -4.5t-33.5 -18.5t-22 -40t-8 -70v-978q0 -44 8 -70t22 -40t33.5 -18.5t41.5 -4.5h86v-109h-707zM201 -266q0 48 20 91t54 78.5t77.5 60.5
t90.5 36h158q-32 -10 -66 -30t-61.5 -49.5t-45.5 -68.5t-18 -88q0 -28 10.5 -48.5t29.5 -33.5t45 -19.5t57 -6.5q27 0 59 4t70 12v-131q-16 -8 -39.5 -14t-48 -10t-48 -6.5t-39.5 -2.5q-149 0 -227 54t-78 172z" />
    <glyph glyph-name="iogonek" unicode="&#x12f;" horiz-adv-x="721" 
d="M176 1430q0 39 13.5 67t37 45.5t55 26t68.5 8.5q35 0 67 -8.5t56 -26t38.5 -45.5t14.5 -67q0 -38 -14.5 -66t-38.5 -46t-56 -27t-67 -9q-37 0 -68.5 9t-55 27t-37 46t-13.5 66zM59 109q23 0 48.5 4.5t47 18.5t36 40t14.5 70v622q0 41 -14.5 65.5t-36.5 38t-47.5 17.5
t-47.5 4h-24v109h481v-856q0 -44 14.5 -70t36 -40t47.5 -18.5t48 -4.5h24v-109h-651v109h24zM144 -266q0 48 20 91t54 78.5t77.5 60.5t90.5 36h158q-32 -10 -66 -30t-61.5 -49.5t-45.5 -68.5t-18 -88q0 -28 10.5 -48.5t29.5 -33.5t45 -19.5t57 -6.5q27 0 59 4t70 12v-131
q-16 -8 -39.5 -14t-48 -10t-48 -6.5t-39.5 -2.5q-149 0 -227 54t-78 172z" />
    <glyph glyph-name="Idotaccent" unicode="&#x130;" horiz-adv-x="821" 
d="M57 0v109h86q23 0 42 4.5t33 18.5t22 40t8 70v978q0 44 -8 70t-22 40t-33 18.5t-42 4.5h-86v109h707v-109h-86q-22 0 -41.5 -4.5t-33.5 -18.5t-22 -40t-8 -70v-978q0 -44 8 -70t22 -40t33.5 -18.5t41.5 -4.5h86v-109h-707zM232 1768q0 39 13.5 67t37 45.5t55 26t68.5 8.5
q35 0 67 -8.5t56 -26t38.5 -45.5t14.5 -67q0 -38 -14.5 -66t-38.5 -46t-56 -27t-67 -9q-37 0 -68.5 9t-55 27t-37 46t-13.5 66z" />
    <glyph glyph-name="dotlessi" unicode="&#x131;" horiz-adv-x="721" 
d="M59 109q23 0 48.5 4.5t47 18.5t36 40t14.5 70v622q0 41 -14.5 65.5t-36.5 38t-47.5 17.5t-47.5 4h-24v109h481v-856q0 -44 14.5 -70t36 -40t47.5 -18.5t48 -4.5h24v-109h-651v109h24z" />
    <glyph glyph-name="IJ" unicode="&#x132;" horiz-adv-x="1575" 
d="M57 0v109h86q23 0 42 4.5t33 18.5t22 40t8 70v978q0 44 -8 70t-22 40t-33 18.5t-42 4.5h-86v109h707v-109h-86q-22 0 -41.5 -4.5t-33.5 -18.5t-22 -40t-8 -70v-978q0 -44 8 -70t22 -40t33.5 -18.5t41.5 -4.5h86v-109h-707zM1552 1354h-86q-22 0 -41.5 -4.5t-33.5 -18.5
t-22.5 -40t-8.5 -70v-1225q0 -93 -21 -165t-58 -126.5t-88.5 -92t-112 -60.5t-128 -33.5t-137.5 -10.5h-74v119h37q49 0 95.5 18.5t82.5 61.5t58 113.5t22 173.5v1235q0 41 -8 65.5t-22.5 37.5t-33.5 17.5t-40 4.5h-86v108h706v-108z" />
    <glyph glyph-name="ij" unicode="&#x133;" horiz-adv-x="1427" 
d="M176 1430q0 39 13.5 67t37 45.5t55 26t68.5 8.5q35 0 67 -8.5t56 -26t38.5 -45.5t14.5 -67q0 -38 -14.5 -66t-38.5 -46t-56 -27t-67 -9q-37 0 -68.5 9t-55 27t-37 46t-13.5 66zM59 109q23 0 48.5 4.5t47 18.5t36 40t14.5 70v622q0 41 -14.5 65.5t-36.5 38t-47.5 17.5
t-47.5 4h-24v109h481v-856q0 -44 14.5 -70t36 -40t47.5 -18.5t48 -4.5h24v-109h-651v109h24zM1237 1098v-1114q0 -138 -38.5 -229.5t-107 -146t-163 -77.5t-207.5 -23h-41v127h14q56 0 99.5 18t73 60t44.5 112t15 175v854q0 44 -13 70.5t-35.5 41t-52.5 19t-63 4.5h-6v109
h481zM899 1430q0 39 13.5 67t37 45.5t55 26t68.5 8.5q35 0 67 -8.5t56 -26t38.5 -45.5t14.5 -67q0 -38 -14.5 -66t-38.5 -46t-56 -27t-67 -9q-37 0 -68.5 9t-55 27t-37 46t-13.5 66z" />
    <glyph glyph-name="Jcircumflex" unicode="&#x134;" horiz-adv-x="754" 
d="M731 1354h-86q-22 0 -41.5 -4.5t-33.5 -18.5t-22.5 -40t-8.5 -70v-1225q0 -93 -21 -165t-58 -126.5t-88.5 -92t-112 -60.5t-128 -33.5t-137.5 -10.5h-74v119h37q49 0 95.5 18.5t82.5 61.5t58 113.5t22 173.5v1235q0 41 -8 65.5t-22.5 37.5t-33.5 17.5t-40 4.5h-86v108
h706v-108zM11 1606l56.5 67l64.5 78.5t60.5 81t44.5 74.5h276q16 -34 44.5 -74.5t60.5 -81l64 -78.5l56 -67v-27h-141l-50 40l-60 48l-60.5 50l-52.5 46l-52.5 -46l-60 -50l-59 -48l-49.5 -40h-142v27z" />
    <glyph glyph-name="jcircumflex" unicode="&#x135;" horiz-adv-x="707" 
d="M516 1098v-1114q0 -138 -36 -229.5t-100.5 -146t-153.5 -77.5t-195 -23h-39v127h12q48 0 85.5 18t63 60t39 112t13.5 175v854q0 44 -13 70.5t-35.5 41t-52.5 19t-63 4.5h-6v109h481zM-42 1268l56.5 67l64.5 78.5t60.5 81t44.5 74.5h276q16 -34 44.5 -74.5t60.5 -81
l64 -78.5l56 -67v-27h-141l-50 40l-60 48l-60.5 50l-52.5 46l-52.5 -46l-60 -50l-59 -48l-49.5 -40h-142v27z" />
    <glyph glyph-name="Kcommaaccent" unicode="&#x136;" horiz-adv-x="1503" 
d="M889 1090q33 35 55.5 63.5t36 53t19.5 46.5t6 43q0 34 -26 47t-89 13v106h555v-106q-42 0 -79.5 -13t-73.5 -37t-71 -57t-71 -73l-270 -297l381 -605q30 -48 57.5 -79.5t55.5 -50.5t57 -27t63 -8h8v-109h-110q-78 0 -137 5t-103.5 15t-76.5 25.5t-56 36.5t-43.5 47.5
t-38.5 58.5l-276 471l-91 -71v-346q0 -44 8.5 -70t22.5 -40t34 -18.5t42 -4.5h86v-109h-707v109h86q22 0 41 4t33.5 16.5t22.5 37t8 64.5v998q0 41 -8 65.5t-22.5 37.5t-33.5 17.5t-41 4.5h-86v108h707v-108h-86q-22 0 -42 -4.5t-34 -18.5t-22.5 -40t-8.5 -70v-478z
M637 -426l21.5 69t22.5 78.5t20.5 80t15.5 73.5h238v-20q-14 -32 -36.5 -72t-49.5 -81.5l-55 -81.5t-54 -73h-123v27z" />
    <glyph glyph-name="kcommaaccent" unicode="&#x137;" horiz-adv-x="1303" 
d="M1303 0h-29q-112 0 -188 5t-131 23t-95 54.5t-80 99.5l-182 287l-82 -61v-166q0 -44 14.5 -70t36 -40t47.5 -18.5t48 -4.5h24v-109h-651v109h24q23 0 48.5 4.5t47 18.5t36 40t14.5 70v1081q0 41 -14.5 65.5t-36.5 38t-47.5 17.5t-47.5 4h-24v108h481v-790
q0 -28 -1.5 -64.5t-3.5 -69.5q-3 -39 -5 -79l258 289q34 38 44.5 60.5t10.5 37.5q0 26 -27.5 40.5t-78.5 14.5v103h516v-103q-71 0 -139.5 -41.5t-149.5 -132.5l-129 -147l272 -406q54 -81 109 -120t104 -39h7v-109zM522 -426l21.5 69t22.5 78.5t20.5 80t15.5 73.5h238v-20
q-14 -32 -36.5 -72t-49.5 -81.5l-55 -81.5t-54 -73h-123v27z" />
    <glyph glyph-name="kgreenlandic" unicode="&#x138;" horiz-adv-x="1303" 
d="M1303 0h-29q-112 0 -188 5t-131 23t-95 54.5t-80 99.5l-182 287l-82 -61v-166q0 -44 14.5 -70t36 -40t47.5 -18.5t48 -4.5h24v-109h-651v109h24q23 0 48.5 4.5t47 18.5t36 40t14.5 70v622q0 41 -14.5 65.5t-36.5 38t-47.5 17.5t-47.5 4h-24v109h481v-332
q0 -28 -1.5 -64.5t-3.5 -69.5q-3 -39 -5 -79l258 289q34 38 44.5 60.5t10.5 37.5q0 26 -27.5 40.5t-78.5 14.5v103h516v-103q-71 0 -139.5 -41.5t-149.5 -132.5l-129 -147l272 -406q54 -81 109 -120t104 -39h7v-109z" />
    <glyph glyph-name="Lacute" unicode="&#x139;" horiz-adv-x="1339" 
d="M57 0v109h86q23 0 42 4.5t33 18.5t22 40t8 70v979q0 44 -8 70t-22 40t-33 18.5t-42 4.5h-86v108h707v-108h-86q-21 0 -40.5 -4.5t-33.5 -17.5t-22.5 -37.5t-8.5 -65.5v-1104h381q72 0 112 45.5t58 132.5l33 154h115l-15 -457h-1200zM344 1606l49.5 67l55.5 78.5t52.5 81
t40.5 74.5h322v-21q-19 -27 -63 -67.5t-98.5 -84.5t-113 -85.5t-106.5 -69.5h-139v27z" />
    <glyph glyph-name="lacute" unicode="&#x13a;" horiz-adv-x="721" 
d="M59 109q23 0 48.5 4.5t47 18.5t36 40t14.5 70v1081q0 41 -14.5 65.5t-36.5 38t-47.5 17.5t-47.5 4h-24v108h481v-1314q0 -44 14.5 -70t36 -40t47.5 -18.5t48 -4.5h24v-109h-651v109h24zM227 1663l49.5 67l55.5 78.5t52.5 81t40.5 74.5h322v-21q-19 -27 -63 -67.5
t-98.5 -84.5t-113 -85.5t-106.5 -69.5h-139v27z" />
    <glyph glyph-name="Lcommaaccent" unicode="&#x13b;" horiz-adv-x="1339" 
d="M57 0v109h86q23 0 42 4.5t33 18.5t22 40t8 70v979q0 44 -8 70t-22 40t-33 18.5t-42 4.5h-86v108h707v-108h-86q-21 0 -40.5 -4.5t-33.5 -17.5t-22.5 -37.5t-8.5 -65.5v-1104h381q72 0 112 45.5t58 132.5l33 154h115l-15 -457h-1200zM497 -426l21.5 69t22.5 78.5t20.5 80
t15.5 73.5h238v-20q-14 -32 -36.5 -72t-49.5 -81.5l-55 -81.5t-54 -73h-123v27z" />
    <glyph glyph-name="lcommaaccent" unicode="&#x13c;" horiz-adv-x="721" 
d="M59 109q23 0 48.5 4.5t47 18.5t36 40t14.5 70v1081q0 41 -14.5 65.5t-36.5 38t-47.5 17.5t-47.5 4h-24v108h481v-1314q0 -44 14.5 -70t36 -40t47.5 -18.5t48 -4.5h24v-109h-651v109h24zM167 -426l21.5 69t22.5 78.5t20.5 80t15.5 73.5h238v-20q-14 -32 -36.5 -72
t-49.5 -81.5l-55 -81.5t-54 -73h-123v27z" />
    <glyph glyph-name="Lcaron" unicode="&#x13d;" horiz-adv-x="1339" 
d="M57 0v109h86q23 0 42 4.5t33 18.5t22 40t8 70v979q0 44 -8 70t-22 40t-33 18.5t-42 4.5h-86v108h707v-108h-86q-21 0 -40.5 -4.5t-33.5 -17.5t-22.5 -37.5t-8.5 -65.5v-1104h381q72 0 112 45.5t58 132.5l33 154h115l-15 -457h-1200zM924 1162q10 31 21 69l22 78.5
t20.5 80t15.5 73.5h238v-20q-14 -32 -36.5 -71.5t-49.5 -81l-55 -81.5t-54 -73h-122v26z" />
    <glyph glyph-name="lcaron" unicode="&#x13e;" horiz-adv-x="721" 
d="M59 109q23 0 48.5 4.5t47 18.5t36 40t14.5 70v1081q0 41 -14.5 65.5t-36.5 38t-47.5 17.5t-47.5 4h-24v108h481v-1314q0 -44 14.5 -70t36 -40t47.5 -18.5t48 -4.5h24v-109h-651v109h24zM629 1255q10 31 21 69l22 78.5t20.5 80t15.5 73.5h238v-20q-14 -32 -36.5 -71.5
t-49.5 -81l-55 -81.5t-54 -73h-122v26z" />
    <glyph glyph-name="Ldot" unicode="&#x13f;" horiz-adv-x="1339" 
d="M57 0v109h86q23 0 42 4.5t33 18.5t22 40t8 70v979q0 44 -8 70t-22 40t-33 18.5t-42 4.5h-86v108h707v-108h-86q-21 0 -40.5 -4.5t-33.5 -17.5t-22.5 -37.5t-8.5 -65.5v-1104h381q72 0 112 45.5t58 132.5l33 154h115l-15 -457h-1200zM756 761q0 39 13.5 67t37 45.5t55 26
t68.5 8.5q35 0 67 -8.5t56 -26t38.5 -45.5t14.5 -67q0 -38 -14.5 -66t-38.5 -46t-56 -27t-67 -9q-37 0 -68.5 9t-55 27t-37 46t-13.5 66z" />
    <glyph glyph-name="ldot" unicode="&#x140;" horiz-adv-x="958" 
d="M59 109q23 0 48.5 4.5t47 18.5t36 40t14.5 70v1081q0 41 -14.5 65.5t-36.5 38t-47.5 17.5t-47.5 4h-24v108h481v-1314q0 -44 14.5 -70t36 -40t47.5 -18.5t48 -4.5h24v-109h-651v109h24zM658 673q0 39 13.5 67t37 45.5t55 26t68.5 8.5q35 0 67 -8.5t56 -26t38.5 -45.5
t14.5 -67q0 -38 -14.5 -66t-38.5 -46t-56 -27t-67 -9q-37 0 -68.5 9t-55 27t-37 46t-13.5 66z" />
    <glyph glyph-name="Lslash" unicode="&#x141;" horiz-adv-x="1339" 
d="M57 0v109h86q23 0 42 4.5t33 18.5t22 40t8 70v323l-170 -96v139l170 99v514q0 44 -8 70t-22 40t-33 18.5t-42 4.5h-86v108h707v-108h-86q-21 0 -39.5 -4.5t-32.5 -17.5t-22.5 -37.5t-10.5 -65.5v-334l295 172v-143l-295 -172v-627h381q72 0 112 45.5t58 132.5l33 154h115
l-15 -457h-1200z" />
    <glyph glyph-name="lslash" unicode="&#x142;" horiz-adv-x="721" 
d="M59 109q23 0 48.5 4.5t47 18.5t36 40t14.5 70v299l-150 -84v139l150 86v641q0 41 -14.5 65.5t-36.5 38t-47.5 17.5t-47.5 4h-24v108h481v-696l164 92v-143l-164 -92v-475q0 -44 14.5 -70t36 -40t47.5 -18.5t48 -4.5h24v-109h-651v109h24z" />
    <glyph glyph-name="Nacute" unicode="&#x143;" horiz-adv-x="1614" 
d="M1200 0l-799 1128v-886q0 -44 8.5 -70t22.5 -40t33.5 -18.5t40.5 -4.5h86v-109h-535v109h86q22 0 41 4.5t33.5 18.5t22.5 40t8 70v987q0 41 -8.5 65.5t-23 37.5t-33.5 17.5t-40 4.5h-86v108h455l723 -1022v789q0 41 -8.5 65.5t-23 37.5t-33.5 17.5t-40 4.5h-86v108h535
v-108h-86q-21 0 -40 -4.5t-33.5 -18.5t-22.5 -40t-8 -70v-1221h-189zM713 1606l49.5 67l55.5 78.5t52.5 81t40.5 74.5h322v-21q-19 -27 -63 -67.5t-98.5 -84.5t-113 -85.5t-106.5 -69.5h-139v27z" />
    <glyph glyph-name="nacute" unicode="&#x144;" horiz-adv-x="1366" 
d="M858 0v674q0 66 -8.5 117.5t-28 86.5t-51 53.5t-76.5 18.5q-51 0 -85 -26t-54.5 -69.5t-29.5 -101t-9 -120.5v-391q0 -43 10.5 -69t29.5 -40.5t46.5 -19t61.5 -4.5h6v-109h-629v109h4q35 0 64 4.5t50.5 19.5t33.5 43t12 74v606q0 43 -10.5 69t-30 40.5t-46.5 19t-61 4.5
h-6v109h430l27 -146h10q31 58 65.5 92t73.5 52t82.5 23t91.5 5q79 0 142 -23t106.5 -71t66.5 -122.5t23 -178.5v-475q0 -48 8.5 -76.5t25.5 -43.5t43 -20t61 -5h6v-109h-455zM553 1268l49.5 67l55.5 78.5t52.5 81t40.5 74.5h322v-21q-19 -27 -63 -67.5t-98.5 -84.5
t-113 -85.5t-106.5 -69.5h-139v27z" />
    <glyph glyph-name="Ncommaaccent" unicode="&#x145;" horiz-adv-x="1614" 
d="M1200 0l-799 1128v-886q0 -44 8.5 -70t22.5 -40t33.5 -18.5t40.5 -4.5h86v-109h-535v109h86q22 0 41 4.5t33.5 18.5t22.5 40t8 70v987q0 41 -8.5 65.5t-23 37.5t-33.5 17.5t-40 4.5h-86v108h455l723 -1022v789q0 41 -8.5 65.5t-23 37.5t-33.5 17.5t-40 4.5h-86v108h535
v-108h-86q-21 0 -40 -4.5t-33.5 -18.5t-22.5 -40t-8 -70v-1221h-189zM647 -426l21.5 69t22.5 78.5t20.5 80t15.5 73.5h238v-20q-14 -32 -36.5 -72t-49.5 -81.5l-55 -81.5t-54 -73h-123v27z" />
    <glyph glyph-name="ncommaaccent" unicode="&#x146;" horiz-adv-x="1366" 
d="M858 0v674q0 66 -8.5 117.5t-28 86.5t-51 53.5t-76.5 18.5q-51 0 -85 -26t-54.5 -69.5t-29.5 -101t-9 -120.5v-391q0 -43 10.5 -69t29.5 -40.5t46.5 -19t61.5 -4.5h6v-109h-629v109h4q35 0 64 4.5t50.5 19.5t33.5 43t12 74v606q0 43 -10.5 69t-30 40.5t-46.5 19t-61 4.5
h-6v109h430l27 -146h10q31 58 65.5 92t73.5 52t82.5 23t91.5 5q79 0 142 -23t106.5 -71t66.5 -122.5t23 -178.5v-475q0 -48 8.5 -76.5t25.5 -43.5t43 -20t61 -5h6v-109h-455zM508 -426l21.5 69t22.5 78.5t20.5 80t15.5 73.5h238v-20q-14 -32 -36.5 -72t-49.5 -81.5
l-55 -81.5t-54 -73h-123v27z" />
    <glyph glyph-name="Ncaron" unicode="&#x147;" horiz-adv-x="1614" 
d="M1200 0l-799 1128v-886q0 -44 8.5 -70t22.5 -40t33.5 -18.5t40.5 -4.5h86v-109h-535v109h86q22 0 41 4.5t33.5 18.5t22.5 40t8 70v987q0 41 -8.5 65.5t-23 37.5t-33.5 17.5t-40 4.5h-86v108h455l723 -1022v789q0 41 -8.5 65.5t-23 37.5t-33.5 17.5t-40 4.5h-86v108h535
v-108h-86q-21 0 -40 -4.5t-33.5 -18.5t-22.5 -40t-8 -70v-1221h-189zM487 1907h142l49.5 -40l59 -48.5l60 -50.5l52.5 -46l52.5 46l60.5 50.5l60 48.5l50 40h141v-27l-56 -67l-64 -78.5t-60.5 -80.5t-44.5 -75h-276q-16 35 -44.5 75t-60.5 80.5l-64.5 78.5l-56.5 67v27z" />
    <glyph glyph-name="ncaron" unicode="&#x148;" horiz-adv-x="1366" 
d="M858 0v674q0 66 -8.5 117.5t-28 86.5t-51 53.5t-76.5 18.5q-51 0 -85 -26t-54.5 -69.5t-29.5 -101t-9 -120.5v-391q0 -43 10.5 -69t29.5 -40.5t46.5 -19t61.5 -4.5h6v-109h-629v109h4q35 0 64 4.5t50.5 19.5t33.5 43t12 74v606q0 43 -10.5 69t-30 40.5t-46.5 19t-61 4.5
h-6v109h430l27 -146h10q31 58 65.5 92t73.5 52t82.5 23t91.5 5q79 0 142 -23t106.5 -71t66.5 -122.5t23 -178.5v-475q0 -48 8.5 -76.5t25.5 -43.5t43 -20t61 -5h6v-109h-455zM325 1569h142l49.5 -40l59 -48.5l60 -50.5l52.5 -46l52.5 46l60.5 50.5l60 48.5l50 40h141v-27
l-56 -67l-64 -78.5t-60.5 -80.5t-44.5 -75h-276q-16 35 -44.5 75t-60.5 80.5l-64.5 78.5l-56.5 67v27z" />
    <glyph glyph-name="napostrophe" unicode="&#x149;" horiz-adv-x="1751" 
d="M1243 0v674q0 66 -8.5 117.5t-28 86.5t-51 53.5t-76.5 18.5q-51 0 -85 -26t-54.5 -69.5t-29.5 -101t-9 -120.5v-391q0 -43 10.5 -69t29.5 -40.5t46.5 -19t61.5 -4.5h6v-109h-629v109h4q35 0 64 4.5t50.5 19.5t33.5 43t12 74v606q0 43 -10.5 69t-30 40.5t-46.5 19t-61 4.5
h-6v109h430l27 -146h10q31 58 65.5 92t73.5 52t82.5 23t91.5 5q79 0 142 -23t106.5 -71t66.5 -122.5t23 -178.5v-475q0 -48 8.5 -76.5t25.5 -43.5t43 -20t61 -5h6v-109h-455zM399 1237q0 -65 -20 -126t-64 -113t-113.5 -93.5t-169.5 -68.5v106q45 16 78.5 32t56 34.5t34 41
t11.5 52.5q0 20 -11 32t-27.5 23t-36 22.5t-36 29.5t-27.5 44.5t-11 67.5q0 69 42 105t105 36q87 0 138 -60t51 -165z" />
    <glyph glyph-name="Eng" unicode="&#x14a;" horiz-adv-x="1614" 
d="M401 1128v-886q0 -44 8.5 -70t22.5 -40t33.5 -18.5t40.5 -4.5h86v-109h-535v109h86q22 0 41 4.5t33.5 18.5t22.5 40t8 70v987q0 41 -8.5 65.5t-23 37.5t-33.5 17.5t-40 4.5h-86v108h455l723 -977v744q0 41 -8.5 65.5t-23 37.5t-33.5 17.5t-40 4.5h-86v108h535v-108h-86
q-21 0 -40 -4.5t-33.5 -18.5t-22.5 -40t-8 -70v-1237q0 -138 -24 -229.5t-68.5 -146t-107.5 -77.5t-140 -23h-68v119h49q40 0 77 20t65.5 63t45.5 110t17 162v18z" />
    <glyph glyph-name="eng" unicode="&#x14b;" horiz-adv-x="1360" 
d="M645 -365h12q48 0 85.5 18t63 60t39 112t13.5 175v674q0 66 -8.5 117.5t-28 86.5t-51 53.5t-76.5 18.5q-51 0 -85 -26t-54.5 -69.5t-29.5 -101t-9 -120.5v-391q0 -43 10.5 -69t29.5 -40.5t46.5 -19t61.5 -4.5h6v-109h-629v109h4q35 0 64 4.5t50.5 19.5t33.5 43t12 74v606
q0 43 -10.5 69t-30 40.5t-46.5 19t-61 4.5h-6v109h430l27 -146h10q31 58 65.5 92t73.5 52t82.5 23t91.5 5q79 0 142 -23t106.5 -71t66.5 -122.5t23 -178.5v-745q0 -138 -36 -229.5t-100.5 -146t-153.5 -77.5t-195 -23h-39v127z" />
    <glyph glyph-name="Omacron" unicode="&#x14c;" horiz-adv-x="1612" 
d="M1499 733q0 -169 -45.5 -308t-134 -238t-217 -153t-295.5 -54q-175 0 -305.5 54t-216.5 153t-129 238.5t-43 309.5t43 308.5t129.5 236.5t217 151.5t306.5 53.5q166 0 294.5 -53.5t216.5 -152t133.5 -237t45.5 -309.5zM457 733q0 -147 19 -262t61 -194.5t108.5 -121.5
t161.5 -42q96 0 162.5 42t107.5 121.5t59.5 194.5t18.5 262t-18.5 262t-59.5 194.5t-107 121t-161 41.5q-96 0 -163 -41.5t-109 -121t-61 -194.5t-19 -262zM1100 1579h-594v162h594v-162z" />
    <glyph glyph-name="omacron" unicode="&#x14d;" horiz-adv-x="1255" 
d="M1159 553q0 -289 -135.5 -431t-398.5 -142q-123 0 -221 35.5t-166.5 106.5t-105 179t-36.5 252q0 289 135.5 430t399.5 141q123 0 220.5 -35t166 -106t105 -178.5t36.5 -251.5zM414 553q0 -109 11.5 -192t37 -139t66.5 -84.5t100 -28.5t99.5 28.5t66 84.5t36.5 139
t11 192q0 110 -11.5 192.5t-37 137.5t-66.5 82.5t-100 27.5t-100 -27.5t-66 -82.5t-36 -137.5t-11 -192.5zM918 1241h-594v162h594v-162z" />
    <glyph glyph-name="Obreve" unicode="&#x14e;" horiz-adv-x="1612" 
d="M1499 733q0 -169 -45.5 -308t-134 -238t-217 -153t-295.5 -54q-175 0 -305.5 54t-216.5 153t-129 238.5t-43 309.5t43 308.5t129.5 236.5t217 151.5t306.5 53.5q166 0 294.5 -53.5t216.5 -152t133.5 -237t45.5 -309.5zM457 733q0 -147 19 -262t61 -194.5t108.5 -121.5
t161.5 -42q96 0 162.5 42t107.5 121.5t59.5 194.5t18.5 262t-18.5 262t-59.5 194.5t-107 121t-161 41.5q-96 0 -163 -41.5t-109 -121t-61 -194.5t-19 -262zM799 1579q-81 0 -141.5 28.5t-101.5 74.5t-62 103.5t-23 115.5h135q17 -75 67 -107.5t126 -32.5q75 0 125 32.5
t67 107.5h136q-2 -58 -23 -115.5t-62 -103.5t-101.5 -74.5t-141.5 -28.5z" />
    <glyph glyph-name="obreve" unicode="&#x14f;" horiz-adv-x="1255" 
d="M1159 553q0 -289 -135.5 -431t-398.5 -142q-123 0 -221 35.5t-166.5 106.5t-105 179t-36.5 252q0 289 135.5 430t399.5 141q123 0 220.5 -35t166 -106t105 -178.5t36.5 -251.5zM414 553q0 -109 11.5 -192t37 -139t66.5 -84.5t100 -28.5t99.5 28.5t66 84.5t36.5 139
t11 192q0 110 -11.5 192.5t-37 137.5t-66.5 82.5t-100 27.5t-100 -27.5t-66 -82.5t-36 -137.5t-11 -192.5zM623 1241q-81 0 -141.5 28.5t-101.5 74.5t-62 103.5t-23 115.5h135q17 -75 67 -107.5t126 -32.5q75 0 125 32.5t67 107.5h136q-2 -58 -23 -115.5t-62 -103.5
t-101.5 -74.5t-141.5 -28.5z" />
    <glyph glyph-name="Ohungarumlaut" unicode="&#x150;" horiz-adv-x="1612" 
d="M1499 733q0 -169 -45.5 -308t-134 -238t-217 -153t-295.5 -54q-175 0 -305.5 54t-216.5 153t-129 238.5t-43 309.5t43 308.5t129.5 236.5t217 151.5t306.5 53.5q166 0 294.5 -53.5t216.5 -152t133.5 -237t45.5 -309.5zM457 733q0 -147 19 -262t61 -194.5t108.5 -121.5
t161.5 -42q96 0 162.5 42t107.5 121.5t59.5 194.5t18.5 262t-18.5 262t-59.5 194.5t-107 121t-161 41.5q-96 0 -163 -41.5t-109 -121t-61 -194.5t-19 -262zM473 1579v27l45.5 71l47 78l44.5 79t37 73h261v-21q-11 -18 -30.5 -42.5t-44.5 -52.5l-53.5 -57.5l-57.5 -57.5
l-56.5 -53t-50.5 -44h-142zM863 1579v27l45 71l47.5 78l44.5 79t37 73h260v-21q-11 -18 -30.5 -42.5t-44.5 -52.5l-53.5 -57.5l-57.5 -57.5l-56.5 -53t-50.5 -44h-141z" />
    <glyph glyph-name="ohungarumlaut" unicode="&#x151;" horiz-adv-x="1255" 
d="M1159 553q0 -289 -135.5 -431t-398.5 -142q-123 0 -221 35.5t-166.5 106.5t-105 179t-36.5 252q0 289 135.5 430t399.5 141q123 0 220.5 -35t166 -106t105 -178.5t36.5 -251.5zM414 553q0 -109 11.5 -192t37 -139t66.5 -84.5t100 -28.5t99.5 28.5t66 84.5t36.5 139
t11 192q0 110 -11.5 192.5t-37 137.5t-66.5 82.5t-100 27.5t-100 -27.5t-66 -82.5t-36 -137.5t-11 -192.5zM294 1241v27l45.5 71l47 78l44.5 79t37 73h261v-21q-11 -18 -30.5 -42.5t-44.5 -52.5l-53.5 -57.5l-57.5 -57.5l-56.5 -53t-50.5 -44h-142zM684 1241v27l45 71
l47.5 78l44.5 79t37 73h260v-21q-11 -18 -30.5 -42.5t-44.5 -52.5l-53.5 -57.5l-57.5 -57.5l-56.5 -53t-50.5 -44h-141z" />
    <glyph glyph-name="OE" unicode="&#x152;" horiz-adv-x="2087" 
d="M1323 125h410q31 0 53 11.5t37.5 32.5t25 49.5t15.5 62.5l16 96h141l-14 -377h-987q-45 -9 -103.5 -14.5t-109.5 -5.5q-175 0 -305.5 54t-216.5 153t-129 238.5t-43 309.5t43 308.5t129.5 236.5t217 151.5t306.5 53.5q53 0 112.5 -6t104.5 -17h918l8 -377h-144l-10 97
q-8 75 -38 115t-93 40h-344v-512h485v-123h-485v-577zM807 113q59 0 105.5 15t84.5 44v1118q-34 26 -82.5 44t-105.5 18q-96 0 -163 -41.5t-109 -121t-61 -194.5t-19 -262t19 -262t61 -194.5t108.5 -121.5t161.5 -42z" />
    <glyph glyph-name="oe" unicode="&#x153;" horiz-adv-x="1915" 
d="M414 553q0 -109 11.5 -192t37 -139t66.5 -84.5t100 -28.5q56 0 95.5 26t65 77t38 127.5t14.5 176.5v55q-1 211 -50.5 316.5t-164.5 105.5q-59 0 -100 -27.5t-66 -82.5t-36 -137.5t-11 -192.5zM1354 991q-85 0 -136.5 -85t-56.5 -249h355q0 160 -39 247t-123 87zM1376 -20
q-118 0 -211 40t-161 117q-67 -81 -162.5 -119t-216.5 -38q-123 0 -221 35.5t-166.5 106.5t-105 179t-36.5 252q0 289 135.5 430t399.5 141q114 0 206 -39.5t160 -117.5q63 78 152 117.5t201 39.5q111 0 200 -31.5t151 -93.5t95 -154t33 -214v-105h-670q0 -6 -1 -12t-1 -12
q5 -97 25.5 -166.5t55 -114.5t83.5 -66.5t111 -21.5q53 0 98 12.5t81.5 35t63.5 53t45 65.5q56 -30 56 -100q0 -44 -23.5 -83.5t-72.5 -69.5t-124.5 -48t-179.5 -18z" />
    <glyph glyph-name="Racute" unicode="&#x154;" horiz-adv-x="1448" 
d="M57 109h86q21 0 40 4t33.5 16.5t23 37t8.5 64.5v998q0 41 -8.5 65.5t-23 37.5t-33.5 17.5t-40 4.5h-86v108h660q290 0 425.5 -97t135.5 -282q0 -81 -24 -144t-63.5 -110t-89.5 -79.5t-102 -53.5l244 -420q26 -44 50.5 -75.5t49 -52t50.5 -30t55 -9.5h8v-109h-67
q-92 0 -160.5 7t-120 27.5t-89 56.5t-69.5 93l-243 451h-136v-404q0 -40 8.5 -64.5t23 -37t33.5 -16.5t40 -4h88v-109h-707v109zM571 754h115q71 0 118.5 19t76 56.5t41 94t12.5 131.5q0 78 -14 132t-44 88.5t-78 50t-116 15.5h-111v-587zM549 1606l49.5 67l55.5 78.5
t52.5 81t40.5 74.5h322v-21q-19 -27 -63 -67.5t-98.5 -84.5t-113 -85.5t-106.5 -69.5h-139v27z" />
    <glyph glyph-name="racute" unicode="&#x155;" horiz-adv-x="1071" 
d="M725 0h-684v109h6q35 0 64 5t50 20.5t32.5 44.5t11.5 77v594q0 45 -10.5 72.5t-30 42.5t-46.5 19.5t-61 4.5h-6v109h414l41 -160h10q20 46 44 80.5t57.5 57.5t79 34.5t108.5 11.5q121 0 178 -42.5t57 -123.5q0 -94 -68 -146t-192 -52q0 42 -4.5 74t-16 53t-31 32
t-48.5 11q-36 0 -62 -18t-44 -46.5t-29.5 -64.5t-18 -72.5t-8.5 -69.5t-2 -57v-354q0 -45 11 -72.5t30 -41.5t45.5 -18.5t56.5 -4.5h66v-109zM369 1268l49.5 67l55.5 78.5t52.5 81t40.5 74.5h322v-21q-19 -27 -63 -67.5t-98.5 -84.5t-113 -85.5t-106.5 -69.5h-139v27z" />
    <glyph glyph-name="Rcommaaccent" unicode="&#x156;" horiz-adv-x="1448" 
d="M57 109h86q21 0 40 4t33.5 16.5t23 37t8.5 64.5v998q0 41 -8.5 65.5t-23 37.5t-33.5 17.5t-40 4.5h-86v108h660q290 0 425.5 -97t135.5 -282q0 -81 -24 -144t-63.5 -110t-89.5 -79.5t-102 -53.5l244 -420q26 -44 50.5 -75.5t49 -52t50.5 -30t55 -9.5h8v-109h-67
q-92 0 -160.5 7t-120 27.5t-89 56.5t-69.5 93l-243 451h-136v-404q0 -40 8.5 -64.5t23 -37t33.5 -16.5t40 -4h88v-109h-707v109zM571 754h115q71 0 118.5 19t76 56.5t41 94t12.5 131.5q0 78 -14 132t-44 88.5t-78 50t-116 15.5h-111v-587zM549 -426l21.5 69t22.5 78.5
t20.5 80t15.5 73.5h238v-20q-14 -32 -36.5 -72t-49.5 -81.5l-55 -81.5t-54 -73h-123v27z" />
    <glyph glyph-name="rcommaaccent" unicode="&#x157;" horiz-adv-x="1071" 
d="M725 0h-684v109h6q35 0 64 5t50 20.5t32.5 44.5t11.5 77v594q0 45 -10.5 72.5t-30 42.5t-46.5 19.5t-61 4.5h-6v109h414l41 -160h10q20 46 44 80.5t57.5 57.5t79 34.5t108.5 11.5q121 0 178 -42.5t57 -123.5q0 -94 -68 -146t-192 -52q0 42 -4.5 74t-16 53t-31 32
t-48.5 11q-36 0 -62 -18t-44 -46.5t-29.5 -64.5t-18 -72.5t-8.5 -69.5t-2 -57v-354q0 -45 11 -72.5t30 -41.5t45.5 -18.5t56.5 -4.5h66v-109zM187 -426l21.5 69t22.5 78.5t20.5 80t15.5 73.5h238v-20q-14 -32 -36.5 -72t-49.5 -81.5l-55 -81.5t-54 -73h-123v27z" />
    <glyph glyph-name="Rcaron" unicode="&#x158;" horiz-adv-x="1448" 
d="M57 109h86q21 0 40 4t33.5 16.5t23 37t8.5 64.5v998q0 41 -8.5 65.5t-23 37.5t-33.5 17.5t-40 4.5h-86v108h660q290 0 425.5 -97t135.5 -282q0 -81 -24 -144t-63.5 -110t-89.5 -79.5t-102 -53.5l244 -420q26 -44 50.5 -75.5t49 -52t50.5 -30t55 -9.5h8v-109h-67
q-92 0 -160.5 7t-120 27.5t-89 56.5t-69.5 93l-243 451h-136v-404q0 -40 8.5 -64.5t23 -37t33.5 -16.5t40 -4h88v-109h-707v109zM571 754h115q71 0 118.5 19t76 56.5t41 94t12.5 131.5q0 78 -14 132t-44 88.5t-78 50t-116 15.5h-111v-587zM307 1907h142l49.5 -40l59 -48.5
l60 -50.5l52.5 -46l52.5 46l60.5 50.5l60 48.5l50 40h141v-27l-56 -67l-64 -78.5t-60.5 -80.5t-44.5 -75h-276q-16 35 -44.5 75t-60.5 80.5l-64.5 78.5l-56.5 67v27z" />
    <glyph glyph-name="rcaron" unicode="&#x159;" horiz-adv-x="1071" 
d="M725 0h-684v109h6q35 0 64 5t50 20.5t32.5 44.5t11.5 77v594q0 45 -10.5 72.5t-30 42.5t-46.5 19.5t-61 4.5h-6v109h414l41 -160h10q20 46 44 80.5t57.5 57.5t79 34.5t108.5 11.5q121 0 178 -42.5t57 -123.5q0 -94 -68 -146t-192 -52q0 42 -4.5 74t-16 53t-31 32
t-48.5 11q-36 0 -62 -18t-44 -46.5t-29.5 -64.5t-18 -72.5t-8.5 -69.5t-2 -57v-354q0 -45 11 -72.5t30 -41.5t45.5 -18.5t56.5 -4.5h66v-109zM183 1569h142l49.5 -40l59 -48.5l60 -50.5l52.5 -46l52.5 46l60.5 50.5l60 48.5l50 40h141v-27l-56 -67l-64 -78.5t-60.5 -80.5
t-44.5 -75h-276q-16 35 -44.5 75t-60.5 80.5l-64.5 78.5l-56.5 67v27z" />
    <glyph glyph-name="Sacute" unicode="&#x15a;" horiz-adv-x="1200" 
d="M541 -20q-138 0 -230 26t-147.5 67t-79 92t-23.5 101q0 53 19.5 89t52 59t74 33t86.5 10q0 -88 21 -154.5t58 -111t88.5 -67t112.5 -22.5q60 0 107 17t80 47t50 70.5t17 87.5q0 52 -21 92.5t-63.5 75t-107 66t-150.5 67.5q-107 44 -180.5 90.5t-118.5 100.5t-64.5 117
t-19.5 138q0 94 38 170t105 130t159 83t200 29q113 0 195 -18.5t135.5 -50.5t79.5 -75.5t26 -93.5q0 -36 -15.5 -67t-47 -54t-79 -36t-110.5 -13q0 43 -11.5 92.5t-37.5 92t-67.5 70.5t-100.5 28q-41 0 -78 -12t-64.5 -36t-43.5 -59.5t-16 -81.5q0 -43 14 -81t51.5 -74.5
t103 -73t169.5 -78.5q105 -43 179 -88t121.5 -96.5t69 -113t21.5 -136.5q0 -99 -39 -181.5t-112 -141.5t-175.5 -92t-230.5 -33zM502 1606l49.5 67l55.5 78.5t52.5 81t40.5 74.5h322v-21q-19 -27 -63 -67.5t-98.5 -84.5t-113 -85.5t-106.5 -69.5h-139v27z" />
    <glyph glyph-name="sacute" unicode="&#x15b;" horiz-adv-x="999" 
d="M473 -20q-111 0 -189.5 18t-128 50t-72 76t-22.5 95q0 50 19.5 80.5t49 47.5t62.5 22.5t60 5.5q0 -64 16 -115t45 -86.5t69.5 -54.5t90.5 -19q53 0 91.5 11t63 30.5t36.5 45t12 53.5q0 34 -12.5 60.5t-41.5 50t-77.5 46t-120.5 47.5q-83 29 -146.5 61.5t-107 74t-66 95
t-22.5 122.5q0 82 31.5 143t89.5 101.5t139 60.5t180 20q97 0 165 -16.5t111 -43.5t63 -61t20 -69q0 -69 -48.5 -105t-160.5 -36q0 102 -45.5 158.5t-134.5 56.5q-33 0 -63.5 -8t-53 -24t-36 -39.5t-13.5 -55.5q0 -33 12.5 -59t44 -49.5t85.5 -47.5t138 -53
q68 -24 125.5 -54.5t99 -70t64.5 -90t23 -115.5q0 -85 -29.5 -152t-86.5 -113t-140 -70.5t-189 -24.5zM385 1268l49.5 67l55.5 78.5t52.5 81t40.5 74.5h322v-21q-19 -27 -63 -67.5t-98.5 -84.5t-113 -85.5t-106.5 -69.5h-139v27z" />
    <glyph glyph-name="Scircumflex" unicode="&#x15c;" horiz-adv-x="1200" 
d="M541 -20q-138 0 -230 26t-147.5 67t-79 92t-23.5 101q0 53 19.5 89t52 59t74 33t86.5 10q0 -88 21 -154.5t58 -111t88.5 -67t112.5 -22.5q60 0 107 17t80 47t50 70.5t17 87.5q0 52 -21 92.5t-63.5 75t-107 66t-150.5 67.5q-107 44 -180.5 90.5t-118.5 100.5t-64.5 117
t-19.5 138q0 94 38 170t105 130t159 83t200 29q113 0 195 -18.5t135.5 -50.5t79.5 -75.5t26 -93.5q0 -36 -15.5 -67t-47 -54t-79 -36t-110.5 -13q0 43 -11.5 92.5t-37.5 92t-67.5 70.5t-100.5 28q-41 0 -78 -12t-64.5 -36t-43.5 -59.5t-16 -81.5q0 -43 14 -81t51.5 -74.5
t103 -73t169.5 -78.5q105 -43 179 -88t121.5 -96.5t69 -113t21.5 -136.5q0 -99 -39 -181.5t-112 -141.5t-175.5 -92t-230.5 -33zM245 1606l56.5 67l64.5 78.5t60.5 81t44.5 74.5h276q16 -34 44.5 -74.5t60.5 -81l64 -78.5l56 -67v-27h-141l-50 40l-60 48l-60.5 50l-52.5 46
l-52.5 -46l-60 -50l-59 -48l-49.5 -40h-142v27z" />
    <glyph glyph-name="scircumflex" unicode="&#x15d;" horiz-adv-x="999" 
d="M473 -20q-111 0 -189.5 18t-128 50t-72 76t-22.5 95q0 50 19.5 80.5t49 47.5t62.5 22.5t60 5.5q0 -64 16 -115t45 -86.5t69.5 -54.5t90.5 -19q53 0 91.5 11t63 30.5t36.5 45t12 53.5q0 34 -12.5 60.5t-41.5 50t-77.5 46t-120.5 47.5q-83 29 -146.5 61.5t-107 74t-66 95
t-22.5 122.5q0 82 31.5 143t89.5 101.5t139 60.5t180 20q97 0 165 -16.5t111 -43.5t63 -61t20 -69q0 -69 -48.5 -105t-160.5 -36q0 102 -45.5 158.5t-134.5 56.5q-33 0 -63.5 -8t-53 -24t-36 -39.5t-13.5 -55.5q0 -33 12.5 -59t44 -49.5t85.5 -47.5t138 -53
q68 -24 125.5 -54.5t99 -70t64.5 -90t23 -115.5q0 -85 -29.5 -152t-86.5 -113t-140 -70.5t-189 -24.5zM138 1268l56.5 67l64.5 78.5t60.5 81t44.5 74.5h276q16 -34 44.5 -74.5t60.5 -81l64 -78.5l56 -67v-27h-141l-50 40l-60 48l-60.5 50l-52.5 46l-52.5 -46l-60 -50
l-59 -48l-49.5 -40h-142v27z" />
    <glyph glyph-name="Scedilla" unicode="&#x15e;" horiz-adv-x="1200" 
d="M541 -20q-138 0 -230 26t-147.5 67t-79 92t-23.5 101q0 53 19.5 89t52 59t74 33t86.5 10q0 -88 21 -154.5t58 -111t88.5 -67t112.5 -22.5q60 0 107 17t80 47t50 70.5t17 87.5q0 52 -21 92.5t-63.5 75t-107 66t-150.5 67.5q-107 44 -180.5 90.5t-118.5 100.5t-64.5 117
t-19.5 138q0 94 38 170t105 130t159 83t200 29q113 0 195 -18.5t135.5 -50.5t79.5 -75.5t26 -93.5q0 -36 -15.5 -67t-47 -54t-79 -36t-110.5 -13q0 43 -11.5 92.5t-37.5 92t-67.5 70.5t-100.5 28q-41 0 -78 -12t-64.5 -36t-43.5 -59.5t-16 -81.5q0 -43 14 -81t51.5 -74.5
t103 -73t169.5 -78.5q105 -43 179 -88t121.5 -96.5t69 -113t21.5 -136.5q0 -99 -39 -181.5t-112 -141.5t-175.5 -92t-230.5 -33zM817 -258q0 -54 -21 -97.5t-59 -74t-91.5 -46.5t-118.5 -16q-16 0 -39 1.5t-48 4.5t-49 7.5t-43 9.5v125q38 -8 75 -12t65 -4q58 0 91.5 20.5
t33.5 73.5q0 30 -11.5 49t-32.5 30.5t-49 17t-61 7.5l43 180h117l-21 -88q50 -4 90.5 -18.5t69 -38.5t44 -57.5t15.5 -73.5z" />
    <glyph glyph-name="scedilla" unicode="&#x15f;" horiz-adv-x="999" 
d="M473 -20q-111 0 -189.5 18t-128 50t-72 76t-22.5 95q0 50 19.5 80.5t49 47.5t62.5 22.5t60 5.5q0 -64 16 -115t45 -86.5t69.5 -54.5t90.5 -19q53 0 91.5 11t63 30.5t36.5 45t12 53.5q0 34 -12.5 60.5t-41.5 50t-77.5 46t-120.5 47.5q-83 29 -146.5 61.5t-107 74t-66 95
t-22.5 122.5q0 82 31.5 143t89.5 101.5t139 60.5t180 20q97 0 165 -16.5t111 -43.5t63 -61t20 -69q0 -69 -48.5 -105t-160.5 -36q0 102 -45.5 158.5t-134.5 56.5q-33 0 -63.5 -8t-53 -24t-36 -39.5t-13.5 -55.5q0 -33 12.5 -59t44 -49.5t85.5 -47.5t138 -53
q68 -24 125.5 -54.5t99 -70t64.5 -90t23 -115.5q0 -85 -29.5 -152t-86.5 -113t-140 -70.5t-189 -24.5zM731 -258q0 -54 -21 -97.5t-59 -74t-91.5 -46.5t-118.5 -16q-16 0 -39 1.5t-48 4.5t-49 7.5t-43 9.5v125q38 -8 75 -12t65 -4q58 0 91.5 20.5t33.5 73.5q0 30 -11.5 49
t-32.5 30.5t-49 17t-61 7.5l43 180h117l-21 -88q50 -4 90.5 -18.5t69 -38.5t44 -57.5t15.5 -73.5z" />
    <glyph glyph-name="Scaron" unicode="&#x160;" horiz-adv-x="1200" 
d="M541 -20q-138 0 -230 26t-147.5 67t-79 92t-23.5 101q0 53 19.5 89t52 59t74 33t86.5 10q0 -88 21 -154.5t58 -111t88.5 -67t112.5 -22.5q60 0 107 17t80 47t50 70.5t17 87.5q0 52 -21 92.5t-63.5 75t-107 66t-150.5 67.5q-107 44 -180.5 90.5t-118.5 100.5t-64.5 117
t-19.5 138q0 94 38 170t105 130t159 83t200 29q113 0 195 -18.5t135.5 -50.5t79.5 -75.5t26 -93.5q0 -36 -15.5 -67t-47 -54t-79 -36t-110.5 -13q0 43 -11.5 92.5t-37.5 92t-67.5 70.5t-100.5 28q-41 0 -78 -12t-64.5 -36t-43.5 -59.5t-16 -81.5q0 -43 14 -81t51.5 -74.5
t103 -73t169.5 -78.5q105 -43 179 -88t121.5 -96.5t69 -113t21.5 -136.5q0 -99 -39 -181.5t-112 -141.5t-175.5 -92t-230.5 -33zM245 1907h142l49.5 -40l59 -48.5l60 -50.5l52.5 -46l52.5 46l60.5 50.5l60 48.5l50 40h141v-27l-56 -67l-64 -78.5t-60.5 -80.5t-44.5 -75h-276
q-16 35 -44.5 75t-60.5 80.5l-64.5 78.5l-56.5 67v27z" />
    <glyph glyph-name="scaron" unicode="&#x161;" horiz-adv-x="999" 
d="M473 -20q-111 0 -189.5 18t-128 50t-72 76t-22.5 95q0 50 19.5 80.5t49 47.5t62.5 22.5t60 5.5q0 -64 16 -115t45 -86.5t69.5 -54.5t90.5 -19q53 0 91.5 11t63 30.5t36.5 45t12 53.5q0 34 -12.5 60.5t-41.5 50t-77.5 46t-120.5 47.5q-83 29 -146.5 61.5t-107 74t-66 95
t-22.5 122.5q0 82 31.5 143t89.5 101.5t139 60.5t180 20q97 0 165 -16.5t111 -43.5t63 -61t20 -69q0 -69 -48.5 -105t-160.5 -36q0 102 -45.5 158.5t-134.5 56.5q-33 0 -63.5 -8t-53 -24t-36 -39.5t-13.5 -55.5q0 -33 12.5 -59t44 -49.5t85.5 -47.5t138 -53
q68 -24 125.5 -54.5t99 -70t64.5 -90t23 -115.5q0 -85 -29.5 -152t-86.5 -113t-140 -70.5t-189 -24.5zM136 1569h142l49.5 -40l59 -48.5l60 -50.5l52.5 -46l52.5 46l60.5 50.5l60 48.5l50 40h141v-27l-56 -67l-64 -78.5t-60.5 -80.5t-44.5 -75h-276q-16 35 -44.5 75
t-60.5 80.5l-64.5 78.5l-56.5 67v27z" />
    <glyph glyph-name="Tcommaaccent" unicode="&#x162;" horiz-adv-x="1337" 
d="M831 242q0 -44 8 -70t22.5 -40t33.5 -18.5t41 -4.5h86v-109h-707v109h86q23 0 42 4.5t33 18.5t22 40t8 70v1095h-164q-46 0 -77 -10t-50.5 -28.5t-29 -45.5t-13.5 -61l-14 -127h-138l11 397h1276l10 -397h-137l-15 127q-4 34 -13.5 61t-29 45.5t-50.5 28.5t-77 10h-164
v-1095zM483 -426l21.5 69t22.5 78.5t20.5 80t15.5 73.5h238v-20q-14 -32 -36.5 -72t-49.5 -81.5l-55 -81.5t-54 -73h-123v27z" />
    <glyph glyph-name="tcommaaccent" unicode="&#x163;" horiz-adv-x="829" 
d="M643 145q40 0 76.5 5.5t68.5 13.5v-133q-16 -8 -43.5 -17t-64 -16.5t-82.5 -12.5t-100 -5q-69 0 -125 16.5t-95 55t-60 100t-21 151.5v655h-154v105q66 0 118 26t83 60q63 66 94 203h170v-254h262v-140h-262v-634q0 -93 31.5 -136t103.5 -43zM265 -426l21.5 69t22.5 78.5
t20.5 80t15.5 73.5h238v-20q-14 -32 -36.5 -72t-49.5 -81.5l-55 -81.5t-54 -73h-123v27z" />
    <glyph glyph-name="Tcaron" unicode="&#x164;" horiz-adv-x="1337" 
d="M831 242q0 -44 8 -70t22.5 -40t33.5 -18.5t41 -4.5h86v-109h-707v109h86q23 0 42 4.5t33 18.5t22 40t8 70v1095h-164q-46 0 -77 -10t-50.5 -28.5t-29 -45.5t-13.5 -61l-14 -127h-138l11 397h1276l10 -397h-137l-15 127q-4 34 -13.5 61t-29 45.5t-50.5 28.5t-77 10h-164
v-1095zM305 1907h142l49.5 -40l59 -48.5l60 -50.5l52.5 -46l52.5 46l60.5 50.5l60 48.5l50 40h141v-27l-56 -67l-64 -78.5t-60.5 -80.5t-44.5 -75h-276q-16 35 -44.5 75t-60.5 80.5l-64.5 78.5l-56.5 67v27z" />
    <glyph glyph-name="tcaron" unicode="&#x165;" horiz-adv-x="829" 
d="M643 145q40 0 76.5 5.5t68.5 13.5v-133q-16 -8 -43.5 -17t-64 -16.5t-82.5 -12.5t-100 -5q-69 0 -125 16.5t-95 55t-60 100t-21 151.5v655h-154v105q66 0 118 26t83 60q63 66 94 203h170v-254h262v-140h-262v-634q0 -93 31.5 -136t103.5 -43zM629 1255q10 31 21 69
l22 78.5t20.5 80t15.5 73.5h238v-20q-14 -32 -36.5 -71.5t-49.5 -81l-55 -81.5t-54 -73h-122v26z" />
    <glyph glyph-name="Tbar" unicode="&#x166;" horiz-adv-x="1337" 
d="M831 782h295v-108h-295v-432q0 -44 8 -70t22.5 -40t33.5 -18.5t41 -4.5h86v-109h-707v109h86q23 0 42 4.5t33 18.5t22 40t8 70v432h-295v108h295v555h-164q-46 0 -77 -10t-50.5 -28.5t-29 -45.5t-13.5 -61l-14 -127h-138l11 397h1276l10 -397h-137l-15 127
q-4 34 -13.5 61t-29 45.5t-50.5 28.5t-77 10h-164v-555z" />
    <glyph glyph-name="tbar" unicode="&#x167;" horiz-adv-x="829" 
d="M643 145q40 0 76.5 5.5t68.5 13.5v-133q-16 -8 -43.5 -17t-64 -16.5t-82.5 -12.5t-100 -5q-69 0 -125 16.5t-95 55t-60 100t-21 151.5v272h-142v109h142v274h-154v105q66 0 118 26t83 60q63 66 94 203h168v-254h264v-140h-264v-274h231v-109h-231v-251q0 -93 32.5 -136
t104.5 -43z" />
    <glyph glyph-name="Utilde" unicode="&#x168;" horiz-adv-x="1530" 
d="M1497 1354h-88q-21 0 -40 -4.5t-33.5 -18.5t-22.5 -40t-8 -70v-799q0 -103 -29.5 -185t-92 -139t-159.5 -87.5t-231 -30.5t-239.5 25.5t-178.5 81.5t-111.5 144.5t-38.5 214.5v783q0 41 -8.5 65.5t-23 37.5t-33 17.5t-39.5 4.5h-88v108h706v-108h-86q-21 0 -40 -4.5
t-33.5 -18.5t-22.5 -40t-8 -70v-791q0 -86 21.5 -144.5t61.5 -94t96 -51t126 -15.5q68 0 123 17.5t93.5 54.5t59.5 94t21 135v803q0 41 -8 65.5t-22.5 37.5t-33.5 17.5t-40 4.5h-86v108h536v-108zM991 1774q22 0 39.5 9t30 24t20 34.5t10.5 40.5h133q-3 -62 -23 -117
t-53.5 -96.5t-79 -65.5t-100.5 -24t-99.5 20t-83 44.5l-72 44.5t-66.5 20q-23 0 -40.5 -9t-30 -24t-20 -34.5t-10.5 -40.5h-133q3 62 23.5 117t54 96.5t79.5 65.5t101 24t99.5 -20t83 -44.5l72 -44.5t65.5 -20z" />
    <glyph glyph-name="utilde" unicode="&#x169;" horiz-adv-x="1366" 
d="M907 0l-45 145h-10q-31 -53 -67 -85.5t-77 -50t-86.5 -23.5t-93.5 -6q-160 0 -245.5 99t-85.5 306v459q0 45 -8 73t-25 44t-43.5 22t-63.5 6h-4v109h455v-656q0 -66 7.5 -119t25.5 -90.5t48 -58t75 -20.5q49 0 84.5 21.5t58 62t33 98t10.5 129.5v393q0 45 -12 71
t-32 39.5t-47 17t-57 3.5h-6v109h465v-860q0 -45 10.5 -70.5t28.5 -38.5t43 -16.5t55 -3.5h17v-109h-408zM846 1436q22 0 39.5 9t30 24t20 34.5t10.5 40.5h133q-3 -62 -23 -117t-53.5 -96.5t-79 -65.5t-100.5 -24t-99.5 20t-83 44.5l-72 44.5t-66.5 20q-23 0 -40.5 -9
t-30 -24t-20 -34.5t-10.5 -40.5h-133q3 62 23.5 117t54 96.5t79.5 65.5t101 24t99.5 -20t83 -44.5l72 -44.5t65.5 -20z" />
    <glyph glyph-name="Umacron" unicode="&#x16a;" horiz-adv-x="1530" 
d="M1497 1354h-88q-21 0 -40 -4.5t-33.5 -18.5t-22.5 -40t-8 -70v-799q0 -103 -29.5 -185t-92 -139t-159.5 -87.5t-231 -30.5t-239.5 25.5t-178.5 81.5t-111.5 144.5t-38.5 214.5v783q0 41 -8.5 65.5t-23 37.5t-33 17.5t-39.5 4.5h-88v108h706v-108h-86q-21 0 -40 -4.5
t-33.5 -18.5t-22.5 -40t-8 -70v-791q0 -86 21.5 -144.5t61.5 -94t96 -51t126 -15.5q68 0 123 17.5t93.5 54.5t59.5 94t21 135v803q0 41 -8 65.5t-22.5 37.5t-33.5 17.5t-40 4.5h-86v108h536v-108zM1120 1579h-594v162h594v-162z" />
    <glyph glyph-name="umacron" unicode="&#x16b;" horiz-adv-x="1366" 
d="M907 0l-45 145h-10q-31 -53 -67 -85.5t-77 -50t-86.5 -23.5t-93.5 -6q-160 0 -245.5 99t-85.5 306v459q0 45 -8 73t-25 44t-43.5 22t-63.5 6h-4v109h455v-656q0 -66 7.5 -119t25.5 -90.5t48 -58t75 -20.5q49 0 84.5 21.5t58 62t33 98t10.5 129.5v393q0 45 -12 71
t-32 39.5t-47 17t-57 3.5h-6v109h465v-860q0 -45 10.5 -70.5t28.5 -38.5t43 -16.5t55 -3.5h17v-109h-408zM954 1241h-594v162h594v-162z" />
    <glyph glyph-name="Ubreve" unicode="&#x16c;" horiz-adv-x="1530" 
d="M1497 1354h-88q-21 0 -40 -4.5t-33.5 -18.5t-22.5 -40t-8 -70v-799q0 -103 -29.5 -185t-92 -139t-159.5 -87.5t-231 -30.5t-239.5 25.5t-178.5 81.5t-111.5 144.5t-38.5 214.5v783q0 41 -8.5 65.5t-23 37.5t-33 17.5t-39.5 4.5h-88v108h706v-108h-86q-21 0 -40 -4.5
t-33.5 -18.5t-22.5 -40t-8 -70v-791q0 -86 21.5 -144.5t61.5 -94t96 -51t126 -15.5q68 0 123 17.5t93.5 54.5t59.5 94t21 135v803q0 41 -8 65.5t-22.5 37.5t-33.5 17.5t-40 4.5h-86v108h536v-108zM807 1579q-81 0 -141.5 28.5t-101.5 74.5t-62 103.5t-23 115.5h135
q17 -75 67 -107.5t126 -32.5q75 0 125 32.5t67 107.5h136q-2 -58 -23 -115.5t-62 -103.5t-101.5 -74.5t-141.5 -28.5z" />
    <glyph glyph-name="ubreve" unicode="&#x16d;" horiz-adv-x="1366" 
d="M907 0l-45 145h-10q-31 -53 -67 -85.5t-77 -50t-86.5 -23.5t-93.5 -6q-160 0 -245.5 99t-85.5 306v459q0 45 -8 73t-25 44t-43.5 22t-63.5 6h-4v109h455v-656q0 -66 7.5 -119t25.5 -90.5t48 -58t75 -20.5q49 0 84.5 21.5t58 62t33 98t10.5 129.5v393q0 45 -12 71
t-32 39.5t-47 17t-57 3.5h-6v109h465v-860q0 -45 10.5 -70.5t28.5 -38.5t43 -16.5t55 -3.5h17v-109h-408zM670 1241q-81 0 -141.5 28.5t-101.5 74.5t-62 103.5t-23 115.5h135q17 -75 67 -107.5t126 -32.5q75 0 125 32.5t67 107.5h136q-2 -58 -23 -115.5t-62 -103.5
t-101.5 -74.5t-141.5 -28.5z" />
    <glyph glyph-name="Uring" unicode="&#x16e;" horiz-adv-x="1530" 
d="M1497 1354h-88q-21 0 -40 -4.5t-33.5 -18.5t-22.5 -40t-8 -70v-799q0 -103 -29.5 -185t-92 -139t-159.5 -87.5t-231 -30.5t-239.5 25.5t-178.5 81.5t-111.5 144.5t-38.5 214.5v783q0 41 -8.5 65.5t-23 37.5t-33 17.5t-39.5 4.5h-88v108h706v-108h-86q-21 0 -40 -4.5
t-33.5 -18.5t-22.5 -40t-8 -70v-791q0 -86 21.5 -144.5t61.5 -94t96 -51t126 -15.5q68 0 123 17.5t93.5 54.5t59.5 94t21 135v803q0 41 -8 65.5t-22.5 37.5t-33.5 17.5t-40 4.5h-86v108h536v-108zM1026 1782q0 -55 -19 -96.5t-52.5 -69.5t-78.5 -42.5t-96 -14.5t-96 14.5
t-78.5 42.5t-52.5 69.5t-19 96.5q0 54 19 96t52.5 70t78.5 42.5t96 14.5t96 -14.5t78.5 -42.5t52.5 -70t19 -96zM901 1782q0 30 -9.5 51t-26 34t-38.5 19t-47 6t-47 -6t-38.5 -19t-26 -34t-9.5 -51t9.5 -51t26 -34.5t38.5 -19.5t47 -6t47 6t38.5 19.5t26 34.5t9.5 51z" />
    <glyph glyph-name="uring" unicode="&#x16f;" horiz-adv-x="1366" 
d="M907 0l-45 145h-10q-31 -53 -67 -85.5t-77 -50t-86.5 -23.5t-93.5 -6q-160 0 -245.5 99t-85.5 306v459q0 45 -8 73t-25 44t-43.5 22t-63.5 6h-4v109h455v-656q0 -66 7.5 -119t25.5 -90.5t48 -58t75 -20.5q49 0 84.5 21.5t58 62t33 98t10.5 129.5v393q0 45 -12 71
t-32 39.5t-47 17t-57 3.5h-6v109h465v-860q0 -45 10.5 -70.5t28.5 -38.5t43 -16.5t55 -3.5h17v-109h-408zM899 1444q0 -55 -19 -96.5t-52.5 -69.5t-78.5 -42.5t-96 -14.5t-96 14.5t-78.5 42.5t-52.5 69.5t-19 96.5q0 54 19 96t52.5 70t78.5 42.5t96 14.5t96 -14.5
t78.5 -42.5t52.5 -70t19 -96zM774 1444q0 30 -9.5 51t-26 34t-38.5 19t-47 6t-47 -6t-38.5 -19t-26 -34t-9.5 -51t9.5 -51t26 -34.5t38.5 -19.5t47 -6t47 6t38.5 19.5t26 34.5t9.5 51z" />
    <glyph glyph-name="Uhungarumlaut" unicode="&#x170;" horiz-adv-x="1530" 
d="M1497 1354h-88q-21 0 -40 -4.5t-33.5 -18.5t-22.5 -40t-8 -70v-799q0 -103 -29.5 -185t-92 -139t-159.5 -87.5t-231 -30.5t-239.5 25.5t-178.5 81.5t-111.5 144.5t-38.5 214.5v783q0 41 -8.5 65.5t-23 37.5t-33 17.5t-39.5 4.5h-88v108h706v-108h-86q-21 0 -40 -4.5
t-33.5 -18.5t-22.5 -40t-8 -70v-791q0 -86 21.5 -144.5t61.5 -94t96 -51t126 -15.5q68 0 123 17.5t93.5 54.5t59.5 94t21 135v803q0 41 -8 65.5t-22.5 37.5t-33.5 17.5t-40 4.5h-86v108h536v-108zM497 1579v27l45.5 71l47 78l44.5 79t37 73h261v-21q-11 -18 -30.5 -42.5
t-44.5 -52.5l-53.5 -57.5l-57.5 -57.5l-56.5 -53t-50.5 -44h-142zM887 1579v27l45 71l47.5 78l44.5 79t37 73h260v-21q-11 -18 -30.5 -42.5t-44.5 -52.5l-53.5 -57.5l-57.5 -57.5l-56.5 -53t-50.5 -44h-141z" />
    <glyph glyph-name="uhungarumlaut" unicode="&#x171;" horiz-adv-x="1366" 
d="M907 0l-45 145h-10q-31 -53 -67 -85.5t-77 -50t-86.5 -23.5t-93.5 -6q-160 0 -245.5 99t-85.5 306v459q0 45 -8 73t-25 44t-43.5 22t-63.5 6h-4v109h455v-656q0 -66 7.5 -119t25.5 -90.5t48 -58t75 -20.5q49 0 84.5 21.5t58 62t33 98t10.5 129.5v393q0 45 -12 71
t-32 39.5t-47 17t-57 3.5h-6v109h465v-860q0 -45 10.5 -70.5t28.5 -38.5t43 -16.5t55 -3.5h17v-109h-408zM342 1241v27l45.5 71l47 78l44.5 79t37 73h261v-21q-11 -18 -30.5 -42.5t-44.5 -52.5l-53.5 -57.5l-57.5 -57.5l-56.5 -53t-50.5 -44h-142zM732 1241v27l45 71
l47.5 78l44.5 79t37 73h260v-21q-11 -18 -30.5 -42.5t-44.5 -52.5l-53.5 -57.5l-57.5 -57.5l-56.5 -53t-50.5 -44h-141z" />
    <glyph glyph-name="Uogonek" unicode="&#x172;" horiz-adv-x="1530" 
d="M1497 1354h-88q-21 0 -40 -4.5t-33.5 -18.5t-22.5 -40t-8 -70v-799q0 -103 -29.5 -185t-92 -139t-159.5 -87.5t-231 -30.5t-239.5 25.5t-178.5 81.5t-111.5 144.5t-38.5 214.5v783q0 41 -8.5 65.5t-23 37.5t-33 17.5t-39.5 4.5h-88v108h706v-108h-86q-21 0 -40 -4.5
t-33.5 -18.5t-22.5 -40t-8 -70v-791q0 -86 21.5 -144.5t61.5 -94t96 -51t126 -15.5q68 0 123 17.5t93.5 54.5t59.5 94t21 135v803q0 41 -8 65.5t-22.5 37.5t-33.5 17.5t-40 4.5h-86v108h536v-108zM583 -266q0 48 20 91t54 78.5t77.5 60.5t90.5 36h158q-32 -10 -66 -30
t-61.5 -49.5t-45.5 -68.5t-18 -88q0 -28 10.5 -48.5t29.5 -33.5t45 -19.5t57 -6.5q27 0 59 4t70 12v-131q-16 -8 -39.5 -14t-48 -10t-48 -6.5t-39.5 -2.5q-149 0 -227 54t-78 172z" />
    <glyph glyph-name="uogonek" unicode="&#x173;" horiz-adv-x="1366" 
d="M907 0l-45 145h-10q-31 -53 -67 -85.5t-77 -50t-86.5 -23.5t-93.5 -6q-160 0 -245.5 99t-85.5 306v459q0 45 -8 73t-25 44t-43.5 22t-63.5 6h-4v109h455v-656q0 -66 7.5 -119t25.5 -90.5t48 -58t75 -20.5q49 0 84.5 21.5t58 62t33 98t10.5 129.5v393q0 45 -12 71
t-32 39.5t-47 17t-57 3.5h-6v109h465v-860q0 -45 10.5 -70.5t28.5 -38.5t43 -16.5t55 -3.5h17v-109h-408zM667 -266q0 48 20 91t54 78.5t77.5 60.5t90.5 36h158q-32 -10 -66 -30t-61.5 -49.5t-45.5 -68.5t-18 -88q0 -28 10.5 -48.5t29.5 -33.5t45 -19.5t57 -6.5q27 0 59 4
t70 12v-131q-16 -8 -39.5 -14t-48 -10t-48 -6.5t-39.5 -2.5q-149 0 -227 54t-78 172z" />
    <glyph glyph-name="Wcircumflex" unicode="&#x174;" horiz-adv-x="2185" 
d="M1237 1448l283 -782q18 -48 33.5 -97.5l28.5 -94.5t23 -83t15 -65l17 82l19.5 94.5l22 101.5t23.5 101l108 442q3 12 6.5 28t6.5 31.5t4.5 29t1.5 21.5q0 53 -31.5 75t-99.5 22h-47v108h534v-108h-39q-30 0 -53 -6t-41 -23.5t-32.5 -48.5t-28.5 -82l-318 -1194h-233
l-344 961l-295 -961h-254l-375 1245q-9 32 -22 53t-30.5 33.5t-40 17.5t-52.5 5h-27v108h684v-108h-47q-62 0 -92.5 -24t-30.5 -75q0 -17 6.5 -49.5t14.5 -60.5l137 -473l23.5 -84.5t23.5 -92t20 -89.5t13 -76q14 66 30.5 123.5l34.5 117.5l270 877h150zM792 1606l56.5 67
l64.5 78.5t60.5 81t44.5 74.5h276q16 -34 44.5 -74.5t60.5 -81l64 -78.5l56 -67v-27h-141l-50 40l-60 48l-60.5 50l-52.5 46l-52.5 -46l-60 -50l-59 -48l-49.5 -40h-142v27z" />
    <glyph glyph-name="wcircumflex" unicode="&#x175;" horiz-adv-x="1753" 
d="M1012 1087l200 -604q25 -74 36 -125.5t18 -89.5h6l9.5 49t11 48l14.5 54.5t20 67.5l90 299q8 26 13.5 56t5.5 47q0 52 -33.5 76t-102.5 24h-14v109h469v-109h-26q-30 0 -52 -6t-39 -23.5t-32 -49t-31 -81.5l-264 -829h-221l-224 680l-235 -680h-223l-263 881
q-11 32 -24 53t-30 33t-39 17t-52 5h-6v109h600v-109h-27q-62 0 -92.5 -17.5t-30.5 -68.5q0 -17 5.5 -41t11.5 -47l76 -266q10 -37 19 -76l17 -76t14.5 -70t10.5 -59h6q9 51 24.5 105.5t41.5 130.5l209 583h133zM555 1268l56.5 67l64.5 78.5t60.5 81t44.5 74.5h276
q16 -34 44.5 -74.5t60.5 -81l64 -78.5l56 -67v-27h-141l-50 40l-60 48l-60.5 50l-52.5 46l-52.5 -46l-60 -50l-59 -48l-49.5 -40h-142v27z" />
    <glyph glyph-name="Ycircumflex" unicode="&#x176;" horiz-adv-x="1419" 
d="M336 0v109h96q25 0 46.5 3t37.5 15.5t25.5 37.5t9.5 68v285l-379 727q-15 30 -28.5 51t-29.5 33.5t-36.5 18.5t-50.5 6h-27v108h686v-108h-35q-62 0 -92.5 -25t-30.5 -67q0 -26 9.5 -56.5t21.5 -56.5l152 -301q32 -65 52.5 -115t37.5 -98q21 54 48.5 117.5t61.5 132.5
l119 245q22 45 28.5 75.5t6.5 47.5q0 53 -33.5 77t-101.5 24h-47v108h536v-108h-39q-26 0 -44.5 -7t-35 -25t-34 -49t-41.5 -79l-348 -678v-280q0 -45 9 -70t24.5 -38t36 -16t44.5 -3h101v-109h-756zM356 1606l56.5 67l64.5 78.5t60.5 81t44.5 74.5h276q16 -34 44.5 -74.5
t60.5 -81l64 -78.5l56 -67v-27h-141l-50 40l-60 48l-60.5 50l-52.5 46l-52.5 -46l-60 -50l-59 -48l-49.5 -40h-142v27z" />
    <glyph glyph-name="ycircumflex" unicode="&#x177;" horiz-adv-x="1186" 
d="M1186 1098v-109q-31 0 -54.5 -7t-42.5 -24.5t-35 -46t-32 -71.5l-75 -208l-78.5 -212.5l-79 -212l-76.5 -207.5q-36 -99 -68 -174t-67.5 -130t-78.5 -91t-100 -57.5t-132.5 -30.5t-176.5 -9h-35v119q107 0 182 26t127 74t85.5 115t58.5 148l-369 901q-12 29 -27 46
t-32 26t-37 11.5t-43 2.5v121h584v-109q-60 0 -94.5 -15.5t-34.5 -60.5q0 -17 7 -40.5t13 -38.5l37.5 -93.5l38 -101l35.5 -97.5l30 -83q15 -39 25 -70.5t16.5 -57t10.5 -47t6 -42.5q2 21 8 46.5t13 49t14 42l10 26.5l135 401q4 10 7.5 23.5t6.5 27.5t4.5 27t1.5 22
q0 47 -39 64.5t-110 17.5v109h461zM241 1268l56.5 67l64.5 78.5t60.5 81t44.5 74.5h276q16 -34 44.5 -74.5t60.5 -81l64 -78.5l56 -67v-27h-141l-50 40l-60 48l-60.5 50l-52.5 46l-52.5 -46l-60 -50l-59 -48l-49.5 -40h-142v27z" />
    <glyph glyph-name="Ydieresis" unicode="&#x178;" horiz-adv-x="1419" 
d="M336 0v109h96q25 0 46.5 3t37.5 15.5t25.5 37.5t9.5 68v285l-379 727q-15 30 -28.5 51t-29.5 33.5t-36.5 18.5t-50.5 6h-27v108h686v-108h-35q-62 0 -92.5 -25t-30.5 -67q0 -26 9.5 -56.5t21.5 -56.5l152 -301q32 -65 52.5 -115t37.5 -98q21 54 48.5 117.5t61.5 132.5
l119 245q22 45 28.5 75.5t6.5 47.5q0 53 -33.5 77t-101.5 24h-47v108h536v-108h-39q-26 0 -44.5 -7t-35 -25t-34 -49t-41.5 -79l-348 -678v-280q0 -45 9 -70t24.5 -38t36 -16t44.5 -3h101v-109h-756zM401 1747q0 35 10 59.5t26.5 39.5t38.5 21.5t46 6.5t46 -6.5t39 -21.5
t27.5 -39.5t10.5 -59.5q0 -34 -10.5 -58.5t-27.5 -39.5t-39 -22t-46 -7t-46 7t-38.5 22t-26.5 39.5t-10 58.5zM821 1747q0 35 10 59.5t27 39.5t39 21.5t47 6.5q23 0 44.5 -6.5t38.5 -21.5t27.5 -39.5t10.5 -59.5q0 -34 -10.5 -58.5t-27.5 -39.5t-38.5 -22t-44.5 -7
q-25 0 -47 7t-39 22t-27 39.5t-10 58.5z" />
    <glyph glyph-name="Zacute" unicode="&#x179;" horiz-adv-x="1364" 
d="M1229 1358l-770 -1233h442q63 0 103 17.5t63.5 46.5t34 65.5t14.5 75.5l10 92h148l-10 -422h-1178v102l768 1235h-403q-48 0 -79 -13t-49.5 -37.5t-27 -59t-12.5 -76.5l-11 -111h-147l10 422h1094v-104zM537 1606l49.5 67l55.5 78.5t52.5 81t40.5 74.5h322v-21
q-19 -27 -63 -67.5t-98.5 -84.5t-113 -85.5t-106.5 -69.5h-139v27z" />
    <glyph glyph-name="zacute" unicode="&#x17a;" horiz-adv-x="1083" 
d="M754 139q31 0 52.5 9t37 29t26 51.5t19.5 76.5l12 66h121l-10 -371h-975v84l604 874h-299q-23 0 -40 -6.5t-30.5 -23t-24.5 -44t-22 -69.5l-12 -49h-123l25 332h884v-88l-606 -871h361zM416 1268l49.5 67l55.5 78.5t52.5 81t40.5 74.5h322v-21q-19 -27 -63 -67.5
t-98.5 -84.5t-113 -85.5t-106.5 -69.5h-139v27z" />
    <glyph glyph-name="Zdotaccent" unicode="&#x17b;" horiz-adv-x="1364" 
d="M1229 1358l-770 -1233h442q63 0 103 17.5t63.5 46.5t34 65.5t14.5 75.5l10 92h148l-10 -422h-1178v102l768 1235h-403q-48 0 -79 -13t-49.5 -37.5t-27 -59t-12.5 -76.5l-11 -111h-147l10 422h1094v-104zM543 1768q0 39 13.5 67t37 45.5t55 26t68.5 8.5q35 0 67 -8.5
t56 -26t38.5 -45.5t14.5 -67q0 -38 -14.5 -66t-38.5 -46t-56 -27t-67 -9q-37 0 -68.5 9t-55 27t-37 46t-13.5 66z" />
    <glyph glyph-name="zdotaccent" unicode="&#x17c;" horiz-adv-x="1083" 
d="M754 139q31 0 52.5 9t37 29t26 51.5t19.5 76.5l12 66h121l-10 -371h-975v84l604 874h-299q-23 0 -40 -6.5t-30.5 -23t-24.5 -44t-22 -69.5l-12 -49h-123l25 332h884v-88l-606 -871h361zM408 1430q0 39 13.5 67t37 45.5t55 26t68.5 8.5q35 0 67 -8.5t56 -26t38.5 -45.5
t14.5 -67q0 -38 -14.5 -66t-38.5 -46t-56 -27t-67 -9q-37 0 -68.5 9t-55 27t-37 46t-13.5 66z" />
    <glyph glyph-name="Zcaron" unicode="&#x17d;" horiz-adv-x="1364" 
d="M1229 1358l-770 -1233h442q63 0 103 17.5t63.5 46.5t34 65.5t14.5 75.5l10 92h148l-10 -422h-1178v102l768 1235h-403q-48 0 -79 -13t-49.5 -37.5t-27 -59t-12.5 -76.5l-11 -111h-147l10 422h1094v-104zM338 1907h142l49.5 -40l59 -48.5l60 -50.5l52.5 -46l52.5 46
l60.5 50.5l60 48.5l50 40h141v-27l-56 -67l-64 -78.5t-60.5 -80.5t-44.5 -75h-276q-16 35 -44.5 75t-60.5 80.5l-64.5 78.5l-56.5 67v27z" />
    <glyph glyph-name="zcaron" unicode="&#x17e;" horiz-adv-x="1083" 
d="M754 139q31 0 52.5 9t37 29t26 51.5t19.5 76.5l12 66h121l-10 -371h-975v84l604 874h-299q-23 0 -40 -6.5t-30.5 -23t-24.5 -44t-22 -69.5l-12 -49h-123l25 332h884v-88l-606 -871h361zM208 1569h142l49.5 -40l59 -48.5l60 -50.5l52.5 -46l52.5 46l60.5 50.5l60 48.5
l50 40h141v-27l-56 -67l-64 -78.5t-60.5 -80.5t-44.5 -75h-276q-16 35 -44.5 75t-60.5 80.5l-64.5 78.5l-56.5 67v27z" />
    <glyph glyph-name="longs" unicode="&#x17f;" horiz-adv-x="803" 
d="M14 0v109h45q23 0 48.5 4.5t47 18.5t36 40t14.5 70v932q0 95 24.5 169.5t76 126t130.5 78.5t187 27q99 0 165 -11.5t105 -32t55.5 -47.5t16.5 -59q0 -69 -62.5 -101t-189.5 -32q0 25 -5.5 54t-17.5 54t-31.5 41.5t-48.5 16.5q-25 0 -43 -13.5t-29 -43t-16.5 -76.5
t-5.5 -115v-968q0 -44 14.5 -70t36 -40t47.5 -18.5t48 -4.5h96v-109h-744z" />
    <glyph glyph-name="florin" unicode="&#x192;" 
d="M924 778h-262l-39.5 -198.5l-38 -196.5l-37.5 -197l-39 -200q-27 -138 -72 -230t-107.5 -147t-142 -78t-174.5 -23q-49 0 -100 8t-86 19l31 129q14 -5 32 -10t38 -9t41 -7t40 -3q39 0 67 18.5t50 60t40.5 109t37.5 165.5l151 790h-202l26 142h201q9 48 19.5 96t19.5 96
q17 89 51 158t87.5 116t128.5 72t173 25q79 0 137 -12.5t96.5 -35t57 -52t18.5 -64.5t-11 -65.5t-38 -53t-72.5 -35t-113.5 -12.5q0 99 -21 156t-63 57q-25 0 -42.5 -14.5t-31 -44.5t-24.5 -75t-23 -106l-39 -206h262z" />
    <glyph glyph-name="Aringacute" unicode="&#x1fa;" horiz-adv-x="1542" 
d="M1024 1425q0 -58 -21.5 -101t-56.5 -71l404 -1011q15 -39 32 -64.5t36.5 -40.5t41 -21.5t45.5 -6.5h37v-109h-676v109h80q15 0 31 4.5t28.5 14t20.5 23.5t8 33q0 23 -5 44t-11 36l-66 168h-506l-55 -141q-9 -23 -19 -53.5t-10 -53.5q0 -18 8 -31.5t21 -23.5t29.5 -15
t34.5 -5h86v-109h-533v109h25q27 0 49.5 5.5t42 20.5t37 41t35.5 68l417 1005q-38 29 -60 72.5t-22 103.5q0 55 19 96.5t52.5 70t78.5 43t96 14.5t96 -14.5t78.5 -43t52.5 -70t19 -96.5zM795 848q-11 31 -22.5 67l-23 74l-22 75.5t-18.5 70.5l-21 -63.5l-25.5 -72.5l-27 -74
l-25.5 -69l-114 -299h403zM639 1720l50 54.5l55.5 63l52.5 64.5t41 60h321v-16q-19 -22 -63 -54.5t-98.5 -68t-113 -68.5t-106.5 -55h-139v20zM899 1425q0 30 -9.5 51t-26 34.5t-38.5 19.5t-47 6q-24 0 -46 -6t-38.5 -19.5t-26.5 -34.5t-10 -51q0 -56 32.5 -82t78.5 -28h20
q47 2 79 28t32 82z" />
    <glyph glyph-name="aringacute" unicode="&#x1fb;" horiz-adv-x="1227" 
d="M475 1720l50.5 54.5l55.5 63t52.5 64.5t40.5 60h321v-16q-19 -22 -63 -54.5t-98.5 -68t-113 -68.5t-106.5 -55h-139v20zM410 305q0 -88 28 -132t88 -44q44 0 79.5 18.5t61 52.5t39 82.5t13.5 108.5v154l-92 -6q-61 -3 -103 -19.5t-67 -45.5t-36 -71t-11 -98zM592 999
q-39 0 -65.5 -16.5t-42.5 -46t-22.5 -70t-6.5 -88.5q-138 0 -207.5 31t-69.5 106q0 56 33.5 96t91 65t134 36.5t163.5 11.5q108 0 188.5 -18.5t134 -59.5t80.5 -107.5t27 -162.5v-522q0 -42 6.5 -70t20.5 -44.5t38 -23.5t58 -7h8v-109h-381l-43 141h-18q-34 -41 -64 -71.5
t-64 -50.5t-76.5 -29.5t-100.5 -9.5q-68 0 -126.5 20t-102 61.5t-68.5 104t-25 147.5q0 167 114.5 247t344.5 87l168 6v113q0 51 -4 94t-17 74t-38.5 48t-67.5 17zM864 1419q0 -54 -19 -96t-52 -70t-78 -42.5t-97 -14.5q-51 0 -96 14.5t-78 42.5t-52 70t-19 96q0 55 19 96.5
t52 69.5t78 42.5t96 14.5q52 0 97 -14.5t78 -42.5t52 -69.5t19 -96.5zM739 1419q0 30 -9.5 51t-26 34.5t-38.5 19.5t-47 6q-24 0 -46 -6t-38.5 -19.5t-26 -34.5t-9.5 -51t9.5 -51t26 -34t38.5 -19t46 -6q25 0 47 6t38.5 19t26 34t9.5 51z" />
    <glyph glyph-name="AEacute" unicode="&#x1fc;" horiz-adv-x="2034" 
d="M1270 125h409q31 0 53 11.5t38 32.5t25.5 49.5t14.5 62.5l17 96h141l-14 -377h-1200v109h86q56 0 80 34.5t24 87.5v238h-471l-86 -172q-17 -32 -25 -61t-8 -48q0 -42 31.5 -60.5t91.5 -18.5h35v-109h-512v109h25q53 0 95 38.5t87 120.5l575 1075l-135 11v108h1243l8 -377
h-143l-10 97q-8 75 -38 115t-93 40h-344v-512h485v-123h-485v-577zM924 1337l-385 -745h405v745h-20zM1116 1606l49.5 67l55.5 78.5t52.5 81t40.5 74.5h322v-21q-19 -27 -63 -67.5t-98.5 -84.5t-113 -85.5t-106.5 -69.5h-139v27z" />
    <glyph glyph-name="aeacute" unicode="&#x1fd;" horiz-adv-x="1792" 
d="M410 305q0 -88 28 -132t88 -44q44 0 79.5 18.5t61 52.5t39 82.5t13.5 108.5v154l-92 -6q-61 -3 -103 -19.5t-67 -45.5t-36 -71t-11 -98zM1231 991q-85 0 -136.5 -85t-56.5 -249h355q0 160 -39 247t-123 87zM1253 -20q-151 0 -260.5 50t-175.5 146q-69 -103 -171 -149.5
t-232 -46.5q-68 0 -126.5 20t-102 61.5t-68.5 104t-25 147.5q0 167 114.5 247t344.5 87l168 6v113q0 51 -4 94t-17 74t-38.5 48t-67.5 17q-39 0 -65.5 -16.5t-42.5 -46t-22.5 -70t-6.5 -88.5q-138 0 -207.5 31t-69.5 106q0 56 33.5 96t91 65t134 36.5t163.5 11.5
q109 0 190.5 -27t135.5 -89q60 57 135 86.5t166 29.5q111 0 200 -31.5t151 -93.5t95 -154t33 -214v-105h-672q3 -103 22.5 -177t54.5 -122t84.5 -71t113.5 -23q53 0 98 12.5t81.5 35t63.5 53t45 65.5q56 -30 56 -100q0 -44 -23.5 -83.5t-72.5 -69.5t-124.5 -48t-179.5 -18z
M815 1268l49.5 67l55.5 78.5t52.5 81t40.5 74.5h322v-21q-19 -27 -63 -67.5t-98.5 -84.5t-113 -85.5t-106.5 -69.5h-139v27z" />
    <glyph glyph-name="Oslashacute" unicode="&#x1fe;" horiz-adv-x="1612" 
d="M1499 733q0 -169 -45.5 -308t-134 -238t-217 -153t-295.5 -54q-173 0 -303 53l-62 -115h-145l94 174q-140 96 -209 260.5t-69 382.5q0 170 43 308.5t129.5 236.5t217 151.5t306.5 53.5q85 0 160 -15t141 -43l64 119h143l-96 -178q136 -96 207 -258t71 -377zM457 733
q0 -128 14 -230t45 -179l506 942q-38 42 -91.5 64t-121.5 22q-96 0 -163 -41.5t-109 -121t-61 -194.5t-19 -262zM1155 733q0 127 -14 228.5t-43 179.5l-506 -944q40 -42 93 -63t122 -21q96 0 162.5 42t107.5 121.5t59.5 194.5t18.5 262zM666 1606l49.5 67l55.5 78.5t52.5 81
t40.5 74.5h322v-21q-19 -27 -63 -67.5t-98.5 -84.5t-113 -85.5t-106.5 -69.5h-139v27z" />
    <glyph glyph-name="oslashacute" unicode="&#x1ff;" horiz-adv-x="1255" 
d="M1159 553q0 -289 -135.5 -431t-398.5 -142q-138 0 -242 43l-66 -105h-145l102 168q-86 71 -132 187t-46 280q0 289 135.5 430t399.5 141q72 0 136 -12t118 -37l65 105h144l-105 -172q82 -72 126 -184t44 -271zM414 553q0 -63 3 -117.5t11 -99.5l352 571q-52 86 -153 86
q-59 0 -100 -27.5t-66 -82.5t-36 -137.5t-11 -192.5zM842 553q0 56 -3 104.5t-10 92.5l-348 -566q51 -75 148 -75q59 0 99.5 28.5t66 84.5t36.5 139t11 192zM504 1268l49.5 67l55.5 78.5t52.5 81t40.5 74.5h322v-21q-19 -27 -63 -67.5t-98.5 -84.5t-113 -85.5t-106.5 -69.5
h-139v27z" />
    <glyph glyph-name="Scommaaccent" unicode="&#x218;" horiz-adv-x="1200" 
d="M541 -20q-138 0 -230 26t-147.5 67t-79 92t-23.5 101q0 53 19.5 89t52 59t74 33t86.5 10q0 -88 21 -154.5t58 -111t88.5 -67t112.5 -22.5q60 0 107 17t80 47t50 70.5t17 87.5q0 52 -21 92.5t-63.5 75t-107 66t-150.5 67.5q-107 44 -180.5 90.5t-118.5 100.5t-64.5 117
t-19.5 138q0 94 38 170t105 130t159 83t200 29q113 0 195 -18.5t135.5 -50.5t79.5 -75.5t26 -93.5q0 -36 -15.5 -67t-47 -54t-79 -36t-110.5 -13q0 43 -11.5 92.5t-37.5 92t-67.5 70.5t-100.5 28q-41 0 -78 -12t-64.5 -36t-43.5 -59.5t-16 -81.5q0 -43 14 -81t51.5 -74.5
t103 -73t169.5 -78.5q105 -43 179 -88t121.5 -96.5t69 -113t21.5 -136.5q0 -99 -39 -181.5t-112 -141.5t-175.5 -92t-230.5 -33zM401 -426l21.5 69t22.5 78.5t20.5 80t15.5 73.5h238v-20q-14 -32 -36.5 -72t-49.5 -81.5l-55 -81.5t-54 -73h-123v27z" />
    <glyph glyph-name="scommaaccent" unicode="&#x219;" horiz-adv-x="999" 
d="M473 -20q-111 0 -189.5 18t-128 50t-72 76t-22.5 95q0 50 19.5 80.5t49 47.5t62.5 22.5t60 5.5q0 -64 16 -115t45 -86.5t69.5 -54.5t90.5 -19q53 0 91.5 11t63 30.5t36.5 45t12 53.5q0 34 -12.5 60.5t-41.5 50t-77.5 46t-120.5 47.5q-83 29 -146.5 61.5t-107 74t-66 95
t-22.5 122.5q0 82 31.5 143t89.5 101.5t139 60.5t180 20q97 0 165 -16.5t111 -43.5t63 -61t20 -69q0 -69 -48.5 -105t-160.5 -36q0 102 -45.5 158.5t-134.5 56.5q-33 0 -63.5 -8t-53 -24t-36 -39.5t-13.5 -55.5q0 -33 12.5 -59t44 -49.5t85.5 -47.5t138 -53
q68 -24 125.5 -54.5t99 -70t64.5 -90t23 -115.5q0 -85 -29.5 -152t-86.5 -113t-140 -70.5t-189 -24.5zM314 -426l21.5 69t22.5 78.5t20.5 80t15.5 73.5h238v-20q-14 -32 -36.5 -72t-49.5 -81.5l-55 -81.5t-54 -73h-123v27z" />
    <glyph glyph-name="circumflex" unicode="&#x2c6;" horiz-adv-x="1182" 
d="M227 1268l56.5 67l64.5 78.5t60.5 81t44.5 74.5h276q16 -34 44.5 -74.5t60.5 -81l64 -78.5l56 -67v-27h-141l-50 40l-60 48l-60.5 50l-52.5 46l-52.5 -46l-60 -50l-59 -48l-49.5 -40h-142v27z" />
    <glyph glyph-name="caron" unicode="&#x2c7;" horiz-adv-x="1182" 
d="M227 1569h142l49.5 -40l59 -48.5l60 -50.5l52.5 -46l52.5 46l60.5 50.5l60 48.5l50 40h141v-27l-56 -67l-64 -78.5t-60.5 -80.5t-44.5 -75h-276q-16 35 -44.5 75t-60.5 80.5l-64.5 78.5l-56.5 67v27z" />
    <glyph glyph-name="macron" unicode="&#x2c9;" horiz-adv-x="1024" 
d="M809 1241h-594v162h594v-162z" />
    <glyph glyph-name="breve" unicode="&#x2d8;" horiz-adv-x="1182" 
d="M590 1241q-81 0 -141.5 28.5t-101.5 74.5t-62 103.5t-23 115.5h135q17 -75 67 -107.5t126 -32.5q75 0 125 32.5t67 107.5h136q-2 -58 -23 -115.5t-62 -103.5t-101.5 -74.5t-141.5 -28.5z" />
    <glyph glyph-name="dotaccent" unicode="&#x2d9;" horiz-adv-x="666" 
d="M166 1430q0 39 13.5 67t37 45.5t55 26t68.5 8.5q35 0 67 -8.5t56 -26t38.5 -45.5t14.5 -67q0 -38 -14.5 -66t-38.5 -46t-56 -27t-67 -9q-37 0 -68.5 9t-55 27t-37 46t-13.5 66z" />
    <glyph glyph-name="ring" unicode="&#x2da;" horiz-adv-x="682" 
d="M586 1444q0 -55 -19 -96.5t-52.5 -69.5t-78.5 -42.5t-96 -14.5t-96 14.5t-78.5 42.5t-52.5 69.5t-19 96.5q0 54 19 96t52.5 70t78.5 42.5t96 14.5t96 -14.5t78.5 -42.5t52.5 -70t19 -96zM461 1444q0 30 -9.5 51t-26 34t-38.5 19t-47 6t-47 -6t-38.5 -19t-26 -34t-9.5 -51
t9.5 -51t26 -34.5t38.5 -19.5t47 -6t47 6t38.5 19.5t26 34.5t9.5 51z" />
    <glyph glyph-name="ogonek" unicode="&#x2db;" horiz-adv-x="1024" 
d="M311 -266q0 48 20 91t54 78.5t77.5 60.5t90.5 36h158q-32 -10 -66 -30t-61.5 -49.5t-45.5 -68.5t-18 -88q0 -28 10.5 -48.5t29.5 -33.5t45 -19.5t57 -6.5q27 0 59 4t70 12v-131q-16 -8 -39.5 -14t-48 -10t-48 -6.5t-39.5 -2.5q-149 0 -227 54t-78 172z" />
    <glyph glyph-name="tilde" unicode="&#x2dc;" horiz-adv-x="1182" 
d="M762 1436q22 0 39.5 9t30 24t20 34.5t10.5 40.5h133q-3 -62 -23 -117t-53.5 -96.5t-79 -65.5t-100.5 -24t-99.5 20t-83 44.5l-72 44.5t-66.5 20q-23 0 -40.5 -9t-30 -24t-20 -34.5t-10.5 -40.5h-133q3 62 23.5 117t54 96.5t79.5 65.5t101 24t99.5 -20t83 -44.5l72 -44.5
t65.5 -20z" />
    <glyph glyph-name="hungarumlaut" unicode="&#x2dd;" horiz-adv-x="1182" 
d="M188 1241v27l45.5 71l47 78l44.5 79t37 73h261v-21q-11 -18 -30.5 -42.5t-44.5 -52.5l-53.5 -57.5l-57.5 -57.5l-56.5 -53t-50.5 -44h-142zM578 1241v27l45 71l47.5 78l44.5 79t37 73h260v-21q-11 -18 -30.5 -42.5t-44.5 -52.5l-53.5 -57.5l-57.5 -57.5l-56.5 -53
t-50.5 -44h-141z" />
    <glyph glyph-name="tonos" unicode="&#x384;" horiz-adv-x="1182" 
d="M451 1268q10 31 21 69l22 78.5t20.5 80t15.5 73.5h279v-21q-14 -32 -38.5 -71.5t-54 -80.5t-61.5 -81l-61 -74h-143v27z" />
    <glyph glyph-name="dieresistonos" unicode="&#x385;" horiz-adv-x="1182" 
d="M487 1436l21.5 69t22.5 78.5t20.5 80t15.5 73.5h238v-21q-14 -32 -36.5 -71.5t-49.5 -81l-55 -81.5t-54 -73h-123v27zM209 1409q0 35 10 59.5t26.5 39.5t38.5 21.5t46 6.5t46 -6.5t39 -21.5t27.5 -39.5t10.5 -59.5q0 -34 -10.5 -58.5t-27.5 -39.5t-39 -22t-46 -7t-46 7
t-38.5 22t-26.5 39.5t-10 58.5zM711 1409q0 35 10 59.5t27 39.5t39 21.5t47 6.5q23 0 44.5 -6.5t38.5 -21.5t27 -39.5t10 -59.5q0 -34 -10 -58.5t-27 -39.5t-38.5 -22t-44.5 -7q-25 0 -47 7t-39 22t-27 39.5t-10 58.5z" />
    <glyph glyph-name="Alphatonos" unicode="&#x386;" horiz-adv-x="1542" 
d="M446 481l-59 -176q-8 -25 -16.5 -58.5t-8.5 -58.5q0 -20 8 -35t21 -24.5t29.5 -14.5t34.5 -5h86v-109h-533v109h25q27 0 49.5 6t42 22.5t37 45.5t35.5 75l444 1204h281l428 -1206q15 -43 31.5 -71.5t36 -45t41.5 -23.5t46 -7h37v-109h-676v109h80q15 0 31 4.5t28.5 14
t20.5 24.5t8 36q0 25 -6 48t-12 40l-72 205h-498zM795 942l-22.5 73.5l-23 78.5l-22 79.5t-18.5 75.5q-9 -31 -21 -68l-25.5 -76l-27 -78l-25.5 -75l-121 -346h414zM92 1163q10 31 21 69l22 78.5t20.5 80t15.5 73.5h279v-21q-14 -32 -38.5 -71.5t-54 -80.5t-61.5 -81
l-61 -74h-143v27z" />
    <glyph glyph-name="anoteleia" unicode="&#x387;" horiz-adv-x="623" 
d="M143 727q0 47 13 78.5t35.5 50.5t53.5 27t66 8q34 0 64.5 -8t53.5 -27t36.5 -50.5t13.5 -78.5q0 -46 -13.5 -77.5t-36.5 -50.5t-53.5 -27.5t-64.5 -8.5q-35 0 -66 8.5t-53.5 27.5t-35.5 50.5t-13 77.5z" />
    <glyph glyph-name="Epsilontonos" unicode="&#x388;" horiz-adv-x="1587" 
d="M823 125h410q31 0 53 11.5t38 32.5t25.5 49.5t14.5 62.5l16 96h142l-15 -377h-1200v109h86q22 0 41 4t33.5 16.5t22.5 37t8 64.5v990q0 44 -8 70t-22 40t-33 18.5t-42 4.5h-86v108h1137l8 -377h-143l-10 97q-8 75 -38 115t-93 40h-345v-512h486v-123h-486v-577zM-78 1163
q10 31 21 69l22 78.5t20.5 80t15.5 73.5h279v-21q-14 -32 -38.5 -71.5t-54 -80.5t-61.5 -81l-61 -74h-143v27z" />
    <glyph glyph-name="Etatonos" unicode="&#x389;" horiz-adv-x="1927" 
d="M1163 0v109h88q22 0 41 4.5t33.5 18.5t22.5 40t8 70v458h-535v-458q0 -44 8.5 -70t22.5 -40t33 -18.5t41 -4.5h88v-109h-707v109h86q22 0 41 4.5t33.5 18.5t22.5 40t8 70v986q0 41 -8.5 65.5t-23 37.5t-33.5 17.5t-40 4.5h-86v109h707v-109h-88q-22 0 -41 -4.5t-33 -18.5
t-22.5 -40t-8.5 -70v-395h535v395q0 44 -8 70t-22.5 40t-33.5 18.5t-41 4.5h-88v109h707v-109h-86q-21 0 -40 -4.5t-33.5 -18.5t-22.5 -40t-8 -70v-989q0 -40 8.5 -64.5t23 -37t33 -16.5t39.5 -4h86v-109h-707zM-78 1163q10 31 21 69l22 78.5t20.5 80t15.5 73.5h279v-21
q-14 -32 -38.5 -71.5t-54 -80.5t-61.5 -81l-61 -74h-143v27z" />
    <glyph glyph-name="Iotatonos" unicode="&#x38a;" horiz-adv-x="1071" 
d="M307 0v109h86q23 0 42 4.5t33 18.5t22 40t8 70v978q0 44 -8 70t-22 40t-33 18.5t-42 4.5h-86v109h707v-109h-86q-22 0 -41.5 -4.5t-33.5 -18.5t-22 -40t-8 -70v-978q0 -44 8 -70t22 -40t33.5 -18.5t41.5 -4.5h86v-109h-707zM-78 1163q10 31 21 69l22 78.5t20.5 80
t15.5 73.5h279v-21q-14 -32 -38.5 -71.5t-54 -80.5t-61.5 -81l-61 -74h-143v27z" />
    <glyph glyph-name="Omicrontonos" unicode="&#x38c;" horiz-adv-x="1647" 
d="M1534 733q0 -169 -45.5 -308t-134 -238t-217 -153t-295.5 -54q-175 0 -305.5 54t-216.5 153t-129 238.5t-43 309.5t43 308.5t129.5 236.5t217 151.5t306.5 53.5q166 0 294.5 -53.5t216.5 -152t133.5 -237t45.5 -309.5zM492 733q0 -147 19 -262t61 -194.5t108.5 -121.5
t161.5 -42q96 0 162.5 42t107.5 121.5t59.5 194.5t18.5 262t-18.5 262t-59.5 194.5t-107 121t-161 41.5q-96 0 -163 -41.5t-109 -121t-61 -194.5t-19 -262zM-78 1163q10 31 21 69l22 78.5t20.5 80t15.5 73.5h279v-21q-14 -32 -38.5 -71.5t-54 -80.5t-61.5 -81l-61 -74h-143
v27z" />
    <glyph glyph-name="Upsilontonos" unicode="&#x38e;" horiz-adv-x="1720" 
d="M637 0v109h96q25 0 46.5 3t37.5 15.5t25.5 37.5t9.5 68v285l-379 727q-15 30 -28.5 51t-29.5 33.5t-36.5 18.5t-50.5 6h-27v108h686v-108h-35q-62 0 -92.5 -25t-30.5 -67q0 -26 9.5 -56.5t21.5 -56.5l152 -301q32 -65 52.5 -115t37.5 -98q21 54 48.5 117.5t61.5 132.5
l119 245q22 45 28.5 75.5t6.5 47.5q0 53 -33.5 77t-101.5 24h-47v108h536v-108h-39q-26 0 -44.5 -7t-35 -25t-34 -49t-41.5 -79l-348 -678v-280q0 -45 9 -70t24.5 -38t36 -16t44.5 -3h101v-109h-756zM-78 1163q10 31 21 69l22 78.5t20.5 80t15.5 73.5h279v-21
q-14 -32 -38.5 -71.5t-54 -80.5t-61.5 -81l-61 -74h-143v27z" />
    <glyph glyph-name="Omegatonos" unicode="&#x38f;" horiz-adv-x="1718" 
d="M194 922q0 128 43 231.5t130 177.5t218.5 114t308.5 40q167 0 296 -40t217.5 -114t134 -177.5t45.5 -231.5q0 -217 -127 -352t-375 -179l-4 -172h205q53 0 90 7t61.5 22.5t39 39.5t22.5 58l16 68h113l-15 -414h-661l14 494q73 9 124 42t82.5 87.5t45.5 129.5t14 169
q0 102 -18 182t-58.5 135t-105 84t-158.5 29t-160 -29t-107 -84t-60 -135t-19 -182q0 -94 14.5 -169t46 -129.5t82.5 -87.5t124 -42l14 -494h-660l-14 410h113l16 -68q7 -34 21 -58t38.5 -39.5t61.5 -22.5t90 -7h207l-6 178q-248 44 -374 179t-126 350zM-78 1163
q10 31 21 69l22 78.5t20.5 80t15.5 73.5h279v-21q-14 -32 -38.5 -71.5t-54 -80.5t-61.5 -81l-61 -74h-143v27z" />
    <glyph glyph-name="iotadieresistonos" unicode="&#x390;" horiz-adv-x="805" 
d="M500 1098v-762q0 -100 33 -145.5t104 -45.5q37 0 77 4.5t72 10.5v-137q-13 -6 -37.5 -13.5t-58 -14t-74.5 -11t-86 -4.5q-80 0 -143 16.5t-107 53.5t-67 98t-23 149v801h310zM298 1436l21.5 69t22.5 78.5t20.5 80t15.5 73.5h238v-21q-14 -32 -36.5 -71.5t-49.5 -81
l-55 -81.5t-54 -73h-123v27zM20 1409q0 35 10 59.5t26.5 39.5t38.5 21.5t46 6.5t46 -6.5t39 -21.5t27.5 -39.5t10.5 -59.5q0 -34 -10.5 -58.5t-27.5 -39.5t-39 -22t-46 -7t-46 7t-38.5 22t-26.5 39.5t-10 58.5zM522 1409q0 35 10 59.5t27 39.5t39 21.5t47 6.5
q23 0 44.5 -6.5t38.5 -21.5t27 -39.5t10 -59.5q0 -34 -10 -58.5t-27 -39.5t-38.5 -22t-44.5 -7q-25 0 -47 7t-39 22t-27 39.5t-10 58.5z" />
    <glyph glyph-name="Alpha" unicode="&#x391;" horiz-adv-x="1542" 
d="M446 481l-59 -176q-8 -25 -16.5 -58.5t-8.5 -58.5q0 -20 8 -35t21 -24.5t29.5 -14.5t34.5 -5h86v-109h-533v109h25q27 0 49.5 6t42 22.5t37 45.5t35.5 75l444 1204h281l428 -1206q15 -43 31.5 -71.5t36 -45t41.5 -23.5t46 -7h37v-109h-676v109h80q15 0 31 4.5t28.5 14
t20.5 24.5t8 36q0 25 -6 48t-12 40l-72 205h-498zM795 942l-22.5 73.5l-23 78.5l-22 79.5t-18.5 75.5q-9 -31 -21 -68l-25.5 -76l-27 -78l-25.5 -75l-121 -346h414z" />
    <glyph glyph-name="Beta" unicode="&#x392;" horiz-adv-x="1376" 
d="M1241 1090q0 -68 -18.5 -118.5t-52.5 -87t-81.5 -62.5t-105.5 -44v-10q71 -18 129.5 -49.5t101 -77t66 -105.5t23.5 -135q0 -202 -147 -301.5t-439 -99.5h-660v109h84q23 0 42.5 4.5t33.5 18.5t22.5 40t8.5 70v981q0 41 -8.5 66.5t-23 39.5t-34 19.5t-41.5 5.5h-84v108
h598q292 0 439 -90t147 -282zM571 125h136q68 0 116 15t78 48.5t43.5 87.5t13.5 132q0 75 -12 130.5t-41 91.5t-76 54t-118 18h-140v-577zM571 827h78q72 0 119.5 15t76 46.5t40.5 81.5t12 120t-13.5 117t-43.5 76t-78 41.5t-117 12.5h-74v-510z" />
    <glyph glyph-name="Gamma" unicode="&#x393;" horiz-adv-x="1210" 
d="M1176 1462l14 -401h-115l-24 98q-23 89 -68.5 133.5t-128.5 44.5h-281v-1104q0 -40 8.5 -64.5t22.5 -38t33.5 -17.5t40.5 -4h127v-109h-748v109h86q23 0 42 4.5t33 18.5t22 40t8 70v979q0 44 -8 70t-22 40t-33 18.5t-42 4.5h-86v108h1119z" />
    <glyph glyph-name="uni0394" unicode="&#x394;" horiz-adv-x="1434" 
d="M1333 0h-1233v133l480 1329h292l461 -1315v-147zM1016 162l-264 770l-57.5 176t-43.5 160q-15 -74 -39.5 -148.5l-56.5 -169.5l-272 -788h733z" />
    <glyph glyph-name="Epsilon" unicode="&#x395;" horiz-adv-x="1337" 
d="M573 125h410q31 0 53 11.5t38 32.5t25.5 49.5t14.5 62.5l16 96h142l-15 -377h-1200v109h86q22 0 41 4t33.5 16.5t22.5 37t8 64.5v990q0 44 -8 70t-22 40t-33 18.5t-42 4.5h-86v108h1137l8 -377h-143l-10 97q-8 75 -38 115t-93 40h-345v-512h486v-123h-486v-577z" />
    <glyph glyph-name="Zeta" unicode="&#x396;" horiz-adv-x="1364" 
d="M1229 1358l-770 -1233h442q63 0 103 17.5t63.5 46.5t34 65.5t14.5 75.5l10 92h148l-10 -422h-1178v102l768 1235h-403q-48 0 -79 -13t-49.5 -37.5t-27 -59t-12.5 -76.5l-11 -111h-147l10 422h1094v-104z" />
    <glyph glyph-name="Eta" unicode="&#x397;" horiz-adv-x="1677" 
d="M913 0v109h88q22 0 41 4.5t33.5 18.5t22.5 40t8 70v458h-535v-458q0 -44 8.5 -70t22.5 -40t33 -18.5t41 -4.5h88v-109h-707v109h86q22 0 41 4.5t33.5 18.5t22.5 40t8 70v986q0 41 -8.5 65.5t-23 37.5t-33.5 17.5t-40 4.5h-86v109h707v-109h-88q-22 0 -41 -4.5t-33 -18.5
t-22.5 -40t-8.5 -70v-395h535v395q0 44 -8 70t-22.5 40t-33.5 18.5t-41 4.5h-88v109h707v-109h-86q-21 0 -40 -4.5t-33.5 -18.5t-22.5 -40t-8 -70v-989q0 -40 8.5 -64.5t23 -37t33 -16.5t39.5 -4h86v-109h-707z" />
    <glyph glyph-name="Theta" unicode="&#x398;" horiz-adv-x="1612" 
d="M639 942l10 -39q6 -22 13 -39.5t22 -29.5t42 -18.5t73 -6.5h10q41 0 68 6.5t44.5 19t26.5 30t15 38.5l10 39h106v-391h-106l-10 39q-6 21 -15 38.5t-26.5 30t-44.5 19t-68 6.5h-10q-46 0 -73 -6.5t-42 -18.5t-22 -29.5t-13 -39.5l-10 -39h-107v391h107zM1499 733
q0 -169 -45.5 -308t-134 -238t-217 -153t-295.5 -54q-175 0 -305.5 54t-216.5 153t-129 238.5t-43 309.5t43 308.5t129.5 236.5t217 151.5t306.5 53.5q166 0 294.5 -53.5t216.5 -152t133.5 -237t45.5 -309.5zM457 733q0 -147 19 -262t61 -194.5t108.5 -121.5t161.5 -42
q96 0 162.5 42t107.5 121.5t59.5 194.5t18.5 262t-18.5 262t-59.5 194.5t-107 121t-161 41.5q-96 0 -163 -41.5t-109 -121t-61 -194.5t-19 -262z" />
    <glyph glyph-name="Iota" unicode="&#x399;" horiz-adv-x="821" 
d="M57 0v109h86q23 0 42 4.5t33 18.5t22 40t8 70v978q0 44 -8 70t-22 40t-33 18.5t-42 4.5h-86v109h707v-109h-86q-22 0 -41.5 -4.5t-33.5 -18.5t-22 -40t-8 -70v-978q0 -44 8 -70t22 -40t33.5 -18.5t41.5 -4.5h86v-109h-707z" />
    <glyph glyph-name="Kappa" unicode="&#x39a;" horiz-adv-x="1503" 
d="M889 1090q33 35 55.5 63.5t36 53t19.5 46.5t6 43q0 34 -26 47t-89 13v106h555v-106q-42 0 -79.5 -13t-73.5 -37t-71 -57t-71 -73l-270 -297l381 -605q30 -48 57.5 -79.5t55.5 -50.5t57 -27t63 -8h8v-109h-110q-78 0 -137 5t-103.5 15t-76.5 25.5t-56 36.5t-43.5 47.5
t-38.5 58.5l-276 471l-91 -71v-346q0 -44 8.5 -70t22.5 -40t34 -18.5t42 -4.5h86v-109h-707v109h86q22 0 41 4t33.5 16.5t22.5 37t8 64.5v998q0 41 -8 65.5t-22.5 37.5t-33.5 17.5t-41 4.5h-86v108h707v-108h-86q-22 0 -42 -4.5t-34 -18.5t-22.5 -40t-8.5 -70v-478z" />
    <glyph glyph-name="Lambda" unicode="&#x39b;" horiz-adv-x="1430" 
d="M0 109h98q14 0 25 5.5t22 22t23.5 45.5t28.5 76l417 1204h205l436 -1255q10 -29 25.5 -48t33 -30t35.5 -15.5t33 -4.5h48v-109h-676v109h94q15 0 29 3.5t25.5 11t18.5 20.5t7 32q0 20 -6 45.5t-13 42.5l-209 631l-16 54t-17 65t-14.5 67.5t-9.5 61.5q-3 -17 -10.5 -46.5
t-17 -63.5t-20.5 -69l-20 -63l-210 -622q-4 -11 -8.5 -25t-8 -28t-6 -26.5t-2.5 -21.5q0 -34 22.5 -51.5t59.5 -17.5h106v-109h-528v109z" />
    <glyph glyph-name="Mu" unicode="&#x39c;" horiz-adv-x="1950" 
d="M1237 0v109h20q32 0 56.5 4t40.5 16t24 34.5t8 59.5v1037l-413 -1260h-139l-433 1260v-1018q0 -44 10.5 -70t30 -40t47.5 -18.5t64 -4.5h12v-109h-508v109h86q22 0 41 4t33.5 16.5t22.5 37t8 64.5v998q0 41 -8 65.5t-22.5 37.5t-33.5 17.5t-41 4.5h-86v108h590l340 -989
l326 989h579v-108h-86q-22 0 -41 -4.5t-33 -18.5t-22 -40t-8 -70v-979q0 -44 8 -70t22 -40t33 -18.5t41 -4.5h86v-109h-655z" />
    <glyph glyph-name="Nu" unicode="&#x39d;" horiz-adv-x="1614" 
d="M1200 0l-799 1128v-886q0 -44 8.5 -70t22.5 -40t33.5 -18.5t40.5 -4.5h86v-109h-535v109h86q22 0 41 4.5t33.5 18.5t22.5 40t8 70v987q0 41 -8.5 65.5t-23 37.5t-33.5 17.5t-40 4.5h-86v108h455l723 -1022v789q0 41 -8.5 65.5t-23 37.5t-33.5 17.5t-40 4.5h-86v108h535
v-108h-86q-21 0 -40 -4.5t-33.5 -18.5t-22.5 -40t-8 -70v-1221h-189z" />
    <glyph glyph-name="Xi" unicode="&#x39e;" horiz-adv-x="1292" 
d="M1217 0h-1141l-10 465h127l8 -62q4 -30 14 -58t29.5 -49t51 -33.5t77.5 -12.5h547q46 0 77 12.5t50.5 33.5t30 49t14.5 58l8 62h127zM1165 1022h-127l-8 61q-4 31 -14 59t-29.5 49t-51 33.5t-77.5 12.5h-424q-46 0 -77.5 -12.5t-51 -33.5t-29.5 -49t-14 -59l-8 -61h-127
l10 440h1018zM451 942l10 -39q6 -22 12.5 -39.5t21.5 -29.5t42 -18.5t73 -6.5h72q41 0 68 6.5t44.5 19t26.5 30t15 38.5l10 39h106v-391h-106l-10 39q-6 21 -15 38.5t-26.5 30t-44.5 19t-68 6.5h-72q-46 0 -73 -6.5t-42 -18.5t-21.5 -29.5t-12.5 -39.5l-10 -39h-107v391h107
z" />
    <glyph glyph-name="Omicron" unicode="&#x39f;" horiz-adv-x="1612" 
d="M1499 733q0 -169 -45.5 -308t-134 -238t-217 -153t-295.5 -54q-175 0 -305.5 54t-216.5 153t-129 238.5t-43 309.5t43 308.5t129.5 236.5t217 151.5t306.5 53.5q166 0 294.5 -53.5t216.5 -152t133.5 -237t45.5 -309.5zM457 733q0 -147 19 -262t61 -194.5t108.5 -121.5
t161.5 -42q96 0 162.5 42t107.5 121.5t59.5 194.5t18.5 262t-18.5 262t-59.5 194.5t-107 121t-161 41.5q-96 0 -163 -41.5t-109 -121t-61 -194.5t-19 -262z" />
    <glyph glyph-name="Pi" unicode="&#x3a0;" horiz-adv-x="1657" 
d="M893 0v109h88q21 0 40 4.5t33.5 18.5t22.5 40t8 70v1095h-514v-1095q0 -44 8.5 -70t22.5 -40t33 -18.5t41 -4.5h88v-109h-707v109h86q22 0 41 4.5t33.5 18.5t22.5 40t8 70v987q0 41 -8.5 65.5t-23 37.5t-33.5 17.5t-40 4.5h-86v108h1542v-108h-86q-21 0 -40 -4.5
t-33.5 -18.5t-22.5 -40t-8 -70v-990q0 -40 8.5 -64.5t23 -37t33 -16.5t39.5 -4h86v-109h-706z" />
    <glyph glyph-name="Rho" unicode="&#x3a1;" horiz-adv-x="1307" 
d="M1245 1028q0 -92 -32 -177t-104 -150t-187 -103.5t-281 -38.5h-70v-328q0 -40 9 -64.5t24 -37t35 -16.5t41 -4h125v-109h-748v109h86q23 0 42 4.5t33 18.5t22 40t8 70v987q0 41 -8 65.5t-22.5 37.5t-33.5 17.5t-41 4.5h-86v108h629q142 0 247 -30t174.5 -86.5
t103.5 -136.5t34 -181zM571 678h50q76 0 129 19t86.5 60t49 106t15.5 157q0 82 -13.5 142.5t-43 100t-77 59t-116.5 19.5h-80v-663z" />
    <glyph glyph-name="Sigma" unicode="&#x3a3;" horiz-adv-x="1300" 
d="M887 250q48 0 82 14.5t56.5 40.5t35.5 61.5t18 77.5l8 62h127l-10 -506h-1157v127l422 580l-377 675v80h1022l10 -379h-127l-10 109q-7 68 -47.5 106.5t-132.5 38.5h-393l284 -514v-30l-403 -543h592z" />
    <glyph glyph-name="Tau" unicode="&#x3a4;" horiz-adv-x="1337" 
d="M831 242q0 -44 8 -70t22.5 -40t33.5 -18.5t41 -4.5h86v-109h-707v109h86q23 0 42 4.5t33 18.5t22 40t8 70v1095h-164q-46 0 -77 -10t-50.5 -28.5t-29 -45.5t-13.5 -61l-14 -127h-138l11 397h1276l10 -397h-137l-15 127q-4 34 -13.5 61t-29 45.5t-50.5 28.5t-77 10h-164
v-1095z" />
    <glyph glyph-name="Upsilon" unicode="&#x3a5;" horiz-adv-x="1419" 
d="M336 0v109h96q25 0 46.5 3t37.5 15.5t25.5 37.5t9.5 68v285l-379 727q-15 30 -28.5 51t-29.5 33.5t-36.5 18.5t-50.5 6h-27v108h686v-108h-35q-62 0 -92.5 -25t-30.5 -67q0 -26 9.5 -56.5t21.5 -56.5l152 -301q32 -65 52.5 -115t37.5 -98q21 54 48.5 117.5t61.5 132.5
l119 245q22 45 28.5 75.5t6.5 47.5q0 53 -33.5 77t-101.5 24h-47v108h536v-108h-39q-26 0 -44.5 -7t-35 -25t-34 -49t-41.5 -79l-348 -678v-280q0 -45 9 -70t24.5 -38t36 -16t44.5 -3h101v-109h-756z" />
    <glyph glyph-name="Phi" unicode="&#x3a6;" horiz-adv-x="1741" 
d="M1020 393h59q78 0 133 19.5t90 62.5t51.5 111.5t16.5 165.5q0 86 -14 149t-45.5 104.5t-82 61.5t-122.5 20h-86v-694zM721 1087h-86q-72 0 -122.5 -20t-82 -61.5t-45.5 -104.5t-14 -149q0 -97 16.5 -165.5t51.5 -111.5t90 -62.5t133 -19.5h59v694zM721 274h-64
q-110 0 -197 19t-153 52.5t-113 80t-76.5 100.5t-43 113.5t-13.5 120.5q0 100 33 182.5t101 141.5t171 91.5t242 32.5h113v21q0 41 -13.5 65.5t-36 37.5t-53 17.5t-65.5 4.5h-27v108h688v-108h-26q-34 0 -65 -4.5t-53.5 -17.5t-36 -37.5t-13.5 -65.5v-21h113
q140 0 242.5 -32.5t170 -91.5t100.5 -141.5t33 -182.5q0 -61 -13.5 -120.5t-43 -113.5t-76 -100.5t-113 -80t-153.5 -52.5t-197 -19h-63v-41q0 -40 13.5 -64.5t36 -38t53.5 -17.5t65 -4h26v-109h-688v109h27q35 0 65.5 4t53 17.5t36 38t13.5 64.5v41z" />
    <glyph glyph-name="Chi" unicode="&#x3a7;" horiz-adv-x="1499" 
d="M1071 1294q0 18 -9 30t-24.5 18.5t-36.5 9t-45 2.5h-6v108h480v-108h-19q-30 0 -54 -7.5t-47.5 -25t-47.5 -45.5t-54 -70l-297 -405l377 -584q40 -63 83 -85.5t81 -22.5h27v-109h-676v109h10q123 0 123 67q0 12 -2 23t-9.5 26t-20.5 37t-36 55l-188 285l-221 -299
q-19 -26 -36 -59.5t-17 -65.5q0 -34 28 -51.5t96 -17.5h7v-109h-517v109h13q37 0 65 10t52.5 28.5t47.5 45t48 59.5l358 467l-338 526q-17 27 -33.5 47.5t-37 34t-45.5 20.5t-60 7h-27v108h678v-108h-6q-35 0 -58.5 -4.5t-37.5 -13t-19.5 -19.5t-5.5 -23q0 -21 15.5 -53
t38.5 -67l170 -254l178 249q18 28 36.5 62.5t18.5 62.5z" />
    <glyph glyph-name="Psi" unicode="&#x3a8;" horiz-adv-x="1999" 
d="M770 487q-115 0 -201 17.5t-148 49t-102.5 75t-64 95t-32.5 109.5t-9 119v254q0 48 -13.5 77.5t-36 45t-53 20.5t-65.5 5v108h467v-483q0 -97 12.5 -167.5t44.5 -116.5t89 -67.5t145 -21.5h45v621q0 41 -13.5 65.5t-36 38.5t-53 18.5t-65.5 4.5h-27v108h688v-108h-26
q-34 0 -65 -4.5t-53.5 -18.5t-36 -38.5t-13.5 -65.5v-621h45q88 0 144.5 21.5t89 67.5t45 116.5t12.5 167.5v483h467v-108q-34 0 -65 -5t-53.5 -20.5t-36 -45t-13.5 -77.5v-254q0 -61 -9 -119t-32.5 -109.5t-64 -95t-102.5 -75t-148 -49t-201 -17.5h-78v-254
q0 -40 13.5 -64.5t36 -38t53.5 -17.5t65 -4h26v-109h-688v109h27q35 0 65.5 4t53 17.5t36 38t13.5 64.5v254h-78z" />
    <glyph glyph-name="uni03A9" unicode="&#x3a9;" horiz-adv-x="1655" 
d="M131 922q0 128 43 231.5t130 177.5t218.5 114t308.5 40q167 0 296 -40t217.5 -114t134 -177.5t45.5 -231.5q0 -217 -127 -352t-375 -179l-4 -172h205q53 0 90 7t61.5 22.5t39 39.5t22.5 58l16 68h113l-15 -414h-661l14 494q73 9 124 42t82.5 87.5t45.5 129.5t14 169
q0 102 -18 182t-58.5 135t-105 84t-158.5 29t-160 -29t-107 -84t-60 -135t-19 -182q0 -94 14.5 -169t46 -129.5t82.5 -87.5t124 -42l14 -494h-660l-14 410h113l16 -68q7 -34 21 -58t38.5 -39.5t61.5 -22.5t90 -7h207l-6 178q-248 44 -374 179t-126 350z" />
    </font>
</defs>
</svg>
