<?xml version="1.0" standalone="no"?>
<!DOCTYPE svg PUBLIC "-//W3C//DTD SVG 1.1//EN" "http://www.w3.org/Graphics/SVG/1.1/DTD/svg11.dtd" >
<svg xmlns="http://www.w3.org/2000/svg">
<metadata>
This is a custom SVG webfont generated by Font Squirrel.
Copyright   : Copyright 19901993 Bitstream Inc  All rights reserved
</metadata>
<defs>
<font id="OrandaCnBTBold" horiz-adv-x="1024" >
<font-face units-per-em="2048" ascent="1638" descent="-410" />
<missing-glyph horiz-adv-x="487" />
<glyph unicode=" "  horiz-adv-x="487" />
<glyph unicode="&#x09;" horiz-adv-x="487" />
<glyph unicode="&#xa0;" horiz-adv-x="487" />
<glyph unicode="!" horiz-adv-x="555" d="M92 1114q0 84 41.5 119t142.5 35q104 0 145.5 -35t41.5 -121q0 -13 -1.5 -34.5t-4.5 -48.5l-90 -728h-181l-88 728q-3 29 -4.5 50.5t-1.5 34.5zM117 106q0 62 40.5 93.5t118.5 31.5q83 0 123.5 -30t40.5 -92q0 -63 -41 -95t-120 -32q-82 0 -122 31t-40 93z" />
<glyph unicode="&#x22;" horiz-adv-x="717" d="M74 1346q0 54 29.5 86t80.5 32q52 0 82.5 -31.5t30.5 -84.5q0 -8 -1 -17t-3 -22l-86 -463h-43l-86 462q-3 16 -3.5 23.5t-0.5 14.5zM420 1346q0 54 29.5 86t80.5 32t81 -31.5t30 -84.5q0 -16 -0.5 -24.5t-1.5 -15.5l-86 -462h-45l-84 463q-3 15 -3.5 22.5t-0.5 14.5z" />
<glyph unicode="#" horiz-adv-x="1575" d="M23 381l86 229h272l82 234h-285l86 229h281l139 393h248l-139 -393h241l140 393h247l-139 -393h270l-86 -229h-266l-82 -234h277l-84 -229h-275l-141 -393h-248l141 393h-241l-141 -393h-248l141 393h-276zM621 608h253l84 236h-253z" />
<glyph unicode="$" horiz-adv-x="977" d="M82 905q0 137 90 225.5t254 112.5v156h141v-152q80 -6 153.5 -23.5t143.5 -47.5v-238h-219l-65 155q-21 4 -38 5.5t-30 1.5q-68 0 -103.5 -31.5t-35.5 -91.5q0 -40 16.5 -69.5t52.5 -53.5l271 -184q100 -69 146 -145.5t46 -174.5q0 -137 -89 -229t-249 -119v-160h-141 v158h-37q-64 0 -145.5 19.5t-159.5 54.5v254h219l72 -176q2 -1 6 -1q35 -4 51 -4q76 0 118 35t42 99q0 45 -19.5 79.5t-62.5 65.5l-244 170q-97 68 -140.5 141.5t-43.5 167.5z" />
<glyph unicode="%" horiz-adv-x="1565" d="M35 862q0 193 87 298.5t245 105.5q146 0 227.5 -97t81.5 -272q0 -192 -88.5 -298.5t-247.5 -106.5q-146 0 -225.5 96.5t-79.5 273.5zM260 901q0 -178 21 -242.5t73 -64.5q51 0 73 63t22 222t-22 222.5t-73 63.5q-49 0 -71.5 -61.5t-22.5 -202.5zM412 45l596 1227l143 -74 l-598 -1227zM883 346q0 193 87.5 298.5t246.5 105.5q145 0 226 -97t81 -272q0 -193 -88.5 -299.5t-247.5 -106.5q-146 0 -225.5 97t-79.5 274zM1108 385q0 -179 21 -244t73 -65q51 0 72.5 64t21.5 222q0 159 -21.5 222t-72.5 63q-50 0 -72 -61t-22 -201z" />
<glyph unicode="&#x26;" horiz-adv-x="1395" d="M49 319q0 110 64 188.5t188 123.5l-55 55q-51 53 -77 113t-26 127q0 159 114 249.5t316 90.5q176 0 273.5 -79t97.5 -220q0 -105 -65 -182t-179 -107l328 -332q17 29 26 75.5t9 104.5v43h-121v156h410v-156h-95v-39q0 -87 -29.5 -163.5t-86.5 -133.5l76 -81l120 -35v-117 h-413l-50 49q-62 -34 -144.5 -50.5t-188.5 -16.5q-235 0 -363.5 88.5t-128.5 248.5zM350 381q0 -110 73 -177t193 -67q46 0 80.5 6t65.5 19l-363 368q-25 -31 -37 -67t-12 -82zM440 1008q0 -27 13 -53.5t53 -71.5l96 -109q43 35 64.5 83t21.5 108q0 73 -31.5 111t-93.5 38 q-55 0 -89 -29.5t-34 -76.5z" />
<glyph unicode="'" horiz-adv-x="371" d="M74 1346q0 53 31 85.5t81 32.5q51 0 81 -31.5t30 -84.5q0 -8 -1 -17t-3 -22l-86 -463h-43l-86 462q-3 16 -3.5 23.5t-0.5 14.5z" />
<glyph unicode="(" horiz-adv-x="473" d="M43 481q0 278 53.5 500t163.5 405l166 -49q-39 -165 -58.5 -375.5t-19.5 -480.5q0 -265 19.5 -479t58.5 -383l-166 -43q-111 184 -164 405t-53 500z" />
<glyph unicode=")" horiz-adv-x="473" d="M49 -375q39 163 57.5 372.5t18.5 483.5q0 275 -19 489t-57 376l166 40q111 -185 164 -406.5t53 -498.5q0 -276 -53 -497.5t-164 -407.5z" />
<glyph unicode="*" horiz-adv-x="659" d="M27 1159l77 139l197 -170l-47 252h158l-54 -250l193 173l82 -140l-242 -80l242 -77l-78 -138l-199 170l56 -256h-158l51 256l-196 -174l-76 133l243 84z" />
<glyph unicode="+" horiz-adv-x="1706" d="M254 496v231h481v494h238v-494h479v-231h-479v-496h-238v496h-481z" />
<glyph unicode="," horiz-adv-x="436" d="M57 117q0 64 44 99.5t124 35.5q96 0 141.5 -45t45.5 -139q0 -113 -55.5 -198t-157.5 -128l-93 98q47 31 71 66.5t24 73.5v14q-5 0 -9.5 -1t-5.5 -1q-59 0 -94 33.5t-35 91.5z" />
<glyph unicode="-" horiz-adv-x="426" d="M31 399v219h366v-219h-366z" />
<glyph unicode="." horiz-adv-x="436" d="M61 113q0 72 43 105.5t136 33.5q92 0 135 -33.5t43 -105.5q0 -73 -43.5 -107.5t-134.5 -34.5q-92 0 -135.5 34.5t-43.5 107.5z" />
<glyph unicode="/" horiz-adv-x="483" d="M4 -424l207 1810h268l-207 -1810h-268z" />
<glyph unicode="0" horiz-adv-x="977" d="M33 610q0 332 116 493t355 161q223 0 330.5 -156t107.5 -479q0 -322 -115.5 -488t-339.5 -166q-234 0 -344 154t-110 481zM360 621q0 -325 27 -409.5t100 -84.5t100 87t27 407q0 319 -27 405t-100 86t-100 -84t-27 -407z" />
<glyph unicode="1" horiz-adv-x="977" d="M80 979v147q145 26 255.5 60.5t170.5 73.5h180v-1108l150 -35v-117h-621v117l147 35v856z" />
<glyph unicode="2" horiz-adv-x="977" d="M47 0v14v21q0 99 32.5 175.5t119.5 174.5l278 315q46 52 67 106t21 118q0 82 -48.5 130t-133.5 48q-12 0 -20.5 -0.5t-17.5 -1.5l-62 -160h-205v229q97 48 199 72.5t206 24.5q203 0 313.5 -90t110.5 -252q0 -106 -44.5 -187.5t-151.5 -167.5l-338 -270q-7 -5 -17 -13 q-49 -38 -51 -58l367 -1l47 111h186v-338h-858z" />
<glyph unicode="3" horiz-adv-x="977" d="M41 70v163q68 -26 135 -39.5t127 -13.5q132 0 202 56t70 161q0 88 -54.5 137.5t-151.5 49.5h-17v151h6q86 0 134.5 48t48.5 132q0 89 -41.5 136t-120.5 47q-4 0 -13.5 -1t-15.5 -1l-61 -156h-207v225q111 51 209 75t194 24q186 0 287.5 -79t101.5 -222q0 -122 -75 -199 t-209 -92v-4q157 -11 238 -91t81 -225q0 -168 -131 -270t-350 -102q-110 0 -207.5 22.5t-179.5 67.5z" />
<glyph unicode="4" horiz-adv-x="977" d="M33 332v221l483 698h279v-702h125v-215h-125v-182l94 -35v-117h-481v117l94 35v180h-469zM238 549h264v397z" />
<glyph unicode="5" horiz-adv-x="977" d="M82 70v161q64 -24 121.5 -35.5t113.5 -11.5q109 0 173.5 60.5t64.5 161.5q0 99 -63.5 157t-174.5 58q-47 0 -97 -7t-99 -20v647h745v-231h-567v-226q47 12 90.5 17.5t85.5 5.5q196 0 306 -104t110 -289q0 -193 -131.5 -317t-337.5 -124q-88 0 -174.5 24.5t-165.5 72.5z " />
<glyph unicode="6" horiz-adv-x="977" d="M33 537q0 353 151.5 540t438.5 187q72 0 138 -12.5t128 -37.5l-1 -161q-44 9 -87 13.5t-86 4.5q-175 0 -266 -88.5t-91 -259.5q45 29 104.5 44t127.5 15q163 0 258.5 -100t95.5 -272q0 -204 -120.5 -320.5t-329.5 -116.5q-225 0 -343 144.5t-118 419.5zM360 465 q0 -199 28.5 -262.5t103.5 -63.5q62 0 95.5 58t33.5 168q0 118 -40.5 172.5t-127.5 54.5q-23 0 -46 -4.5t-46 -13.5z" />
<glyph unicode="7" horiz-adv-x="977" d="M51 885v356h873v-86q0 -105 -95 -293l-8 -16l-104 -209l-15 -30q-122 -246 -122 -427q0 -29 3 -73.5t9 -106.5h-350v117q0 238 208 537q17 24 25 36l174 252q2 3 5 7q24 37 24 65h-363l-59 -129h-205z" />
<glyph unicode="8" horiz-adv-x="977" d="M29 295q0 109 65.5 188.5t196.5 128.5l-76 50q-66 42 -102.5 111.5t-36.5 152.5q0 161 110 250.5t312 89.5q186 0 288.5 -76.5t102.5 -214.5q0 -84 -54.5 -153.5t-156.5 -114.5l78 -50q101 -63 144.5 -135.5t43.5 -175.5q0 -172 -121.5 -272.5t-330.5 -100.5 q-221 0 -342 84.5t-121 237.5zM334 299q0 -79 39.5 -121.5t113.5 -42.5q69 0 109.5 40.5t40.5 109.5q0 53 -30.5 96.5t-106.5 95.5l-51 35q-61 -49 -88 -99.5t-27 -113.5zM358 993q0 -47 23.5 -81.5t87.5 -73.5l63 -39q41 49 59.5 95t18.5 93q0 61 -34 95t-95 34 q-55 0 -89 -33.5t-34 -89.5z" />
<glyph unicode="9" horiz-adv-x="977" d="M23 834q0 202 120 317t332 115q228 0 343.5 -146t115.5 -434q0 -339 -149.5 -525t-419.5 -186q-81 0 -153 13t-134 39v163q45 -10 92 -15t92 -5q166 0 256 81.5t90 231.5v31q-44 -29 -104 -44t-127 -15q-163 0 -258.5 102t-95.5 277zM346 866q0 -112 42 -167.5t126 -55.5 q26 0 49 5t45 16v43q0 262 -27.5 327.5t-105.5 65.5q-64 0 -96.5 -59t-32.5 -175z" />
<glyph unicode=":" horiz-adv-x="483" d="M63 113q0 72 43 105.5t136 33.5q92 0 135 -33.5t43 -105.5q0 -73 -43.5 -107.5t-134.5 -34.5q-92 0 -135.5 34.5t-43.5 107.5zM63 762q0 72 43 105.5t136 33.5q92 0 135 -33.5t43 -105.5q0 -74 -43 -107.5t-135 -33.5q-93 0 -136 33.5t-43 107.5z" />
<glyph unicode=";" horiz-adv-x="483" d="M53 117q0 64 44 99.5t124 35.5q96 0 141.5 -45t45.5 -139q0 -113 -55.5 -198t-157.5 -128l-93 98q46 31 69.5 66t23.5 74l1 4q0 4 1 10q-5 0 -10.5 -1t-6.5 -1q-59 0 -93 33.5t-34 91.5zM63 762q0 72 43 105.5t136 33.5q92 0 135 -33.5t43 -105.5q0 -74 -43 -107.5 t-135 -33.5q-93 0 -136 33.5t-43 107.5z" />
<glyph unicode="&#x3c;" horiz-adv-x="1706" d="M264 494v233l1178 487v-253l-854 -351l854 -348v-254z" />
<glyph unicode="=" horiz-adv-x="1706" d="M254 272v230h1198v-230h-1198zM254 719v231h1198v-231h-1198z" />
<glyph unicode="&#x3e;" horiz-adv-x="1706" d="M264 8v254l854 348l-854 351v253l1178 -487v-233z" />
<glyph unicode="?" horiz-adv-x="887" d="M39 950v221q92 50 191.5 74.5t205.5 24.5q200 0 313 -85t113 -235q0 -67 -26.5 -128.5t-81.5 -121.5l-232 -254q-14 -16 -18 -27t-4 -28v-94h-185v65q0 79 39 158q6 13 8 18l105 232q18 40 28.5 87.5t10.5 84.5q0 84 -32 126t-95 42q-8 0 -17.5 -0.5t-19.5 -1.5l-74 -158 h-229zM248 104q0 62 41 94.5t119 32.5q81 0 121 -31t40 -94t-40 -94.5t-119 -31.5q-82 0 -122 31t-40 93z" />
<glyph unicode="@" horiz-adv-x="2019" d="M129 539q0 202 87.5 381t252.5 313q137 112 302.5 169.5t350.5 57.5q349 0 559.5 -189.5t210.5 -504.5q0 -164 -59 -302t-172 -239q-59 -52 -128 -80t-140 -28q-98 0 -156.5 52.5t-65.5 143.5q-60 -95 -130 -143.5t-148 -48.5q-156 0 -241 90t-85 256q0 116 50.5 223.5 t146.5 196.5q68 62 150 95.5t167 33.5q96 0 150 -44t67 -132l48 157h208l-174 -624q-8 -34 -11 -53t-3 -35q0 -45 19 -72t51 -27q30 0 84.5 27.5t101.5 69.5q97 87 148 211.5t51 273.5q0 121 -34 219.5t-101 171.5q-99 109 -235.5 166t-299.5 57q-139 0 -265 -39.5 t-233 -117.5q-166 -120 -255 -303t-89 -404q0 -336 205 -531.5t557 -195.5q163 0 315 49.5t316 157.5l41 -57q-151 -113 -321 -170.5t-351 -57.5q-432 0 -687 224.5t-255 601.5zM801 352q0 -71 32.5 -113t86.5 -42q59 0 115 60.5t108 180.5q42 99 67 198.5t25 166.5 t-27.5 103t-79.5 36q-60 0 -110 -44t-98 -140q-57 -112 -88 -218.5t-31 -187.5z" />
<glyph unicode="A" horiz-adv-x="1143" d="M-14 0v117l67 35l371 1089h321l334 -1089l74 -35v-117h-510v117l98 35l-82 299h-303l-86 -299l99 -35v-117h-383zM399 598h222l-109 391z" />
<glyph unicode="B" horiz-adv-x="1071" d="M33 0v117l98 35v940l-98 32v117h598q188 0 280.5 -74t92.5 -225q0 -135 -88.5 -217t-237.5 -84q166 -6 256 -87t90 -224q0 -158 -107.5 -244t-304.5 -86h-579zM444 137h64q89 0 139.5 58.5t50.5 160.5q0 109 -47 163t-141 54h-66v-436zM444 711h64q83 0 126.5 52.5 t43.5 154.5q0 95 -41 140.5t-127 45.5h-66v-393z" />
<glyph unicode="C" d="M51 590q0 308 175 492t470 184q73 0 148 -17t153 -51v-254h-227l-72 168h-22h-6q-124 0 -201.5 -133t-77.5 -356q0 -231 103 -347t307 -116q44 0 93 5t103 15v-141q-93 -32 -176.5 -48t-161.5 -16q-289 0 -448.5 161t-159.5 454z" />
<glyph unicode="D" horiz-adv-x="1176" d="M35 0v117l98 35v940l-98 32v117h495q301 0 457 -145.5t156 -425.5q0 -197 -58 -341.5t-170 -228.5q-72 -53 -169 -76.5t-259 -23.5h-452zM457 152h61q147 0 216 116.5t69 366.5q0 244 -65.5 349.5t-217.5 105.5h-63v-938z" />
<glyph unicode="E" horiz-adv-x="997" d="M33 0v117l98 35v940l-98 32v117h913v-297h-227l-62 160h-202v-399h157l54 131h182v-402h-182l-54 121h-157v-418h211l73 182h226v-319h-932z" />
<glyph unicode="F" horiz-adv-x="930" d="M33 0v117l98 35v940l-98 32v117h913v-297h-227l-62 160h-202v-399h157l54 131h182v-402h-182l-54 121h-157v-403l147 -35v-117h-569z" />
<glyph unicode="G" horiz-adv-x="1157" d="M51 573q0 320 170.5 505.5t464.5 185.5q85 0 173.5 -16.5t189.5 -51.5v-252h-226l-71 164q-14 1 -31 2.5t-21 1.5q-147 0 -228 -128t-81 -361q0 -224 81 -341.5t235 -117.5h20v258l-98 33v116h510v-116l-101 -33v-369q-114 -37 -206 -54t-173 -17q-291 0 -449.5 154 t-158.5 437z" />
<glyph unicode="H" horiz-adv-x="1233" d="M31 0v117l98 35v940l-98 32v117h520v-117l-98 -32v-367h327v367l-98 32v117h520v-117l-100 -32v-940l100 -35v-117h-520v117l98 35v419h-327v-419l98 -35v-117h-520z" />
<glyph unicode="I" horiz-adv-x="584" d="M31 0v117l98 35v940l-98 32v117h520v-117l-98 -32v-940l98 -35v-117h-520z" />
<glyph unicode="J" horiz-adv-x="551" d="M-246 -139h213l60 -133h20q40 0 60 26.5t20 79.5v1258l-98 32v117h520v-117l-98 -32v-1201q0 -150 -105 -231.5t-297 -81.5q-65 0 -137.5 11.5t-157.5 35.5v236z" />
<glyph unicode="K" horiz-adv-x="1157" d="M33 0v117l98 35v940l-98 32v117h520v-117l-98 -32v-940l98 -35v-117h-520zM463 612l325 488l-77 35v106h458v-106l-133 -35l-288 -359l321 -589l119 -35v-117h-410z" />
<glyph unicode="L" horiz-adv-x="938" d="M33 0v117l98 35v940l-98 32v117h569v-117l-147 -32v-955h190l74 182h225v-319h-911z" />
<glyph unicode="M" horiz-adv-x="1470" d="M33 0v117l96 35v940l-96 32v117h479l231 -723l236 723h461v-117l-97 -32v-940l97 -35v-117h-500v117l96 35v766l-301 -918h-108l-301 918v-766l96 -35v-117h-389z" />
<glyph unicode="N" horiz-adv-x="1190" d="M35 0v117l98 35v940l-98 32v117h385l450 -768v617l-98 43v108h393v-106l-98 -45v-1090h-252l-483 817v-665l98 -35v-117h-395z" />
<glyph unicode="O" horiz-adv-x="1165" d="M33 602q0 309 151 486.5t414 177.5q248 0 392.5 -167.5t144.5 -457.5q0 -308 -152.5 -486t-415.5 -178q-249 0 -391.5 167t-142.5 458zM373 621q0 -275 47 -379.5t162 -104.5q116 0 163.5 105.5t47.5 378.5q0 276 -47.5 380.5t-163.5 104.5t-162.5 -104t-46.5 -381z" />
<glyph unicode="P" horiz-adv-x="1038" d="M33 0v117l98 35v940l-98 32v117h532q233 0 342 -88.5t109 -275.5q0 -190 -118.5 -291t-342.5 -101h-100v-333l147 -35v-117h-569zM455 629h32q105 0 147 54.5t42 186.5q0 123 -41 176.5t-135 53.5h-45v-471z" />
<glyph unicode="Q" horiz-adv-x="1165" d="M33 596q0 312 152 491t415 179q249 0 392 -168t143 -461q0 -254 -106.5 -422.5t-291.5 -208.5q80 -154 148.5 -205t187.5 -51q32 0 105 11q8 1 12 1v-147q-81 -23 -158.5 -35t-148.5 -12q-188 0 -283 85.5t-174 334.5q-183 39 -288 201.5t-105 406.5zM375 616 q0 -275 47 -380t162 -105t162 105t47 380q0 281 -47 385.5t-162 104.5q-116 0 -162.5 -103.5t-46.5 -386.5z" />
<glyph unicode="R" horiz-adv-x="1145" d="M33 0v117l98 35v940l-98 32v117h618q192 0 282.5 -75.5t90.5 -235.5q0 -140 -85.5 -222t-240.5 -90q68 0 110.5 -31t98.5 -136l130 -241l3 -6q40 -72 111 -87v-117h-262q-62 0 -95 20t-61 78l-211 441q-7 14 -16.5 20t-26.5 6h-24v-413l98 -35v-117h-520zM455 702h75 q85 0 126.5 52t41.5 157q0 99 -40 146t-126 47h-77v-402z" />
<glyph unicode="S" horiz-adv-x="895" d="M41 909q0 169 117 263t327 94q86 0 169 -18t169 -56v-244h-219l-67 162q-13 2 -27 3t-39 1q-66 0 -102.5 -32t-36.5 -91q0 -35 17 -65t52 -56l271 -190q99 -69 144.5 -148.5t45.5 -181.5q0 -177 -118.5 -275t-333.5 -98q-101 0 -194 20.5t-173 59.5v260h219l72 -182h5 q36 -4 52 -4q74 0 116 36.5t42 100.5q0 42 -20.5 77.5t-61.5 64.5l-242 174q-98 70 -141 147t-43 178z" />
<glyph unicode="T" horiz-adv-x="1057" d="M12 946v295h1032v-295h-202l-62 158h-90v-952l148 -35v-117h-619v117l148 35v952h-91l-61 -158h-203z" />
<glyph unicode="U" horiz-adv-x="1200" d="M18 1124v117h521v-117l-99 -32v-723q0 -112 53 -167t160 -55q108 0 157.5 53t49.5 169v723l-98 32v117h414v-106l-99 -43v-713q0 -205 -117.5 -308.5t-351.5 -103.5q-248 0 -369.5 102t-121.5 310v713z" />
<glyph unicode="V" horiz-adv-x="1147" d="M-4 1124v117h500v-117l-99 -32l234 -834l246 834l-99 32v117h383v-117l-67 -32l-371 -1092h-320l-333 1092z" />
<glyph unicode="W" horiz-adv-x="1636" d="M-10 1124v117h495v-117l-98 -32l143 -838l205 987h273l211 -987l143 821l-98 33v133h383v-133l-68 -33l-250 -1075h-344l-172 819l-162 -819h-354l-238 1092z" />
<glyph unicode="X" horiz-adv-x="1176" d="M-4 0v117l98 35l340 462l-325 478l-99 32v117h557v-117l-82 -32l162 -263l172 263l-82 32v117h400v-117l-99 -32l-297 -404l361 -536l98 -35v-117h-573v117l98 35l-190 315l-209 -315l98 -35v-117h-428z" />
<glyph unicode="Y" horiz-adv-x="1133" d="M-14 1124v117h559v-117l-99 -32l185 -373l186 373l-98 32v117h434v-117l-102 -32l-320 -529v-411l127 -35v-117h-577v117l127 35v337l-324 603z" />
<glyph unicode="Z" horiz-adv-x="975" d="M25 0v207l596 887h-279l-55 -148h-228v295h891v-203l-600 -888h312l69 169h225v-319h-931z" />
<glyph unicode="[" horiz-adv-x="530" d="M106 -424v1810h406v-139h-117v-1532h117v-139h-406z" />
<glyph unicode="\" horiz-adv-x="483" d="M4 1386h268l207 -1810h-268z" />
<glyph unicode="]" horiz-adv-x="530" d="M18 -285h117v1532h-117v139h408v-1810h-408v139z" />
<glyph unicode="^" horiz-adv-x="2048" d="M412 897l481 565h260l479 -565h-121l-489 348l-490 -348h-120z" />
<glyph unicode="_" d="M0 -244h1024v-239h-1024v239z" />
<glyph unicode="`" d="M326 1337l252 62l190 -281l-172 -47z" />
<glyph unicode="a" horiz-adv-x="1034" d="M33 418q0 251 111.5 407t289.5 156q62 0 115.5 -16.5t107.5 -53.5l258 68v-815l99 -21v-118l-418 -45v106q-65 -53 -131.5 -81t-128.5 -28q-140 0 -221.5 118t-81.5 323zM367 430q0 -126 33 -192t98 -66q21 0 46 9t52 26v604q-16 8 -30 11t-31 3q-82 0 -125 -101.5 t-43 -293.5z" />
<glyph unicode="b" horiz-adv-x="1010" d="M-2 1223v116l416 45v-507q65 53 131.5 80.5t128.5 27.5q139 0 221 -118t82 -320q0 -249 -112 -405t-290 -156q-68 0 -123 16.5t-100 50.5l-256 -67v1214zM414 154q16 -7 30.5 -10t30.5 -3q83 0 125.5 103t42.5 305q0 117 -33 179.5t-96 62.5q-25 0 -48 -8t-52 -27v-602z " />
<glyph unicode="c" horiz-adv-x="844" d="M33 430q0 264 127.5 407.5t361.5 143.5q68 0 142.5 -13t160.5 -40v-228h-223l-67 162q-3 0 -10 1t-11 1q-67 0 -111.5 -104.5t-44.5 -274.5q0 -169 68 -253.5t205 -84.5q37 0 83 6.5t111 20.5v-133q-87 -33 -172 -49.5t-168 -16.5q-226 0 -339 114t-113 341z" />
<glyph unicode="d" horiz-adv-x="1034" d="M33 418q0 251 111.5 407t289.5 156q48 0 88 -8.5t74 -26.5v256l-98 21v118l417 45v-1220l99 -21v-118l-418 -45v104q-65 -53 -131.5 -81t-128.5 -28q-140 0 -221.5 118t-81.5 323zM367 436q0 -134 32 -199t99 -65q20 0 44.5 9t53.5 28v602q-13 7 -26 10.5t-27 3.5 q-89 0 -132.5 -97t-43.5 -292z" />
<glyph unicode="e" horiz-adv-x="868" d="M33 434q0 265 130.5 407t373.5 142q143 0 224 -67t81 -185q0 -143 -103 -211.5t-319 -68.5q-9 0 -29 1t-31 1v-23q0 -137 67.5 -208.5t195.5 -71.5q50 0 99.5 6t102.5 18v-131q-84 -33 -173.5 -49.5t-184.5 -16.5q-218 0 -326 114t-108 343zM360 567h19q92 0 134 45 t42 142q0 52 -20 78t-60 26q-57 0 -86 -61t-29 -181v-49z" />
<glyph unicode="f" horiz-adv-x="602" d="M33 0v117l98 35v669h-98v146h98v104q0 152 105 232.5t303 80.5q77 0 151.5 -12t143.5 -37v-205h-213l-60 134q-7 1 -13 1.5t-16 0.5q-46 0 -64.5 -29t-18.5 -109v-161h176v-146h-176v-669l133 -35v-117h-549z" />
<glyph unicode="g" horiz-adv-x="995" d="M33 418q0 251 111.5 407t289.5 156q61 0 115 -17t108 -53l256 68v-1057q0 -163 -115 -254.5t-321 -91.5q-113 0 -211.5 18.5t-181.5 55.5v207h272l41 -131h17q9 0 20 -1t12 -1q75 0 112.5 39t37.5 118v205q-65 -53 -131.5 -81t-128.5 -28q-140 0 -221.5 118t-81.5 323z M367 430q0 -126 33 -192t98 -66q21 0 46 9t52 26v604q-16 8 -30 11t-31 3q-82 0 -125 -101.5t-43 -293.5z" />
<glyph unicode="h" horiz-adv-x="1090" d="M29 0v117l98 35v1050l-98 21v116l415 45v-512q76 55 149.5 84t135.5 29q118 0 182 -63.5t64 -180.5v-589l100 -35v-117h-416v668q0 8 -1 19l-1 11q0 39 -25.5 64.5t-64.5 25.5q-30 0 -59.5 -8.5t-63.5 -27.5v-600l101 -35v-117h-516z" />
<glyph unicode="i" horiz-adv-x="569" d="M33 819v117l418 45v-829l98 -35v-117h-514v117l98 35v645zM104 1225q0 71 41.5 101t145.5 30q102 0 143 -30t41 -101t-41.5 -101t-142.5 -30q-104 0 -145.5 29.5t-41.5 101.5z" />
<glyph unicode="j" horiz-adv-x="555" d="M-193 -162h193l59 -141q5 -1 10 -1.5t11 -0.5q33 0 51.5 26t18.5 72v39v965l-99 22v117l416 45v-1077q0 -166 -95.5 -247t-291.5 -81q-74 0 -141.5 14t-131.5 41v207zM121 1225q0 71 40.5 101t143.5 30t145 -30.5t42 -100.5q0 -71 -42.5 -101t-144.5 -30 q-103 0 -143.5 29.5t-40.5 101.5z" />
<glyph unicode="k" horiz-adv-x="1100" d="M33 0v117l98 35v1050l-98 21v116l418 45v-1232l98 -35v-117h-516zM471 489l252 336l-88 33v109h448v-109l-133 -33l-196 -223l229 -450l117 -35v-117h-398z" />
<glyph unicode="l" horiz-adv-x="563" d="M29 0v117l98 35v1050l-98 21v116l417 45v-1232l99 -35v-117h-516z" />
<glyph unicode="m" horiz-adv-x="1626" d="M33 0v117l98 35v645l-98 22v117l418 45v-109q74 55 146.5 84t135.5 29q83 0 139.5 -28.5t83.5 -84.5q76 57 154.5 86t153.5 29q117 0 181 -63t64 -179v-593l99 -35v-117h-416v700q0 40 -25 65.5t-65 25.5q-29 0 -57.5 -8.5t-63.5 -26.5v-604l98 -35v-117h-415v668 q0 8 -1 19l-1 11q0 39 -25.5 64.5t-63.5 25.5q-29 0 -59 -8.5t-63 -27.5v-600l98 -35v-117h-516z" />
<glyph unicode="n" horiz-adv-x="1100" d="M33 0v117l100 35v645l-100 22v117l418 45v-109q75 55 147.5 84t134.5 29q119 0 183.5 -63.5t64.5 -180.5v-589l98 -35v-117h-415v698q0 39 -26 64.5t-65 25.5q-29 0 -59 -8.5t-63 -27.5v-600l98 -35v-117h-516z" />
<glyph unicode="o" horiz-adv-x="985" d="M33 453q0 253 121.5 390.5t345.5 137.5q220 0 336 -125t116 -362q0 -241 -124 -381t-336 -140q-217 0 -338 126.5t-121 353.5zM367 506q0 -223 28 -304t99 -81q69 0 98 81.5t29 286.5q0 191 -29 268t-98 77q-67 0 -97 -77.5t-30 -250.5z" />
<glyph unicode="p" horiz-adv-x="1047" d="M33 -307l98 35v1069l-98 20v119l416 45v-104q63 52 131.5 80t130.5 28q139 0 220 -116.5t81 -319.5q0 -250 -112 -405.5t-290 -155.5q-53 0 -92 8.5t-69 26.5v-295l133 -35v-117h-549v117zM449 155q13 -6 29 -10t32 -4q84 0 127 103.5t43 304.5q0 119 -33 181.5t-96 62.5 q-21 0 -46.5 -9.5t-55.5 -27.5v-601z" />
<glyph unicode="q" horiz-adv-x="1020" d="M33 418q0 251 111.5 407t289.5 156q61 0 115 -17t108 -53l258 68v-1251l99 -35v-117h-514v117l96 35v358q-65 -53 -131.5 -81t-128.5 -28q-140 0 -221.5 118t-81.5 323zM367 430q0 -126 33 -192t98 -66q21 0 46 9t52 26v604q-16 8 -30 11t-31 3q-82 0 -125 -101.5 t-43 -293.5z" />
<glyph unicode="r" horiz-adv-x="819" d="M33 0v117l98 35v645l-98 22v117l416 45v-131q70 62 138 94.5t130 32.5q30 0 54 -5.5t46 -17.5v-276h-235l-25 90h-25q-18 0 -41.5 -9t-41.5 -24v-583l133 -35v-117h-549z" />
<glyph unicode="s" horiz-adv-x="801" d="M41 688q0 140 97 216.5t274 76.5q68 0 148 -14.5t175 -44.5v-226h-223l-68 164q-5 0 -12 1t-8 1q-44 0 -71 -25.5t-27 -64.5q0 -36 15.5 -59t51.5 -43l201 -113q95 -54 134.5 -115t39.5 -153q0 -143 -102.5 -227.5t-280.5 -84.5q-79 0 -162.5 15t-179.5 47v231h240 l75 -176h15q47 0 76.5 28t29.5 75q0 31 -16 56t-49 46l-219 135q-83 52 -118.5 111t-35.5 143z" />
<glyph unicode="t" horiz-adv-x="659" d="M16 821v121l170 82l121 160h125v-217h221v-146h-221v-504q0 -93 28 -124t101 -31q21 0 44 2.5t48 7.5v-131q-58 -29 -133 -44t-155 -15q-129 0 -189.5 63t-60.5 199v577h-99z" />
<glyph unicode="u" horiz-adv-x="1081" d="M16 821v119l416 45v-706q0 -60 20 -87.5t62 -27.5q16 0 37 3t41 9q10 3 23 8.5t30 14.5v589l-98 33v119l416 45v-809l94 -33v-118l-412 -41v96q-69 -56 -145.5 -85.5t-153.5 -29.5q-109 0 -170 62t-61 174v587z" />
<glyph unicode="v" horiz-adv-x="985" d="M8 850v117h514v-117l-98 -33l137 -584l146 584l-99 33v117h367v-117l-68 -33l-250 -817h-342l-237 817z" />
<glyph unicode="w" horiz-adv-x="1497" d="M8 850v117h477v-117l-98 -33l119 -588l176 738h246l180 -713l111 547l-99 33v133h369v-133l-68 -33l-219 -801h-313l-144 569l-139 -569h-321l-207 817z" />
<glyph unicode="x" horiz-adv-x="1042" d="M4 0v117l86 33l270 333l-249 334l-84 33v117h501v-117l-67 -33l121 -162l104 162l-68 33v117h367v-117l-84 -33l-227 -285l284 -382l86 -33v-117h-520v117l86 33l-147 198l-129 -198l84 -33v-117h-414z" />
<glyph unicode="y" horiz-adv-x="963" d="M-14 850v117h512v-117l-99 -33l154 -495l129 495l-98 33v117h368v-117l-69 -33l-328 -1003q-43 -133 -111 -184.5t-194 -51.5q-57 0 -108.5 12.5t-78.5 32.5v217h211l35 -96h10q17 0 29.5 11.5t20.5 34.5l30 99l-346 928z" />
<glyph unicode="z" horiz-adv-x="862" d="M33 0v164l459 667h-166l-50 -133h-210v269h757v-148l-471 -686h197l47 141h221v-274h-784z" />
<glyph unicode="{" d="M178 596v80q153 14 207.5 76.5t54.5 230.5v186q0 199 85.5 273t314.5 74h12v-66q-111 -3 -152 -54t-41 -208v-131q0 -227 -50.5 -308.5t-184.5 -113.5q134 -33 184.5 -113.5t50.5 -306.5v-131q0 -158 41 -209.5t152 -55.5v-63h-12q-229 0 -314.5 74t-85.5 272v187 q0 168 -54.5 230t-207.5 77z" />
<glyph unicode="|" d="M393 -483v2048h240v-2048h-240z" />
<glyph unicode="}" d="M172 -181q111 4 152 55.5t41 209.5v131q0 226 50.5 306.5t184.5 113.5q-134 34 -184.5 115t-50.5 307v131q0 157 -41 208t-152 54v66h12q229 0 314.5 -74t85.5 -273v-186q0 -168 54.5 -230.5t207.5 -76.5v-80q-153 -15 -207.5 -77t-54.5 -230v-187q0 -198 -85.5 -272 t-314.5 -74h-12v63z" />
<glyph unicode="~" horiz-adv-x="1706" d="M178 401v254q112 73 207.5 108.5t179.5 35.5q63 0 126.5 -12t169.5 -46q16 -5 51 -17q159 -56 247 -56q84 0 173.5 36t197.5 115v-254q-101 -69 -194 -103t-183 -34q-45 0 -89 7.5t-83 21.5q-13 4 -38 13q-255 89 -382 89q-84 0 -175.5 -37.5t-207.5 -120.5z" />
<glyph unicode="&#xa1;" horiz-adv-x="555" d="M92 133q0 15 1.5 36.5t4.5 49.5l88 727h181l90 -727q3 -30 4.5 -53t1.5 -35q0 -83 -41.5 -117t-145.5 -34t-144 33.5t-40 119.5zM115 1141q0 61 41.5 93t119.5 32q82 0 122 -31t40 -94q0 -64 -42 -95.5t-128 -31.5q-75 0 -114 32t-39 95z" />
<glyph unicode="&#xa2;" horiz-adv-x="977" d="M102 459q0 227 102.5 370.5t282.5 169.5v170h144v-163q58 -8 118 -21t123 -33v-227h-223l-67 162q-3 0 -9.5 1t-11.5 1q-67 0 -111 -104.5t-44 -274.5q0 -169 67.5 -253.5t204.5 -84.5q37 0 83.5 6.5t110.5 20.5v-133q-65 -24 -125 -39t-116 -21v-166h-144v162 q-191 14 -288 128.5t-97 328.5z" />
<glyph unicode="&#xa3;" horiz-adv-x="977" d="M39 0v172q63 22 90 63.5t27 124.5v224h-113v155h113v162q0 191 101.5 277t328.5 86q95 0 184 -18.5t174 -55.5v-250h-225l-68 168h-41q-71 0 -104 -38.5t-33 -121.5v-209h291v-155h-291v-113q0 -98 -34 -153.5t-113 -90.5h395l53 111h205v-338h-940z" />
<glyph unicode="&#xa4;" horiz-adv-x="1241" d="M61 444l201 203q-36 54 -54 113t-18 125q0 67 18.5 126.5t53.5 110.5l-201 205l117 117l203 -201q54 37 113.5 55.5t126.5 18.5q69 0 130 -18.5t113 -55.5l201 201l119 -117l-201 -205q35 -53 52.5 -112t17.5 -125t-17.5 -125.5t-52.5 -112.5l201 -203l-119 -118 l-201 202q-52 -37 -111.5 -55t-129.5 -18t-128.5 17.5t-113.5 55.5l-203 -202zM362 885q0 -108 76 -183t185 -75q107 0 182.5 75t75.5 183q0 107 -76 183.5t-182 76.5q-107 0 -184 -77t-77 -183z" />
<glyph unicode="&#xa5;" horiz-adv-x="1133" d="M-4 1124v117h539v-117l-99 -34l185 -371l186 371l-98 34v117h434v-117l-101 -34l-155 -259h157v-131h-241l-82 -137h323v-133h-323v-278l127 -35v-117h-557v117l127 35v278h-334v133h295l-74 137h-221v131h149l-139 259z" />
<glyph unicode="&#xa6;" d="M393 -350v758h240v-758h-240zM393 674v758h240v-758h-240z" />
<glyph unicode="&#xa7;" horiz-adv-x="930" d="M33 477q0 111 66.5 198.5t183.5 127.5q-96 58 -140.5 124t-44.5 150q0 136 103.5 211.5t292.5 75.5q82 0 162 -14.5t155 -42.5v-236h-225l-66 150q-10 1 -19.5 1.5t-17.5 0.5q-53 0 -82.5 -25t-29.5 -70q0 -32 21 -59.5t67 -54.5l229 -135q114 -67 161.5 -139.5 t47.5 -176.5q0 -100 -71.5 -189t-180.5 -120q104 -68 145 -132t41 -155q0 -128 -105.5 -203t-289.5 -75q-83 0 -162.5 14t-154.5 43v236h225l66 -148q9 0 21 -2t13 -2q57 0 85 24t28 72q0 31 -20.5 58.5t-65.5 54.5l-229 135q-110 65 -159.5 137.5t-49.5 165.5zM299 573 q0 -51 29 -92.5t94 -83.5l110 -69q50 27 74.5 67t24.5 92q0 47 -29 87t-96 83l-109 70q-50 -31 -74 -69t-24 -85z" />
<glyph unicode="&#xa8;" d="M246 1255q0 64 26.5 94.5t81.5 30.5t82 -30.5t27 -94.5q0 -63 -27 -94t-82 -31t-81.5 31t-26.5 94zM555 1255q0 64 27 94.5t82 30.5q54 0 81 -30.5t27 -94.5q0 -63 -27 -94t-81 -31q-55 0 -82 31t-27 94z" />
<glyph unicode="&#xa9;" horiz-adv-x="1683" d="M98 678q0 149 55.5 283t161.5 241q105 106 242.5 163.5t286.5 57.5q144 0 280.5 -56.5t241.5 -160.5q104 -104 161.5 -242.5t57.5 -285.5q0 -146 -56.5 -281.5t-162.5 -242.5q-105 -106 -240 -161.5t-284 -55.5t-283 55.5t-242 161.5q-106 104 -162.5 239t-56.5 285z M213 678q0 -130 47 -244t137 -203q93 -91 205.5 -137.5t239.5 -46.5t240.5 47.5t201.5 136.5q89 91 137.5 207.5t48.5 239.5q0 126 -48.5 244.5t-135.5 203.5q-89 88 -205 136.5t-237 48.5q-126 0 -242.5 -49t-204.5 -138q-89 -91 -136.5 -206t-47.5 -240zM403 664 q0 194 122.5 319t312.5 125q82 0 157.5 -33t79.5 -33q22 0 33.5 13.5t19.5 48.5h50v-330h-52q-29 130 -98 201.5t-164 71.5q-112 0 -167.5 -91t-55.5 -272q0 -182 61 -278.5t177 -96.5q76 0 143.5 44.5t124.5 131.5l51 -32q-64 -108 -152 -162.5t-198 -54.5 q-192 0 -318.5 122t-126.5 306z" />
<glyph unicode="&#xaa;" horiz-adv-x="776" d="M25 858q0 175 84 284t217 109q46 0 86 -11t82 -36l192 47v-571l74 -14v-84l-314 -31v74q-49 -37 -98.5 -56.5t-95.5 -19.5q-105 0 -166 83t-61 226zM274 866q0 -87 25.5 -133.5t73.5 -46.5q17 0 35.5 6t37.5 19v422q-9 5 -20 7.5t-25 2.5q-61 0 -94 -71.5t-33 -205.5z " />
<glyph unicode="&#xab;" horiz-adv-x="819" d="M33 506l166 352h190l-86 -352l86 -352h-190zM408 506l165 352h189l-84 -352l84 -352h-189z" />
<glyph unicode="&#xac;" horiz-adv-x="1706" d="M254 639v227h1198v-501h-229v274h-969z" />
<glyph unicode="&#xad;" horiz-adv-x="426" d="M31 399v219h366v-219h-366z" />
<glyph unicode="&#xae;" horiz-adv-x="1683" d="M98 678q0 149 56 284t161 240q105 106 242.5 163.5t286.5 57.5q150 0 291 -60t245 -169q99 -102 152 -240t53 -292q0 -141 -63 -280.5t-176 -246.5q-102 -97 -232 -149t-272 -52q-109 0 -212.5 31.5t-197.5 91.5q-159 107 -246.5 269.5t-87.5 351.5zM213 678 q0 -130 47 -244t137 -203q93 -91 205.5 -137.5t239.5 -46.5t240.5 47.5t201.5 136.5q89 91 137.5 207.5t48.5 239.5q0 125 -49 243.5t-137 204.5q-89 88 -204 136.5t-236 48.5q-127 0 -244.5 -49t-204.5 -138q-88 -90 -135 -204.5t-47 -241.5zM463 281v57q57 5 77.5 24 t20.5 66v524q0 47 -19 65.5t-79 26.5v56h405q147 0 236.5 -56t89.5 -145q0 -87 -64.5 -136.5t-211.5 -74.5q116 -23 172.5 -87.5t56.5 -172.5q0 -48 10 -68t33 -20q25 0 39 31t14 88v12h55q0 -5 1 -15t1 -14q0 -90 -47 -135t-141 -45q-45 0 -80 13t-55 36q-32 37 -36 134 q-2 43 -5 65q-13 87 -47.5 124.5t-100.5 37.5h-16v-244q0 -45 18 -63.5t70 -26.5v-57h-397zM772 728q8 -2 16 -2.5t23 -0.5q85 0 127.5 43.5t42.5 130.5q0 62 -38.5 103.5t-98.5 41.5q-37 0 -54.5 -15.5t-17.5 -47.5v-253z" />
<glyph unicode="&#xaf;" d="M242 1174v176h538v-176h-538z" />
<glyph unicode="&#xb0;" horiz-adv-x="674" d="M27 1155q0 131 90.5 221t220.5 90q129 0 220 -91t91 -220q0 -128 -91.5 -219.5t-221.5 -91.5q-129 0 -219 90.5t-90 220.5zM172 1157q0 -70 48 -118t118 -48q68 0 116 49t48 117t-48 116t-116 48q-69 0 -117.5 -48t-48.5 -116z" />
<glyph unicode="&#xb1;" horiz-adv-x="1706" d="M254 -18v231h1198v-231h-1198zM254 690v232h481v319h238v-319h479v-232h-479v-319h-238v319h-481z" />
<glyph unicode="&#xb2;" horiz-adv-x="645" d="M31 496v8v12q0 59 21 105t79 106l184 188q30 32 44 64t14 72q0 48 -32.5 77t-88.5 29q-7 0 -13 -0.5t-11 -1.5l-42 -96h-135v139q67 29 134 43t134 14q133 0 206 -53.5t73 -150.5q0 -65 -29.5 -114t-99.5 -99l-223 -162q-4 -3 -14 -10q-29 -21 -31 -33h241l33 65h123 v-202h-567z" />
<glyph unicode="&#xb3;" horiz-adv-x="645" d="M27 537v98q47 -15 91 -23t83 -8q86 0 132 33.5t46 95.5q0 54 -35.5 83.5t-99.5 29.5h-11v90h5q55 0 86.5 29t31.5 79q0 54 -27.5 82.5t-78.5 28.5q-3 0 -9.5 -1t-9.5 -1l-41 -94h-137v135q72 30 137.5 44.5t128.5 14.5q123 0 191 -47t68 -133q0 -72 -50.5 -118.5 t-138.5 -55.5v-2q104 -8 157.5 -56t53.5 -134q0 -101 -86.5 -162.5t-230.5 -61.5q-73 0 -137.5 13.5t-118.5 40.5z" />
<glyph unicode="&#xb4;" d="M326 1118l190 281l252 -62l-268 -266z" />
<glyph unicode="&#xb5;" horiz-adv-x="1233" d="M-98 -303q0 56 69 281t105 397l108 510h293l-106 -498q-10 -43 -15.5 -75t-5.5 -50q0 -54 28 -86.5t75 -32.5q62 0 104 55t68 171l110 516h291l-111 -525q-6 -26 -9 -49t-3 -43q0 -43 19.5 -67.5t54.5 -24.5q26 0 49.5 13.5t40.5 37.5q10 14 25 42q35 63 65 63 q11 0 20 -12t9 -27q0 -30 -21 -87t-53 -104q-41 -62 -95.5 -92t-125.5 -30q-90 0 -136.5 47.5t-54.5 146.5q-36 -97 -98.5 -145.5t-150.5 -48.5q-101 0 -161 54.5t-71 155.5q-12 -89 -27 -239q-40 -377 -163 -377q-57 0 -92 34.5t-35 88.5z" />
<glyph unicode="&#xb6;" d="M29 1130q0 158 106 253.5t283 95.5h579v-123h-106v-1356h-176v1356h-150v-1356h-174v784q-164 6 -263 101t-99 245z" />
<glyph unicode="&#xb7;" horiz-adv-x="436" d="M39 618q0 73 43.5 107.5t134.5 34.5q92 0 136 -34.5t44 -107.5q0 -72 -43 -105.5t-137 -33.5q-93 0 -135.5 33.5t-42.5 105.5z" />
<glyph unicode="&#xb8;" d="M391 -342q58 23 86.5 52.5t28.5 66.5q0 29 -19.5 47t-54.5 23v153h133v-76q58 -4 95.5 -44.5t37.5 -96.5q0 -93 -72 -153t-204 -76z" />
<glyph unicode="&#xb9;" horiz-adv-x="645" d="M53 1083v88q99 17 171.5 37.5t109.5 42.5h119v-665l100 -21v-69h-410v69l97 21v514z" />
<glyph unicode="&#xba;" horiz-adv-x="739" d="M25 883q0 177 91 272.5t259 95.5q165 0 252.5 -87t87.5 -253q0 -169 -93.5 -266.5t-252.5 -97.5q-163 0 -253.5 88t-90.5 248zM274 920q0 -154 22 -212.5t75 -58.5q51 0 72.5 57t21.5 201q0 136 -21.5 189t-72.5 53t-74 -54t-23 -175z" />
<glyph unicode="&#xbb;" horiz-adv-x="819" d="M57 154l86 352l-86 352h189l166 -352l-166 -352h-189zM432 154l86 352l-86 352h189l165 -352l-165 -352h-189z" />
<glyph unicode="&#xbc;" horiz-adv-x="1573" d="M51 1094v82q87 13 157 32.5t111 40.5h113v-620l94 -19v-65h-391v65l94 19v481zM354 186l766 973l103 -98l-762 -977zM977 186v123l305 391h174v-393h80v-121h-80v-102l60 -18v-66h-304v66l60 18v102h-295zM1106 307h166v223z" />
<glyph unicode="&#xbd;" horiz-adv-x="1573" d="M51 1094v82q87 13 157 32.5t111 40.5h113v-620l94 -19v-65h-391v65l94 19v481zM354 186l766 973l103 -98l-762 -977zM985 0v8v12q0 54 20.5 97t75.5 98l176 178q29 29 42.5 59t13.5 66q0 45 -31 71.5t-84 26.5h-24l-39 -90h-129v129q62 27 126.5 40.5t129.5 13.5 q126 0 196 -50t70 -141q0 -60 -28.5 -106t-94.5 -93l-213 -151q-5 -4 -15 -11q-26 -18 -28 -30h231l29 61h117v-188h-541z" />
<glyph unicode="&#xbe;" horiz-adv-x="1573" d="M27 584v92q43 -15 85 -23t78 -8q84 0 128 31.5t44 91.5q0 50 -34 77t-97 27h-10v84h4q54 0 84.5 27t30.5 74q0 49 -26 75.5t-74 26.5h-19l-39 -88h-131v127q72 29 134 42t120 13q117 0 181.5 -44.5t64.5 -125.5q0 -68 -48 -111t-132 -51v-1q99 -7 150.5 -52t51.5 -127 q0 -93 -83 -151t-220 -58q-68 0 -129.5 13t-113.5 39zM356 186l766 973l103 -98l-762 -977zM979 186v123l305 391h174v-393h80v-121h-80v-102l60 -18v-66h-304v66l60 18v102h-295zM1108 307h166v223z" />
<glyph unicode="&#xbf;" horiz-adv-x="887" d="M39 299q0 68 27 130t81 122l230 252q15 15 19.5 26.5t4.5 28.5v96h185v-65q0 -76 -38 -158q-6 -13 -9 -20l-105 -232q-19 -42 -30 -90t-11 -92q0 -76 34 -117t97 -41q14 0 21 0.5t14 1.5l72 158h231v-221q-92 -49 -191.5 -73.5t-205.5 -24.5q-200 0 -313 85t-113 234z M330 1145q0 61 41.5 93t120.5 32q81 0 121 -31t40 -94q0 -64 -41.5 -95.5t-126.5 -31.5q-76 0 -115.5 32.5t-39.5 94.5z" />
<glyph unicode="&#xc0;" horiz-adv-x="1143" d="M-14 0v117l67 35l371 1089h321l334 -1089l74 -35v-117h-510v117l98 35l-82 299h-303l-86 -299l99 -35v-117h-383zM399 598h222l-109 391zM385 1642l252 62l190 -281l-172 -47z" />
<glyph unicode="&#xc1;" horiz-adv-x="1143" d="M-14 0v117l67 35l371 1089h321l334 -1089l74 -35v-117h-510v117l98 35l-82 299h-303l-86 -299l99 -35v-117h-383zM399 598h222l-109 391zM385 1423l190 281l252 -62l-268 -266z" />
<glyph unicode="&#xc2;" horiz-adv-x="1143" d="M-14 0v117l67 35l371 1089h321l334 -1089l74 -35v-117h-510v117l98 35l-82 299h-303l-86 -299l99 -35v-117h-383zM399 598h222l-109 391zM256 1427l223 277h184l221 -277l-149 -51l-166 160l-166 -160z" />
<glyph unicode="&#xc3;" horiz-adv-x="1143" d="M-14 0v117l67 35l371 1089h321l334 -1089l74 -35v-117h-510v117l98 35l-82 299h-303l-86 -299l99 -35v-117h-383zM399 598h222l-109 391zM235 1548q71 77 119 107t94 30q51 0 134 -34.5t112 -34.5q26 0 54 16.5t63 52.5l92 -100q-71 -77 -119 -107t-94 -30 q-48 0 -130 33.5t-114 33.5q-28 0 -56.5 -16t-62.5 -51z" />
<glyph unicode="&#xc4;" horiz-adv-x="1143" d="M-14 0v117l67 35l371 1089h321l334 -1089l74 -35v-117h-510v117l98 35l-82 299h-303l-86 -299l99 -35v-117h-383zM399 598h222l-109 391zM305 1560q0 64 26.5 94.5t81.5 30.5t82 -30.5t27 -94.5q0 -63 -27 -94t-82 -31t-81.5 31t-26.5 94zM614 1560q0 64 27 94.5t82 30.5 q54 0 81 -30.5t27 -94.5q0 -63 -27 -94t-81 -31q-55 0 -82 31t-27 94z" />
<glyph unicode="&#xc5;" horiz-adv-x="1143" d="M-14 0v117l67 35l371 1089h321l334 -1089l74 -35v-117h-510v117l98 35l-82 299h-303l-86 -299l99 -35v-117h-383zM307 1579q0 114 79 193t194 79q113 0 192.5 -79t79.5 -193t-79.5 -193t-192.5 -79q-116 0 -194.5 78.5t-78.5 193.5zM399 598h222l-109 391zM451 1579 q0 -53 38.5 -91t92.5 -38q52 0 90.5 38t38.5 91t-38.5 91t-90.5 38q-54 0 -92.5 -38t-38.5 -91z" />
<glyph unicode="&#xc6;" horiz-adv-x="1460" d="M-39 0v117l70 35l446 1089h926v-295h-225l-62 158h-205v-422h148l53 133h195v-403h-195l-53 120h-148v-395h213l72 182h227v-319h-911v117l98 35v380h-217l-145 -380l98 -35v-117h-385zM449 682h161v442z" />
<glyph unicode="&#xc7;" d="M51 590q0 308 175 492t470 184q73 0 148 -17t153 -51v-254h-227l-72 168h-22h-6q-124 0 -201.5 -133t-77.5 -356q0 -231 103 -347t307 -116q44 0 93 5t103 15v-141q-93 -32 -176.5 -48t-161.5 -16q-289 0 -448.5 161t-159.5 454zM522 -342q58 23 86.5 52.5t28.5 66.5 q0 29 -19.5 47t-54.5 23v153h133v-76q58 -4 95.5 -44.5t37.5 -96.5q0 -93 -72 -153t-204 -76z" />
<glyph unicode="&#xc8;" horiz-adv-x="997" d="M33 0v117l98 35v940l-98 32v117h913v-297h-227l-62 160h-202v-399h157l54 131h182v-402h-182l-54 121h-157v-418h211l73 182h226v-319h-932zM314 1642l252 62l190 -281l-172 -47z" />
<glyph unicode="&#xc9;" horiz-adv-x="997" d="M33 0v117l98 35v940l-98 32v117h913v-297h-227l-62 160h-202v-399h157l54 131h182v-402h-182l-54 121h-157v-418h211l73 182h226v-319h-932zM314 1423l190 281l252 -62l-268 -266z" />
<glyph unicode="&#xca;" horiz-adv-x="997" d="M33 0v117l98 35v940l-98 32v117h913v-297h-227l-62 160h-202v-399h157l54 131h182v-402h-182l-54 121h-157v-418h211l73 182h226v-319h-932zM185 1427l223 277h184l221 -277l-149 -51l-166 160l-166 -160z" />
<glyph unicode="&#xcb;" horiz-adv-x="997" d="M33 0v117l98 35v940l-98 32v117h913v-297h-227l-62 160h-202v-399h157l54 131h182v-402h-182l-54 121h-157v-418h211l73 182h226v-319h-932zM234 1560q0 64 26.5 94.5t81.5 30.5t82 -30.5t27 -94.5q0 -63 -27 -94t-82 -31t-81.5 31t-26.5 94zM543 1560q0 64 27 94.5 t82 30.5q54 0 81 -30.5t27 -94.5q0 -63 -27 -94t-81 -31q-55 0 -82 31t-27 94z" />
<glyph unicode="&#xcc;" horiz-adv-x="584" d="M31 0v117l98 35v940l-98 32v117h520v-117l-98 -32v-940l98 -35v-117h-520zM107 1642l252 62l190 -281l-172 -47z" />
<glyph unicode="&#xcd;" horiz-adv-x="584" d="M31 0v117l98 35v940l-98 32v117h520v-117l-98 -32v-940l98 -35v-117h-520zM107 1423l190 281l252 -62l-268 -266z" />
<glyph unicode="&#xce;" horiz-adv-x="584" d="M31 0v117l98 35v940l-98 32v117h520v-117l-98 -32v-940l98 -35v-117h-520zM-22 1427l223 277h184l221 -277l-149 -51l-166 160l-166 -160z" />
<glyph unicode="&#xcf;" horiz-adv-x="584" d="M31 0v117l98 35v940l-98 32v117h520v-117l-98 -32v-940l98 -35v-117h-520zM27 1560q0 64 26.5 94.5t81.5 30.5t82 -30.5t27 -94.5q0 -63 -27 -94t-82 -31t-81.5 31t-26.5 94zM336 1560q0 64 27 94.5t82 30.5q54 0 81 -30.5t27 -94.5q0 -63 -27 -94t-81 -31q-55 0 -82 31 t-27 94z" />
<glyph unicode="&#xd0;" horiz-adv-x="1247" d="M72 586v151h133v353l-99 34v117h496q299 0 455.5 -146.5t156.5 -424.5q0 -195 -58.5 -340.5t-170.5 -229.5q-72 -53 -168.5 -76.5t-257.5 -23.5h-453v117l99 35v434h-133zM528 152h62q147 0 215.5 116.5t68.5 366.5q0 243 -66 349t-218 106h-62v-353h172v-151h-172v-434z " />
<glyph unicode="&#xd1;" horiz-adv-x="1190" d="M35 0v117l98 35v940l-98 32v117h385l450 -768v617l-98 43v108h393v-106l-98 -45v-1090h-252l-483 817v-665l98 -35v-117h-395zM260 1548q71 77 119 107t94 30q51 0 134 -34.5t112 -34.5q26 0 54 16.5t63 52.5l92 -100q-71 -77 -119 -107t-94 -30q-48 0 -130 33.5 t-114 33.5q-28 0 -56.5 -16t-62.5 -51z" />
<glyph unicode="&#xd2;" horiz-adv-x="1165" d="M33 602q0 309 151 486.5t414 177.5q248 0 392.5 -167.5t144.5 -457.5q0 -308 -152.5 -486t-415.5 -178q-249 0 -391.5 167t-142.5 458zM373 621q0 -275 47 -379.5t162 -104.5q116 0 163.5 105.5t47.5 378.5q0 276 -47.5 380.5t-163.5 104.5t-162.5 -104t-46.5 -381z M398 1642l252 62l190 -281l-172 -47z" />
<glyph unicode="&#xd3;" horiz-adv-x="1165" d="M33 602q0 309 151 486.5t414 177.5q248 0 392.5 -167.5t144.5 -457.5q0 -308 -152.5 -486t-415.5 -178q-249 0 -391.5 167t-142.5 458zM373 621q0 -275 47 -379.5t162 -104.5q116 0 163.5 105.5t47.5 378.5q0 276 -47.5 380.5t-163.5 104.5t-162.5 -104t-46.5 -381z M398 1423l190 281l252 -62l-268 -266z" />
<glyph unicode="&#xd4;" horiz-adv-x="1165" d="M33 602q0 309 151 486.5t414 177.5q248 0 392.5 -167.5t144.5 -457.5q0 -308 -152.5 -486t-415.5 -178q-249 0 -391.5 167t-142.5 458zM373 621q0 -275 47 -379.5t162 -104.5q116 0 163.5 105.5t47.5 378.5q0 276 -47.5 380.5t-163.5 104.5t-162.5 -104t-46.5 -381z M269 1427l223 277h184l221 -277l-149 -51l-166 160l-166 -160z" />
<glyph unicode="&#xd5;" horiz-adv-x="1165" d="M33 602q0 309 151 486.5t414 177.5q248 0 392.5 -167.5t144.5 -457.5q0 -308 -152.5 -486t-415.5 -178q-249 0 -391.5 167t-142.5 458zM373 621q0 -275 47 -379.5t162 -104.5q116 0 163.5 105.5t47.5 378.5q0 276 -47.5 380.5t-163.5 104.5t-162.5 -104t-46.5 -381z M248 1548q71 77 119 107t94 30q51 0 134 -34.5t112 -34.5q26 0 54 16.5t63 52.5l92 -100q-71 -77 -119 -107t-94 -30q-48 0 -130 33.5t-114 33.5q-28 0 -56.5 -16t-62.5 -51z" />
<glyph unicode="&#xd6;" horiz-adv-x="1165" d="M33 602q0 309 151 486.5t414 177.5q248 0 392.5 -167.5t144.5 -457.5q0 -308 -152.5 -486t-415.5 -178q-249 0 -391.5 167t-142.5 458zM373 621q0 -275 47 -379.5t162 -104.5q116 0 163.5 105.5t47.5 378.5q0 276 -47.5 380.5t-163.5 104.5t-162.5 -104t-46.5 -381z M318 1560q0 64 26.5 94.5t81.5 30.5t82 -30.5t27 -94.5q0 -63 -27 -94t-82 -31t-81.5 31t-26.5 94zM627 1560q0 64 27 94.5t82 30.5q54 0 81 -30.5t27 -94.5q0 -63 -27 -94t-81 -31q-55 0 -82 31t-27 94z" />
<glyph unicode="&#xd7;" horiz-adv-x="1706" d="M268 170l441 440l-441 443l162 161l440 -440l441 440l162 -161l-441 -443l441 -440l-162 -162l-441 441l-440 -441z" />
<glyph unicode="&#xd8;" horiz-adv-x="1165" d="M33 -51l141 196q-69 81 -105 200t-36 269q0 300 152.5 476t412.5 176q86 0 167 -23.5t138 -64.5l125 178l98 -72l-131 -186q70 -91 105 -205.5t35 -251.5q0 -308 -152.5 -486t-415.5 -178q-89 0 -162.5 21.5t-138.5 64.5l-137 -192zM373 545q0 -23 1.5 -51t4.5 -65 l373 562q-19 55 -63.5 85t-106.5 30q-119 0 -164 -108t-45 -453zM412 260q15 -57 61 -90t109 -33q116 0 163.5 105.5t47.5 378.5q0 62 -2.5 111t-8.5 91z" />
<glyph unicode="&#xd9;" horiz-adv-x="1200" d="M18 1124v117h521v-117l-99 -32v-723q0 -112 53 -167t160 -55q108 0 157.5 53t49.5 169v723l-98 32v117h414v-106l-99 -43v-713q0 -205 -117.5 -308.5t-351.5 -103.5q-248 0 -369.5 102t-121.5 310v713zM414 1642l252 62l190 -281l-172 -47z" />
<glyph unicode="&#xda;" horiz-adv-x="1200" d="M18 1124v117h521v-117l-99 -32v-723q0 -112 53 -167t160 -55q108 0 157.5 53t49.5 169v723l-98 32v117h414v-106l-99 -43v-713q0 -205 -117.5 -308.5t-351.5 -103.5q-248 0 -369.5 102t-121.5 310v713zM414 1423l190 281l252 -62l-268 -266z" />
<glyph unicode="&#xdb;" horiz-adv-x="1200" d="M18 1124v117h521v-117l-99 -32v-723q0 -112 53 -167t160 -55q108 0 157.5 53t49.5 169v723l-98 32v117h414v-106l-99 -43v-713q0 -205 -117.5 -308.5t-351.5 -103.5q-248 0 -369.5 102t-121.5 310v713zM285 1427l223 277h184l221 -277l-149 -51l-166 160l-166 -160z" />
<glyph unicode="&#xdc;" horiz-adv-x="1200" d="M18 1124v117h521v-117l-99 -32v-723q0 -112 53 -167t160 -55q108 0 157.5 53t49.5 169v723l-98 32v117h414v-106l-99 -43v-713q0 -205 -117.5 -308.5t-351.5 -103.5q-248 0 -369.5 102t-121.5 310v713zM334 1560q0 64 26.5 94.5t81.5 30.5t82 -30.5t27 -94.5 q0 -63 -27 -94t-82 -31t-81.5 31t-26.5 94zM643 1560q0 64 27 94.5t82 30.5q54 0 81 -30.5t27 -94.5q0 -63 -27 -94t-81 -31q-55 0 -82 31t-27 94z" />
<glyph unicode="&#xdd;" horiz-adv-x="1133" d="M-14 1124v117h559v-117l-99 -32l185 -373l186 373l-98 32v117h434v-117l-102 -32l-320 -529v-411l127 -35v-117h-577v117l127 35v337l-324 603zM381 1423l190 281l252 -62l-268 -266z" />
<glyph unicode="&#xde;" horiz-adv-x="1038" d="M33 0v117l98 35v938l-98 34v117h518v-115l-96 -34v-88h104q222 0 325 -83.5t103 -261.5q0 -176 -112.5 -270t-323.5 -94h-96v-143l147 -35v-117h-569zM455 428h30q100 0 140.5 51t40.5 176q0 116 -38.5 165.5t-131.5 49.5h-41v-442z" />
<glyph unicode="&#xdf;" horiz-adv-x="1266" d="M25 0v117l98 35v798q0 242 113.5 338t394.5 96q244 0 365.5 -60t121.5 -181q0 -53 -32 -102t-93 -87l-139 -88q-33 -20 -48 -42.5t-15 -49.5q0 -50 79 -95l2 -1l203 -117q92 -53 134 -118t42 -150q0 -143 -102 -226t-281 -83q-68 0 -150.5 12t-193.5 39v239h242l76 -176 h14q47 0 76 28.5t29 74.5q0 32 -16 57t-48 45l-217 135q-78 49 -111.5 103t-33.5 131q0 53 19.5 99t63.5 97l93 107q28 33 41.5 66t13.5 69q0 63 -40.5 98t-113.5 35q-92 0 -132 -42.5t-40 -143.5v-1057h-415z" />
<glyph unicode="&#xe0;" horiz-adv-x="1034" d="M33 418q0 251 111.5 407t289.5 156q62 0 115.5 -16.5t107.5 -53.5l258 68v-815l99 -21v-118l-418 -45v106q-65 -53 -131.5 -81t-128.5 -28q-140 0 -221.5 118t-81.5 323zM367 430q0 -126 33 -192t98 -66q21 0 46 9t52 26v604q-16 8 -30 11t-31 3q-82 0 -125 -101.5 t-43 -293.5zM332 1337l252 62l190 -281l-172 -47z" />
<glyph unicode="&#xe1;" horiz-adv-x="1034" d="M33 418q0 251 111.5 407t289.5 156q62 0 115.5 -16.5t107.5 -53.5l258 68v-815l99 -21v-118l-418 -45v106q-65 -53 -131.5 -81t-128.5 -28q-140 0 -221.5 118t-81.5 323zM367 430q0 -126 33 -192t98 -66q21 0 46 9t52 26v604q-16 8 -30 11t-31 3q-82 0 -125 -101.5 t-43 -293.5zM332 1118l190 281l252 -62l-268 -266z" />
<glyph unicode="&#xe2;" horiz-adv-x="1034" d="M33 418q0 251 111.5 407t289.5 156q62 0 115.5 -16.5t107.5 -53.5l258 68v-815l99 -21v-118l-418 -45v106q-65 -53 -131.5 -81t-128.5 -28q-140 0 -221.5 118t-81.5 323zM367 430q0 -126 33 -192t98 -66q21 0 46 9t52 26v604q-16 8 -30 11t-31 3q-82 0 -125 -101.5 t-43 -293.5zM203 1122l223 277h184l221 -277l-149 -51l-166 160l-166 -160z" />
<glyph unicode="&#xe3;" horiz-adv-x="1034" d="M33 418q0 251 111.5 407t289.5 156q62 0 115.5 -16.5t107.5 -53.5l258 68v-815l99 -21v-118l-418 -45v106q-65 -53 -131.5 -81t-128.5 -28q-140 0 -221.5 118t-81.5 323zM367 430q0 -126 33 -192t98 -66q21 0 46 9t52 26v604q-16 8 -30 11t-31 3q-82 0 -125 -101.5 t-43 -293.5zM182 1243q71 77 119 107t94 30q51 0 134 -34.5t112 -34.5q26 0 54 16.5t63 52.5l92 -100q-71 -77 -119 -107t-94 -30q-48 0 -130 33.5t-114 33.5q-28 0 -56.5 -16t-62.5 -51z" />
<glyph unicode="&#xe4;" horiz-adv-x="1034" d="M33 418q0 251 111.5 407t289.5 156q62 0 115.5 -16.5t107.5 -53.5l258 68v-815l99 -21v-118l-418 -45v106q-65 -53 -131.5 -81t-128.5 -28q-140 0 -221.5 118t-81.5 323zM367 430q0 -126 33 -192t98 -66q21 0 46 9t52 26v604q-16 8 -30 11t-31 3q-82 0 -125 -101.5 t-43 -293.5zM252 1255q0 64 26.5 94.5t81.5 30.5t82 -30.5t27 -94.5q0 -63 -27 -94t-82 -31t-81.5 31t-26.5 94zM561 1255q0 64 27 94.5t82 30.5q54 0 81 -30.5t27 -94.5q0 -63 -27 -94t-81 -31q-55 0 -82 31t-27 94z" />
<glyph unicode="&#xe5;" horiz-adv-x="1034" d="M33 418q0 251 111.5 407t289.5 156q62 0 115.5 -16.5t107.5 -53.5l258 68v-815l99 -21v-118l-418 -45v106q-65 -53 -131.5 -81t-128.5 -28q-140 0 -221.5 118t-81.5 323zM252 1319q0 114 79 193t193 79t193.5 -79t79.5 -193t-79.5 -193t-193.5 -79q-115 0 -193.5 78.5 t-78.5 193.5zM367 430q0 -126 33 -192t98 -66q21 0 46 9t52 26v604q-16 8 -30 11t-31 3q-82 0 -125 -101.5t-43 -293.5zM395 1319q0 -54 38 -91.5t91 -37.5t91 38t38 91t-38 91t-91 38t-91 -37.5t-38 -91.5z" />
<glyph unicode="&#xe6;" horiz-adv-x="1356" d="M29 268q0 157 113 229t358 72h55v136q0 86 -23 116.5t-83 30.5q-16 0 -23.5 -0.5t-15.5 -1.5l-48 -150h-253v187q88 47 182.5 72.5t179.5 25.5q92 0 156 -19t106 -59q66 38 138.5 57t154.5 19q147 0 226 -65t79 -185q0 -143 -104 -211.5t-320 -68.5q-9 0 -28 1t-29 1v-19 l-1 -4q-1 -9 -1 -18q0 -122 70 -191t194 -69q47 0 97.5 5.5t105.5 16.5v-131q-82 -31 -168.5 -47t-173.5 -16q-96 0 -174.5 27.5t-136.5 80.5q-59 -55 -141 -85t-177 -30q-147 0 -231 78.5t-84 214.5zM344 289q0 -65 33.5 -102t91.5 -37q20 0 41.5 4.5t44.5 13.5v286 q-113 -4 -162 -42.5t-49 -122.5zM848 623q0 -16 1 -33.5t1 -20.5h24q86 0 128 46.5t42 140.5q0 51 -19.5 76.5t-59.5 25.5q-56 0 -86.5 -61t-30.5 -174z" />
<glyph unicode="&#xe7;" horiz-adv-x="844" d="M33 430q0 264 127.5 407.5t361.5 143.5q68 0 142.5 -13t160.5 -40v-228h-223l-67 162q-3 0 -10 1t-11 1q-67 0 -111.5 -104.5t-44.5 -274.5q0 -169 68 -253.5t205 -84.5q37 0 83 6.5t111 20.5v-133q-87 -33 -172 -49.5t-168 -16.5q-226 0 -339 114t-113 341zM366 -342 q58 23 86.5 52.5t28.5 66.5q0 29 -19.5 47t-54.5 23v153h133v-76q58 -4 95.5 -44.5t37.5 -96.5q0 -93 -72 -153t-204 -76z" />
<glyph unicode="&#xe8;" horiz-adv-x="868" d="M33 434q0 265 130.5 407t373.5 142q143 0 224 -67t81 -185q0 -143 -103 -211.5t-319 -68.5q-9 0 -29 1t-31 1v-23q0 -137 67.5 -208.5t195.5 -71.5q50 0 99.5 6t102.5 18v-131q-84 -33 -173.5 -49.5t-184.5 -16.5q-218 0 -326 114t-108 343zM360 567h19q92 0 134 45 t42 142q0 52 -20 78t-60 26q-57 0 -86 -61t-29 -181v-49zM248 1337l252 62l190 -281l-172 -47z" />
<glyph unicode="&#xe9;" horiz-adv-x="868" d="M33 434q0 265 130.5 407t373.5 142q143 0 224 -67t81 -185q0 -143 -103 -211.5t-319 -68.5q-9 0 -29 1t-31 1v-23q0 -137 67.5 -208.5t195.5 -71.5q50 0 99.5 6t102.5 18v-131q-84 -33 -173.5 -49.5t-184.5 -16.5q-218 0 -326 114t-108 343zM360 567h19q92 0 134 45 t42 142q0 52 -20 78t-60 26q-57 0 -86 -61t-29 -181v-49zM248 1118l190 281l252 -62l-268 -266z" />
<glyph unicode="&#xea;" horiz-adv-x="868" d="M33 434q0 265 130.5 407t373.5 142q143 0 224 -67t81 -185q0 -143 -103 -211.5t-319 -68.5q-9 0 -29 1t-31 1v-23q0 -137 67.5 -208.5t195.5 -71.5q50 0 99.5 6t102.5 18v-131q-84 -33 -173.5 -49.5t-184.5 -16.5q-218 0 -326 114t-108 343zM360 567h19q92 0 134 45 t42 142q0 52 -20 78t-60 26q-57 0 -86 -61t-29 -181v-49zM119 1122l223 277h184l221 -277l-149 -51l-166 160l-166 -160z" />
<glyph unicode="&#xeb;" horiz-adv-x="868" d="M33 434q0 265 130.5 407t373.5 142q143 0 224 -67t81 -185q0 -143 -103 -211.5t-319 -68.5q-9 0 -29 1t-31 1v-23q0 -137 67.5 -208.5t195.5 -71.5q50 0 99.5 6t102.5 18v-131q-84 -33 -173.5 -49.5t-184.5 -16.5q-218 0 -326 114t-108 343zM360 567h19q92 0 134 45 t42 142q0 52 -20 78t-60 26q-57 0 -86 -61t-29 -181v-49zM168 1255q0 64 26.5 94.5t81.5 30.5t82 -30.5t27 -94.5q0 -63 -27 -94t-82 -31t-81.5 31t-26.5 94zM477 1255q0 64 27 94.5t82 30.5q54 0 81 -30.5t27 -94.5q0 -63 -27 -94t-81 -31q-55 0 -82 31t-27 94z" />
<glyph unicode="&#xec;" horiz-adv-x="569" d="M33 819v117l418 45v-829l98 -35v-117h-514v117l98 35v645zM99 1337l252 62l190 -281l-172 -47z" />
<glyph unicode="&#xed;" horiz-adv-x="569" d="M33 819v117l418 45v-829l98 -35v-117h-514v117l98 35v645zM99 1118l190 281l252 -62l-268 -266z" />
<glyph unicode="&#xee;" horiz-adv-x="569" d="M33 819v117l418 45v-829l98 -35v-117h-514v117l98 35v645zM-30 1122l223 277h184l221 -277l-149 -51l-166 160l-166 -160z" />
<glyph unicode="&#xef;" horiz-adv-x="569" d="M33 819v117l418 45v-829l98 -35v-117h-514v117l98 35v645zM19 1255q0 64 26.5 94.5t81.5 30.5t82 -30.5t27 -94.5q0 -63 -27 -94t-82 -31t-81.5 31t-26.5 94zM328 1255q0 64 27 94.5t82 30.5q54 0 81 -30.5t27 -94.5q0 -63 -27 -94t-81 -31q-55 0 -82 31t-27 94z" />
<glyph unicode="&#xf0;" horiz-adv-x="985" d="M57 438q0 243 113.5 377.5t316.5 134.5q28 0 48.5 -3t39.5 -9q-22 53 -45 101t-47 91l-237 -96l-41 121l212 87q-11 19 -30 47t-45 65l125 73q35 -39 62.5 -70t50.5 -54l233 96l47 -117l-203 -86q142 -210 207.5 -382.5t65.5 -334.5q0 -233 -118 -369.5t-318 -136.5 q-208 0 -322.5 122t-114.5 343zM375 485q0 -210 26.5 -289t92.5 -79t93 78.5t27 277.5q0 183 -27.5 258.5t-92.5 75.5q-64 0 -91.5 -73.5t-27.5 -248.5z" />
<glyph unicode="&#xf1;" horiz-adv-x="1100" d="M33 0v117l100 35v645l-100 22v117l418 45v-109q75 55 147.5 84t134.5 29q119 0 183.5 -63.5t64.5 -180.5v-589l98 -35v-117h-415v698q0 39 -26 64.5t-65 25.5q-29 0 -59 -8.5t-63 -27.5v-600l98 -35v-117h-516zM215 1243q71 77 119 107t94 30q51 0 134 -34.5t112 -34.5 q26 0 54 16.5t63 52.5l92 -100q-71 -77 -119 -107t-94 -30q-48 0 -130 33.5t-114 33.5q-28 0 -56.5 -16t-62.5 -51z" />
<glyph unicode="&#xf2;" horiz-adv-x="985" d="M33 453q0 253 121.5 390.5t345.5 137.5q220 0 336 -125t116 -362q0 -241 -124 -381t-336 -140q-217 0 -338 126.5t-121 353.5zM367 506q0 -223 28 -304t99 -81q69 0 98 81.5t29 286.5q0 191 -29 268t-98 77q-67 0 -97 -77.5t-30 -250.5zM308 1337l252 62l190 -281 l-172 -47z" />
<glyph unicode="&#xf3;" horiz-adv-x="985" d="M33 453q0 253 121.5 390.5t345.5 137.5q220 0 336 -125t116 -362q0 -241 -124 -381t-336 -140q-217 0 -338 126.5t-121 353.5zM367 506q0 -223 28 -304t99 -81q69 0 98 81.5t29 286.5q0 191 -29 268t-98 77q-67 0 -97 -77.5t-30 -250.5zM308 1118l190 281l252 -62 l-268 -266z" />
<glyph unicode="&#xf4;" horiz-adv-x="985" d="M33 453q0 253 121.5 390.5t345.5 137.5q220 0 336 -125t116 -362q0 -241 -124 -381t-336 -140q-217 0 -338 126.5t-121 353.5zM367 506q0 -223 28 -304t99 -81q69 0 98 81.5t29 286.5q0 191 -29 268t-98 77q-67 0 -97 -77.5t-30 -250.5zM179 1122l223 277h184l221 -277 l-149 -51l-166 160l-166 -160z" />
<glyph unicode="&#xf5;" horiz-adv-x="985" d="M33 453q0 253 121.5 390.5t345.5 137.5q220 0 336 -125t116 -362q0 -241 -124 -381t-336 -140q-217 0 -338 126.5t-121 353.5zM367 506q0 -223 28 -304t99 -81q69 0 98 81.5t29 286.5q0 191 -29 268t-98 77q-67 0 -97 -77.5t-30 -250.5zM158 1243q71 77 119 107t94 30 q51 0 134 -34.5t112 -34.5q26 0 54 16.5t63 52.5l92 -100q-71 -77 -119 -107t-94 -30q-48 0 -130 33.5t-114 33.5q-28 0 -56.5 -16t-62.5 -51z" />
<glyph unicode="&#xf6;" horiz-adv-x="985" d="M33 453q0 253 121.5 390.5t345.5 137.5q220 0 336 -125t116 -362q0 -241 -124 -381t-336 -140q-217 0 -338 126.5t-121 353.5zM367 506q0 -223 28 -304t99 -81q69 0 98 81.5t29 286.5q0 191 -29 268t-98 77q-67 0 -97 -77.5t-30 -250.5zM228 1255q0 64 26.5 94.5 t81.5 30.5t82 -30.5t27 -94.5q0 -63 -27 -94t-82 -31t-81.5 31t-26.5 94zM537 1255q0 64 27 94.5t82 30.5q54 0 81 -30.5t27 -94.5q0 -63 -27 -94t-81 -31q-55 0 -82 31t-27 94z" />
<glyph unicode="&#xf7;" horiz-adv-x="1706" d="M254 496v231h1198v-231h-1198zM688 205q0 68 49 117t117 49t116 -48.5t48 -117.5q0 -68 -47.5 -116t-116.5 -48t-117.5 48t-48.5 116zM688 1016q0 68 49 117t117 49q67 0 115.5 -49t48.5 -117t-48.5 -116t-117.5 -48t-116.5 48t-47.5 116z" />
<glyph unicode="&#xf8;" horiz-adv-x="985" d="M33 453q0 253 121.5 390.5t345.5 137.5q63 0 120.5 -11t110.5 -34l103 147l104 -77l-102 -148q58 -61 87 -152.5t29 -211.5q0 -241 -124 -381t-336 -140q-72 0 -131 13.5t-111 42.5l-98 -144l-105 82l98 144q-58 68 -85 150.5t-27 191.5zM367 479q0 -34 0.5 -52t1.5 -33 l223 356q-11 41 -35.5 62.5t-62.5 21.5q-69 0 -98 -80.5t-29 -274.5zM394 216q9 -47 34.5 -71t65.5 -24q69 0 98 80.5t29 287.5q0 18 -1 39t-2 43z" />
<glyph unicode="&#xf9;" horiz-adv-x="1081" d="M16 821v119l416 45v-706q0 -60 20 -87.5t62 -27.5q16 0 37 3t41 9q10 3 23 8.5t30 14.5v589l-98 33v119l416 45v-809l94 -33v-118l-412 -41v96q-69 -56 -145.5 -85.5t-153.5 -29.5q-109 0 -170 62t-61 174v587zM344 1337l252 62l190 -281l-172 -47z" />
<glyph unicode="&#xfa;" horiz-adv-x="1081" d="M16 821v119l416 45v-706q0 -60 20 -87.5t62 -27.5q16 0 37 3t41 9q10 3 23 8.5t30 14.5v589l-98 33v119l416 45v-809l94 -33v-118l-412 -41v96q-69 -56 -145.5 -85.5t-153.5 -29.5q-109 0 -170 62t-61 174v587zM344 1118l190 281l252 -62l-268 -266z" />
<glyph unicode="&#xfb;" horiz-adv-x="1081" d="M16 821v119l416 45v-706q0 -60 20 -87.5t62 -27.5q16 0 37 3t41 9q10 3 23 8.5t30 14.5v589l-98 33v119l416 45v-809l94 -33v-118l-412 -41v96q-69 -56 -145.5 -85.5t-153.5 -29.5q-109 0 -170 62t-61 174v587zM215 1122l223 277h184l221 -277l-149 -51l-166 160 l-166 -160z" />
<glyph unicode="&#xfc;" horiz-adv-x="1081" d="M16 821v119l416 45v-706q0 -60 20 -87.5t62 -27.5q16 0 37 3t41 9q10 3 23 8.5t30 14.5v589l-98 33v119l416 45v-809l94 -33v-118l-412 -41v96q-69 -56 -145.5 -85.5t-153.5 -29.5q-109 0 -170 62t-61 174v587zM264 1255q0 64 26.5 94.5t81.5 30.5t82 -30.5t27 -94.5 q0 -63 -27 -94t-82 -31t-81.5 31t-26.5 94zM573 1255q0 64 27 94.5t82 30.5q54 0 81 -30.5t27 -94.5q0 -63 -27 -94t-81 -31q-55 0 -82 31t-27 94z" />
<glyph unicode="&#xfd;" horiz-adv-x="963" d="M-14 850v117h512v-117l-99 -33l154 -495l129 495l-98 33v117h368v-117l-69 -33l-328 -1003q-43 -133 -111 -184.5t-194 -51.5q-57 0 -108.5 12.5t-78.5 32.5v217h211l35 -96h10q17 0 29.5 11.5t20.5 34.5l30 99l-346 928zM295 1118l190 281l252 -62l-268 -266z" />
<glyph unicode="&#xfe;" horiz-adv-x="1018" d="M4 -307l98 35v1474l-98 21v116l416 45v-507q64 52 132 80t130 28q140 0 220.5 -116.5t80.5 -319.5q0 -250 -112 -405.5t-289 -155.5q-54 0 -93 8.5t-69 26.5v-295l133 -35v-117h-549v117zM420 156q15 -8 30 -11.5t31 -3.5q84 0 127 103.5t43 304.5q0 119 -33 181.5 t-96 62.5q-21 0 -46.5 -9.5t-55.5 -27.5v-600z" />
<glyph unicode="&#xff;" horiz-adv-x="963" d="M-14 850v117h512v-117l-99 -33l154 -495l129 495l-98 33v117h368v-117l-69 -33l-328 -1003q-43 -133 -111 -184.5t-194 -51.5q-57 0 -108.5 12.5t-78.5 32.5v217h211l35 -96h10q17 0 29.5 11.5t20.5 34.5l30 99l-346 928zM215 1255q0 64 26.5 94.5t81.5 30.5t82 -30.5 t27 -94.5q0 -63 -27 -94t-82 -31t-81.5 31t-26.5 94zM524 1255q0 64 27 94.5t82 30.5q54 0 81 -30.5t27 -94.5q0 -63 -27 -94t-81 -31q-55 0 -82 31t-27 94z" />
<glyph unicode="&#x131;" horiz-adv-x="569" d="M33 819v117l418 45v-829l98 -35v-117h-514v117l98 35v645z" />
<glyph unicode="&#x152;" horiz-adv-x="1599" d="M33 602q0 304 149.5 484t399.5 180q42 0 88.5 -6.5t97.5 -18.5h774v-295h-225l-62 158h-204v-399h147l53 131h195v-404h-195l-53 123h-147v-418h213l73 182h224v-319h-811q-51 -12 -96 -18.5t-85 -6.5q-249 0 -392.5 168t-143.5 459zM375 621q0 -275 47 -379.5 t162 -104.5q56 0 93 23.5t62 75.5v776q-24 47 -62.5 70.5t-92.5 23.5q-116 0 -162.5 -104t-46.5 -381z" />
<glyph unicode="&#x153;" horiz-adv-x="1421" d="M33 465q0 245 122.5 380.5t344.5 135.5q80 0 149.5 -22.5t132.5 -69.5q68 47 144.5 70.5t165.5 23.5q146 0 225.5 -65t79.5 -185q0 -143 -104 -211.5t-320 -68.5q-9 0 -28 1t-30 1q0 -7 -1 -16q-1 -2 -1 -3q0 -139 66.5 -210.5t196.5 -71.5q54 0 104.5 5.5t99.5 16.5 v-131q-82 -31 -168.5 -47t-173.5 -16q-98 0 -170.5 19t-122.5 58q-53 -41 -126 -63.5t-154 -22.5q-201 0 -316.5 131t-115.5 361zM367 479q0 -219 28 -301t99 -82q69 0 98 86.5t29 306.5q0 213 -28.5 293t-98.5 80t-98.5 -82t-28.5 -301zM913 573l2 5v-9h25q86 0 128 46.5 t42 140.5q0 51 -20 76.5t-60 25.5q-61 0 -89 -68t-28 -217z" />
<glyph unicode="&#x178;" horiz-adv-x="1133" d="M-14 1124v117h559v-117l-99 -32l185 -373l186 373l-98 32v117h434v-117l-102 -32l-320 -529v-411l127 -35v-117h-577v117l127 35v337l-324 603zM301 1560q0 64 26.5 94.5t81.5 30.5t82 -30.5t27 -94.5q0 -63 -27 -94t-82 -31t-81.5 31t-26.5 94zM610 1560q0 64 27 94.5 t82 30.5q54 0 81 -30.5t27 -94.5q0 -63 -27 -94t-81 -31q-55 0 -82 31t-27 94z" />
<glyph unicode="&#x2c6;" d="M197 1122l223 277h184l221 -277l-149 -51l-166 160l-166 -160z" />
<glyph unicode="&#x2dc;" d="M176 1243q71 77 119 107t94 30q51 0 134 -34.5t112 -34.5q26 0 54 16.5t63 52.5l92 -100q-71 -77 -119 -107t-94 -30q-48 0 -130 33.5t-114 33.5q-28 0 -56.5 -16t-62.5 -51z" />
<glyph unicode="&#x2000;" horiz-adv-x="925" />
<glyph unicode="&#x2001;" horiz-adv-x="1851" />
<glyph unicode="&#x2002;" horiz-adv-x="925" />
<glyph unicode="&#x2003;" horiz-adv-x="1851" />
<glyph unicode="&#x2004;" horiz-adv-x="617" />
<glyph unicode="&#x2005;" horiz-adv-x="462" />
<glyph unicode="&#x2006;" horiz-adv-x="308" />
<glyph unicode="&#x2007;" horiz-adv-x="308" />
<glyph unicode="&#x2008;" horiz-adv-x="231" />
<glyph unicode="&#x2009;" horiz-adv-x="370" />
<glyph unicode="&#x200a;" horiz-adv-x="102" />
<glyph unicode="&#x2010;" horiz-adv-x="426" d="M31 399v219h366v-219h-366z" />
<glyph unicode="&#x2011;" horiz-adv-x="426" d="M31 399v219h366v-219h-366z" />
<glyph unicode="&#x2012;" horiz-adv-x="426" d="M31 399v219h366v-219h-366z" />
<glyph unicode="&#x2013;" d="M0 428v164h1024v-164h-1024z" />
<glyph unicode="&#x2014;" horiz-adv-x="2048" d="M-14 428v164h2076v-164h-2076z" />
<glyph unicode="&#x2018;" horiz-adv-x="465" d="M57 946q0 109 56.5 194t156.5 126l95 -101q-49 -31 -72 -66.5t-23 -78.5v-6h15q59 0 93 -33t34 -90q0 -65 -43.5 -101t-122.5 -36q-98 0 -143.5 46t-45.5 146z" />
<glyph unicode="&#x2019;" horiz-adv-x="465" d="M57 1128q0 65 44.5 101.5t123.5 36.5q96 0 141.5 -45.5t45.5 -141.5q0 -113 -55.5 -197.5t-157.5 -127.5l-93 100q48 32 71.5 66t23.5 71v15h-15q-59 0 -94 32.5t-35 89.5z" />
<glyph unicode="&#x201a;" horiz-adv-x="436" d="M57 117q0 64 44 99.5t124 35.5q96 0 141.5 -45t45.5 -139q0 -113 -55.5 -198t-157.5 -128l-93 98q47 31 71 66.5t24 73.5v14q-5 0 -9.5 -1t-5.5 -1q-59 0 -94 33.5t-35 91.5z" />
<glyph unicode="&#x201c;" horiz-adv-x="877" d="M57 946q0 109 56.5 194t156.5 126l92 -101q-48 -31 -71 -66.5t-23 -78.5v-6h17q59 0 93 -33t34 -90q0 -65 -44.5 -101t-123.5 -36q-98 0 -142.5 46t-44.5 146zM471 946q0 109 56.5 194t156.5 126l92 -101q-48 -29 -71 -65t-23 -80v-6h16q60 0 93.5 -33t33.5 -90 q0 -65 -44 -101t-124 -36q-97 0 -141.5 46t-44.5 146z" />
<glyph unicode="&#x201d;" horiz-adv-x="877" d="M57 1128q0 66 43.5 102t122.5 36q96 0 142.5 -46t46.5 -141q0 -113 -55.5 -197.5t-157.5 -127.5l-93 100q47 31 70 65t23 72v15h-15q-59 0 -93 32.5t-34 89.5zM471 1128q0 66 43.5 102t122.5 36q96 0 142 -46t46 -141q0 -113 -55 -197.5t-158 -127.5l-94 100q48 32 71 66 t23 71v15h-14q-59 0 -93 32.5t-34 89.5z" />
<glyph unicode="&#x201e;" horiz-adv-x="877" d="M57 117q0 64 44 99.5t124 35.5q96 0 141.5 -45t45.5 -139q0 -113 -55.5 -198t-157.5 -128l-93 98q47 31 71 66.5t24 73.5v14q-5 0 -9.5 -1t-5.5 -1q-59 0 -94 33.5t-35 91.5zM500 117q0 65 43 100t123 35q96 0 142 -45t46 -139q0 -113 -55.5 -198t-157.5 -128l-94 98 q46 29 70 65t24 75v12v2q-4 0 -9 -1l-5 -1q-59 0 -93 33.5t-34 91.5z" />
<glyph unicode="&#x2022;" horiz-adv-x="1208" d="M307 762q0 123 87 209t210 86q122 0 208.5 -86.5t86.5 -208.5t-87.5 -209.5t-209.5 -87.5q-123 0 -209 87t-86 210z" />
<glyph unicode="&#x2026;" horiz-adv-x="2048" d="M184 113q0 72 43 105.5t136 33.5q92 0 135 -33.5t43 -105.5q0 -73 -43.5 -107.5t-134.5 -34.5q-92 0 -135.5 34.5t-43.5 107.5zM866 113q0 72 43 105.5t136 33.5q92 0 135 -33.5t43 -105.5q0 -73 -43.5 -107.5t-134.5 -34.5q-92 0 -135.5 34.5t-43.5 107.5zM1550 113 q0 72 43 105.5t136 33.5q92 0 135 -33.5t43 -105.5q0 -73 -43.5 -107.5t-134.5 -34.5q-92 0 -135.5 34.5t-43.5 107.5z" />
<glyph unicode="&#x202f;" horiz-adv-x="370" />
<glyph unicode="&#x2039;" horiz-adv-x="446" d="M33 506l166 352h190l-86 -352l86 -352h-190z" />
<glyph unicode="&#x203a;" horiz-adv-x="446" d="M57 154l86 352l-86 350h189l166 -350l-166 -352h-189z" />
<glyph unicode="&#x205f;" horiz-adv-x="462" />
<glyph unicode="&#x2122;" horiz-adv-x="1683" d="M217 1262l12 198h457l12 -198h-36q-7 79 -38 116t-92 37v-420q0 -21 8 -33.5t24 -15.5l30 -6v-33h-272v33l30 6q15 3 23 15.5t8 33.5v420h-4q-58 0 -89.5 -38t-37.5 -115h-35zM745 907v33l35 6q18 4 26.5 16t8.5 33v375q0 21 -9 33.5t-25 15.5l-36 6v35h222l127 -356 l123 356h206v-26l-22 -7q-19 -4 -27 -15t-8 -34v-383q0 -22 8 -33t27 -16l22 -6v-33h-260v33l30 6q18 3 27 15.5t9 33.5v355l-148 -445h-43l-166 457v-367q0 -22 9 -34t27 -15l34 -6v-33h-197z" />
<glyph unicode="&#xe000;" horiz-adv-x="965" d="M0 965h965v-965h-965v965z" />
<glyph unicode="&#xfb01;" horiz-adv-x="1171" d="M635 819v117l418 45v-829l98 -35v-117h-514v117l98 35v645zM706 1225q0 71 41.5 101t145.5 30q102 0 143 -30t41 -101t-41.5 -101t-142.5 -30q-104 0 -145.5 29.5t-41.5 101.5zM33 0v117l98 35v669h-98v146h98v104q0 152 105 232.5t303 80.5q77 0 151.5 -12t143.5 -37 v-205h-213l-60 134q-7 1 -13 1.5t-16 0.5q-46 0 -64.5 -29t-18.5 -109v-161h176v-146h-176v-669l133 -35v-117h-549z" />
<glyph unicode="&#xfb02;" horiz-adv-x="1165" d="M631 0v117l98 35v1050l-98 21v116l417 45v-1232l99 -35v-117h-516zM33 0v117l98 35v669h-98v146h98v104q0 152 105 232.5t303 80.5q77 0 151.5 -12t143.5 -37v-205h-213l-60 134q-7 1 -13 1.5t-16 0.5q-46 0 -64.5 -29t-18.5 -109v-161h176v-146h-176v-669l133 -35v-117 h-549z" />
<glyph unicode="&#xfb03;" horiz-adv-x="1773" d="M1237 819v117l418 45v-829l98 -35v-117h-514v117l98 35v645zM1308 1225q0 71 41.5 101t145.5 30q102 0 143 -30t41 -101t-41.5 -101t-142.5 -30q-104 0 -145.5 29.5t-41.5 101.5zM635 0v117l98 35v669h-98v146h98v104q0 152 105 232.5t303 80.5q77 0 151.5 -12t143.5 -37 v-205h-213l-60 134q-7 1 -13 1.5t-16 0.5q-46 0 -64.5 -29t-18.5 -109v-161h176v-146h-176v-669l133 -35v-117h-549zM33 0v117l98 35v669h-98v146h98v104q0 152 105 232.5t303 80.5q77 0 151.5 -12t143.5 -37v-205h-213l-60 134q-7 1 -13 1.5t-16 0.5q-46 0 -64.5 -29 t-18.5 -109v-161h176v-146h-176v-669l133 -35v-117h-549z" />
<glyph unicode="&#xfb04;" horiz-adv-x="1767" d="M1233 0v117l98 35v1050l-98 21v116l417 45v-1232l99 -35v-117h-516zM635 0v117l98 35v669h-98v146h98v104q0 152 105 232.5t303 80.5q77 0 151.5 -12t143.5 -37v-205h-213l-60 134q-7 1 -13 1.5t-16 0.5q-46 0 -64.5 -29t-18.5 -109v-161h176v-146h-176v-669l133 -35 v-117h-549zM33 0v117l98 35v669h-98v146h98v104q0 152 105 232.5t303 80.5q77 0 151.5 -12t143.5 -37v-205h-213l-60 134q-7 1 -13 1.5t-16 0.5q-46 0 -64.5 -29t-18.5 -109v-161h176v-146h-176v-669l133 -35v-117h-549z" />
</font>
</defs>
</svg>
